#TITLE:Vifta med Handerna;
#SUBTITLE:;
#ARTIST:Basshunter vs. Patrik Och Lillen;
#TITLETRANSLIT:;
#SUBTITLETRANSLIT:;
#ARTISTTRANSLIT:;
#GENRE:Techno;
#CREDIT:Sync by HellRazor;
#BANNER:Vifta med Handerna-bn.png;
#BACKGROUND:Vifta med Handerna-bg.png;
#LYRICSPATH:;
#CDTITLE:;
#MUSIC:Vifta med Handerna.ogg;
#OFFSET:0.012;
#SAMPLESTART:43.311;
#SAMPLELENGTH:12.000;
#SELECTABLE:YES;
#BPMS:0.000=137.598;
#STOPS:;
#BGCHANGES:0.000=Vifta med Handerna-bg.png=1.000=0=0=1=====,
12.000=In The Groove Rebirth/205_JB_HD.mpg=1.000=0=0=1=====,
28.000=In The Groove Rebirth/257_JB_HD.mpg=1.000=0=0=1=====,
44.000=In The Groove Rebirth/263_JB_HD.mpg=1.000=0=0=1=====,
60.000=In The Groove Rebirth/1144_JumpBack.mpg=1.000=0=0=1=====,
76.000=In The Groove Rebirth/314_JB_HD.mpg=1.000=0=0=1=====,
92.000=In The Groove Rebirth/255_JB_HD.mpg=1.000=0=0=1=====,
108.000=In The Groove Rebirth/205_JB_HD.mpg=1.000=0=0=1=====,
124.000=In The Groove Rebirth/1154_JumpBack.mpg=1.000=0=0=1=====,
140.000=In The Groove Rebirth/263_JB_HD.mpg=1.000=0=0=1=====,
142.000=In The Groove Rebirth/255_JB_HD.mpg=1.000=0=0=1=====,
144.000=In The Groove Rebirth/257_JB_HD.mpg=1.000=0=0=1=====,
146.000=In The Groove Rebirth/1144_JumpBack.mpg=1.000=0=0=1=====,
148.000=In The Groove Rebirth/314_JB_HD.mpg=1.000=0=0=1=====,
152.500=In The Groove Rebirth/314_JB_HD.mpg=1.000=0=0=1=SongBgWithMovieViz====,
153.000=In The Groove Rebirth/314_JB_HD.mpg=1.000=0=0=1=====,
153.500=In The Groove Rebirth/314_JB_HD.mpg=1.000=0=0=1=SongBgWithMovieViz====,
154.000=In The Groove Rebirth/314_JB_HD.mpg=1.000=0=0=1=====,
154.500=In The Groove Rebirth/314_JB_HD.mpg=1.000=0=0=1=SongBgWithMovieViz====,
155.000=In The Groove Rebirth/314_JB_HD.mpg=1.000=0=0=1=====,
155.500=In The Groove Rebirth/314_JB_HD.mpg=1.000=0=0=1=SongBgWithMovieViz====,
156.000=Vifta med Handerna-bg.png=1.000=0=0=1=====,
160.500=Vifta med Handerna-bg.png=1.000=0=0=1====1^0^0^1=,
161.500=Vifta med Handerna-bg.png=1.000=0=0=1=====,
162.500=Vifta med Handerna-bg.png=1.000=0=0=1====0^0^1^1=,
163.500=Vifta med Handerna-bg.png=1.000=0=0=1=====,
164.000=In The Groove Rebirth/207_JB_HD.mpg=1.000=0=0=1=====,
180.000=In The Groove Rebirth/255_JB_HD.mpg=1.000=0=0=1=====,
200.000=In The Groove Rebirth/1154_JumpBack.mpg=1.000=0=0=1=====,
216.000=In The Groove Rebirth/257_JB_HD.mpg=1.000=0=0=1=====,
232.000=Vifta med Handerna-bg.png=1.000=0=0=1=====,
99999=-nosongbg-=1.000=0=0=0 // don't automatically add -songbackground-
;
#BGCHANGES2:76.000=white flash=0.200=0=0=1=====,
123.500=white flash=0.200=0=0=1=====,
156.000=white flash=1.000=0=0=1=====,
232.000=white flash=1.000=0=0=1=====,
;
#KEYSOUNDS:;

//---------------dance-single - W. Hodge----------------
#NOTES:
     dance-single:
     W. Hodge:
     Challenge:
     10:
     0.925,0.000,0.019,0.265,1.000:
0000
0000
0000
0000
,
0000
0000
0000
0000
,
0000
0000
0000
0000
,
1000
0000
0001
0000
1000
0100
0010
0001
0100
0000
0010
1000
0001
0010
0100
0000
,
1000
0100
1000
0001
0100
0001
1000
0010
1000
0001
0010
0000
0001
0010
0100
0000
,
1000
0000
0000
0010
0000
0000
0100
0000
0000
0010
0000
0000
1000
0000
0000
0000
0000
0000
0010
0000
0000
0100
0000
0000
0001
0000
0000
0000
0010
0000
0000
0000
0100
0000
0000
0000
1000
0000
0000
0000
0000
0000
0020
0000
0000
1030
0000
0000
,
0001
0010
0100
0000
1000
0000
0010
0100
0001
1000
0100
0000
0010
0001
0010
0000
,
0000
0100
1000
0010
0100
0001
0010
0100
1000
0010
0100
0001
0010
0100
0000
0000
,
1000
0000
0000
0010
0000
1000
0000
0000
0000
0000
0010
0000
0100
0000
0001
0000
0010
0000
0100
0000
1000
0000
0000
0000
,
0010
0000
0000
0100
0000
0000
0001
0000
0000
0000
0000
0000
0010
0000
0000
0000
0000
0000
0100
0000
0000
1000
0000
0000
0100
0000
0000
0000
0010
0000
0000
0000
0001
0000
0000
0000
0010
0000
0000
0000
0000
0000
0100
0000
0000
0000
0000
0000
,
1000
0000
0000
0100
0000
0000
0010
0000
0000
0001
0000
0000
0100
0000
0000
0000
0000
0000
0010
0000
0000
1000
0000
0000
0010
0000
0000
0000
0100
0000
0000
0000
0001
0000
0000
0000
0010
0000
0000
0000
0000
0000
0100
0000
0000
1000
0000
0000
,
0100
0000
0010
0000
0100
0000
1000
0000
0000
0010
0000
0000
0100
0000
0010
0000
0010
0000
0100
0000
0000
0001
0000
0000
,
0020
0230
0320
0230
0320
0030
0200
0300
1000
0000
0001
0000
0110
0000
0000
0000
,
1000
0001
0100
0001
1000
0000
0010
0100
0001
0000
1000
0000
0001
0010
0100
1000
,
0010
0100
0010
1000
0001
0000
0010
0000
0101
0000
1000
0000
0001
0010
0100
0010
,
0001
1000
0001
0000
0100
0010
0100
0000
0001
0100
0001
0100
0001
0000
0010
0000
,
0001
0000
0000
0000
0010
0000
0000
0000
0100
0000
0000
0000
1000
0000
0000
0010
0000
0000
0100
0000
0000
0000
0000
0000
0001
0000
0000
0010
0000
0000
0100
0000
0000
1000
0000
0000
0010
0000
0000
0100
0000
0000
0010
0000
0000
0000
0000
0000
,
0100
0001
0100
0000
0010
0000
1000
0100
0010
0001
1000
0010
0100
0001
0010
0000
,
0100
1000
0010
0100
0001
0010
0100
1000
0001
0000
1000
0100
1000
0010
0000
0100
,
0000
0000
0001
1000
0001
1000
0001
1000
0010
0000
0100
0001
0100
0010
0000
1000
,
0100
0010
0100
0010
0100
0010
0100
0010
0001
0000
0100
0001
0100
0001
0000
1000
,
0010
1000
0001
1000
0010
1000
0001
0100
0010
0000
0100
0001
0100
0010
0000
1000
,
0001
0100
0001
0100
0001
0000
0000
0000
0001
0000
0001
0000
0001
0000
0001
0000
,
1000
0100
0010
0001
0100
0010
0100
0001
0010
0100
1000
0010
0100
0000
0000
0001
,
1000
0000
0000
0010
0000
0000
0100
0000
0000
0001
0000
0000
1000
0000
0000
0100
0000
0000
0010
0000
0000
0001
0000
0000
0100
0000
0000
0000
0010
0000
0000
0000
0100
0000
0000
0000
0001
0000
0000
0000
0000
0000
0000
0000
0000
0000
0000
0000
,
1000
0000
0000
0000
0010
0000
0000
0000
0100
0000
0000
0000
0001
0000
0000
0000
1000
0000
0000
0000
0100
0000
0000
0000
0010
0000
0000
0001
0000
0000
0100
0000
0000
0010
0000
0000
1000
0000
0000
0000
0000
0000
0001
0000
0000
0000
0000
0000
,
0100
0000
0010
1000
0001
0100
0001
1000
0010
0000
0100
0001
0100
0000
0010
0000
,
1000
0000
0000
0010
0000
0000
0100
0000
0000
0001
0000
0000
1000
0000
0000
0000
0000
0000
0010
0000
0000
0100
0000
0000
0010
0000
0000
0000
1000
0000
0000
0000
0001
0000
0000
0000
0010
0000
0000
0000
0100
0000
0000
0000
1000
0000
0000
0000
,
0100
0000
0000
0010
0000
0000
0001
0000
0000
0100
0000
0000
0010
0000
0000
1000
0000
0000
0001
0000
0000
1000
0000
0000
0001
0000
0000
0000
0100
0000
0000
0000
0010
0000
0000
0000
1000
0000
0000
0000
0001
0000
0000
0000
0000
0000
0000
0000
,
1000
0000
0010
0100
0000
0001
0000
1000
0100
1000
0010
1000
0001
0000
0100
0001
,
0100
0000
0000
0010
0000
0000
1000
0000
0000
0010
0000
0000
0000
0000
0000
0100
0000
0000
0001
0000
0000
1000
0000
0000
0010
0000
0000
0000
1000
0000
0000
0000
0100
0000
0000
0000
0010
0000
0000
0000
0000
0000
0002
0000
0000
0000
0000
0000
,
2000
0000
0000
0000
0000
0000
0000
0003
,
3001
0000
0100
0001
0100
0010
1000
0010
1000
0001
0010
0100
1000
0010
0000
0100
,
0001
0000
1000
0010
0100
0001
1000
0001
0010
0100
1000
0100
0010
0001
0000
1000
,
0010
0000
0100
0001
0010
0100
1000
0010
1000
0001
1000
0010
0100
0001
0000
0100
,
0010
0000
1000
0001
1000
0010
1000
0100
0010
0000
0001
1000
0001
0100
0001
0010
,
0100
0000
1000
0001
1000
0010
1000
0100
0010
0000
0001
0010
0001
1000
0001
0100
,
0010
0100
0010
0100
0010
0100
0010
0100
,
0010
0200
0310
0200
0310
0200
0310
0200
,
0310
0000
0010
0100
0010
1000
0100
0010
0001
0000
0010
0001
0100
0010
0000
0100
,
0010
0000
1000
0000
0000
0000
0010
0000
0000
0000
0100
0000
0001
0100
0001
0100
,
0001
1000
0010
1000
0010
0000
0100
0000
0000
0001
0010
0001
0010
0000
0100
0000
,
0000
1000
0010
1000
0010
0000
1000
0000
0000
0001
0100
0001
0100
0000
0010
0000
,
0000
0100
0001
0100
0001
0000
0010
0000
0000
0001
0010
0001
0020
0000
0130
0000
,
0002
0103
2000
3010
0002
0013
2000
3100
,
0000
0010
0001
0010
0001
0000
0100
0000
0000
0010
1000
0010
1000
0000
0001
0000
,
0000
1000
0100
1000
0100
0000
1000
0000
0000
0010
0100
0010
0100
0000
0001
0000
,
0000
0010
0001
0010
0001
0000
1000
0000
0000
0100
1000
0100
2000
0000
3100
0000
,
0002
0103
0020
1030
0020
0031
0200
1300
,
0100
0010
0100
0010
0100
0010
0100
0010
0100
0010
0100
0010
0100
0010
0100
0010
,
1000
0100
1000
0100
0010
0000
0001
0100
0001
0010
0001
0010
0100
0000
1000
0001
,
0100
0010
0100
0010
0100
0000
0001
0010
0100
1000
0100
1000
0010
0000
0100
0010
,
1000
0001
0100
0001
0100
0000
0010
1000
0010
0100
0010
0100
0001
0000
0010
0100
,
1000
0001
1000
0001
0100
0000
0010
1000
0001
0010
0001
0010
0100
0000
1000
0010
,
1000
0100
1000
0100
0010
0000
0001
0100
0001
0010
0001
0010
0100
0000
1000
0001
,
0100
0010
0100
0010
0100
0000
0001
0010
0100
1000
0100
1000
0010
0000
0100
0010
,
1000
0001
0100
0001
0100
0000
0010
1000
0010
0100
0010
0100
0002
0000
0013
0000
,
2000
3010
0002
0103
0020
0031
0020
1030
,
0001
1000
0001
1000
0001
0000
0000
0000
0000
0000
0000
0000
0000
0000
0000
0000
;

//---------------dance-double - M. Simmons----------------
#NOTES:
     dance-double:
     M. Simmons:
     Challenge:
     12:
     0.974,0.000,0.360,0.247,1.000:
00000000
00000000
00000000
00000000
,
00000000
00000000
00000000
00000000
,
00000000
00000000
00000000
00000000
00000001
00000000
00000010
00000100
00001000
00000010
00001000
00000000
00000001
00000010
00000001
00000010
,
00000100
00000000
00000000
00000000
00000000
00000000
00001100
00000000
00000000
00000000
00000000
00000000
00000100
00000000
00000000
00010000
00000000
00000000
00001000
00000000
00000000
00000000
00010000
00000000
00001000
00000000
00000000
00000000
00000000
00000000
01000000
00000000
00000000
00100000
00000000
00000000
10000000
00000000
00000000
01000000
00000000
00000000
00100000
00000000
00000000
00000000
00000000
00000000
,
01000000
10000000
00010000
01000000
00100000
10000000
01000000
00100000
00001000
00010000
00001000
00000000
00001000
01000000
00000100
00000000
,
00010000
00000000
00000000
00000010
00000000
00000000
00010000
00000000
00000000
00000000
00000000
00000000
00000200
00000000
00000000
00000000
00000000
00000000
00010300
00000000
00000000
00000100
00000000
00000000
00001000
00000000
00000000
00000000
00000010
00000000
00000000
00000000
00000100
00000000
00000000
00000000
00000010
00000000
00000000
00000000
00000000
00000000
00000000
00000000
00000000
00000100
00000000
00000000
,
00000010
00010000
00001000
00010000
00000200
00000000
00010300
00001000
01000000
00100000
00010000
00000000
00001000
00000010
00000100
00000000
,
00000000
00000000
00000000
00001000
00000000
00000000
00000010
00000000
00000000
00000100
00000000
00000000
00000001
00000000
00000000
00000010
00000000
00000000
00000100
00000000
00000000
00000010
00000000
00000000
00000001
00000000
00000000
00001000
00000000
00000000
00000100
00000000
00000000
00001000
00000000
00000000
00000010
00000000
00000100
00000000
00000000
00000000
00000000
00000000
00000000
00000010
00000000
00000000
,
00010000
00000000
00000000
00000000
00011000
00000000
00000000
00000000
00000000
00101000
00000000
00000000
00000000
00000000
00000000
00000000
00000000
00000000
00000000
00000000
00000000
00100000
00000000
00000000
01000000
00000000
00000000
00000000
10000000
00000000
00000000
00000000
00010000
00000000
00000000
00000000
01000000
00000000
00000000
00000000
00100000
00000000
00000000
00000000
00010000
00000000
00000000
00000000
,
00001000
00000000
00000000
00010000
00000000
00000000
00000100
00000000
00000000
00000000
00000000
00000000
00000100
00000000
00000000
00010000
00000000
00000000
00001000
00000000
00000000
00010000
00000000
00000000
01000000
00000000
00000000
00000000
10000000
00000000
00000000
00000000
00010000
00000000
00000000
00000000
10002000
00000000
00000000
00000000
00000000
00000000
00000000
00000000
00000000
00000000
00000000
00000000
,
00013000
00000000
00000000
00000100
00000000
00000000
00000010
00000000
00000000
00000100
00000000
00000000
00001000
00000000
00000000
00000010
00000000
00000000
00000100
00000000
00000000
00000001
00000000
00000000
00001000
00000000
00000000
00000000
00000100
00000000
00000000
00000000
00010000
00000000
00000000
00000000
00001000
00000000
00000000
00000000
00010000
00000000
00000000
00000000
00000100
00000000
00000000
00000000
,
00011000
00000000
00001000
00000000
01000000
00000000
00010000
00000000
00000000
10010000
00000000
00000000
10000000
00000000
01000000
00000000
01000000
00000000
00100000
00000000
00000000
00010000
00000000
00000000
,
00200000
00300020
00200030
00300020
00200030
00300000
00001000
00000000
00011000
00000000
00000100
00000000
00100010
00000000
00000000
00000000
,
00002000
00000000
00013000
00000100
00000020
00000000
00000130
00001000
00000001
00000000
00000100
00000000
00001000
00010000
00100000
1000MMMM
,
00010000
00100000
01000000
00100000
00001000
00000000
00011000
00000000
00000110
00000000
00000110
00000000
00000001
00001000
00000000
00000010
,
00000100
00000001
00000010
00000000
00000100
00001000
00000010
00000000
00000100
00000001
00001000
00000100
00000010
00000000
00001001
00000000
,
00010000
00000100
00001000
00000000
00000100
00010000
00001000
00000000
00100000
00010000
00100000
01000000
00010000
00001000
00010000
00000000
,
00001000
01000000
00100000
10000000
00020000
00000000
00000000
00130000
01000000
10000000
00010000
01000000
00010000
10000000
01000000
00000000
,
00100000
00001000
00010000
00000100
00010000
00001000
01000000
00100000
10000000
00010000
00100000
00001000
00010000
00000100
00000000
00010100
,
00000000
00000000
00000100
00010000
00000100
00010000
00000100
00000000
00010000
00001000
00010000
00001000
00010000
00001000
00000000
00100000
,
01000000
00100000
01000000
00100000
01000000
00100000
01000000
00000000
10000000
00010000
10000000
00010000
10000000
00010000
00000000
01000000
,
00001000
01000000
00001000
01000000
00001000
01000000
00001000
00000000
00010000
00000100
00010000
00000100
00010000
00000000
00000000
00000100
,
00002000
00000000
00000000
00000000
00000000
00000000
00003010
00000000
0000M0M0
00000000
00000000
00000000
00000000
00000001
00000010
00000100
,
00001000
00000010
00001000
00000001
00000100
00000001
00001000
00000010
00000100
00000010
00010000
00000100
00002000
00000000
00000000
00003100
,
00010000
00000000
00000000
00000100
00000000
00000000
00000010
00000000
00000000
00000001
00000000
00000000
00001000
00000000
00000000
00000100
00000000
00000000
00010000
00000000
00000000
00001000
00000000
00000000
01000000
00000000
00000000
00000000
00100000
00000000
00000000
00000000
10000000
00000000
00000000
00000000
01000000
00000000
00000000
00000000
00000000
00000000
00000000
00000000
00000000
01000000
00000000
00000000
,
00100000
00000000
00000000
00000000
00001000
00000000
00000000
00000000
00010000
00000000
00000000
00000000
00000010
00000000
00000000
00000000
00000100
00000000
00000000
00000000
00001000
00000000
00000000
00000000
00010000
00000000
00000000
00001000
00000000
00000000
00010000
00000000
00000000
00001000
00000000
00000000
01000000
00000000
00000000
00000000
00100000
00000000
00000000
00000000
00000000
10000000
00000000
00000000
,
00010000
00000000
00010000
00100000
01000000
00100000
00001000
00010000
00000010
00000000
00000100
00000010
00001000
00000000
00001001
00000000
,
00000001
00000000
00000000
00000010
00000000
00000000
00000100
00000000
00000000
00001000
00000000
00000000
00000100
00000000
00000000
00000010
00000000
00000000
00000001
00000000
00000000
00000010
00000000
00000000
00000100
00000000
00000000
00000000
00001000
00000000
00000000
00000000
00000100
00000000
00000000
00000000
00000010
00000000
00000000
00000000
00000100
00000000
00000000
00000000
00010000
00000000
00000000
00000000
,
00001000
00000000
00010000
00001000
00010000
00000000
00001000
00000000
01000000
00100000
01000000
00000000
10000000
00000000
01000000
00010000
01000000
00000000
00100000
00000000
01000000
00000000
00001000
00000000
,
00010000
00000000
00001000
00000100
00000000
00000010
00001000
00000001
00000010
00000100
00001000
00000001
00000010
00000001
00000100
00000010
,
00001000
00000100
00000010
00000001
00000100
00000010
00001000
00000100
00001000
00000001
00010000
00000100
00010000
00002000
20000000
00000000
,
00000000
00000000
00000000
30003000
,
00001000
00000000
00010000
00000010
00010000
00000010
00010000
00000010
00000100
00000000
00000001
00000010
00000001
00000010
00000000
00000001
,
00001000
00000000
00000010
00000100
00000010
00000100
00000010
00010000
00000100
00000000
00010000
00001000
00010000
00001000
00000000
01000000
,
00100000
00000000
01000000
00010000
01000000
00010000
01000000
00100000
10000000
00000000
00010000
00100000
00010000
00100000
00000000
01000000
,
00100000
00000000
00001000
00010000
00001000
00010000
00001000
00000000
00010000
00000000
00000100
00010000
00000100
00010000
00000100
00000000
,
00000010
00000000
00000100
00000010
00000100
00000010
00000100
00000000
00010000
00000000
00001000
00010000
00001000
00010000
00001000
00000000
,
10000000
01000000
00010000
00001000
00000100
00000001
00000010
00001000
,
00010000
00200000
10300000
02000000
03010000
00002000
00003100
00000020
,
00000130
00000000
00000001
00001000
00000001
00001000
00000001
00000010
00000100
00000000
00001000
00000010
00001000
00000010
00000000
00010000
,
00001000
00011000
00000000
01000100
00000000
00011000
00000000
00100010
,
00000000
00001000
01000000
00100000
10000000
00000000
11000000
00000000
00100000
00001000
00010000
00000010
00000100
00000001
00001000
00000100
,
00020000
00000000
00000000
00000000
00031000
00000000
01000000
00000000
00010000
00000000
10000000
00010000
10000000
00000000
01000000
00000000
00100000
00000000
00001000
00000000
00020000
00000000
00000000
00000000
00031000
00000000
00100000
00000000
01000000
00000000
00000000
00000000
,
00000000
10000000
00010000
01000000
00100000
01000000
00010000
10000000
01000000
00000000
00100000
00000000
00001000
00000000
00110000
00000000
,
00010000
00001100
00001000
01010000
00010000
00001010
00000100
00101000
,
00000000
00000000
00000000
00000100
00000000
00000000
00010000
00000000
00000000
00000010
00000000
00000000
00000100
00000000
00000000
00000000
00000000
00000000
00000110
00000000
00000000
00000000
00000000
00000000
00000100
00000000
00000000
00000000
00000001
00000000
00000000
00000000
00000000
00001000
00000000
00000000
00000100
00000000
00000000
00000010
00000000
00000000
00000100
00000000
00000000
00001000
00000000
00000000
,
00000002
00000000
00000203
00000000
00000310
00001000
00000100
00001000
00000001
00000010
00000100
00000000
00010000
00001000
00010000
00000000
,
00000000
00000100
00010000
00001000
01000000
00001000
00010000
00000200
00000000
00010300
00001000
01000000
00100000
00000000
01001000
00000000
,
00000100
00010010
00000001
00011000
10000000
00011000
01000000
00100010
,
00012000
00000000
00000000
00000000
00000000
00000000
10003000
00000000
M000M000
00000000
00000000
00000000
10000000
01000000
10000000
01000000
,
10000000
00010000
01000000
00001000
00100000
00000000
01000000
10000000
00001000
00010000
00000100
00010000
00001000
00000000
00100000
00001000
,
00010000
00000010
00010000
00001000
00010000
00000000
00000100
00001000
00000010
00001000
00000001
00001000
00000100
00000000
00010000
00001000
,
01000000
00100000
01000000
00001000
00010000
00000000
00000100
00000010
00000001
00000010
00000100
00010000
00001000
00000000
00100000
00010000
,
01000000
00100000
10000000
00010000
10000000
00000000
01000000
00100000
01000000
10000000
00001000
00010000
00001000
00000000
00100000
00010000
,
10000000
00000000
00000000
00010000
00000000
00000000
00100000
00000000
00000000
01000000
00000000
00000000
00100000
00000000
00000000
00000000
00000000
00000000
00101000
00000000
00000000
00000000
00000000
00000000
00001000
00000000
00000000
00000000
00010000
00000000
00000000
00000000
00000000
00000010
00000000
00000000
00000100
00000000
00000000
00000010
00000000
00000000
00001000
00000000
00000000
00000000
00000000
00000000
,
00001100
00000000
00000000
00000000
00010100
00000000
00000000
00000000
00001000
00000000
00100000
00001000
00100000
00000000
00000000
00000000
00001000
00000000
01000000
00000000
00100000
00000000
00000000
00000000
10000000
00000000
01000000
00000000
00100000
00000000
00000000
00000000
,
00000000
01000000
10000000
00001000
01000000
00100000
01000000
00001000
00000000
00010000
00000100
00000010
00000100
00000000
00101000
00000000
,
01000000
00000000
00010010
00000000
00010000
00000000
00100100
00000000
00001000
00000000
01000010
00000000
00001000
00010000
00000100
01000000
,
00020000
00000000
00000000
10030000
00000000
00000000
00000000
00000000
;

//---------------dance-double - M. Simmons----------------
#NOTES:
     dance-double:
     M. Simmons:
     Easy:
     5:
     0.313,0.000,0.133,0.199,0.000:
00000000
00000000
00000000
00000000
,
00000000
00000000
00000000
00000000
,
00000000
00000000
00000000
00000000
,
00001000
01000000
00100000
01000000
,
00010000
10000000
01000000
00100000
,
00001000
00010000
00000100
00010100
,
00000100
00000010
00000110
00000110
,
00000100
00001000
00000001
00000100
,
00000010
00001000
00000001
00000100
,
00000001
00001000
00000100
00001100
,
00010000
00001000
01000000
01001000
,
00010000
00200000
01300000
20000000
,
30200000
00000000
01300000
01100000
,
10000000
01000000
00100000
00001000
,
00010000
00001000
01000000
00100000
,
01000000
00010000
10000000
01000000
,
00100000
00001000
00010000
00000010
,
00000100
00000010
00000100
00000001
,
00001000
00000100
00000010
00000001
,
00002002
00000000
00000000
00000000
,
00000000
00000000
00003003
00000000
,
00022000
00000000
00000000
00000000
,
00033000
00000000
00000000
00000000
,
00001000
01000000
00100000
10010000
,
01000000
00100000
01000000
01100000
,
01000000
00010000
10000000
01000000
,
00100000
00010000
00100000
01000000
,
10000000
00010000
01000000
00001000
,
00010000
00001000
00010000
00000100
,
00000010
00000001
00001000
00000010
,
00000100
00000000
00000010
00000000
00001000
00000000
00000000
00002002
,
00000000
00000000
00000000
00000000
,
00000000
00000000
00003003
00000000
,
00000020
00000000
00020030
00000000
,
00032000
00000000
00203000
00000000
,
02300000
03000000
20000000
30000000
,
00020000
00030000
02000000
03000000
,
00100000
10000000
00010000
10000000
,
20020000
00000000
00000000
00000000
,
30030000
01000000
00001000
00010000
,
00000000
00001000
00000000
00011000
00000000
00010000
00000000
00011000
,
00000000
00001000
01000000
00100000
,
01000000
00010000
10000000
01000000
,
00100000
00000000
00001000
00000000
00010000
00000000
00001000
00001000
,
00010000
00010000
00001000
00001000
00010000
00010000
00001000
00001000
,
00000000
00010000
00000100
00000010
,
00000001
00001000
00000010
00000100
,
00000010
00000000
00001000
00000000
00000001
00000000
00000010
00000010
,
00000100
00000100
00000010
00000010
00000100
00000100
00000010
00000010
,
00000200
00000000
00000300
00000000
,
00010000
00001000
00010000
00000100
,
00010000
00000100
00000010
00000001
,
00001000
00000010
00000100
00000001
,
00001000
00000100
00000010
00000100
,
00010000
00001000
01000000
00100000
,
10000000
00010000
01000000
00010000
,
10000000
00000000
01000000
00000000
00100000
00000000
01000000
01000000
,
00100000
00100000
01000000
01000000
00100000
00100000
01000000
01000000
,
00200000
00000000
00000000
00300000
00000000
00000000
00000000
00000000
;

//---------------dance-double - M. Simmons----------------
#NOTES:
     dance-double:
     M. Simmons:
     Medium:
     7:
     0.405,0.000,0.237,0.142,0.019:
00000000
00000000
00000000
00000000
,
00000000
00000000
00000000
00000000
,
00000000
00000000
00000000
00000000
,
00000100
00001000
00000100
00000000
00000010
00000000
00000100
00000000
,
00001000
00000001
00000100
00000010
,
00001000
00000000
00000000
00000100
00000000
00000000
00010000
00001000
00010000
00001000
00000000
00000000
,
01000000
00000000
00100000
00000000
10000000
00010000
10000000
00010000
,
00000000
00100000
00001000
00010000
,
00000100
00001000
00000100
00010000
,
00001000
01000000
10000000
01000000
,
00010000
00000000
10000000
00000000
01000000
00100000
01000000
00100000
,
01000000
00000000
10000000
00000000
00010000
10000000
00010000
00000000
,
00100000
00010000
00100000
00010000
00100000
00000000
00000000
00000000
00101000
00000000
00000000
00000000
00010100
00000000
00000000
00000000
,
00000010
00000000
00000100
00000000
00000010
00000000
00001000
00000001
,
00001000
00000100
00000010
00000100
,
00010000
00000010
00000100
00000010
,
00001000
00000000
00000001
00000000
00000010
00000100
00000010
00000100
,
00000010
00000110
00000100
00010100
,
00001000
00000000
01000000
00000000
00100000
10000000
00100000
01000000
,
00200000
00000000
02300000
00000000
,
03002000
00000000
00023000
00000000
,
00030200
00000000
00000320
00000000
,
00000130
00000000
00001001
00000000
,
00000001
00000000
00000010
00000000
00000100
00001000
00000100
00000000
,
00010000
00000000
00001000
00000000
01000000
00100000
01000000
00000000
,
00100000
00000000
10000000
00000000
00010000
10000000
00010000
10000000
,
00010000
00000000
00100000
00000000
01000000
00100000
01000000
00100000
,
01000000
00000000
10000000
00000000
00010000
00100000
00010000
00000000
,
00100000
00000000
00001000
00000000
00010000
00000100
00010000
00000000
,
00001000
00000000
00010000
00000000
00001000
00010000
00001000
00010000
,
00000100
00000000
00000010
00000000
00000100
00000010
00000100
00000020
,
00000000
00000000
00000000
00000030
,
00000200
00000000
00020300
00000000
,
00032000
00000000
02003000
00000000
,
03200000
00000000
20300000
00000000
,
31000000
01100000
00100000
00101000
,
00010000
00010100
00001000
00001001
,
00000010
00000100
00000010
00000100
00000010
00000100
00000010
00000100
,
00000010
00000110
00000110
00000110
,
00000110
00000000
00010010
00000000
,
00000000
00011000
00000000
00011000
00000000
00010100
00000000
00010100
,
00000000
00001000
01000000
00100000
00000000
01000000
00100000
01000000
,
00000000
00100000
10000000
00010000
10000000
01000000
00000000
00100000
,
00010000
00100000
00000000
00001000
00010000
00001000
01000000
00001000
,
01000000
00010000
01000000
00001000
01000000
00010000
01000000
00001000
,
00000000
00010000
00000100
00001000
00000000
00000100
00000010
00000100
,
00000000
00000010
00000001
00001000
00000000
00000010
00000100
00000010
,
00000000
00001000
00000100
00000010
00000100
00001000
00000001
00000100
,
00000010
00000100
00000001
00000100
00000010
00000100
00000001
00000100
,
00000020
00000000
00000030
00000000
,
00010000
00011000
00001000
01001000
,
01000000
01100000
00100000
10100000
,
10000000
01000000
00100000
00001000
,
00010000
00000100
00000010
00000001
,
00001000
00000000
00001010
00000000
00000100
00000010
00000100
00000000
,
00000010
00000000
00010010
00000000
00001000
00010000
00001000
00000000
,
01000000
00000000
01001000
00000000
01000000
00100000
01000000
00001000
,
01000000
00100000
01000000
00001000
01000000
00100000
01000000
00001000
,
02000000
00000000
03000000
00000000
;

//---------------dance-double - M. Simmons----------------
#NOTES:
     dance-double:
     M. Simmons:
     Hard:
     9:
     0.620,0.000,0.379,0.142,0.294:
00000000
00000000
00000000
00000000
,
00000000
00000000
00000000
00000000
,
00000000
00000000
00000000
00000000
,
01000000
00000000
00010000
00000000
10000000
00010000
10000000
00000000
01000000
00000000
00100000
00000000
00001000
00010000
00001000
00000000
,
00010000
00000000
00000100
00000000
00000010
00000100
00000010
00000000
00000100
00000010
00000100
00000000
00000010
00000100
00000010
00000000
,
00000100
00000000
00000000
00010000
00000000
00000000
00001000
00000000
00000000
00100000
00000000
00000000
01000000
00000000
10000000
00000000
00010000
00000000
01000000
00000000
00000000
00000000
00000000
00000000
,
00100000
00000000
01000000
00000000
00010000
00000000
00100000
00000000
01000000
00100000
01000000
00000000
10000000
01000000
10000000
00000000
,
00010000
00000000
00000000
00100000
00000000
00000000
00001000
00000000
00000000
00010000
00000000
00000000
00000010
00000000
00000000
00000100
00000000
00000000
00000001
00001000
00000000
00000000
00000000
00000000
,
00000200
00000000
00000000
00000000
00001000
00000000
00000000
00000000
00000000
00001300
00000000
00000000
00000000
00000000
00000000
00000000
00000000
00000000
00000000
00000000
00000000
00000000
00000000
00000000
00000100
00000000
00000000
00000000
00010000
00000000
00000000
00000000
00001000
00000000
00000000
00000000
00010000
00000000
00000000
00000000
00001000
00000000
00000000
00000000
00000000
00000000
00000000
00000000
,
01000000
00000000
00000000
00100000
00000000
00000000
10000000
00000000
00000000
00010000
00000000
00000000
01000000
00000000
00010000
00000000
10000000
00000000
00010000
00000000
00000000
00000000
00000000
00000000
,
00100000
00000000
00000000
01000000
00000000
00000000
00100000
00000000
00000000
00001000
00000000
00000000
01000000
00000000
00100000
00000000
10000000
00000000
00100000
00000000
01000000
00000000
00100000
00000000
,
10000000
00010000
10010000
00000000
01000000
00001000
01001000
00000000
,
00001000
00010000
00001000
00010000
00001000
00000000
00010000
00000000
00000100
00000000
00000100
00000000
00000010
00000000
00000000
00000000
,
00000001
00000000
00001000
00000000
00000010
00000000
00000100
00000000
00000010
00000000
00001000
00000000
00000001
00000010
00000001
00000020
,
00000000
00000000
00000000
00000000
00000130
00000000
00001000
00000000
00000001
00000000
00000100
00000000
00000010
00000100
00000000
00000010
,
00000100
00000010
00000100
00000000
00000001
00001000
00000001
00000000
00000010
00000000
00000100
00000000
00010000
00000000
00001000
00000000
,
00010000
00001000
00010000
00000000
00001000
00010000
00001000
00000000
01000000
00000000
00100000
00000000
01000000
00000000
00010000
00000000
,
00100000
01000000
01100000
00000000
01000000
10000000
00010000
01000000
,
00010000
00100000
01000000
10000000
00010000
00100000
00001000
00010000
,
00120000
00000000
00000000
00030000
,
02010000
00000000
00000000
03000000
,
00202000
00000000
00000000
00000000
00000000
00000000
00000000
00000000
00000000
00000000
00000000
00000000
00303000
00000000
00000000
00000100
,
00000020
00000000
00000000
00000130
00000000
00000000
00000000
00000000
,
00001000
00000000
00000010
00000000
00000100
00000000
00000001
00000000
00000010
00000000
00000100
00000010
00000100
00000000
00000000
00000000
,
00010000
00000000
00000100
00000000
00001000
00000000
00000010
00000000
00000100
00000000
00000010
00000100
00000010
00000000
00000000
00000000
,
00001000
00000000
00000100
00000000
00010000
00000000
00001000
00000000
01000000
00000000
00100000
01000000
00100000
00000000
01000000
00000000
,
00100000
00000000
10000000
00000000
00010000
00000000
00100000
00000000
00010000
00000000
01000000
00001000
01000000
00000000
00010000
00000000
,
00100000
00000000
00000000
01000000
00000000
00000000
00100000
00000000
00000000
00001000
00000000
00000000
00010000
00000000
00000000
00000100
00000000
00000000
00001000
00000000
00000010
00000000
00000100
00000000
,
00000010
00001000
00000001
00000010
00000001
00001000
00000010
00000100
00000001
00010000
00001000
00000000
,
00010000
00000000
00001000
01000000
00000000
00100000
00000000
00000000
40000000
00000000
00000000
00000000
31000000
00000000
M0000000
00000000
,
00400000
00000000
00310000
00M00000
04000000
00000000
03001000
0M102000
,
00000000
00100000
00000000
00000000
00100000
00000000
00000000
00100000
00000000
00000000
00100000
00000000
00000000
00100000
00000000
00000000
,
00200000
00000000
00303000
00000000
,
00000100
00000000
00000010
00000100
00000010
00000000
00000000
00000000
00000100
00000000
00001000
00000001
00001000
00000000
00000000
00000000
,
00000010
00000000
00001000
00000010
00001000
00000000
00000000
00000000
00000001
00000000
00001000
00000001
00001000
00000000
00000000
00000000
,
00000010
00000100
00000010
00010000
00010010
00000010
00000100
00000001
,
00010001
00000001
00000010
00000100
00010100
00001000
01000000
00100000
,
10010000
00010000
00100000
01000000
10000000
00010000
00100000
01000000
,
10000000
00200000
00310000
00002000
00003100
00000020
00000031
00000020
,
00010030
00000000
00001000
00010000
00001000
00000000
01000000
00000000
00100000
00000000
10000000
00010000
10000000
00000000
00010000
00000000
,
00100000
01100000
00000000
10010000
00000000
01100000
00000000
10010000
,
00000000
01000000
00010000
00100000
01000000
00100000
00001000
00010000
,
00000010
00000100
00000001
00001000
00000001
00000010
00000100
00001000
,
00000000
00000000
00000010
00000000
00000100
00000000
00000010
00001000
00000000
00000001
00001000
00000000
00000100
00000000
00010100
00000000
,
00001000
00101000
00010000
01010000
00100000
10100000
01000000
11000000
,
00000000
10000000
00010000
10000000
00010000
00000000
00100000
00000000
00001000
00000000
00010000
00000000
00001000
00000000
01000000
00000000
,
00100000
00010000
00001000
00000100
00000010
00001000
00000001
00000010
,
00000000
00000000
00000100
00000000
00001000
00000000
00000010
00000100
00000000
00000001
00001000
00000000
00000001
00000000
00000011
00000000
,
00000010
00000110
00000100
00001100
00001000
00011000
00010000
00110000
,
02100000
00000000
00000000
13000000
00000000
00000000
00000000
00000000
,
00010000
00100000
00110000
00000000
00001000
01000000
01001000
00000000
,
00010000
00001000
00011000
00000000
00010000
00000100
00010100
00000000
,
00000100
00000010
00000110
00000000
00000010
00000001
00001001
00000000
,
00000001
00000100
00000110
00000000
00000010
00010000
00010010
00000000
,
00001000
01000000
00100000
10000000
00010000
00100000
00010000
01000000
,
00100000
10000000
01000000
00100000
00001000
00010000
00000010
00000100
,
00000000
00000010
00001000
00000001
00000010
00000100
00000010
00001010
,
00000100
00010100
00001000
00011000
00001000
00101000
00010000
00110000
,
20010000
00000000
00000000
30100000
00000000
00000000
00000000
00000000
;

//---------------dance-single - M. Simmons----------------
#NOTES:
     dance-single:
     M. Simmons:
     Hard:
     8:
     0.568,0.000,0.237,0.398,0.152:
0000
0000
0000
0000
,
0000
0000
0000
0000
,
0000
0000
0000
0000
,
1000
0100
0010
0001
1000
0010
0100
0010
,
1000
0000
0001
0000
0100
0000
0001
0000
1000
0000
0100
0000
0010
0100
0010
0000
,
0001
0000
0000
1000
0000
0000
0001
0000
0000
0100
0000
0000
0010
0000
1000
0000
0010
0000
1000
0000
0000
0000
0000
0000
,
0001
0000
0100
0000
0001
0000
1000
0000
0100
0010
0100
0000
0010
0100
0010
0000
,
0001
0000
0000
1000
0000
0000
0010
0000
0000
0100
0000
0000
0010
0000
0000
1000
0000
0000
0001
0100
0000
0000
0000
0000
,
0010
0000
0000
0000
0010
0000
0000
0000
0000
0010
0000
0000
0000
0000
0000
0000
0000
0000
1000
0000
0000
0000
0000
0000
0001
0000
0000
0000
0000
0000
1000
0000
0000
0000
0000
0000
0001
0000
0000
0010
0000
0000
0000
0000
0000
0000
0000
0000
,
0100
0000
0000
1000
0000
0000
0001
0000
0000
0100
0000
0000
0001
0000
0010
0000
0100
0000
1000
0000
0000
0000
0000
0000
,
0010
0000
0000
0100
0000
0000
0010
0000
0000
1000
0000
0000
0010
0000
0100
0000
0001
0000
0100
0000
0001
0000
0100
0000
,
0010
1000
1001
0000
0001
0010
0011
0000
,
0100
0100
0100
0100
1000
1000
1001
0000
,
0001
0000
0100
0000
0010
0000
1000
0000
0010
0000
0100
0000
0001
1000
0001
1000
,
0001
0000
0010
0000
0100
0000
0010
0000
0001
0000
0100
0000
0010
1000
0000
0010
,
0200
0000
0001
0300
0200
0000
1000
0300
0100
0000
0010
0000
1000
0000
0001
0000
,
0020
0000
1000
0030
0020
0000
0001
0030
0010
0000
0100
0000
1000
0000
0010
0000
,
0100
0001
1001
0000
0001
0010
0100
1000
,
0010
0100
0010
1000
0001
0010
0001
1000
,
1002
0000
0023
0000
,
0230
0000
2300
0000
,
3020
0000
0230
0000
,
0320
0000
0000
1030
0000
0000
0000
0000
,
1001
0011
1001
1010
,
0110
0101
0011
1100
,
1000
0010
0100
0010
1000
0001
0100
0001
,
0010
0100
1000
0010
0100
0010
1000
0001
,
0010
0100
0010
0001
0100
0010
0100
0001
,
1000
0100
0010
0001
1000
0100
0010
0001
1000
0100
0010
0000
,
0001
0100
0010
0100
0002
1003
0200
1300
,
0020
0130
0200
0301
2000
3010
0200
0002
,
0000
0000
0303
0000
,
0002
0000
2003
0000
,
3200
0000
0320
0000
,
0230
0000
2300
0000
,
3020
0000
0230
0000
,
0320
0000
0230
0000
,
0301
0010
0001
0010
0001
0010
0001
0010
,
0001
0020
1030
0020
0031
0020
1030
0020
,
0031
1000
0100
1000
0010
0100
0010
1000
,
0010
0110
0000
0101
0000
1010
0000
1100
,
0000
0010
0001
0010
0100
1000
0010
0100
,
0001
0100
0010
0100
0001
1000
0100
0010
,
0000
0000
0001
0000
1000
0000
0010
0100
0000
0010
1000
0000
0001
0000
1000
0000
,
1100
0100
0010
0001
1001
0001
0100
0010
,
0000
0100
0010
1000
0001
0010
0001
1000
,
0100
0010
0001
0010
0100
1000
0010
0100
,
0000
0000
0010
0000
1000
0000
0001
0100
0000
0001
0100
0000
0010
0000
1000
0000
,
1100
0100
0010
0001
1001
0001
0100
0010
,
0210
0000
0000
0301
0000
0000
0000
0000
,
2000
3100
0020
0031
,
0200
0310
0200
0301
,
2000
3100
0020
0031
,
0200
0310
0200
0301
,
1000
0100
0010
0100
1000
0010
0100
0010
,
1000
0001
0100
0001
0010
0100
0010
0001
,
0000
0000
0010
0000
0100
0000
1000
0100
0000
1000
0010
0000
0100
0000
0010
0000
,
1010
0100
0001
0010
0011
0100
1000
0001
,
2001
0000
0000
3010
0000
0000
0000
0000
;

//---------------dance-single - M. Simmons----------------
#NOTES:
     dance-single:
     M. Simmons:
     Medium:
     5:
     0.358,0.000,0.237,0.209,0.009:
0000
0000
0000
0000
,
0000
0000
0000
0000
,
0000
0000
0000
0000
,
0001
0100
0001
1000
,
0100
0010
0001
0010
,
0010
0100
0010
0100
0010
0001
0010
0000
,
0001
1000
0010
0020
,
0130
0000
0000
0000
0010
0000
0000
0000
1000
0000
0000
0000
0001
0010
0000
0000
,
0100
0000
0000
0200
0000
0000
0000
0000
1300
0000
0000
0000
0010
0000
0000
0000
,
0100
0010
2000
3200
,
0310
0001
2000
3020
,
0130
0010
0100
0001
,
1000
0001
1000
0000
0010
0000
0110
0000
,
0100
0001
0010
0100
,
1100
1000
0010
0100
,
0010
0010
1000
0001
,
0100
0100
0001
1000
,
0100
0020
0130
0020
,
0031
0100
0001
1000
,
1001
0000
0110
0000
,
1001
0000
0110
0000
,
1001
0000
0110
0000
,
2002
0000
3003
0000
,
0001
0010
0100
2000
,
3001
0010
0100
2000
,
3001
0100
0001
0100
,
0010
1000
0010
1000
,
0100
0010
0100
1000
,
0020
0230
0320
0130
,
0101
0101
0001
1000
,
1100
0000
1100
0000
0010
0000
0001
2000
,
0000
0000
0000
0000
,
3010
0000
1000
0000
,
0100
0000
0010
0000
,
0001
0000
0100
0000
,
0001
0000
1000
0000
,
0001
0000
1000
0000
,
0010
0010
0010
0010
,
0200
0320
0230
0320
,
1030
0000
0001
0000
,
1001
1001
1001
1001
,
0001
0010
0100
0010
,
0001
1000
0001
0000
0100
0000
0100
0000
,
0010
0000
0010
0000
1000
0000
0100
1000
,
0100
1000
0100
1000
0100
1000
0100
1000
,
0000
0001
0100
0010
,
0100
0001
0010
0100
,
1000
0000
0100
0000
0010
0000
0001
0010
,
0001
0010
0001
0010
0001
0010
0001
0010
,
0002
0000
0000
1003
0000
0000
0000
0000
,
0001
0101
0001
0101
,
0010
1010
0010
1010
,
0100
0110
0001
1001
,
0100
1010
0010
0110
,
0100
0001
1000
0100
,
0010
0001
0010
0000
0100
0000
1000
0000
,
0010
0000
0100
0000
0010
0000
1000
0001
,
1000
0001
1000
0001
1000
0001
1000
0001
,
2000
0000
0000
3001
0000
0000
0000
0000
;

//---------------dance-single - M. Simmons----------------
#NOTES:
     dance-single:
     M. Simmons:
     Easy:
     4:
     0.295,0.000,0.076,0.294,0.000:
0000
0000
0000
0000
,
0000
0000
0000
0000
,
0000
0000
0000
0000
,
0010
0100
0010
1000
,
0001
0010
0100
1000
,
0100
0010
0001
0001
,
0100
0010
1000
1000
,
0100
1000
0001
0100
,
0001
0010
0100
1000
,
0100
0010
0001
1000
,
0001
0100
0010
0100
,
0010
0010
1000
1000
,
0001
0001
0100
0100
,
0001
1000
0100
0010
,
0001
0010
0100
1000
,
0010
0010
0100
0100
,
0010
1000
0001
0001
,
0100
0001
0100
0001
,
1000
0100
1000
0100
,
0220
0000
0330
0000
,
2002
0000
3003
0000
,
0220
0000
0330
0000
,
2002
0000
3003
0000
,
0001
0010
0001
0100
,
0010
1000
0100
1000
,
0001
0100
0001
0100
,
0010
1000
0010
1000
,
0001
0010
0100
1000
,
0100
0010
0001
0100
,
0020
0000
0230
0000
,
0302
0000
0000
0000
2003
0000
0000
3002
,
0000
0000
0000
0000
,
0000
0000
0003
0000
,
0010
0000
0100
0000
,
0010
0000
0001
0000
,
1000
0000
0100
0000
,
1000
0000
0100
0000
,
0020
0000
0000
0000
,
0000
0000
0000
0000
,
0030
0000
0001
0000
,
1001
1001
1001
1001
,
0001
0100
0010
1000
,
0010
0100
0001
1000
,
0100
0010
0001
0020
,
0230
0320
0230
0320
,
0031
1000
0010
0100
,
0010
1000
0001
0010
,
0100
1000
0100
0020
,
0032
0023
0032
0023
,
0032
0000
0000
1003
0000
0000
0000
0000
,
0001
0100
0001
0100
,
0010
1000
0010
1000
,
0001
1000
0001
1000
,
0010
0100
0010
0100
,
0001
0010
0100
1000
,
0100
0010
0001
1000
,
0010
0100
0010
2000
,
3200
2300
3200
2300
,
3200
0000
0000
0310
0000
0000
0000
0000
;

//---------------dance-single - M. Simmons----------------
#NOTES:
     dance-single:
     M. Simmons:
     Beginner:
     1:
     0.103,0.000,0.085,0.019,0.000: // measure 1
0000
0000
0000
0000
,  // measure 2
0000
0000
0000
0000
,  // measure 3
0000
0000
0000
0000
,  // measure 4
0010
0000
0000
0000
,  // measure 5
0100
0000
0000
0000
,  // measure 6
0001
0000
0000
0000
,  // measure 7
1000
0000
0000
0000
,  // measure 8
0100
0000
0000
0000
,  // measure 9
0010
0000
0000
0000
,  // measure 10
0001
0000
0000
0000
,  // measure 11
0100
0000
0000
0000
,  // measure 12
0001
0000
0000
0000
,  // measure 13
0100
0000
0000
0000
,  // measure 14
0010
0000
0000
0000
,  // measure 15
1000
0000
0000
0000
,  // measure 16
0100
0000
0000
0000
,  // measure 17
1000
0000
0000
0000
,  // measure 18
0100
0000
0000
0000
,  // measure 19
0010
0000
0000
0000
,  // measure 20
1001
0000
0000
0000
,  // measure 21
0000
0000
0000
0000
,  // measure 22
0110
0000
0000
0000
,  // measure 23
0002
0000
0003
0000
,  // measure 24
1000
0000
0000
0000
,  // measure 25
0100
0000
0000
0000
,  // measure 26
1000
0000
0000
0000
,  // measure 27
0100
0000
0000
0000
,  // measure 28
0010
0000
0000
0000
,  // measure 29
0001
0000
0000
0000
,  // measure 30
0010
0000
0000
0000
,  // measure 31
0001
0000
0000
0000
,  // measure 32
0001
0000
0000
0000
,  // measure 33
1000
0000
0000
0000
,  // measure 34
0010
0000
0000
0000
,  // measure 35
0100
0000
0000
0000
,  // measure 36
1001
0000
1000
0000
,  // measure 37
0110
0000
0010
0000
,  // measure 38
1001
0000
1000
0000
,  // measure 39
0001
0001
0001
0001
,  // measure 40
1001
0000
0000
0000
,  // measure 41
0020
0000
0030
0000
,  // measure 42
0100
0000
0000
0000
,  // measure 43
0010
0000
0000
0000
,  // measure 44
1000
0000
0000
0000
,  // measure 45
0001
0000
0001
0000
,  // measure 46
0010
0000
0000
0000
,  // measure 47
0100
0000
0000
0000
,  // measure 48
0010
0000
0000
0000
,  // measure 49
0001
0000
1000
0000
,  // measure 50
1001
0000
0000
0000
,  // measure 51
0010
0000
0000
0000
,  // measure 52
1000
0000
0000
0000
,  // measure 53
0001
0000
0000
0000
,  // measure 54
0010
0000
0001
0000
,  // measure 55
1001
0000
0000
0000
,  // measure 56
1000
0000
0000
0000
,  // measure 57
0100
0000
0000
0000
,  // measure 58
1000
0000
0010
0000
,  // measure 59
0110
0000
0000
0000
;
