#TITLE:Vi Sitter I Ventrilo Och Spelar DotA;
#SUBTITLE:;
#ARTIST:Basshunter;
#TITLETRANSLIT:;
#SUBTITLETRANSLIT:;
#ARTISTTRANSLIT:;
#GENRE:;
#CREDIT:Sync by HellRazoR;
#BANNER:Vi Sitter I Ventrilo Och Spelar DotA-bn.png;
#BACKGROUND:Vi Sitter I Ventrilo Och Spelar DotA-bg.png;
#LYRICSPATH:;
#CDTITLE:;
#MUSIC:Vi Sitter I Ventrilo Och Spelar DotA.ogg;
#OFFSET:-0.082;
#SAMPLESTART:70.540;
#SAMPLELENGTH:12.000;
#SELECTABLE:YES;
#DISPLAYBPM:140.000;
#BPMS:0.000=140.000;
#STOPS:158.000=1.285714;
#BGCHANGES:0.000=Vi Sitter I Ventrilo Och Spelar DotA-bg.png=1.000=0=0=1=====,
12.250=Vi Sitter I Ventrilo Och Spelar DotA.mpg=1.000=1=0=1===CrossFade==,
227.500=Vi Sitter I Ventrilo Och Spelar DotA-bg.png=1.000=0=0=1=====,
99999=-nosongbg-=1.000=0=0=0 // don't automatically add -songbackground-
;
#BGCHANGES2:227.500=flash=1.000=0=0=1=====,
;
#KEYSOUNDS:;

//---------------dance-single - W. Hodge & S. Venkat----------------
#NOTES:
     dance-single:
     W. Hodge & S. Venkat:
     Challenge:
     9:
     0.581,0.548,0.287,0.038,0.598:
0000
0000
0000
0000
,
0000
0000
0000
0000
,
0000
0000
0000
0000
,
0000
0000
0000
0000
,
0000
0000
0000
0000
0000
0000
0000
1000
,
0100
1000
0010
1000
0100
0000
0010
0001
,
0100
0000
0010
0000
0100
0000
0001
0000
1000
0000
0000
0001
0000
0000
0101
0000
,
0000
0110
0000
1010
0000
1001
0000
1100
,
0000
1001
0000
0011
0000
0110
0000
0010
,
0100
1000
0100
1000
0M1M
0000
0100
0001
,
0100
0000
0010
0000
1000
0000
0001
0000
1000
0000
0000
0100
0000
0000
1000
0000
,
0010
0000
1000
0000
0001
0000
1000
0000
0010
0000
0000
0100
0000
0000
0001
0000
,
0010
0000
0100
0000
0010
0000
0100
0000
1000
0000
0000
0001
0000
0000
1000
0000
,
0010
0100
0001
0100
0001
0000
1000
0010
,
1000
0000
0100
0000
0010
0000
0001
0000
0100
0000
0000
0010
0000
0000
1000
0000
,
0001
0000
1000
0000
0100
0000
1000
0000
0010
0000
0000
0100
0000
0000
0001
0000
,
0100
0000
0010
0000
1000
0000
0100
0000
0010
0000
0000
0001
0000
0000
2000
0000
,
00MM
0100
00MM
0100
3010
1000
000M
1M00
,
0000
100M
0M00
0001
00M0
1M00
0000
1000
,
0100
1000
0100
1000
0M1M
0000
1MM1
0000
,
1000
0000
010M
0000
1010
0000
0001
0000
0100
0000
0000
0001
0000
0000
0000
0000
,
1000
0000
001M
0000
1100
0000
0001
0000
0100
0000
0000
0010
0000
0000
0100
0000
,
0001
0000
10M0
0000
0101
0000
0010
0000
0001
0000
0000
0100
0000
0000
0010
0000
,
0100
00M1
1100
0010
1000
0000
M1M1
0000
,
0010
0000
1000
0000
0011
0000
0100
0000
0010
0000
0000
0100
0000
0000
0001
0000
,
1000
0000
0M10
0000
1001
0000
0100
0000
0010
0000
0000
0100
0000
0000
0010
0000
,
0001
0000
0M10
0000
1001
0000
0100
0000
0010
0000
0000
0100
0000
0000
0001
0000
,
1000
0000
001M
0000
1100
0000
0001
0000
1000
0000
0010
1000
00M0
0M00
0001
0000
,
0010
0000
0100
0000
1000
0000
0010
0000
1000
0000
0100
1000
0M00
100M
0010
0000
,
1000
0000
010M
0000
1010
0000
0001
0000
0100
0000
0001
0100
000M
M000
0010
0000
,
1000
0000
0100
0000
1000
0000
0010
0000
0100
0000
0010
0100
00M0
M100
0001
0000
,
1000
0000
0M10
0000
1001
0000
0100
0000
0010
0000
0001
0010
000M
M000
0100
0000
,
1000
0000
0010
0000
1000
0000
0100
0000
0010
0000
0100
0010
0M00
001M
0100
0000
,
1000
0000
001M
0000
1100
0000
0001
0000
0100
0000
0001
0100
000M
M000
0010
0000
,
1000
0000
0001
0000
1000
0000
0100
0000
1000
0000
0010
1000
00M0
100M
0100
0000
,
0010
0000
0000
0001
0000
0000
0100
0000
0000
0010
0000
0000
010M
0000
0000
0000
0100
0000
0001
0000
0000
0000
0001
0000
,
1000
0100
1000
0010
0000
0010
100M
0000
1000
0100
0000
0100
,
0010
0001
0010
0001
0000
0001
01M0
0000
0100
0010
0000
0010
,
M10M
0000
0100
0010
0000
0010
M10M
0010
0100
0010
0100
0010
,
0400
0040
0000
M000
0000
0000
000M
0000
0000
M000
0300
0030
M00M
0000
0000
0000
0000
0000
1001
0000
0000
0000
0000
0000
,
1100
0000
0000
0110
0000
1000
0100
0010
0100
100M
0000
1000
,
0010
0000
0010
0100
0001
0010
0100
0000
0100
100M
0000
1000
,
0010
0000
0010
1000
0100
0010
0001
0000
0001
01M0
0000
0100
,
0010
0000
0010
1000
0001
1000
0010
0000
0010
100M
0000
1000
,
0100
0000
0100
0010
0001
0010
0100
0000
0100
100M
0000
1000
,
0010
0000
0010
0100
0010
0100
0001
0000
0001
0M10
0000
0010
,
0100
0000
0100
1000
0100
1000
0010
0000
0010
100M
0000
1000
,
0001
0000
0001
0100
0001
0100
0001
0000
0001
0M10
0000
0010
,
0100
0000
0100
1000
0010
0100
0001
0010
0100
100M
0000
1000
,
1001
0000
0001
0010
0100
1000
0010
0000
0010
100M
0000
1000
,
1010
0000
0010
0100
0001
0100
0010
0000
0010
M100
0000
0100
,
0101
0000
0001
0010
0100
1000
0010
0000
0010
100M
0000
1000
,
1001
0000
0001
0100
0010
1000
0010
0000
0010
010M
0000
0100
,
0110
0000
0100
0001
0010
0001
1000
0000
1000
0M10
0000
0010
,
0110
0000
0000
0000
0010
0000
4M00
0004
0000
00M0
0000
0000
0M00
0000
0000
00M0
0000
3003
0M00
0000
0000
0000
0000
0000
,
0001
0000
0000
0010
0100
1000
0100
0000
1000
0010
0000
0010
,
0100
0000
0000
0000
0100
0000
0002
0000
0000
0000
0000
0000
2003
0000
0000
000M
0000
0000
3020
0000
0000
M000
0000
0000
,
0000
0030
00M0
0000
0000
0000
0000
0000
;

//---------------dance-single - W. Hodge----------------
#NOTES:
     dance-single:
     W. Hodge:
     Hard:
     7:
     0.384,0.353,0.010,0.000,0.158:
0000
0000
0000
0000
,
0000
0000
0000
0000
,
0000
0000
0000
0000
,
0000
0000
0000
0000
,
0000
0000
0000
0000
,
1000
0100
1000
0000
0010
0000
0100
0000
,
0001
1000
0001
0000
1000
0000
0100
0000
,
0010
0001
1000
0001
,
0100
0010
1000
0010
,
0100
0001
0100
0000
0001
0000
0100
0000
,
0010
1000
0010
0000
1000
0000
0100
0000
,
1000
0001
1000
0000
0010
0000
0100
0000
,
0001
0100
0001
0000
0010
0000
0100
0000
,
1000
0100
1000
0000
0001
0000
1000
0000
,
0010
0100
0010
0000
0100
0000
0001
0000
,
1000
0100
1000
0000
0100
0000
1000
0000
,
0010
0100
0010
0000
0100
0000
0001
0000
,
0100
0010
1000
0100
,
1000
0000
0010
0000
0100
0000
0001
0100
,
0001
0100
0001
0000
1000
0001
1000
0000
,
0001
0100
0010
0000
0100
0010
1000
0000
,
0100
1000
0010
0000
1000
0100
0001
0000
,
0001
0100
1000
0000
0001
0100
1000
0000
,
1000
0100
0001
0000
0001
0010
1000
0000
,
1000
0010
0001
0000
0100
0010
1000
0000
,
1000
0010
0001
0000
0001
0010
1000
0000
,
1000
0100
0010
0000
0010
0001
0010
0000
,
0010
0100
1000
0010
0100
0000
0001
0000
,
0100
0010
0100
0001
1000
0000
0100
0000
,
1000
0010
1000
0001
0100
0000
0010
0000
,
0100
0001
0010
0100
1000
0000
0010
0000
,
1000
0001
1000
0010
1000
0000
0001
0000
,
0100
0010
0100
0001
0100
0000
0010
0000
,
1000
0100
0010
0001
0010
0000
0100
0000
,
1000
0010
0100
0001
0100
0000
0010
0000
,
0100
0001
1000
0001
,
0100
0000
0100
0001
0000
0001
1000
0000
0000
0100
0000
0000
,
1000
0000
1000
0010
0000
0010
1000
0000
0000
0001
0000
0001
,
0100
0000
0000
0001
0000
0001
0100
0000
0100
0010
0000
0010
,
1000
0000
1000
0001
0000
0001
1000
0000
0000
0010
0000
0000
,
0100
0000
0000
0010
0000
0000
1000
0000
0000
0001
0000
0001
,
1000
0000
0000
0001
0000
0000
1000
0000
0000
0100
0000
0100
,
0010
0000
0000
0001
0000
0000
0100
0000
0000
0010
0000
0010
,
0100
0000
0000
0001
0000
0000
1000
0000
0000
0100
0000
0100
,
1000
0000
0000
0010
0000
0000
1000
0000
0000
0001
0000
0001
,
1000
0000
0000
0100
0000
0000
1000
0000
0000
0010
0000
0010
,
0100
0000
0000
0001
0000
0000
1000
0000
0000
0010
0000
0010
,
0100
0000
0000
0001
0000
0000
0010
0000
0000
0100
0000
0100
,
1000
0000
0000
0010
0000
0000
1000
0000
0000
0001
0000
0001
,
1000
0000
0000
0010
0000
0010
1000
0000
0000
0100
0000
0100
,
0010
0000
0000
0001
0000
0001
0100
0000
0100
0010
0000
0010
,
1000
0000
0000
0001
0000
0001
1000
0000
0000
0100
0000
0100
,
0010
0000
0000
0100
0000
0100
0010
0000
0010
0100
0000
0100
,
1000
0000
0000
0010
0000
0010
0100
0000
0000
0001
0000
0001
,
1000
0000
0000
0100
0000
0100
1000
0000
1000
0001
0000
0000
,
0000
1000
0000
0010
,
0000
0100
0000
1001
;

//---------------dance-single - W. Hodge----------------
#NOTES:
     dance-single:
     W. Hodge:
     Medium:
     5:
     0.254,0.244,0.057,0.010,0.019:
0000
0000
0000
0000
,
0000
0000
0000
0000
,
0000
0000
0000
0000
,
0000
0000
0000
0000
,
0000
0000
0000
0000
,
1000
0001
0100
0100
,
0010
1000
0001
1000
,
0000
0000
0000
0000
,
0000
0000
0000
0000
,
0010
0100
0001
0001
,
0010
0100
1000
0001
,
0100
0010
1000
0100
,
1000
0001
0100
0010
,
0100
0001
0010
0010
,
0100
1000
0001
0100
,
0010
1000
0100
1000
,
0001
0100
0010
0100
,
0000
0000
0001
0000
,
0000
0000
0000
0000
,
1000
0001
1000
0001
,
1000
0100
1000
0010
,
0100
0001
0010
0100
,
1000
0010
1000
0100
,
0010
0001
1000
0110
,
0000
0110
1000
0001
,
1000
0010
0100
0001
,
0010
0100
1000
0010
,
1000
0001
0010
0011
,
0000
0011
0010
0100
,
1000
0010
0100
0001
,
0100
0010
1000
0001
,
0010
0100
0010
1001
,
0000
1001
0010
0100
,
0001
1000
0100
0010
,
0001
0010
0100
1000
,
0010
0100
0001
0000
,
0000
0000
1000
0000
,
0000
0000
0001
0000
,
1000
0000
0001
0010
,
0001
0010
0000
0001
,
0000
1000
0000
0001
,
0001
1000
0100
1000
,
1000
0010
0100
0001
,
0001
0100
0010
0100
,
0100
0001
0010
0100
,
0100
1000
0010
1000
,
1000
0001
0100
0010
,
0010
1000
0100
1000
,
1000
0000
0000
0001
0000
0000
1000
0000
1000
0100
0000
0000
,
1000
0010
0100
0001
,
0100
0000
0000
0001
0000
0000
0010
0000
0010
0001
0000
0000
,
0100
0010
1000
0100
,
1000
0000
0000
0001
0000
0000
0100
0000
0100
0001
0000
0000
,
1000
0100
1000
0010
,
0100
0000
0000
0001
0000
0000
0100
0000
0100
0010
0000
0000
,
0000
1000
0000
0001
,
0000
0200
0000
0301
;

//---------------dance-single - R. Uchima----------------
#NOTES:
     dance-single:
     R. Uchima:
     Easy:
     3:
     0.222,0.380,0.134,0.057,0.000:
0000
0000
0000
0000
,
0000
0000
0000
0000
,
0000
0000
0000
0000
,
0000
0000
0000
0000
,
0000
0000
0000
0000
,
0000
0000
1000
1000
,
0000
0000
0010
0020
,
0000
0000
0000
0000
,
0000
0000
0000
0000
,
0130
0100
0001
0001
,
0010
0010
0100
0000
,
1000
1000
0001
0000
,
0100
0100
0010
0000
,
1000
1000
0001
0001
,
0100
0100
0010
0000
,
1000
0100
0010
0000
,
0001
0100
0010
0000
,
0000
0000
1002
0000
,
0000
0000
0000
0000
,
0103
0001
0010
0001
,
0000
0001
0000
0100
,
0000
0001
0000
0100
,
0000
0010
0000
1000
,
0000
0010
0000
0100
,
0000
0001
0000
1000
,
0000
0010
0000
0100
,
0000
0010
0000
1000
,
0000
0001
1001
1000
,
0100
0010
0100
1000
,
0010
0100
0010
1000
,
0100
0010
0001
0100
,
0001
0010
0100
0010
,
0001
0100
0010
1000
,
0010
0100
0010
1000
,
0100
0010
0001
0100
,
0010
1000
1001
0000
,
0100
0000
1001
0000
,
0010
0000
0110
0000
,
1001
0000
0110
0110
,
1001
2002
3003
1001
,
0110
1001
1000
0001
,
0000
0001
0001
0001
,
0000
1000
1000
1000
,
0000
0010
0010
0010
,
0000
0100
0100
0100
,
0000
0001
0100
0010
,
0000
1000
0100
0010
,
0000
0001
0100
0001
,
0000
0010
0001
0010
,
0000
0100
1000
0100
,
0000
0010
0001
0100
,
0000
0010
1000
0100
,
0000
1000
0100
0010
,
0000
0001
0100
0010
,
0000
1000
1000
1002
,
0000
0000
0000
0000
,
0000
0203
0010
1300
;

//---------------dance-single - W. Hodge----------------
#NOTES:
     dance-single:
     W. Hodge:
     Beginner:
     1:
     0.101,0.136,0.057,0.000,0.000:
0000
0000
0000
0000
,
0000
0000
0000
0000
,
0000
0000
0000
0000
,
0000
0000
0000
0000
,
0000
0000
0000
0000
,
1000
0000
1000
0000
,
0001
0000
0001
0000
,
0000
0000
0000
0000
,
0000
0000
0000
0000
,
0100
0000
0100
0000
,
0001
0000
0001
0000
,
0010
0000
0010
0000
,
0100
0000
0100
0000
,
1000
0000
1000
0000
,
0010
0000
0010
0000
,
0100
0000
0100
0000
,
0001
0000
0001
0000
,
1000
0000
1001
0000
,
0000
0000
0001
0000
,
0000
0000
0001
0000
,
0000
0000
1000
0000
,
0000
0000
0010
0000
,
0000
0000
0100
0000
,
0000
0000
0001
0000
,
0000
0000
1000
0000
,
0000
0000
0001
0000
,
0000
0000
0100
0000
,
0000
0000
0110
0000
,
0000
0000
0010
0000
,
0000
0000
0100
0000
,
0000
0000
0001
0000
,
0000
0000
0010
0000
,
0000
0000
0100
0000
,
0000
0000
1000
0000
,
0000
0000
0010
0000
,
0000
0000
1000
0000
,
1000
0000
1000
0000
,
1000
0000
0001
0000
,
0001
0000
0001
0000
,
0001
0000
0000
1001
,
0000
1001
0000
0001
,
0000
0000
0000
0100
,
0000
0000
0000
0010
,
0000
0000
0000
1000
,
0000
0000
0000
0001
,
0000
0000
0000
0010
,
0000
0000
0000
0100
,
0000
0000
0000
1000
,
0000
0000
0000
0010
,
0000
0000
0000
1000
,
0000
0000
0000
0100
,
0000
0000
0000
0010
,
0000
0000
0000
0001
,
0000
0001
0000
0010
,
0000
0010
0000
0110
,
0000
0000
0000
1000
,
0000
0000
0000
1001
;

//---------------dance-double - M. Simmons----------------
#NOTES:
     dance-double:
     M. Simmons:
     Challenge:
     9:
     0.618,0.520,0.306,0.211,0.603:
00000000
00000000
00000000
00000000
,
00000000
00000000
00011000
10100000
,
10000000
00000000
00010000
00000000
00001000
00000000
00000001
00000000
00000011
00000000
00000000
00011000
00000000
00000000
00000000
00000000
,
00000000
00000200
00000000
02000300
00000000
03200000
00000000
20300000
,
00000000
32000000
00000000
03020000
00000000
00032000
00000000
00003100
,
00000010
00100000
00001000
00010000
00011000
00000000
00000101
00000000
,
00000001
00000000
00001000
00000000
00010000
00000000
10000000
00000000
11000000
00000000
00000000
00011000
00000000
00000000
00000000
00000000
,
00000000
00000200
00000000
00000320
00000000
00000032
00000000
00000203
,
00000000
00002300
00000000
00023000
00000000
02030000
00000000
13000000
,
00100000
00000000
01000000
00000000
10000000
00000000
00010000
00000000
00011000
00000000
00000000
00000000
00001010
00000000
00000000
00000001
,
00000010
00000000
00001000
00000000
00010000
00000000
00100000
00000000
00010000
00000000
00000000
00011000
00000000
00000000
00000000
00000000
,
00002000
00000000
01000000
00000000
00010000
00000000
10000000
00000000
00013000
00000000
00000000
00001000
00000000
00000000
00020000
00000000
,
00000100
00000000
00001000
00000000
00000001
00000000
00031000
00000000
00010000
00000000
00000000
01000100
00000000
00000000
00001000
00000000
,
00010000
00000000
00000100
00000000
00000010
00000000
00001000
00000000
00011000
00000000
00000000
00000000
01100000
00000000
00000000
10000000
,
01000000
00000000
00010000
00000000
00001000
00000000
00000100
00000000
00000010
00000000
00000000
00011000
00000000
00000000
00000000
00000000
,
00000200
00000000
00010000
00000000
00001000
00000000
01000000
00000000
00001300
00000000
00000000
00000100
00000000
00000000
02000000
00000000
,
00001000
00000000
00010000
00000000
00000100
00000000
03010000
00000000
01000000
00000000
00000000
01000200
00000000
00000000
00000000
00000000
,
MMMMM0MM
00000000
00000000
00000000
10000300
00100000
00000000
01000000
,
00000000
00001000
00000000
00100000
00000000
01000000
00000000
00010000
,
00001000
00000100
00000010
00001000
00000001
00000000
00000011
00000000
,
00010000
00000000
01000000
00000000
10000000
00000000
00010000
00000000
01000000
00000000
00000000
01100000
00000000
00000000
00000000
00000000
,
10000000
00000000
00010000
00000000
00001000
00000000
00000001
00000000
00001000
00000000
00000000
00010010
00000000
00000000
00000001
00000000
,
00001000
00000000
00010000
00000000
10000000
00000000
00010000
00000000
10000000
00000000
00000000
00101000
00000000
00000000
10000000
00000000
,
01000000
00100000
10000000
00100000
01000000
00000000
10010000
00000000
,
00010000
00000000
00100000
00000000
00000010
00000000
00000100
00000000
00000010
00000000
00000000
00011000
00000000
00000000
00000000
00000000
,
00001000
00000000
01000000
00000000
10000000
00000000
01000000
00000000
00001000
00000000
00000000
00011000
00000000
00000000
00010000
00000000
,
00000100
00000000
00000001
00000000
00000100
00000000
00010000
00000000
00001000
00000000
00000000
00011000
00000000
00000000
00001000
00000000
,
01000000
00000000
00100000
00000000
01000000
00000000
00000100
00000000
00000010
00000000
00000100
00001000
00000000
00000000
00000010
00000000
,
00010000
00000000
00001000
00000000
01000000
00000000
00100000
00000000
10000000
00000000
01000000
00100000
00000000
00000000
00010000
00000000
,
00001000
00000000
00010000
00000000
10000000
00000000
00010000
00000000
00001000
00000000
00000000
01010000
00000000
00000000
00010000
00000000
,
00001000
00000000
00000001
00000000
00001000
00000000
00010000
00000000
00001000
00000000
00000000
00001010
00000000
00000000
00000010
00000000
,
00010000
00000000
00000100
00000000
00000010
00000000
00000001
00000000
00001000
00000000
00000010
00010000
00000000
00000000
00001000
00000000
,
01000000
00000000
00100000
00000000
10000000
00000000
01000000
00000000
00010000
00000000
00001000
00010000
00000000
00000000
00000100
00000000
,
00000010
00000000
00000001
00000000
00000010
00000000
00001000
00000000
00010000
00000000
00000000
00010010
00000000
00000000
00000100
00000000
,
00010000
00000000
00001000
00000000
01000000
00000000
10000000
00000000
01000000
00000000
00000000
01010000
00000000
00000000
00010000
00000000
,
10000000
00000000
00000000
01000000
00000000
00000000
00100000
00000000
00000000
00001000
00000000
00000000
00010000
00000000
00000000
00000000
00010000
00000000
01000000
00000000
00000000
00000000
00010000
00000000
,
00001000
00000100
00000010
00000001
00000000
00000010
00010000
00000000
00010000
00001000
00000000
01000000
,
10000000
01000000
00001000
00010000
00000000
00000100
00000001
00000000
00000100
00010000
00000000
00001000
,
01000000
00000000
00100000
10000000
00000000
00010000
00100000
00001000
00100000
00000010
00100000
00004000
,
00400000
00000000
00000000
00000000
00000000
00000000
00303000
00000000
00000001
00000010
00000001
00000010
,
00000001
00000000
00000000
00001001
00000000
00000001
00000100
00000010
00010000
00001000
00000000
01000000
,
00100000
00000000
10000000
01000000
00010000
00001000
00000100
00000000
00000001
00000010
00000000
00001000
,
00000001
00000000
00000100
00010000
00001000
01000000
10000000
00000000
01000000
00010000
00000000
10000000
,
01000000
00000000
00100000
00001000
00010000
00000010
00000100
00000000
00001000
00010000
00000000
01000000
,
00010000
00000000
00000100
00000010
00000001
00001000
00000010
00000000
00000100
00000010
00000000
01000000
,
00100000
00000000
10000000
00010000
00100000
00001000
01000000
00000000
00010000
10000000
00000000
00001000
,
00000100
00000000
00000010
00001000
00000001
00000010
00000100
00000000
00000100
00001000
00000000
00000010
,
00010000
00000000
00001000
01000000
00100000
10000000
00010000
00000000
01000000
00001000
00000000
00000100
,
00000010
00000000
00010000
00001000
00000100
00000010
00001000
00000100
01000000
00010000
00000000
00100000
,
00001000
00000000
00001000
00000100
00000010
00010000
00001000
00000000
00100000
10000000
00000000
00100000
,
00001000
00000000
00000100
00000001
00001000
00000100
00010000
00000000
00001000
01000000
00000000
00001000
,
00000010
00000000
00000001
00001000
00000010
00000100
00001000
00000000
00010000
00001000
00000000
01000000
,
00100000
00000000
10000000
01000000
00010000
00001000
00000100
00000000
00000010
00000100
00000000
00000001
,
00001000
00000000
00000100
00000010
00001000
00010000
00100000
00000000
00010000
00100000
00000000
10000000
,
00010000
00000000
01000000
00100000
00010000
00001000
00010000
01000000
00100000
00001000
00000000
00000000
,
00011000
00000000
00000000
00000010
00000100
00000010
00010000
00001000
00010000
00001000
00000000
00000000
,
00100010
00000000
00000000
00002000
00000000
00013000
00001000
00010000
00000000
02000200
00000000
00000000
,
00000000
00000000
03000300
00000000
00000000
00000000
00000000
00000000
00000000
00000000
00000000
00000000
;

//---------------dance-double - M. Simmons----------------
#NOTES:
     dance-double:
     M. Simmons:
     Hard:
     8:
     0.524,0.462,0.536,0.096,0.359:
00000000
00000000
00000000
00000000
,
00000000
00000000
00000000
00000000
,
00000000
00000000
00000000
00000000
,
00000000
00000000
00000000
00000000
,
00000000
00000000
00000000
00000000
00000000
00000000
00000000
00000100
,
00000010
00000001
00001000
00000100
00010000
00000000
00010100
00000000
,
00001000
00000000
01000000
00000000
00100000
00000000
10000000
00000000
00010000
00000000
00000000
00110000
00000000
00000000
00000000
00000000
,
00000000
00002000
00000000
00023000
00000000
00030020
00000000
00000230
,
00000000
00000302
00000000
00002003
00000000
00003100
00000000
00010000
,
00001000
01000000
10000000
01000000
00010000
00000000
10010000
00000000
,
10000000
00000000
01000000
00000000
00010000
00000000
00001000
00000000
00000100
00000000
00000000
00002010
00000000
00000000
00000000
00000000
,
00003010
00000000
00000100
00000000
00000010
00000000
00000100
00000000
00000010
00000000
00000000
00011000
00000000
00000000
00100000
00000000
,
01000000
00000000
00100000
00000000
01000000
00000000
00100000
00000000
01000000
00000000
00000000
00011000
00000000
00000000
00000100
00000000
,
00000010
00000001
00001000
00000010
00000100
00000000
00011000
00000000
,
10000000
00000000
01000000
00000000
10000000
00000000
00010000
00000000
01000000
00000000
00000000
01010000
00000000
00000000
00000000
00000000
,
00010000
00000000
00100000
00000000
00001000
00000000
00010000
00000000
00000010
00000000
00000000
00001100
00000000
00000000
00000100
00000000
,
01000000
00000000
00001000
00000000
00010000
00000000
00000010
00000000
00100000
00000000
00000000
00011000
00000000
00000000
00000000
00000000
,
00000000
00000000
00011000
00000000
,
00000000
00000000
00000000
00000000
00000000
00000000
00000000
01000000
,
00100000
10000000
00010000
00100000
01000000
00000000
00011000
00000000
,
00000010
00000000
00000100
00000000
00000001
00000000
00001000
00000000
00000100
00000000
00000000
00011000
00000000
00000000
00000000
00000000
,
10000000
00000000
00010000
00000000
10000000
00000000
00010000
00000000
10000000
00000000
00000000
00011000
00000000
00000000
00000001
00000000
,
00001000
00000000
00000001
00000000
00001000
00000000
00000001
00000000
00001000
00000000
00000000
00011000
00000000
00000000
01000000
00000000
,
00100000
10000000
01000000
00100000
00010000
00000000
00011000
00000000
,
00000010
00000000
00000100
00000000
00000010
00000000
00001000
00000000
00000100
00000000
00000000
00011000
00000000
00000000
00000000
00000000
,
01000000
00000000
00100000
00000000
10000000
00000000
00010000
00000000
01000000
00000000
00000000
00011000
00000000
00000000
00001000
00000000
,
00000100
00000000
00000010
00000000
00001000
00000000
00000001
00000000
00000010
00000000
00000000
00011000
00000000
00000000
00010000
00000000
,
01000000
10000000
00100000
01000000
00100000
00000000
00011000
00000000
,
00000100
00000000
00000010
00000000
00000001
00000000
00001000
00000000
00000100
00000000
00000000
00011000
00000000
00000000
00000000
00000000
,
01000000
00000000
00100000
00000000
01000000
00000000
00100000
00000000
01000000
00000000
00000000
00011000
00000000
00000000
00000100
00000000
,
00000010
00000000
00000100
00000000
00000010
00000000
00000100
00000000
00000010
00000000
00000000
00011000
00000000
00000000
00100000
00000000
,
01000000
10000000
00010000
01000000
00010000
00000000
00011000
00000000
,
00000010
00000000
00001000
00000000
00000001
00000000
00000010
00000000
00000100
00000000
00000000
00011000
00000000
00000000
00000000
00000000
,
01000000
00000000
00100000
00000000
01000000
00000000
00010000
00000000
00100000
00000000
00000000
00011000
00000000
00000000
00000010
00000000
,
00000100
00000000
00000010
00000000
00001000
00000000
00000100
00000000
00001000
00000000
00000000
00011000
00000000
00000000
00000000
00000000
,
00002000
00000000
00000000
02003000
00000000
00000000
03100000
00000000
10000000
00010000
00000000
00000000
,
00110000
00000000
00000000
00101000
00000000
00000000
00011000
00000000
00010000
00000100
00000000
00000000
,
00000110
00000000
00000000
00001001
00000000
00000000
00001010
00000000
00000010
00000100
00000000
00000010
,
00010000
00000000
00000010
00000100
00000000
00000010
00010000
00001000
00010000
00000100
00010000
00004000
,
04000000
00000000
00000000
00000000
00000000
00000000
03003000
0M00M000
00100000
00010000
00100000
00010000
,
00100000
01001000
00011000
00010100
,
00000010
00000000
00000000
00000001
00001000
00000010
00000100
00000000
00000000
00000011
00000000
00000000
,
00001100
00000000
00000000
00000100
00010000
00001000
01000000
00000000
00010000
00100000
00000000
00000000
,
11000000
00000000
00000000
10000000
01000000
00100000
00001000
00000000
00010000
00000100
00000000
00000000
,
00010010
00000000
00000000
00000010
00000100
00000010
00001000
00000000
00000001
00000100
00000000
00000000
,
00001001
00000000
00000000
00000010
00001000
00000010
00010000
00000000
00001000
00010000
00000000
00001000
,
00100000
00000000
00000000
01000000
10000000
00010000
01000000
00000000
00000000
01001000
00000000
00000000
,
00011000
00000000
00000000
00000100
00000010
00000001
00001000
00000000
00000000
00000110
00000000
00000000
,
00001001
00000000
00000000
00000100
00010000
00001000
01000000
00100000
10000000
00010000
00000000
00000000
,
10010000
00000000
00000000
01000000
00001000
00010000
00000010
00000000
00000000
00011000
00000000
00000000
,
00010100
00000000
00000000
00000100
00000010
00000001
00000010
00000000
00000100
00001000
00000000
00000000
,
00010100
00000000
00000000
00001000
01000000
00010000
01000000
00000000
00100000
10000000
00000000
00000000
,
10010000
00000000
00000000
01000000
00100000
10000000
00010000
00000000
00100000
00001000
00000000
00100000
,
00001000
00000000
00000000
00010000
00000100
00001000
00000001
00000000
00000100
00000010
00000000
00000000
,
00001010
00000000
00000000
00000010
00000100
00000001
00000100
00000000
00000000
00001010
00000000
00000000
,
00010010
00000000
00000000
00000100
00010000
00001000
01000000
00000000
00000000
01001000
00000000
00000000
,
00110000
02000000
03000000
01001000
;

//---------------dance-double - M. Simmons----------------
#NOTES:
     dance-double:
     M. Simmons:
     Easy:
     3:
     0.263,0.299,0.191,0.105,0.014:
00000000
00000000
00000000
00000000
,
00000000
00000000
00000000
00000000
,
00000000
00000000
00000000
00000000
,
00000000
00000000
00000000
00000000
,
00000000
00000000
00000000
00000000
00000000
00000000
00000000
00001000
,
00010000
00001000
00011000
00000000
,
01000000
00100000
01100000
00000000
,
00000000
00000000
00000000
00000000
,
00000000
00000000
00000000
00000000
00000000
00000000
00000000
01000000
,
00010000
00100000
00101000
00000000
,
00001000
00000000
00000000
00000000
00010000
00000000
00000000
00000000
00000100
00000000
00000000
00000100
00000000
00000000
00000000
00000000
,
00000010
00000001
00001001
00000000
,
00000010
00000100
00000110
00000000
,
00000010
00000000
00000000
00000000
00010000
00000000
00000000
00000000
00001000
00000000
00000000
00001000
00000000
00000000
00000000
00000000
,
01000000
00000000
00000000
00000000
00010000
00000000
00000000
00000000
10000000
00000000
00000000
10000000
00000000
00000000
00000000
00000000
,
01000000
00100000
10010000
00000000
,
00100000
01000000
10010000
00000000
,
00000000
00000000
00110000
00000000
,
00000000
00000000
00000000
00000000
00000000
00000000
00000000
00100000
,
00001000
00010000
00000100
00000000
,
00000010
00000001
00001000
00000000
,
00000020
00000100
00001030
00000000
,
00000002
00000010
00001003
00000000
,
00000010
00010000
00011000
00000000
,
00001000
01000000
00100000
00000000
,
20000000
00010000
31000000
00000000
,
00020000
00100000
01030000
00000000
,
01000000
00001000
00011000
00000000
,
00010000
00000100
00000010
00000000
,
00000200
00001000
00010300
00000000
,
00020000
00001000
00030100
00000000
,
00001000
01000000
01100000
00000000
,
01000000
00100000
10010000
00000000
,
02000000
00001000
03010000
00000000
,
00002000
01000000
00013000
00000000
,
00000000
00000000
00000100
00000010
,
00000000
00000000
00000100
00001000
,
00000000
00000000
00000001
00001000
,
00000001
00001000
00002002
00000000
,
00000000
00000000
00003003
00010000
,
00001000
00011000
01001000
01001000
,
00010000
10000000
01000000
00100000
,
00001000
00010000
00000010
00000100
,
00000010
00001000
00000001
00000100
,
00000001
00001000
00000100
00010000
,
00001000
01000000
00100000
10000000
,
00010000
01000000
00010000
10000000
,
01000000
00100000
00001000
00010000
,
00000100
00000010
00001001
00001001
,
00000010
00010000
00001000
01000000
,
00100000
01000000
00001000
00010000
,
00000100
00010000
00001000
01000000
,
00100000
10000000
00010000
00100000
,
00001000
00010000
00000010
00000100
,
00000001
00001000
00000100
00000010
,
00000110
00000000
00000100
00000100
,
00001100
00020000
00000000
00031000
;

//---------------dance-double - M. Simmons----------------
#NOTES:
     dance-double:
     M. Simmons:
     Medium:
     6:
     0.397,0.407,0.354,0.144,0.101:
00000000
00000000
00000000
00000000
,
00000000
00000000
00000000
00000000
,
00000000
00000000
00000000
00000000
,
00000000
00000000
00000000
00000000
,
00000000
00000000
00000000
00000000
00000000
00000000
00000000
00001000
,
00010000
00001000
00010000
00000100
00010000
00000000
00011000
00000000
,
00001000
00000000
00010000
00000000
00001000
00000000
00100000
00000000
00001000
00000000
00000000
00001000
00000000
00000000
00000000
00000000
,
00000000
00000000
00000000
00000000
,
00000000
00000000
00000000
00000000
00000000
00000000
00000000
01000000
,
00100000
01000000
00010000
10000000
01000000
00000000
01100000
00000000
,
00100000
00000000
00001000
00000000
00010000
00000000
00001000
00000000
00010000
00000000
00000000
00010000
00000000
00000000
00000000
00000000
,
00000100
00000000
00010000
00000000
00000100
00000000
00010000
00000000
00000100
00000000
00000000
00010100
00000000
00000000
00001000
00000000
,
01000000
00000000
00001000
00000000
01000000
00000000
00001000
00000000
01000000
00000000
00000000
00011000
00000000
00000000
00001000
00000000
,
00010000
00000100
00001000
00000010
00000100
00000000
00000110
00000000
,
00000100
00000000
00000001
00000000
00000100
00000000
00000010
00000000
00001000
00000000
00000000
00001001
00000000
00000000
00000000
00000000
,
00000010
00000000
00000100
00000000
00000010
00000000
00010000
00000000
00000010
00000000
00000000
00000010
00000000
00000000
00010000
00000000
,
00001000
00000000
00010000
00000000
00000100
00000000
00010000
00000000
00001000
00000000
00000000
00001000
00000000
00000000
00000000
00000000
,
00000000
00000000
00011000
00000000
,
00000000
00000000
00000000
00000000
00000000
00000000
00000000
00001000
,
00020000
01000000
00031000
00011000
,
00002000
00000100
00013000
00011000
,
00020000
00000100
00030010
00000100
,
00000002
00000000
00001000
00000000
00000013
00000000
00000100
00010000
,
00002000
00000100
00013000
00011000
,
00020000
01000000
00031000
00011000
,
01000000
00100000
10000000
00000000
00010000
00000000
10010000
00000000
,
01000000
00010000
00100000
00000000
00100000
00000000
00101000
00001000
,
00020000
00100000
00031000
00011000
,
00002000
00000010
00013000
00011000
,
00010000
00000100
00000010
00000000
00000010
00000000
00001100
00000000
,
00000001
00000100
00000010
00000000
00000010
00000000
00001010
00000010
,
00000200
00001000
00010300
00011000
,
00020000
01000000
10030000
00011000
,
00001000
00100000
00010000
00000000
01000000
00000000
01010000
00000000
,
00010000
10000000
01000000
00000000
00100000
00000000
01100000
00000000
,
00100000
00100000
00001000
00010000
,
00000200
00000010
00001300
00000001
,
00000200
00000010
00001300
00010000
,
01000000
00000000
00000000
10000000
00000000
00000000
20020000
00000000
00000000
00000000
00000000
00030000
,
00040000
00000000
00000000
00000000
00000000
00000000
30030000
00000000
01000000
00010000
00000000
01000000
,
00010000
10010000
01000000
00001000
,
00010000
00000000
00000000
00000100
00000000
00000010
00000100
00000000
00000000
00000010
00000000
00000000
,
00001001
00000000
00000000
00000001
00000000
00000100
00001000
00000000
00000000
00000100
00000000
00000000
,
00000110
00000000
00000000
00000010
00000000
00010000
00001000
00000000
00000000
00100000
00000000
00000000
,
00110000
01000000
10000000
00010000
,
10010000
00000000
00000000
01000000
00000000
00001000
00010000
00000000
00000000
00000100
00000000
00000000
,
00001100
00000000
00000000
00000010
00000000
00000001
00001000
00000000
00000000
00000010
00000000
00000000
,
00001010
00000000
00000000
00000100
00000000
00000010
00010000
00000000
00000000
00001000
00000000
00000000
,
00011000
00001000
01000000
00100000
,
10100000
00000000
00000000
01000000
00000000
00010000
00100000
00000000
00000000
01000000
00000000
00000000
,
00110000
00000000
00000000
00100000
00000000
00001000
00010000
00000000
00000000
00000010
00000000
00000000
,
00001010
00000000
00000000
00000100
00000000
00000001
00000010
00000000
00000000
00000100
00000000
00000000
,
00010100
00001000
00100000
00010000
,
10000000
00000000
00000000
00100000
00000000
01000000
00100000
00000000
00000000
10000000
00000000
00000000
,
10010000
00000000
00000000
00100000
00000000
00001000
00010000
00000000
00000000
00000100
00000000
00000000
,
00001100
00000000
00000000
00000001
00000000
00000100
00000010
00000000
00000000
00001000
00000000
00000000
,
00001010
00000002
00000000
00000103
;
