#TITLE:Unspeakable;
#SUBTITLE:;
#ARTIST:Ace of Base;
#TITLETRANSLIT:;
#SUBTITLETRANSLIT:;
#ARTISTTRANSLIT:;
#GENRE:;
#CREDIT:Sync by HellRazoR;
#BANNER:Unspeakable-bn.png;
#BACKGROUND:Unspeakable-bg.png;
#LYRICSPATH:;
#CDTITLE:;
#MUSIC:Unspeakable.ogg;
#OFFSET:-0.889;
#SAMPLESTART:87.577;
#SAMPLELENGTH:10.500;
#SELECTABLE:YES;
#DISPLAYBPM:90.000;
#BPMS:0.000=90.000;
#STOPS:;
#BGCHANGES:0.000=Unspeakable-bg.png=1.000=0=0=1=====,
8.000=Unspeakable.mpg=1.000=1=0=1===CrossFade==,
162.000=Unspeakable-bg.png=1.000=0=0=1=====,
99999=-nosongbg-=1.000=0=0=0 // don't automatically add -songbackground-
;
#BGCHANGES2:162.000=flash=1.000=0=0=1=====,
;
#KEYSOUNDS:;

//---------------dance-single - M. Simmons----------------
#NOTES:
     dance-single:
     M. Simmons:
     Challenge:
     9:
     0.547,0.509,0.305,0.332,0.440:
0000
0000
0000
0000
,
0000
0000
0000
0000
,
1000
0000
0010
0000
0100
0000
0001
0001
,
0001
0000
0000
0000
1000
0000
0000
0000
0100
0000
0100
0000
0010
0100
0010
0001
,
1000
0000
0001
0000
0010
0000
0001
0000
1000
0000
0010
0000
0010
0000
0010
1000
,
0001
0010
0100
1000
0010
0100
0001
1000
,
2001
0000
3001
0000
0010
0000
0100
0000
0010
0000
0001
0000
1000
0000
0010
0100
,
0010
0000
1000
0000
0001
0000
0000
1000
0100
0000
0010
0000
0002
0000
0000
0000
,
1003
0010
0100
0010
1000
0000
0001
0000
0010
0100
1000
0010
0100
0000
0010
0000
,
1000
0001
0010
0100
1000
0000
0001
0000
0100
0010
1000
0010
0000
0100
0001
0010
,
0000
0100
1000
0001
0100
0000
0010
0000
1000
0001
0100
0010
0100
0000
0001
0000
,
1000
0100
0010
0001
0010
0000
0100
0000
1000
0010
0100
0001
0100
0010
1000
0100
,
0010
0001
0010
0100
0010
0001
0010
0100
0010
0001
1000
0010
0100
0000
0010
0000
,
2010
0000
0000
0000
0100
0000
3001
0000
0001
2000
0000
0000
3001
0000
0010
0000
,
0010
0100
1000
0100
0010
0100
1000
0100
0010
0100
1000
0001
0100
0000
0010
0000
,
1010
0000
0001
0000
1010
0000
0001
0010
0200
0000
0000
0000
1300
0000
0000
0000
,
0002
0000
0000
0103
200M
0000
0000
3100
M001
0010
0100
0000
0000
0000
1000
0000
,
0001
0000
0000
0100
0000
0000
0010
0000
1000
0000
0001
0000
1000
0100
0010
0000
,
1002
0000
0000
0013
200M
0000
0000
3010
M001
1000
0010
0000
0100
0000
0001
0000
,
2100
0000
0000
0001
0000
0000
3020
0000
0230
0000
0000
0300
0101
0000
1000
0001
,
2000
0000
0000
3100
M002
0000
0000
0103
100M
0010
0100
0000
0000
0000
0010
0000
,
1000
0000
0000
0001
0000
0000
0010
0000
0001
0000
1000
0000
0010
0100
1000
0000
,
2001
0000
0000
3010
M002
0000
0000
0013
100M
0100
0010
0000
0001
0000
1000
0000
,
0102
0000
0000
1000
0000
0000
0023
0030
1100
0000
0001
0000
1000
0010
0001
0000
,
0010
0000
1000
0000
0010
0000
0100
0000
0001
0010
0100
0000
1000
0000
0001
0000
,
0100
0010
0100
0001
1000
0000
0100
0000
1000
0000
0001
0100
0001
0000
1000
0100
,
1000
0000
0001
0000
0010
0000
0100
0000
1000
0010
0100
0000
0010
0000
0001
0000
,
0010
1000
0001
0010
0100
0000
1000
0000
0010
0000
0100
0010
0100
0000
0010
0001
,
0010
1000
0001
0010
0100
1100
0110
0011
,
0001
1000
0100
1000
0010
0000
0100
0000
0110
0000
0101
0000
1100
0000
0001
0010
,
1000
0000
0010
0000
0001
0000
1000
0000
0010
0100
0001
0000
1000
0000
0100
0000
,
1000
0100
1000
0010
1000
0000
0001
0000
0102
0000
0000
0003
2100
0000
0000
3000
,
0012
0000
0000
0000
1003
0001
1000
0000
0001
0000
0010
0000
0100
0000
0000
0000
2000
0000
0000
0000
0000
0000
3100
0000
M002
0000
0000
0000
0000
0000
0013
0000
,
100M
0010
0200
0000
0302
0000
0013
0000
1100
0000
0000
0011
0000
0000
1100
0000
,
1010
0000
0002
0000
0013
0100
0010
0000
0002
0000
0000
0013
200M
0000
0000
3100
,
M001
0010
0100
0000
1100
0000
0010
0000
0102
0000
0000
0010
0000
0000
0203
0000
,
0020
0000
0030
0300
0101
0000
0001
0100
0020
0000
0000
0031
02M0
0000
0000
1300
,
0M10
0001
0010
0000
1000
0000
0100
0000
0011
0000
0000
1100
0000
0000
1010
0000
,
1001
0000
0001
0000
0010
0100
0001
0000
0200
0000
0000
1300
0M20
0000
0000
0031
,
01M0
1000
0100
0000
0101
0000
0001
0000
2100
0000
0000
0010
0000
0000
3002
0000
,
0013
0000
1100
0000
0010
0100
0001
0000
1100
0000
0000
0000
0000
0000
0000
0000
;

//---------------dance-single - M. Simmons----------------
#NOTES:
     dance-single:
     M. Simmons:
     Hard:
     7:
     0.367,0.400,0.153,0.251,0.193:
0000
0000
0000
0000
,
0000
0000
0000
0000
,
2000
3100
0000
0010
,
0002
1003
0000
0010
,
1001
1000
0001
0000
0000
0001
0100
0010
,
0000
0010
1000
0100
0010
0100
1000
0000
,
1001
0001
1000
0000
0000
1000
0010
0100
,
0000
0000
0100
0000
0001
0000
0000
0010
0100
0000
0010
0000
0001
0000
0000
0000
,
0110
0100
0010
0000
0000
0010
0001
1000
,
0000
1000
0100
0001
1000
0001
0100
0000
,
0110
0010
0100
0000
0000
0100
1000
0001
,
0000
0000
0001
0000
0010
0000
1000
0000
0001
0000
1000
0010
0000
0000
0001
0000
,
2000
0000
0000
0100
0000
0000
0010
3010
,
0200
0000
0000
0001
0000
0000
0010
0310
,
0002
0000
0000
1000
0000
0000
0100
0103
,
0000
0000
0000
0000
0000
0000
0001
1000
0001
0000
0000
0000
1001
0000
0000
0000
,
0010
0000
0000
0100
0010
0000
0000
0100
0010
0100
0010
0000
0000
0000
1000
0000
,
0001
0000
0000
0010
0000
0000
0100
0000
1000
0000
0001
0000
1000
0001
1000
0000
,
0001
0000
0000
0010
0001
0000
0000
0010
0001
0010
0001
0000
0000
0000
0000
0000
,
2001
0000
0000
0010
3000
0000
0100
0000
0002
0000
0000
0000
1003
0000
0000
0000
,
0001
0000
0000
1000
0100
0000
0000
1000
0100
1000
0100
0000
0000
0000
0010
0000
,
0100
0000
0000
1000
0000
0000
0100
0000
0010
0000
0001
0000
1000
0001
1000
0000
,
0001
0000
0000
0100
0001
0000
0000
0100
0001
0100
0001
0000
0000
0000
0000
0000
,
2000
0000
0000
0100
3000
0000
0010
0000
0110
0000
0100
0000
0010
0001
0010
0000
,
0000
0000
0100
1000
0001
0000
0000
0000
0000
0000
0100
0000
0100
0000
0100
0000
,
0000
0010
1000
0100
0001
0100
1000
0000
,
0000
0002
0013
0000
0000
0100
1000
0100
,
0000
0000
0010
0000
0001
0000
0000
1000
0001
0000
0010
0000
0100
0000
0000
0000
,
0000
1000
0001
0000
0000
1001
1001
1001
,
0000
0002
0023
0230
2300
3002
0013
0000
,
0000
0100
1000
0000
0000
0001
0010
0001
,
0000
1000
0010
0100
0020
0000
0230
0000
,
0320
0000
0000
0000
0000
0000
0030
0000
1000
0000
0000
0100
0010
0000
0000
0100
,
0010
0100
2000
0000
3002
0000
0013
0000
0100
0000
0000
1000
0000
0000
0001
0000
,
0100
0000
0001
0000
1000
0100
1000
0000
1001
0000
0000
0001
0010
0000
0000
0001
,
1000
0001
2000
0000
3200
0000
0320
0000
0130
0000
0000
1100
0000
0000
0010
0000
,
0012
0000
0000
0000
1003
0000
0000
0000
1001
0000
0000
0001
1000
0000
0000
0001
,
1000
0010
2000
0000
3200
0000
0310
0000
0001
0000
0000
0100
0000
0000
0001
0000
,
1000
0000
0100
0000
0010
0100
0010
0000
0110
0000
0000
0100
0010
0000
0000
0100
,
0010
0100
2000
0000
3200
0000
0320
0000
0031
0000
0000
1001
0000
0000
0001
0000
,
0010
0000
0100
0000
1000
0010
1000
0000
1001
0000
0000
0000
0000
0000
0000
0000
;

//---------------dance-single - M. Simmons----------------
#NOTES:
     dance-single:
     M. Simmons:
     Medium:
     4:
     0.279,0.254,0.117,0.188,0.036:
0000
0000
0000
0000
,
0000
0000
0000
0000
,
1000
0100
1000
0001
,
0100
0000
0010
0000
1000
0001
1000
0001
,
1000
0000
0010
0000
0100
0100
0100
0000
,
0001
0000
1000
0000
0100
0010
0100
0000
,
1000
0000
0001
0000
1000
0001
1000
0000
,
0010
0000
0100
0000
0001
0001
0001
0000
,
1000
0000
0100
0000
1000
0010
1000
0000
,
0001
0000
0100
0000
0010
0010
0010
0000
,
1000
0000
0001
0000
0010
0100
0010
0000
,
0100
0000
0000
0000
1000
0000
0000
0000
0100
0000
0100
0010
0000
0000
0000
0000
,
0200
0000
0000
0000
0000
0000
1300
0100
,
2000
0000
0000
0000
0000
0000
3001
1000
,
0020
0000
0000
0000
0000
0000
0130
0010
,
0100
1001
2000
3001
,
0002
0000
0023
0000
0130
1000
0000
0000
,
0001
0000
0000
0010
0000
0000
1000
0000
0100
0000
0010
0000
0100
0000
0000
0000
,
0020
0000
2030
0000
3100
0010
0000
0000
,
0100
0000
0000
1000
0000
0000
0010
0000
0001
0000
0000
0000
0100
0000
0000
0000
,
2000
0000
3002
0000
0103
0010
0000
1000
,
0100
0000
0000
0001
0000
0000
0010
0000
1000
0000
0001
0000
1000
0000
0000
0000
,
0020
0000
0230
0000
0301
0010
0000
0000
,
0100
0000
0000
1000
0000
0000
0010
0000
0100
0000
0010
0000
1000
0000
0000
0000
,
1001
0001
0010
0000
0100
0000
1000
0000
,
1010
0010
0100
0000
0001
0000
1000
0000
,
1001
0001
0100
0000
0001
0000
1000
0000
,
0110
0010
0001
0000
1000
0000
0010
0000
,
1001
0001
1000
0000
0100
0010
0100
0000
,
1001
0001
0010
0000
0100
0010
0100
0000
,
1000
0010
0100
0001
,
1000
0100
0110
0110
,
0120
0000
0230
2300
,
3001
0000
0010
0000
0000
0000
0000
0000
0100
0000
0000
1000
0000
0000
0010
0000
,
0001
0010
1000
0000
0002
0000
2003
0000
,
3100
0000
0010
0000
0000
0000
0000
0000
0100
0000
0000
1000
0000
0000
0010
0000
,
0001
0100
2000
3002
,
0013
0000
0100
0000
0000
0000
0000
0000
0010
0000
0000
0001
0000
0000
0100
0000
,
1000
0100
0001
0000
2000
0000
3200
0000
,
0310
0001
0000
0000
1001
0000
1010
0000
,
0001
0010
0100
1000
1100
0000
0000
0000
;

//---------------dance-single - M. Simmons----------------
#NOTES:
     dance-single:
     M. Simmons:
     Easy:
     2:
     0.156,0.182,0.108,0.108,0.000:
0000
0000
0000
0000
,
0000
0000
0000
0000
,
1000
0000
0100
0000
,
1000
0000
0001
1000
,
1001
0000
0001
0000
,
0010
0000
0100
1000
,
0100
0000
0010
0000
,
0001
0000
1000
0001
,
1000
0000
0010
0000
,
0100
0000
0010
0100
,
0010
0000
1000
0000
,
0001
0000
0010
0001
,
0020
0000
0000
0100
0000
0000
0100
0000
,
0230
0000
0000
1000
0000
0000
1000
0000
,
2300
0000
0000
0010
0000
0000
0001
0000
,
3001
0000
0001
0001
,
1002
0000
0000
0000
0000
0013
0000
0000
,
0100
0000
1000
0000
,
0120
0000
0000
0000
0000
0130
0000
0000
,
0100
0000
0001
0000
,
2001
0000
0000
0000
0000
3010
0000
0000
,
1000
0000
0001
0000
,
0120
0000
0000
0000
0000
0130
0000
0000
,
1000
0000
1001
0010
,
0010
0000
1000
0000
,
0001
0000
0010
0000
,
0100
0000
1000
0000
,
0010
0000
0100
0000
,
0010
0000
1000
0000
,
0001
0000
0010
0000
,
0100
0000
1000
0000
,
0001
0000
0100
0010
,
0120
0030
2001
0001
,
0001
3001
0000
0000
0001
0000
0000
0000
,
0010
0000
0210
0010
,
0010
0310
0000
0000
0010
0000
0000
0000
,
0100
0000
1002
1000
,
1000
1003
0000
0000
0001
0000
0000
0000
,
1000
0000
0210
0010
,
0010
0310
0000
0000
0001
0000
0000
0000
,
1000
0001
1001
0000
;

//---------------dance-single - M. Simmons----------------
#NOTES:
     dance-single:
     M. Simmons:
     Beginner:
     1:
     0.099,0.109,0.090,0.045,0.000:
0000
0000
0000
0000
,
0000
0000
0000
0000
,
0000
0000
0000
0000
,
0000
0000
0000
0000
,
1001
0000
1000
0000
,
0100
0000
0010
0000
,
0110
0000
0100
0000
,
1000
0000
0001
0000
,
2000
0000
3000
0000
,
0002
0000
0003
0000
,
0200
0000
0300
0000
,
0020
0000
0030
0000
,
1000
1000
1000
0000
,
0001
0001
0001
0000
,
0010
0010
0010
0000
,
0100
0000
1001
0000
,
1001
0000
1000
0000
,
1000
0000
0000
0010
,
0010
0000
0000
0000
,
0110
0000
0000
0001
,
0001
0000
0000
0000
,
1001
0000
0000
0100
,
0100
0000
0000
0000
,
0110
0000
0000
1000
,
1000
0000
0010
0000
,
0010
0000
0100
0000
,
0001
0000
0001
0000
,
1000
0000
1000
0000
,
0010
0000
0010
0000
,
0100
0000
0100
0000
,
0001
0000
0001
0000
,
1000
0000
0001
0000
,
2001
3000
0001
0000
,
0000
0000
0010
0000
,
0000
0000
0100
0000
,
0000
0000
1000
0000
,
0000
0000
1001
0000
,
0000
0000
0001
0000
,
0000
0000
0100
0000
,
0000
0000
0010
0000
,
0000
0000
1001
0000
;

//---------------dance-double - M. Simmons----------------
#NOTES:
     dance-double:
     M. Simmons:
     Challenge:
     9:
     0.542,0.472,0.502,0.144,0.476:
00000000
00000000
00000000
00000000
,
00000000
00000000
00000000
00000000
00000000
00000000
00000000
00000000
00000000
00000000
10000000
01000000
00010000
01000000
00100000
00001000
,
00010000
00000000
00000010
00000000
00000100
00000000
00000001
00001000
00000001
00000000
00010000
00001000
01000000
10000000
01000000
00010000
,
00100000
00000000
01000000
00000000
10000000
00100000
01000000
00000000
00001000
00010000
00000100
00000010
00001000
00010000
00000010
00000100
,
00000001
00000000
00001000
00000000
00001100
00000000
00000100
00010000
00000100
00000000
00100000
00000000
01000000
00000000
10000000
00100000
,
01000000
01001000
00000100
01000000
00001000
00010000
00100020
00M00000
,
00010030
00000000
00000100
00000000
00000010
00000000
00000001
00000000
00000100
00000000
00001000
00000000
00010000
00000000
01000000
10000000
,
00010000
00000000
01000000
00000000
01001000
00000000
0000M000
00000100
00000010
00000000
00000001
00000000
00001000
00000001
00000000
00000001
,
00010000
00001000
01000000
00100000
10000000
00000000
01000000
00000000
00010000
00001000
00000100
00000010
00010000
00000000
00000100
00000000
,
01000000
00100000
10000000
01000000
00010000
00000000
00001000
00000000
00000100
00000010
00001000
00000001
00000000
00000010
00000100
00010000
,
00000000
00001000
01000000
10000000
01000000
00000000
00001000
00000000
10000000
01000000
00100000
00001000
00010000
00000000
00000010
00000000
,
00000100
00000001
00001000
00000100
00000010
00000000
00000100
00000000
00010000
00001000
00100000
00000010
00010000
00000100
01000000
00001000
,
00040000
M0001000
00000000
0M000100
00000000
00M00010
00000000
0M000100
00000000
00M00010
00000000
00000001
00000000
0M030100
00001000
00000010
,
00000100
00000010
00000000
00000000
00010010
00000000
00000000
00000000
00001000
00100000
00000000
00000000
01100000
00000000
00100000
00000000
,
00004000
0001000M
00000000
01000M00
00000000
001000M0
00000000
01000M00
00000000
001000M0
00000000
10000000
00000000
001030M0
00010000
00100000
,
01000000
00000000
10000000
00000000
10010000
00000000
00100000
00010000
00001000
00000000
00000000
00000000
01000100
00000000
00000000
00000000
,
00011000
00000000
00000000
00010000
00000010
00000000
00000000
00010000
00100000
01000000
00010000
00000000
00011000
00000000
00020000
00000000
,
00000010
00000000
00000000
00000001
00000000
00000000
00000010
00000000
00030100
00000000
00010000
00000000
00000010
00000100
00001000
00000000
,
00011000
00000000
00000000
00001000
00100000
00000000
00000000
00001000
00000010
00000100
00001000
00000000
00011000
00000000
00000000
00000000
,
11000000
00000000
00000000
00100000
00000000
00000000
00001000
00000000
00010010
00000000
00000000
00000000
00000101
00000000
00000001
00000010
,
00001000
00000000
00000000
00010000
00100000
00000000
00000000
00010000
00001000
00000010
00000100
00000000
00010100
00000000
00010000
00000000
,
00002000
00000000
00000000
00100000
00000000
00000000
01000000
00000000
10000000
00003000
00001000
00000000
00010000
00001000
01000000
00000000
,
00100000
00000000
00000000
00010000
00001000
00000000
00000000
00001000
00000010
00000100
00001000
00000000
00011000
00000000
00000000
00000000
,
01001000
00000000
00000000
00000100
00000000
00000000
00010000
00000000
00001000
00000000
00010000
00000000
00000001
00001000
00010000
00000000
,
02010000
00000000
03010000
00100000
00001000
00000000
00010000
00000000
00010100
00000000
00000100
00000000
00000110
00000000
00010010
00000000
,
00002001
00000000
00003001
00000100
00001000
00000000
00010000
00000000
00011000
00000000
00001000
00000000
10001000
00000000
M000M000
00000000
,
01200000
00000000
10300000
01000000
00010000
00000000
00001000
00000000
00001100
00000000
00000010
00000000
00010010
00000000
00001100
00000000
,
00000120
00000000
00000130
00010000
00001000
00000000
01000000
00000000
10100000
00000000
01000000
00000000
00101000
00000000
00M0M000
00000000
,
00010000
00000100
00001000
00000000
00010010
00000000
00000010
00000000
00000100
00000001
00001000
00000000
00001100
00000000
00010100
00000000
,
00001000
01000000
00100000
00000000
10100000
00000000
01000000
00000000
00020000
00000000
00032000
00000000
00003020
00000000
00000000
00000000
,
00000130
00001000
00000001
00000000
00001100
00000000
00000100
00000000
01000000
00100000
10000000
00000000
10010000
00000000
00101000
00000000
,
00000100
00000000
00010000
00000000
00000010
00000000
00000100
00000000
00000020
00000000
00000000
00000000
00200030
00000000
00000000
00300000
,
00200020
00000000
00000030
00000040
00000000
00000000
00000000
00300030
00011000
00000000
00000000
00001000
01000000
00000000
00000000
00001000
,
00000100
00000010
00010000
00000000
01001000
00000000
00100000
00000000
21000000
00000000
00000000
00010000
00000000
00000000
00001000
00000000
,
30010000
00000000
10000000
00000000
01000000
00010000
00001000
00000000
00010100
00000000
00000000
00000100
00010000
00000000
00000000
00000100
,
00000010
00001000
00010000
00000000
00010001
00000000
00000010
00000000
00000101
00000000
00000000
00001010
00000000
00000000
00000100
00000000
,
00011000
00000000
00000000
00000000
10010000
00000000
00000000
00000000
00100000
00000000
00000000
00001000
00010000
00000000
00000000
00001000
,
00000100
00000010
00001000
00000000
00000011
00000000
00000001
00000000
00002000
00000000
00000000
00000100
00000000
00000000
00010000
00000000
,
00003010
00000000
00001000
00000000
00000001
00001000
00010000
00000000
00011000
00000000
00000000
00000100
01000000
00000000
00000000
01000000
,
00001000
00100000
00000010
00000000
00001100
00000000
00000100
00000000
00101000
00000000
00000000
01001000
00000000
00000000
00010000
00000000
,
10010000
00000000
10000000
00000000
00010000
00001000
00010000
00000000
00010001
00000000
00000000
00000000
00000000
00000000
00000000
00000000
;

//---------------dance-double - M. Simmons----------------
#NOTES:
     dance-double:
     M. Simmons:
     Easy:
     2:
     0.182,0.182,0.054,0.099,0.000:
00000000
00000000
00000000
00000000
,
00000000
00000000
00000000
00000000
,
10000000
01000000
00000000
00100000
,
00000000
00001000
00000000
00010000
,
00000100
00000010
00000100
00010000
,
00000000
00001000
01000000
00100000
,
00000000
10000000
01000000
00100000
,
00000000
01000000
10000000
00010000
,
00000000
01000000
00001000
00010000
,
00000000
00010000
00001000
00010000
,
00000000
00010000
00000100
00000010
,
00000000
00000100
00001000
00000010
,
00001002
00000000
00000100
00000100
,
00000203
00000000
00000010
00000010
,
00000320
00000000
00010000
00010000
,
00010030
00001000
00012000
00003000
,
00100000
00010000
10000000
00000000
,
01000000
00000000
00100000
00000000
,
01000000
10000000
00010000
00000000
,
00100000
00000000
01000000
00000000
,
00100000
00001000
00010000
00000000
,
00000100
00000000
00001000
00000000
,
00000010
00000100
00000010
00000000
,
00001000
00000000
00000001
00001001
,
00000002
00000010
00000013
00000000
,
00000020
00000100
00000130
00000000
,
00000200
00010000
00010300
00000000
,
00020000
00031000
00002000
00013000
,
00001000
01000000
00100000
10000000
,
01000000
10000000
00010000
10010000
,
00000000
01000000
00010000
10000000
,
01000000
00100000
00001000
00010000
,
00022000
00033000
00001000
00010000
,
00000100
00000010
00000001
00001000
,
00000010
00000100
00000010
00010000
,
00001000
01000000
00010000
10000000
,
01000000
10000000
00010000
01000000
,
00100000
01000000
00001000
00010000
,
00000100
00000010
00000001
00001000
,
00000010
00000100
00000010
00001000
,
00000100
00010000
00011000
00000000
;

//---------------dance-double - M. Simmons----------------
#NOTES:
     dance-double:
     M. Simmons:
     Hard:
     6:
     0.414,0.382,0.260,0.170,0.238:
00000000
00000000
00000000
00000000
,
00000000
00000000
00000000
00000000
,
00000100
00001000
00000100
00010000
00001000
01000000
00100000
10000000
,
01000000
00000000
10000000
00000000
00010000
00000000
01000000
00000000
00100000
00000000
10000000
00000000
01000000
00100000
01000000
00100000
,
01000000
10000000
00010000
00000000
00000000
01000000
00100000
01000000
,
00010000
00100000
00001000
00100000
01000000
00010000
00001000
00000000
,
00000000
00000100
00000010
00000000
00000000
00001000
00000001
00000010
,
00000000
00000000
00000100
00000000
00001000
00000000
00000000
00000010
00010000
00000000
00000010
00000000
00000100
00000000
00000000
00000000
,
00000001
00001000
00000100
00010000
00000010
00010000
00010000
00010000
,
00001000
01000000
01000000
00010000
00100000
00100000
01000000
00000000
,
10000000
00010000
00010000
01000000
00100000
01000000
01000000
01000000
,
00010000
00000000
10000000
00000000
00010000
00000000
00100000
00000000
00001000
00000000
01000000
00001000
00000000
00000000
00000000
00000000
,
02001000
00000000
00000000
00001000
00000000
00000000
00000100
03000100
,
00020000
00000000
00000000
00000010
00000000
00000000
00000001
00030001
,
00000002
00000000
00000000
00000100
00000000
00000000
00001000
00001003
,
00000000
00000000
00000000
00000000
00000000
00000000
00000001
00000010
00000100
00000000
00000000
00000000
00011000
00000000
00000000
00000000
,
00001000
00000000
00000000
00001000
00100000
00000000
00000000
00100000
00001000
00010000
00000010
00000000
00000000
00000000
00010000
00000000
,
00010100
00000000
00000000
00001000
00000000
00000000
00010000
00000000
01001000
00000000
00001000
00000000
00001000
00100000
01000000
00000000
,
01100000
00000000
00000000
00010000
10000000
00000000
00000000
10000000
00010000
00100000
01000000
00000000
00000000
00000000
00000000
00000000
,
20000000
00000000
00000000
32000000
00000000
00000000
03100000
00000000
02000000
00000000
00000000
00000000
23000000
00000000
00000000
00000000
,
30010000
00000000
00000000
01000000
00001000
00000000
00000000
00001000
01000000
00010000
00100000
00000000
00000000
00000000
00001000
00000000
,
00010100
00000000
00000000
00010000
00000000
00000000
00000010
00000000
00000110
00000000
00000010
00000000
00010000
00000100
00010000
00000000
,
00010100
00000000
00000000
00000100
00000010
00000000
00000000
00000010
00000100
00001000
00000010
00000000
00000000
00000000
00000000
00000000
,
00000200
00000000
00000000
00000302
00000000
00000000
00001003
00000000
00001100
00000000
00000100
00000000
00010000
00001000
00010000
00000000
,
00001000
00000000
01000000
00100000
10000000
00000000
00000000
00000000
01000000
00000000
00100000
00001000
00010000
00000000
00000000
00000000
,
00000100
00000000
00000010
00000001
00001000
00000000
00000010
00000100
00000010
00000000
00001000
00000100
00000010
00000000
00000000
00000000
,
00000100
00000000
00000010
00000001
00001000
00000000
00000000
00000000
00000010
00000000
00001000
00000100
00010000
00000000
00000000
00000000
,
00001000
00000000
01000000
00100000
10000000
00000000
00010000
01000000
00010000
00000000
10000000
01000000
00100000
00000000
00000000
00000000
,
01000000
10000000
01010000
00010000
00100000
01100000
01010000
00002000
,
00000000
00013000
00000100
00010000
00010010
00010100
00010010
00000000
,
00001000
00100000
01000000
00000000
10000000
00100000
01000000
00020000
,
00000000
00130000
01000000
00100000
00110000
00000000
00101000
00000000
,
00200020
00000000
00000000
00000000
00000000
00000000
00300030
00000000
00001000
00000000
00000000
00010000
00000100
00000000
00000000
00000100
,
00010000
00001000
01000000
00000000
00100000
00000000
10000000
00000000
11000000
00000000
00000000
00110000
00000000
00000000
00011000
00000000
,
00010100
00000000
00001000
00000000
00000010
00000100
00000010
00000000
00001000
00000000
00000000
00000100
00000010
00000000
00000000
00000010
,
00000001
00001000
00000010
00000000
00000100
00000000
00000010
00000000
00000200
00000000
00000000
00000302
00000000
00000000
00001003
00000000
,
00000200
00000000
00000000
00000000
00000320
00000000
00000000
00000000
00000130
00000000
00000000
00001000
00000100
00000000
00000000
00000100
,
00010000
00001000
01000000
00000000
01001000
00000000
01000000
00000000
01100000
00000000
00000000
10100000
00000000
00000000
10010000
00000000
,
00110000
00000000
01000000
00000000
10000000
00100000
10000000
00000000
00010000
00000000
00000000
00100000
01000000
00000000
00000000
01000000
,
00100000
00010000
01000000
00000000
01001000
00000000
00000000
00000000
00020000
00000000
00000000
00030200
00000000
00000000
00000310
00000000
,
00000001
00000000
00001000
00000000
00000010
00000100
00000010
00000000
00001001
00000000
00000000
00000000
00000000
00000000
00000000
00000000
;

//---------------dance-double - M. Simmons----------------
#NOTES:
     dance-double:
     M. Simmons:
     Medium:
     4:
     0.242,0.200,0.117,0.126,0.004:
00000000
00000000
00000000
00000000
,
00000000
00000000
00000000
00000000
00000000
00000000
00000000
00001000
,
01000000
00000000
00100000
00000000
10000000
00000000
01000000
01000000
,
00100000
00000000
00001000
00000000
00010000
00000000
00001000
00001000
,
01000000
00000000
01100000
00000000
00100000
00000000
10000000
10000000
,
00000000
00010000
00010000
00000000
00100000
00000000
00001000
00000000
,
00010000
00000000
00001000
00000000
00010000
00000000
00000100
00000100
,
00000000
00000010
00000010
00000000
00000001
00000000
00001000
00000000
,
00000010
00000000
00000100
00000000
00000010
00000000
00001000
00001000
,
00000000
00000001
00000001
00000000
00000100
00000000
00000010
00000000
,
00010000
00000000
00000010
00000000
00000100
00000000
00000010
00000010
,
00000000
00010000
00010000
00000000
00110000
00000000
01010000
00000000
,
00020000
00000000
00000000
01000000
00000000
00000000
01030000
00020000
,
00000000
00000000
00000000
00030000
00000000
00000000
00000000
00000000
,
12000000
00000000
00000000
00100000
00000000
00000000
03100000
00200000
,
00000000
00000000
00000000
00000000
00300000
00000000
00001000
00100000
00001000
00000000
00000000
00000000
00010000
00000000
00000000
00000000
,
00000100
00000000
00001000
00000000
00000010
00000100
00000000
00000001
,
00002000
00000000
00000100
00000000
00003100
00010000
00001000
00000000
,
00010000
00000000
00000100
00000000
00001000
00000100
00000000
00000000
,
00000120
00000100
00000000
00000031
,
00001000
00000000
00000100
00000000
00010000
00001000
00000000
00000000
,
00002000
00000000
01000000
00000000
01003000
00001000
01000000
00000000
,
00100000
00000000
10000000
00000000
01000000
00100000
00000000
00000000
,
02100000
00100000
00000000
13000000
,
00010000
00100000
00001000
00010000
,
00000100
00000000
00000010
00000000
00000100
00001000
00000100
00000000
,
00000010
00000001
00001000
00000010
,
00000100
00000000
00000010
00000000
00010000
00000010
00010000
00000000
,
00000100
00010000
00000100
00010000
,
00001000
00000000
01000000
00000000
00100000
10000000
00100000
00000000
,
01000000
00010000
10000000
01000000
,
00100000
00001000
00011000
00011000
,
00022000
00003000
00031000
00100000
,
00010000
10000000
00200000
01000000
,
01300000
00100000
01000000
00000000
00001000
00000000
00010000
00000000
,
00000100
00000010
00000210
00000010
,
00000000
00000301
00001001
00000001
,
00000100
00000010
00020000
00001000
,
00031000
00010000
00001000
00000000
00010000
00000000
01000000
00000000
,
10000000
00010000
10020000
01000000
,
00000000
01000000
01030000
00000000
10010000
00000000
00000000
00000000
;
