#TITLE:This Must Be A Dream;
#SUBTITLE:;
#ARTIST:Carbo;
#TITLETRANSLIT:;
#SUBTITLETRANSLIT:;
#ARTISTTRANSLIT:;
#GENRE:Dance;
#CREDIT:Sync by HellRazoR;
#BANNER:This Must Be A Dream-bn.png;
#BACKGROUND:This Must Be A Dream-bg.png;
#LYRICSPATH:;
#CDTITLE:;
#MUSIC:This Must Be A Dream.ogg;
#OFFSET:0.067;
#SAMPLESTART:89.240;
#SAMPLELENGTH:12.000;
#SELECTABLE:YES;
#DISPLAYBPM:141.000;
#BPMS:0.000=141.000,99.500=173.600,100.000=141.000;
#STOPS:193.500=0.026;
#BGCHANGES:0.000=This Must Be A Dream-bg.png=1.000=0=0=1=====,
4.000=In The Groove Rebirth/205_JB_HD.mpg=1.000=0=0=1=====,
20.000=In The Groove Rebirth/219_JB_HD.mpg=1.000=0=0=1=====,
36.000=In The Groove Rebirth/218_JB_HD.mpg=1.000=0=0=1=====,
52.000=In The Groove Rebirth/318_JB_HD.mpg=1.000=0=0=1=====,
68.000=In The Groove Rebirth/172_JB_HD.mpg=1.000=0=0=1=====,
84.000=In The Groove Rebirth/258_JB_HD.mpg=1.000=0=0=1=====,
100.000=In The Groove Rebirth/503_JB_HD.mpg=1.000=0=0=1=====,
116.000=In The Groove Rebirth/1166_JumpBack.mpg=1.000=0=0=1=====,
132.000=This Must Be A Dream-bg.png=1.000=0=0=1=====,
136.000=In The Groove Rebirth/219_JB_HD.mpg=1.000=0=0=1=====,
152.000=In The Groove Rebirth/258_JB_HD.mpg=1.000=0=0=1=====,
164.000=This Must Be A Dream-bg.png=1.000=1=0=1===CrossFade==,
168.000=In The Groove Rebirth/205_JB_HD.mpg=1.000=0=0=1=====,
180.000=In The Groove Rebirth/218_JB_HD.mpg=1.000=0=0=1=====,
196.000=In The Groove Rebirth/318_JB_HD.mpg=0.400=0=0=1=Checkerboard1File2x2====,
212.000=In The Groove Rebirth/172_JB_HD.mpg=0.300=0=0=1=Checkerboard1File2x2====,
226.000=This Must Be A Dream-bg.png=1.000=0=0=1=0^0^1^1====,
227.000=This Must Be A Dream-bg.png=1.000=0=0=1=====,
228.000=In The Groove Rebirth/205_JB_HD.mpg=1.000=0=0=1=====,
244.000=In The Groove Rebirth/503_JB_HD.mpg=1.000=0=0=1=====,
259.500=This Must Be A Dream-bg.png=1.000=1=0=1===CrossFade==,
99999=-nosongbg-=1.000=0=0=0 // don't automatically add -songbackground-
;
#BGCHANGES2:131.000=flash=2.000=0=0=1====1^0^1^1=,
132.000=flash=2.000=0=0=1====0^1^0^1=,
194.000=flash=2.000=0=0=1====0^1^0^1=,
196.000=flash=2.000=0=0=1====0^1^1^1=,
;
#KEYSOUNDS:;

//---------------dance-single - M. Simmons----------------
#NOTES:
     dance-single:
     M. Simmons:
     Challenge:
     10:
     0.733,0.695,0.446,0.134,0.619:
0000
0000
0000
0000
,
1001
0000
0000
0011
0000
0000
0000
0000
0100
0000
1000
0001
0000
0000
0000
0000
,
0100
0000
0010
1000
0000
0010
0000
0100
0001
1000
0000
1001
0000
0000
0000
0001
,
0010
0000
0000
0000
0100
0000
0000
0000
1000
0000
0000
0000
0010
0000
0000
0000
0000
0000
0000
0000
0000
0110
0000
0000
0000
0000
0000
0000
0000
0000
0100
0000
0000
0001
0000
0000
0010
0000
0000
0000
0000
0000
0100
0000
0000
1000
0000
0000
,
0010
0000
0100
0001
0010
0000
0000
0100
0000
0000
0000
0100
0000
0000
0000
0100
,
0000
0000
1000
0000
0100
0000
0010
0001
1000
0010
0100
0010
0000
0100
0001
1000
,
0100
0000
0011
0000
0000
0000
0000
0001
0100
1000
0100
0001
0000
0000
0000
0000
,
2000
0000
3200
0000
0320
0000
0031
1000
0100
0010
0001
1000
0000
0010
0100
1000
,
0100
1001
0000
0000
0011
0100
1010
0100
,
0011
0000
0000
0001
1000
0000
0000
0100
0010
0000
0100
0000
1000
0000
0010
0000
,
0110
0000
0000
0100
0001
0000
0000
0001
1000
0000
0000
1000
0100
0000
0010
0000
,
0001
0100
1000
0100
0001
0010
0100
1000
,
1100
0000
0000
0100
0010
0000
0000
0010
0001
0000
1000
0000
0010
0000
0100
0000
,
1001
0000
0000
0001
0010
0000
0000
0010
0100
0000
1000
0000
0100
0000
0010
0000
,
0011
0000
0000
0001
1000
0000
0000
1000
0100
0000
0000
0100
0010
0000
0100
0000
,
1000
0001
0100
0010
0100
1000
0100
0001
,
2000
0000
0000
3100
0010
0000
0100
0000
1000
0000
0010
0000
0100
0001
0100
0000
,
1001
0000
0000
0001
0010
0000
0000
0100
1000
0000
0000
0001
0100
0000
0020
0000
,
0000
1030
0100
0001
0100
1000
0100
0000
,
0011
0000
0000
0001
1000
0000
0000
0100
0010
0000
0000
0100
1000
0000
0002
0000
,
0000
0203
0000
0320
0000
2030
0000
3001
,
0000
0000
0000
0010
0100
0000
0000
1000
0001
0000
0000
0100
0010
0000
2000
0000
,
0000
3001
0000
0011
0000
0110
0000
1100
,
1000
0000
0000
0001
0100
0000
0000
0100
0010
0000
0000
0010
1000
0000
0000
1000
,
0100
0000
0010
0001
0010
0000
0100
0000
1000
0000
0001
1000
0001
0000
0100
0000
,
0000
0000
0001
0010
0001
0000
0010
0000
0001
0000
0010
0000
0010
0000
0001
0000
,
0000
0000
1000
0001
1000
0000
0001
0000
1000
0000
1000
0000
0001
0000
0100
0000
,
0000
0000
0010
1000
0010
0000
1000
0000
0010
0000
1000
0000
1000
0000
0010
0000
,
0110
0000
0100
0010
0100
0000
0010
0000
0010
0000
0100
0000
0010
0000
0100
0000
,
0101
0000
0001
0100
0001
0000
1000
0000
0100
0000
0010
0000
0001
0000
1000
0000
,
1010
0000
0100
0001
0100
0000
0010
0000
0100
0000
0001
0000
0100
0000
0010
0000
,
1100
0000
0010
0001
0010
0000
0100
0000
1000
0000
0001
0000
0100
0000
0010
0000
,
1010
0000
0100
0001
0100
0000
0010
0000
1000
0000
0100
0000
1100
0000
0000
0000
,
2100
0000
3001
0000
,
0001
0000
0100
0000
0010
1000
0000
0100
1000
0000
0001
0000
0010
0000
0100
0000
,
0010
0000
0001
0000
0100
0010
0000
1000
0100
0000
0010
0000
0001
0000
1000
0000
,
0100
0000
1000
0000
0010
1000
0000
0100
0010
0000
0001
0000
0100
0000
0010
0000
,
1000
0000
0010
0000
0100
0001
0000
1000
0100
0000
0010
0000
0001
0000
0010
0000
,
0100
0000
1000
0000
0001
0100
0000
0010
1000
0000
0010
0000
0100
0000
0001
0000
,
1000
0000
0100
0000
0010
0001
0000
0100
1000
0000
0100
0000
0001
0000
1000
0000
,
0100
0000
0010
0000
0100
1000
0000
0001
0100
0000
0010
0000
1000
0000
0001
0000
,
0010
0000
0000
0110
0000
0000
0000
0000
1100
0000
0001
1000
0000
0000
0000
0000
,
0001
0000
0010
0100
0000
1000
0000
0010
0100
0010
0000
1010
0000
0000
0000
0001
,
0010
0000
0000
0000
0100
0000
0000
0000
0010
0000
0000
0000
1000
0000
0000
0000
0000
0000
0000
0000
0000
0110
0000
0000
0000
0000
0000
0001
0000
0000
1000
0000
0000
0010
0000
0000
0100
0000
0000
0000
0000
0000
0001
0000
0000
0100
0000
0000
,
0010
0000
1000
0100
0010
0000
0000
0001
0000
0000
0000
1000
0000
0000
0000
0001
,
0000
0000
1000
0000
0100
0000
0010
0100
1000
0001
0100
0010
0000
0100
0010
1000
,
0001
0000
1001
0000
0000
0000
0001
0010
0100
1000
0010
0100
0000
0000
0000
0000
,
0101
0000
1010
0000
1100
0000
0010
0001
1000
0010
0100
0010
0000
1000
0010
0001
,
0010
0000
0000
1010
0000
0000
0000
0000
0000
0000
0000
0000
0001
0000
0010
0000
0100
0000
1000
0000
0001
0000
0100
0000
,
0010
0000
1000
0001
0010
0100
1000
0010
,
0110
0000
0000
0001
1000
0000
0000
1000
0100
0000
0000
0010
0001
0000
1000
0000
,
0010
0100
0010
1000
0001
0010
0100
1000
,
1100
0000
0000
0010
0001
0000
0000
0100
0010
0000
1000
0000
0001
0000
0010
0000
,
0110
0000
0000
0100
1000
0000
0001
0000
0100
0000
0010
0000
1000
0000
0001
0000
,
1001
0000
0000
0001
1000
0000
0000
0100
0010
0000
0000
0010
0100
0000
0010
0000
,
0001
0100
0001
1000
0100
0010
0001
1000
,
1001
0000
0000
0001
1000
0000
0000
1000
0100
0000
0000
0000
0011
0000
0000
0000
,
1010
0000
0000
0001
1000
0000
0100
0000
0010
0000
0100
0000
1100
0000
0001
0000
,
1001
0000
1000
0001
1000
0000
0010
1000
0010
0000
0100
0001
0100
0000
0000
0000
,
1010
0001
0010
0100
0010
1000
0010
0110
,
0000
1100
0000
0101
0000
1010
0001
0001
,
0011
0000
0000
0010
0100
0000
0000
1000
0001
0000
0000
0100
0010
0000
2000
0000
,
0000
3200
0000
0320
0000
0130
0000
0110
,
1000
0000
0000
0001
0010
0000
0000
0100
1000
0000
0000
0001
0100
0000
0000
0010
,
1000
0000
0000
0001
1000
0000
0100
0000
0010
0000
0100
0000
1000
0000
0002
0000
,
0003
0000
0000
0000
;

//---------------dance-single - M. Simmons----------------
#NOTES:
     dance-single:
     M. Simmons:
     Hard:
     8:
     0.559,0.519,0.258,0.365,0.178:
0000
0000
0000
0000
,
0010
0000
0000
1000
0000
0000
0000
0000
0002
0000
0000
1003
0000
0000
0000
0000
,
0001
0000
0000
0010
0000
0100
0000
0000
2000
0000
0000
3001
0000
0000
0000
0000
,
2010
0000
0000
0000
0000
3001
0000
0000
0000
0011
0000
0000
,
1100
1001
0020
0000
,
0030
0000
0100
0000
0001
0000
0000
0000
2000
0000
0000
3100
0000
0000
0010
0000
,
0001
0000
1000
0000
0000
0000
0000
0001
0000
0000
0000
0110
0000
0000
0000
0000
,
1000
0100
1000
0100
1000
0001
0100
0000
,
0010
1000
0000
0000
0002
0023
2030
3020
,
0031
0000
1000
0100
0010
0100
1000
0002
,
0000
0103
0000
0000
0000
0010
1000
0010
,
0100
0001
1000
0100
0010
0001
0100
0020
,
0000
0030
0000
0000
0100
0010
1000
0100
,
0010
0000
0100
1000
0001
0010
0001
1000
,
0000
0020
0000
0030
0000
0100
0001
0100
,
0010
1000
0100
0010
0100
1000
0001
0100
,
0000
0000
0101
1001
,
0210
0000
0300
0000
0000
0010
1000
0002
,
0000
0013
0001
1000
0100
0010
0100
0000
,
1001
0000
0010
0000
0010
0000
0100
0002
,
0000
2003
0000
3002
0000
0023
0000
0130
,
1000
0000
0110
0000
0011
0001
1000
0100
,
0000
2000
0000
3002
0000
0023
0000
0031
,
1000
1100
0110
0000
,
0010
0101
1010
1000
,
0000
0000
0001
1000
0001
0000
0010
0000
0200
0000
1000
0000
0000
0000
1300
0000
,
0010
0000
0100
0010
0100
0000
0001
0000
2000
0000
0100
0000
0000
0000
3100
0000
,
1000
0000
0001
1000
0001
0000
0100
0000
0020
0000
0100
0000
0000
0000
0130
0000
,
0001
0000
1000
0100
1000
0000
0001
0000
0010
0000
0100
0000
1000
0000
0001
0000
,
0100
0000
0010
1000
0010
0000
0100
0000
0002
0000
0010
0000
0000
0000
0103
0000
,
0010
0000
1000
0001
0010
0000
0100
0000
0020
0000
0001
0000
0000
0000
0130
0000
,
1000
0000
0100
1000
0100
0000
1000
0000
0020
0000
1000
0000
0000
0000
0130
0000
,
0001
0000
0010
0001
0010
0000
0100
0000
1000
0000
0001
0000
0110
0000
0000
0000
,
1001
0000
0010
0000
,
0100
0000
1000
0000
0100
1000
0000
0100
1000
0000
0100
0000
1000
0000
0100
0000
,
0010
0000
0100
0000
0010
0100
0000
0010
0100
0000
0010
0000
0100
0000
0010
0000
,
0001
0000
0010
0000
0001
0010
0000
0001
0010
0000
0001
0000
0010
0000
0001
0000
,
1000
0100
0010
0001
0100
0010
1000
0100
,
0010
0000
0100
0000
0010
0100
0000
0010
0100
0000
0010
0000
0100
0000
0010
0000
,
0001
0000
1000
0000
0001
1000
0000
0001
1000
0000
0001
0000
1000
0000
0001
0000
,
0100
0000
0001
0000
0100
0001
0000
0100
0001
0000
0100
0000
0001
0000
0100
0000
,
0020
0000
0000
1030
0000
0000
0000
0000
0200
0000
0000
0310
0000
0000
0000
0000
,
0100
0000
0000
1000
0000
0001
0000
0000
0200
0000
0000
0310
0000
0000
0000
0000
,
2000
0000
0000
0000
0000
3001
0000
0000
0000
0110
0000
0000
,
1100
1001
0020
0000
,
0030
0000
0100
0000
1000
0000
0000
0000
0002
0000
0000
1003
0000
0000
0010
0000
,
0100
0010
0000
0000
1001
0000
1001
0000
,
0001
0100
0010
1000
0001
0010
0100
1000
,
0100
0000
0000
0010
0000
0000
0000
0000
0000
0000
0000
0000
0100
0000
1000
0000
0100
0000
1000
0000
0100
0000
1000
0000
,
0100
0000
0010
0001
1000
0001
0100
0020
,
0000
1030
0000
0000
0001
0000
0100
0001
,
1000
0100
1000
0001
0010
0100
1000
0020
,
0000
0030
0000
0000
0100
0001
0100
0010
,
1000
0000
0100
0010
1000
0010
0001
2000
,
0000
3001
0000
0000
0000
0010
0100
0010
,
0001
1000
0010
0100
1000
0100
0001
1000
,
0000
0000
1001
1001
,
0110
0000
0010
0000
1000
0100
0010
0100
,
0000
1000
0001
0100
0001
1000
0020
0000
,
0130
0000
0101
0000
1010
0100
0001
0020
,
0000
0230
0000
2300
0000
3002
0000
0103
,
0010
0000
1010
0000
0011
0100
1000
0100
,
0000
0010
0000
0001
0000
1000
0000
0010
,
0100
0001
0010
0100
,
1000
0010
0100
0001
;

//---------------dance-double - M. Simmons----------------
#NOTES:
     dance-double:
     M. Simmons:
     Hard:
     9:
     0.563,0.519,0.116,0.258,0.267:
00000000
00000000
00000000
00000000
,
00000000
00000000
00000000
00000000
,
00000000
00000000
00000000
00000000
,
00000000
00000000
00000000
00000000
,
00000000
00000000
00000000
00000000
,
00000100
00000000
00000000
00000010
00000000
00000000
00000001
00000000
00000000
00001000
00000000
00000000
00000010
00000000
00010000
00000000
,
00001000
00000000
00000000
00010000
00000000
00000000
00000100
00000000
00000000
00001000
00000000
00000000
00000100
00000000
00010000
00000000
,
00000100
00000000
00000000
00001000
00000000
00000000
00000010
00000000
00000000
00010000
00000000
00000000
00001000
00000000
00100000
00000000
,
00001000
00000000
00000000
01000000
00000000
00000000
00010000
00000000
00000000
00100000
00000000
00000000
01000000
00000000
00100000
00000000
,
01000000
00000000
10000000
01000000
00100000
00010000
01000000
00001000
,
00010000
00000000
00000000
00001000
00000000
00000000
00100000
00000000
00000000
00010000
00000000
00000000
01000000
00000000
00010000
00000000
,
01000000
00100000
10000000
00010000
01000000
00010000
00100000
00001000
,
00010000
00000000
00000000
00000100
00000000
00000000
00000010
00000000
00000000
00000100
00000000
00000000
00001000
00000000
00000100
00000000
,
00000010
00000001
00001000
00000010
00000100
00000010
00001000
00000001
,
00000100
00000000
00000000
00000010
00000000
00000000
00000100
00000000
00000000
00000001
00000000
00000000
00001000
00000000
00000100
00000000
,
00000010
00000100
00010000
00001000
00000100
00000010
00001000
00000001
,
00000100
00000000
00000000
00000010
00000000
00000000
00010000
00000000
00000000
00001000
00000000
00000000
01000000
00001000
01000000
00000000
,
00100000
10000000
11000000
00000000
01100000
00100000
00001000
00020000
,
00000000
00030100
00001000
00000010
00000100
00000010
00020000
00000000
,
00031000
00000000
00000000
00100000
00000000
00000000
00010000
00000000
00000000
01000000
00000000
00000000
00100000
00000000
20000000
00000000
,
00000000
32000000
00000000
03020000
00000000
00032000
00000000
00003100
,
00000010
00000000
00000000
00000100
00000000
00000000
00000001
00000000
00000000
00001000
00000000
00000000
00000100
00000000
00000020
00000000
,
00000000
00000230
00000000
00020300
00000000
00032000
00000000
00003100
,
00000010
00000000
00000000
00000100
00000000
00000000
00000001
00000000
00000000
00001000
00000000
00000000
00000100
00000000
00000010
00000000
,
00000100
00000000
00000000
00010000
00000000
00000000
00001000
00000000
00000000
00010000
00000000
00000000
00100000
00000000
00100000
00000000
,
00000000
00000000
10000000
00010000
10000000
00000000
01000000
00000000
00100000
00000000
01000000
00000000
10000000
00000000
00010000
00000000
,
00000000
00000000
01000000
00001000
01000000
00000000
00001000
00000000
00010000
00000000
00000100
00000000
00010000
00000000
00001000
00000000
,
00000000
00000000
00010000
00000010
00010000
00000000
00000100
00000000
00000010
00000000
00001000
00000000
00000010
00000000
00000001
00000000
,
00000000
00000000
00000100
00000010
00000100
00000000
00000010
00000000
00010000
00000000
00001000
00000000
00000100
00000000
00000010
00000000
,
00000000
00000000
00001000
00000100
00001000
00000000
00000010
00000000
00001000
00000000
00000100
00000000
00010000
00000000
00010000
00000000
,
00000000
00000000
00001000
00010000
00001000
00000000
00100000
00000000
01000000
00000000
00100000
00000000
00010000
00000000
10000000
00000000
,
00000000
00000000
00100000
10000000
00100000
00000000
01000000
00000000
00010000
00000000
10000000
00000000
01000000
00000000
00100000
00000000
,
00000000
00000000
01000000
10000000
01000000
00000000
00100000
00000000
00001000
00000000
00010000
00000000
00000100
00000000
00000000
00000000
,
00010100
00000000
00000002
00000003
,
00000100
00000000
00000010
00000000
00000100
00000010
00000000
00001000
00000001
00000000
00001000
00000000
00000001
00000000
00001000
00000000
,
00000010
00000000
00010000
00000000
00000010
00010000
00000000
00000100
00010000
00000000
00001000
00000000
00010000
00000000
00001000
00000000
,
01000000
00000000
00001000
00000000
01000000
00001000
00000000
01000000
00010000
00000000
01000000
00000000
00010000
00000000
01000000
00000000
,
00100000
00000000
10000000
00000000
00100000
10000000
00000000
00010000
10000000
00000000
00010000
00000000
10000000
00000000
00010000
00000000
,
01000000
00000000
00100000
00000000
01000000
00100000
00000000
01000000
00001000
00000000
01000000
00000000
00001000
00000000
01000000
00000000
,
00001000
00000000
00010000
00000000
00000100
00010000
00000000
00000100
01000000
00000000
00000100
00000000
01000000
00000000
00000100
00000000
,
00010000
00000000
00000010
00000000
00010000
00000010
00000000
00010000
00000001
00000000
00010000
00000000
00000001
00000000
00010000
00000000
,
00000020
00000000
00000000
00000130
00000000
00000000
00000000
00000000
00000200
00000000
00000000
00000301
00000000
00000000
00000000
00000000
,
00001000
00000000
00000100
00010000
00000000
00001000
00000000
00000000
00100000
00000000
00010000
10000000
00000000
00000000
00000000
00000000
,
01000000
00000000
00100000
00000000
01000000
00000000
00200000
00000000
00000000
00000000
01300000
00000000
00000000
00000000
00000000
00010000
00000000
00000000
01000000
00000000
00000000
00000000
00000000
00000000
,
01100000
10100000
10001000
00002000
,
00023000
00030100
00010000
00000010
00000100
00000010
00001000
00000100
,
00000010
00000100
00000000
00010000
00001000
00010000
00001000
01000000
,
00001000
00010000
00000010
00000100
00000001
00000010
00001000
00010000
,
00000010
00000000
00000000
00000100
00000000
00000000
00000000
00000000
00000000
00000000
00000000
00000000
00000010
00000000
00001000
00000000
00000010
00000000
00001000
00000000
00000010
00000000
00001000
00000000
,
00000010
00000000
00000100
00000001
00000100
00000010
00001000
00000200
,
00000000
00000310
00000100
00000000
00010000
00001000
00100000
00001000
,
00010000
00000100
00010000
00001000
00100000
00001000
00010000
00000100
,
00001000
00000000
00000010
00000000
00000100
00000001
00000100
00000010
,
00001000
00000000
00000100
00000010
00000100
00010000
00001000
00020000
,
00000000
00031000
00100000
00000000
00010000
01000000
00100000
01000000
,
00010000
10000000
01000000
00100000
01000000
10000000
00010000
01000000
,
00100000
01100000
10010000
01100000
,
00100000
00000000
00000000
10000000
01000000
00000000
00100000
00000000
00010000
00000000
10000000
00000000
00010000
00000000
02000000
00000000
,
00000000
03001000
00010000
00001000
00100000
00010000
00200000
00000000
,
01300000
00000000
11000000
00000000
10010000
00010000
00100000
00002000
,
00000000
00023000
00000000
00030200
00000000
00020300
00000000
00031000
,
00010000
00000000
00010100
00000000
00001010
00000010
00000100
00000002
,
00000000
00000203
00000000
00002300
00000000
00023000
00000000
02030000
,
13000000
00010000
01000000
00100000
,
01000000
00001000
00010000
00000100
;

//---------------dance-double - M. Simmons----------------
#NOTES:
     dance-double:
     M. Simmons:
     Challenge:
     10:
     0.728,0.696,0.223,0.250,0.584:
00000000
00000000
00000000
00000000
,
00000010
00000000
00000000
00001010
00000000
00000000
00000000
00000000
00010000
00000000
00000100
00000001
00000000
00000000
00000000
00000000
,
00000100
00000000
00010000
00100000
00000000
10000000
00000000
00010000
01000000
00001000
00000000
00011000
00000000
00000000
00000000
00000100
,
00000010
00000000
00000000
00000000
00000010
00000000
00000000
00000000
00000010
00000000
00000000
00000000
00000100
00000000
00000000
00000000
00000000
00000000
00000000
00000000
00001100
00000000
00000000
00000000
00000000
00000000
00000000
00000000
00000000
00000000
00000001
00000000
00000000
00000100
00000000
00000000
00001000
00000000
00000000
00000000
00000000
00000000
00010000
00000000
00000000
00001000
00000000
00000000
,
00000100
00000000
00000001
00000100
00001000
00000000
00000000
00022000
00000000
00000000
00000000
00000000
00000000
00033000
00000000
00000000
,
00000000
00000000
00001000
00000000
01000000
00000000
10000000
01000000
00010000
10000000
01000000
00100000
00000000
01000000
00010000
00001000
,
01000000
00000000
01010000
00000000
00000000
00000000
00100000
10000000
00010000
00100000
10000000
00100000
00000000
00000000
00000000
00000000
,
10100000
00000000
00110000
00000000
00101000
00000000
00001000
00010000
00000100
00000010
00001000
00010000
00000000
00000010
00000100
00000001
,
00001000
00001001
00000000
00000000
0000M020
00000130
00002000
00003001
,
00000010
00000000
00000000
00000100
00010000
00000000
00000000
00001000
01000000
00000000
00100000
00000000
10000000
00000000
00020000
00000000
,
00000000
00000000
01030000
00000000
01010000
00000000
00000000
00001000
00010000
00000000
00000000
01000000
00100000
00000000
01000000
00000000
,
10000000
00100000
00010000
00001000
00100000
01000000
00010000
00001000
,
00010000
00000000
00000000
00001000
00010000
00000000
00000000
00010000
00000100
00000000
00000010
00000000
00000100
00000000
00000010
00000000
,
00000001
00000000
00000000
00010000
00000010
00000000
00000100
00000000
00001000
00000000
00010000
00000000
01000000
00000000
00100000
00000000
,
01000000
00000000
00000000
10000000
00010000
00000000
00000000
00001000
00000001
00000000
00000000
00000010
00000100
00000000
00001000
00000000
,
00000010
00000100
00001000
00010000
00000100
00000010
00000001
00001000
,
00000010
00000000
00000000
00010000
00001000
00000000
01000000
00000000
00100000
00000000
10000000
00000000
01000000
10000000
01000000
00000000
,
00100000
00000000
00000000
01000000
00010000
00000000
00000000
00001000
00000100
00000000
00000010
00000000
00001000
00000000
00000002
00000000
,
00000000
00000013
00000100
00010000
00000010
00000100
00000002
00000000
,
00000103
00000000
00000000
00001000
00010000
00000000
00000000
01000000
10000000
00000000
00000000
00001000
00010000
00000000
00000020
00000000
,
00000000
00000230
00000000
00002300
00000000
00023000
00000000
00030010
,
00001001
00000000
00000000
00000001
00000010
00000000
00000000
00000100
00010000
00000000
00000000
00001000
00010000
00000000
02000000
00000000
,
00000000
03200000
00000000
00320000
00000000
20030000
00000000
30100000
,
01000000
00000000
00000000
00010000
01000000
00000000
00000000
00001000
01000000
00000000
00000000
00000100
01000000
00000000
00000000
00000100
,
00010000
00000000
00000000
00000010
00100000
00000000
00000000
00001000
00010000
00000000
00000000
00001000
10000000
00000000
10000000
00000000
,
00000000
00000000
01000000
10000000
01000000
00000000
00100000
00000000
00010000
00000000
01000000
00000000
10000000
00000000
00010000
00000000
,
00100000
00000000
01000000
00001000
01000000
00000000
00000100
00000000
00000010
00000000
00001000
00000000
00000001
00000000
00000100
00000000
,
00001000
00000000
00000010
00000100
00001000
00000000
00010000
00000000
00000010
00000000
00000001
00000000
00001000
00000000
00010000
00000000
,
00000100
00000000
00010000
00001000
01000000
00000000
00100000
00000000
01000000
00000000
10000000
00000000
00010000
00000000
00100000
00000000
,
10000000
00000000
01000000
00010000
01000000
00000000
00010000
00000000
00001000
00000000
00000100
00000000
00000001
00000000
00000010
00000000
,
00001000
00000000
00010000
00000010
00000100
00000000
00000001
00000000
00000100
00000000
00001000
00000000
00010000
00000000
01000000
00000000
,
00010000
00000000
00001000
00000100
00000010
00000000
00010000
00000000
00000100
00000000
00010000
00000000
00100000
00000000
01000000
00000000
,
00010000
00000000
10000000
01000000
00100000
00000000
00001000
00000000
00010000
00000000
00000010
00000000
00010010
00000000
00000000
00000000
,
00001100
00000000
00110000
00000000
,
01000000
00000000
10000000
00000000
00010000
01000000
00000000
00001000
00100000
00000000
01000000
00000000
00010000
00000000
00001000
00000000
,
00000100
00000000
00000010
00000000
00001000
00000100
00000000
00000010
00000001
00000000
00000100
00000000
00000010
00000000
00000100
00000000
,
00000001
00000000
00001000
00000000
00000100
00000010
00000000
00001000
00000010
00000000
00000100
00000000
00010000
00000000
00000100
00000000
,
00010000
00000000
00001000
00000000
01000000
00100000
00000000
10000000
00010000
00000000
01000000
00000000
10000000
00000000
01000000
00000000
,
00010000
00000000
10000000
00000000
01000000
00010000
00000000
00001000
00000100
00000000
00001000
00000000
00010000
00000000
00000010
00000000
,
00000100
00000000
00000001
00000000
00000010
00001000
00000000
00010000
00001000
00000000
01000000
00000000
00100000
00000000
10000000
00000000
,
01000000
00000000
00010000
00000000
00001000
00000100
00000000
00010000
01000000
00000000
00001000
00000000
00100000
00000000
01000000
00000000
,
10010000
00000000
00000000
01010000
00000000
00000000
00000000
00000000
00001000
00000000
00010000
00000100
00000000
00000000
00000000
00000000
,
00000010
00000000
00000100
00001000
00000000
00001001
00000000
00000001
00000100
00000010
00000000
00001000
00000000
00000000
00000000
00000100
,
00010000
00000000
00000000
00000000
00100000
00000000
00000000
00000000
10000000
00000000
00000000
00000000
00020000
00000000
00000000
00000000
00000000
00000000
00000000
00000000
00130000
00000000
00000000
00000000
00000000
00000000
00000000
00000000
00000000
00000000
01000000
00000000
00000000
10000000
00000000
00000000
00100000
00000000
00000000
00000000
00000000
00000000
01000000
00000000
00000000
00001000
00000000
00000000
,
00100000
00000000
01000000
10000000
00100000
00000000
00000000
02002000
00000000
00000000
00000000
00000000
00000000
03003000
00000000
00000000
,
00000000
00000000
00000010
00000000
00000100
00000000
00000001
00001000
00000100
00000010
00001000
00000010
00000000
00000001
00000100
00001000
,
00010000
00000000
00010010
00000000
00000000
00000000
00000000
00000100
00010000
00001000
01000000
00001000
00000000
00000000
00000000
00000000
,
00101000
00000000
00110000
00000000
00101000
00000000
00001000
01000000
00100000
10000000
00010000
00100000
00000000
01000000
00010000
00001000
,
00000100
00000000
00000000
00010010
00000000
00000000
00000000
00000000
00000000
00000000
00000000
00000000
00000002
00000000
00000203
00000000
00002300
00000000
00023000
00000000
00030020
00000000
00000230
00000000
,
00000310
00000000
00000000
00100000
00001000
00000000
00000000
00010000
00001000
00000000
01000000
00000000
00100000
00000000
20000000
00000000
,
00000000
00000000
31000000
00000000
00100000
00000000
00000000
00010000
01000000
00000000
00000000
00001000
01000000
00000000
00001000
00000000
,
00010000
00000100
00000010
00000100
00010000
00000010
00000100
00000001
,
00010000
00000000
00000000
00000100
00010000
00000000
00000000
00001000
01000000
00000000
00100000
00000000
10000000
00000000
01000000
00000000
,
00100000
00000000
00000000
01000000
00010000
00000000
00000000
00001000
00010000
00000000
00000100
00000000
00001000
00000000
00000020
00000000
,
00000000
00000000
00000130
00000000
00000001
00000000
00000000
00001000
00000100
00000000
00000000
00000010
00000100
00000000
00010000
00000000
,
00001000
00000100
00000010
00001000
00010000
01000000
00100000
10000000
,
01000000
00000000
00000000
00100000
00001000
00000000
00000000
00010000
00000010
00000000
00000000
00000000
00100010
00000000
00000000
00000000
,
00011000
00000000
00001000
00010000
00001000
00000000
00100000
00000000
00010000
00000000
10000000
00000000
01000000
00000000
00100000
00000000
,
00001000
00000000
00010000
00000100
00010000
00000000
00001000
00000000
00010000
00000000
00000100
00010000
00001000
00000000
00010000
00000000
,
00000010
00000000
00000100
00000010
00001000
00000000
00000010
00000000
00000100
00000000
00000001
00000000
00001000
00000000
00000100
00000000
,
00000010
00000000
00001000
00010000
00001000
00000000
00010000
00000000
00000100
00000000
00000010
00000100
00000010
00000000
00001000
00000000
,
00010000
00000000
00001000
00010000
00001000
00000000
01000000
00000000
00100000
00000000
10000000
00000000
01000000
00000000
00100000
00000000
,
01000000
00000000
10000000
01000000
10000000
00000000
00010000
00000000
01000000
00000000
00001000
01000000
00001000
00000000
00100000
00000000
,
01000000
00000000
00010000
00001000
00010000
00000000
00000100
00000000
00000010
00000000
00000001
00000000
00001000
00000000
00000020
00000000
,
00000000
00000130
00000010
00010000
00001000
01000000
00100000
20000000
,
00000000
30000000
00000000
00000000
00000000
00000000
00000000
00000000
;

//---------------dance-single - M. Simmons----------------
#NOTES:
     dance-single:
     M. Simmons:
     Beginner:
     1:
     0.095,0.114,0.071,0.000,0.000:
0000
0000
0000
0000
,
0000
0000
0000
0000
,
0000
0000
0000
0000
,
0000
0000
0000
0000
,
0000
0000
0000
0000
,
1000
0000
0000
0000
,
0001
0000
0001
0000
,
0100
0000
0000
0000
,
0010
0000
0000
0000
,
1001
0000
0000
0000
,
0001
0000
0001
0000
,
0100
0000
0000
0000
,
0010
0000
0010
0000
,
1000
0000
0000
0000
,
1000
0000
1000
0000
,
0001
0000
0000
0000
,
0010
0000
0010
0000
,
0001
0000
0000
0000
,
1000
0000
0000
0000
,
1001
0000
0000
0000
,
1000
0000
1000
0000
,
0100
0000
0000
0000
,
0010
0000
0010
0000
,
0010
0000
0000
0000
,
0001
0000
0000
0000
,
0000
0000
0000
0000
,
0100
0000
0000
0000
,
1001
0000
0000
0000
,
0010
0000
0000
0000
,
0110
0000
0000
0000
,
0001
0000
0000
0000
,
0110
0000
0000
0000
,
1000
0000
0100
0000
,
0110
0000
0000
0000
,
0100
0000
0000
0000
,
0010
0000
0000
0000
,
0001
0000
0000
0000
,
1000
0000
0000
0000
,
0001
0000
0000
0000
,
0010
0000
0000
0000
,
0100
0000
0000
0000
,
1000
0000
0000
0000
,
0010
0000
0000
0000
,
1000
0000
0000
0000
,
0100
0000
0000
0000
,
0010
0000
0000
0000
,
0010
0000
0000
0000
,
0001
0000
0000
0000
,
1000
0000
0000
0000
,
1001
0000
0000
0000
,
0001
0000
0000
0000
,
0010
0000
0000
0000
,
0100
0000
0000
0000
,
1000
0000
0000
0000
,
0001
0000
0000
0000
,
0100
0000
0000
0000
,
0010
0000
0000
0000
,
1001
0000
0000
0000
,
0010
0000
0000
0000
,
0100
0000
0000
0000
,
0001
0000
0000
0000
,
1000
0000
0000
0000
,
0100
0000
0000
0000
,
0010
0000
0000
0000
,
0001
0000
0000
0000
;

//---------------dance-single - M. Simmons----------------
#NOTES:
     dance-single:
     M. Simmons:
     Easy:
     4:
     0.272,0.317,0.071,0.098,0.000:
0000
0000
0000
0000
,
0000
0000
0000
0000
,
0000
0000
0000
0000
,
0000
0000
0000
0000
,
0000
0000
0000
0000
,
0000
0000
0000
0000
,
0000
0000
0000
0000
,
0000
0000
0000
0000
,
0000
0000
1000
0001
,
1001
0010
0100
0000
,
0001
1000
0100
0000
,
0010
0001
0010
0000
,
0100
1000
0001
1000
,
1001
0001
0010
0000
,
0100
0010
0100
0000
,
0010
0001
1000
0000
,
0010
1000
0010
0100
,
0110
0100
0001
1000
,
0100
0010
0001
0010
,
0100
1000
0001
0100
,
0010
0100
0001
1000
,
0100
0010
0001
0010
,
0001
1000
0010
1000
,
0010
0100
0001
1000
,
0100
1000
0010
1000
,
0000
0002
0000
0103
,
0010
2000
0000
3100
,
0010
0002
0000
0013
,
0100
0020
0000
0130
,
1000
0200
0000
0310
,
0001
2000
0000
3010
,
0100
0020
0000
1030
,
0100
2000
0000
3001
,
1001
0000
0010
0000
,
0100
0001
1000
0100
,
0010
0100
1000
0001
,
0100
0010
1000
0001
,
0100
0001
1000
0100
,
0010
0100
1000
0001
,
0010
0001
1000
0010
,
1000
0100
0010
0001
,
1000
0010
0100
0010
,
1000
0001
1000
0000
,
0100
0010
0100
0000
,
1000
0001
0020
0000
,
0130
0010
0100
0000
,
1000
0001
0100
0000
,
0010
1000
0010
0100
,
0001
1000
0220
0000
,
0330
0100
1000
0000
,
0001
0100
0001
0000
,
1000
0100
0010
0000
,
0100
1000
0001
0000
,
0100
0010
1000
0000
,
0001
0010
0001
0000
,
1000
0100
0010
0000
,
0001
0010
0110
0110
,
0110
1000
0001
0100
,
0010
1000
0100
0010
,
0001
1000
0010
0100
,
0010
1000
0001
0010
,
0100
0010
0001
1000
,
0010
0100
0001
0100
,
0010
1000
0100
0010
,
0001
1000
0100
0010
;

//---------------dance-single - M. Simmons----------------
#NOTES:
     dance-single:
     M. Simmons:
     Medium:
     5:
     0.353,0.346,0.107,0.071,0.000:
0000
0000
0000
0000
,
0000
0000
0000
0000
,
0000
0000
0000
0000
,
0000
0000
0000
0000
,
0000
0000
0000
0000
,
0000
0010
1000
0000
0001
0000
0100
0000
,
0001
1000
0000
0000
0100
0000
0100
0000
,
1000
0010
0100
0001
,
1000
0001
0000
0000
0010
0100
0010
0100
,
0010
0100
1000
0001
,
0100
0010
1000
0100
,
1000
0001
0100
0010
,
1000
0000
0100
0000
1000
0100
1000
0100
,
1000
0001
0100
0010
,
0100
0001
1000
0010
,
1000
0100
0010
0001
,
1000
0010
0110
0110
,
0010
0000
1000
0000
0100
0000
0010
0001
,
0000
1000
0001
1000
0001
0000
0100
0000
,
0100
0000
0010
0000
1000
0000
0100
0010
,
0000
0001
0000
1000
0000
0010
0000
0100
,
0010
0000
1000
0000
0001
0000
0100
0001
,
0000
1000
0000
0001
0000
0010
0000
0001
,
1000
0001
0100
0001
,
0010
0100
1000
2000
,
0000
0001
0000
3010
,
2010
0001
0000
3100
,
0210
0010
0000
1300
,
0012
0100
0000
1003
,
0010
0000
1000
0010
1000
0000
0001
0000
,
0010
0000
0100
0010
0100
0000
1000
0000
,
0001
0000
0100
0010
0100
0000
0010
0000
,
1000
0000
0001
1000
0001
0000
1001
0000
,
1001
0000
0020
0030
,
0100
0001
1000
0100
,
1000
0010
0100
0001
,
0010
0100
0010
0001
,
0100
0010
1000
0001
,
1000
0100
0010
0001
,
0100
0010
1000
0010
,
0100
0001
1000
0100
,
0010
0100
0010
0000
2001
0000
0010
0000
,
3001
0010
0100
1000
,
0001
0100
0001
0000
1000
0000
0100
0000
,
0010
0001
1001
0010
,
0100
0010
0100
0000
0001
0000
1000
0000
,
0100
0010
0100
1000
,
0001
1000
0001
0000
0010
0000
0001
0000
,
0100
0000
0010
0000
2002
0000
0000
3003
,
0001
0010
0100
1000
,
0010
0000
0100
0000
0010
1000
0010
0000
,
0100
0001
1000
0100
,
0010
0000
0100
0000
1000
0001
1000
0000
,
0010
0100
0010
1000
,
0100
0000
0010
0000
0001
0010
0001
0000
,
1000
0010
0100
0001
,
1000
0100
1001
1001
,
0010
0000
0100
0000
0001
1000
0001
0010
,
0000
0100
0000
1000
0000
0010
0000
0100
,
0010
0000
1000
0000
0001
0010
0001
1000
,
0000
0010
0000
0100
0000
0001
0000
0010
,
0100
0000
1000
0000
0010
0100
0010
1000
,
0000
0001
0000
0100
0000
0001
0000
1000
,
0001
0100
0001
1000
,
0100
0010
0001
0010
;

//---------------dance-double - M. Simmons----------------
#NOTES:
     dance-double:
     M. Simmons:
     Easy:
     3:
     0.211,0.288,0.036,0.009,0.000:
00000000
00000000
00000000
00000000
,
00000000
00000000
00000000
00000000
,
00000000
00000000
00000000
00000000
,
00000000
00000000
00000000
00000000
,
00000000
00000000
00000000
00000000
,
00000000
00000000
00000000
00000000
,
00000000
00000000
00000000
00000000
,
00000000
00000000
00000000
00000000
,
00000000
00000000
00000000
00000000
,
00100000
00000000
01000000
00000000
,
00010000
00000000
10000000
00000000
,
00010000
00000000
01000000
00000000
,
00100000
00000000
01000000
00010000
,
01000000
00000000
00001000
00000000
,
00100000
00000000
01000000
00000000
,
00100000
00000000
00001000
00000000
,
00010000
00000000
00000100
00001000
,
00000100
00000000
00000010
00000000
,
00000001
00000000
00001000
00000000
,
00000010
00000000
00000100
00000000
,
00000010
00000000
00010000
00000000
,
00000100
00000000
00000010
00000000
,
00000001
00000000
00001000
00000100
,
00001000
00000000
00000100
00000000
,
00010000
00000000
00001000
00100000
,
00000000
00010000
00000000
10000000
,
00100000
10000000
00000000
01000000
,
00100000
01000000
00000000
10000000
,
00010000
01000000
00000000
00001000
,
00100000
00010000
00000000
01000000
,
00001000
00010000
00000000
00000100
,
00001000
00000010
00000000
00000100
,
00000010
00000100
00000000
00001001
,
00001001
00000000
00000010
00000000
,
00000100
00000000
00000010
00000000
,
00001000
00000000
00000001
00000000
,
00000010
00000100
00001000
00000001
,
00000100
00000010
00010000
00001000
,
00000100
00000010
00010000
00001000
,
00100000
00010000
10000000
00100000
,
01000000
00100000
10000000
00010000
,
00100000
00000000
00010000
00000000
,
10000000
01000000
00000000
00100000
,
00000000
00001000
00000000
00010000
,
00000000
00100000
10000000
00010000
,
10000000
00010000
00000000
00100000
,
00000000
01000000
00000000
00100000
,
00000000
00001000
00000000
00010000
,
00000000
00000100
00000020
00000000
,
00000130
00001000
00000001
00000000
,
00000100
00000010
00001000
00000000
,
00000010
00000100
00000001
00000000
,
00001000
00000100
00010000
00000000
,
00001000
00100000
00010000
00000000
,
01000000
00001000
00010000
00000000
,
00001000
01000000
00100000
00000000
,
10000000
00010000
10010000
10010000
,
00010000
00100000
01000000
00100000
,
00001000
01000000
00100000
10000000
,
00010000
00100000
01000000
00100000
,
00001000
00010000
00000010
00000100
,
00000001
00001000
00000100
00000010
,
00000001
00001000
00000100
00001000
,
00000010
00000100
00000010
00010000
,
00001000
00100000
00010000
10000000
;

//---------------dance-double - M. Simmons----------------
#NOTES:
     dance-double:
     M. Simmons:
     Medium:
     6:
     0.372,0.375,0.098,0.187,0.013:
00000000
00000000
00000000
00000000
,
00000000
00000000
00000000
00000000
,
00000000
00000000
00000000
00000000
,
00000000
00000000
00000000
00000000
,
00000000
00000000
00000000
00000000
,
00000000
00010000
01000000
00000000
00100000
00000000
10000000
00000000
,
00010000
00000000
01000000
00000000
00000000
00000000
00000000
00000000
00001000
00000000
00000000
00010000
00000000
00000000
00000000
00000000
,
00010000
00000100
00000010
00000001
,
00000100
00000020
00000000
00000000
00001030
00000100
00001000
00000100
,
00010000
00001000
01000000
00100000
,
10000000
01000000
00100000
00001000
,
00010000
00000100
00010000
00001000
00010000
00000100
00010000
00001000
,
00000000
00010000
00000100
00000010
,
00000001
00001000
00000001
00000100
,
00000010
00001000
00000100
00000010
,
00000001
00000100
00000001
00001000
00000001
00000100
00000001
00001000
,
00000000
00000100
00010000
00001000
,
00011000
00000000
00001000
00000000
01000000
00100000
01000000
00020000
,
00000000
10030000
00010000
00000000
01000000
00000000
01010000
00000000
,
10100000
00000000
01000000
00000000
00010000
00000000
10000000
02000000
,
00000000
03200000
00000000
00302000
00000000
00023000
00000000
00030100
,
00000010
00000000
00000100
00000000
00001000
00000000
00000001
00000100
,
00000000
00000010
00000000
00000100
00000000
00000001
00000000
00001000
,
00000100
00000010
00001000
00010000
,
00001000
00000000
01000000
00000000
00100000
00000000
10000000
00010000
,
00000000
02000000
00000000
03100000
,
01000000
00002000
00000000
00013000
,
00000100
00000020
00000000
00000130
,
00001000
00000020
00000000
00000130
,
00000001
00002000
00000000
00003100
,
00010000
00002000
00000000
01003000
,
00100000
20000000
00000000
31000000
,
00010000
00002000
00000000
00013000
,
00010100
00000000
00011000
00000000
,
00000100
00000000
00000010
00000000
00000001
00001000
00000010
00000000
,
00010000
00000000
00000100
00000000
00010000
00001000
00010000
00000000
,
00001000
00000000
01000000
00000000
00100000
10000000
00010000
00000000
,
01000000
00000000
00010000
00000000
10000000
01000000
00100000
00000000
,
01000000
00000000
10000000
00000000
00010000
00100000
00001000
00000000
,
00010000
00000000
00000010
00000000
00001000
00000010
00001000
00000000
,
00000001
00000000
00000100
00000000
00000010
00010000
00001000
00000000
,
00010000
00000000
00000000
00001000
00000000
00000000
00000000
00000000
00010000
00000000
00000000
00001000
00000000
00000000
00000000
00000000
,
01000000
00100000
10000000
01000000
,
00100000
00001000
00010000
00000010
,
00000100
00000001
00001002
00000100
,
00000103
00000010
00001000
00000100
,
00010000
00001000
01000000
00100000
,
10000000
01000000
10000000
00000000
00010000
01000000
00010000
00000000
,
00100000
00100000
00000000
00000000
02000000
00000000
00000000
00000000
,
13000000
00010000
01000000
00001000
,
00100000
01000000
00010000
00001000
,
00000100
00000010
00001000
00000001
00001000
00000010
00001000
00000001
,
00000000
00000010
00000100
00010000
,
00001000
01000000
00100000
01000000
,
00001000
00010000
00000100
00010000
,
00001000
01000000
00001000
00010000
00001000
01000000
00001000
00010000
,
00000000
00001000
01001000
01001000
,
00010000
00000000
10000000
00000000
01000000
00000000
00100000
02000000
,
00000000
13000000
01000000
10000000
00010000
00000000
10010000
00000000
,
10010000
00000000
01000000
00000000
00001000
00000000
00010000
00200000
,
00000000
00320000
00000000
00032000
00000000
00003200
00000000
00001300
,
00010000
00000000
00000100
00000000
00000010
00000000
00000100
00000001
,
00000000
00000100
00000000
00001000
00000000
00000010
00000000
00000100
,
00000010
00000100
00000001
00000010
,
00000100
00010000
00001000
00011000
;
