#TITLE:The Man Crossing the Channel;
#SUBTITLE:;
#ARTIST:Select Club;
#TITLETRANSLIT:;
#SUBTITLETRANSLIT:;
#ARTISTTRANSLIT:;
#GENRE:House;
#CREDIT:Sync by HellRazoR;
#BANNER:The Man Crossing the Channel-bn.png;
#BACKGROUND:The Man Crossing the Channel-bg.png;
#LYRICSPATH:;
#CDTITLE:;
#MUSIC:The Man Crossing the Channel.ogg;
#OFFSET:-0.027;
#SAMPLESTART:81.247;
#SAMPLELENGTH:12.000;
#SELECTABLE:YES;
#DISPLAYBPM:130.000;
#BPMS:0.000=130.000;
#STOPS:;
#BGCHANGES:0.000=The Man Crossing the Channel-bg.png=1.000=0=0=1=====,
16.000=In The Groove Rebirth/168_JB_HD.mpg=1.000=1=0=1===CrossFade==,
32.000=In The Groove Rebirth/511_JB_HD.mpg=1.000=0=0=1=====,
48.000=In The Groove Rebirth/216_JB_HD.mpg=1.000=0=0=1=====,
64.000=In The Groove Rebirth/172_JB_HD.mpg=1.000=0=0=1=====,
80.000=In The Groove Rebirth/318_JB_HD.mpg=1.000=0=0=1=====,
96.000=In The Groove Rebirth/165_JB_HD.mpg=1.000=0=0=1=====,
109.000=In The Groove Rebirth/165_JB_HD.mpg=1.000=1=0=1=SongBgWithMovieViz==CrossFade==,
112.000=In The Groove Rebirth/168_JB_HD.mpg=1.000=0=0=1=====,
128.000=In The Groove Rebirth/511_JB_HD.mpg=1.000=0=0=1===SlideRight==,
140.000=The Man Crossing the Channel-bg.png=1.000=0=0=1=====,
140.750=The Man Crossing the Channel-bg.png=1.000=0=0=1====0^0^1^1=,
141.500=The Man Crossing the Channel-bg.png=1.000=0=0=1====0^1^0^1=,
142.250=The Man Crossing the Channel-bg.png=1.000=0=0=1====1^0^0^1=,
143.000=The Man Crossing the Channel-bg.png=1.000=0=0=1=====,
144.000=In The Groove Rebirth/216_JB_HD.mpg=0.400=0=0=1=Checkerboard2File2x2=The Man Crossing the Channel-bg.png===,
152.000=In The Groove Rebirth/216_JB_HD.mpg=0.400=0=0=1=Kaleidoscope2x2====,
160.000=The Man Crossing the Channel-bg.png=0.400=0=0=1=Checkerboard2File2x2=In The Groove Rebirth/172_JB_HD.mpg===,
168.000=In The Groove Rebirth/172_JB_HD.mpg=0.400=0=0=1=Kaleidoscope2x2====,
176.000=In The Groove Rebirth/165_JB_HD.mpg=1.000=0=0=1=====,
192.000=In The Groove Rebirth/170_JB_HD.mpg=1.000=0=0=1=====,
208.000=In The Groove Rebirth/318_JB_HD.mpg=1.000=0=0=1=====,
224.000=In The Groove Rebirth/168_JB_HD.mpg=1.000=0=0=1=====,
238.000=In The Groove Rebirth/168_JB_HD.mpg=1.000=1=0=1=SongBgWithMovieViz==CrossFade==,
240.000=The Man Crossing the Channel-bg.png=1.000=0=0=1=====,
99999=-nosongbg-=1.000=0=0=0 // don't automatically add -songbackground-
;
#BGCHANGES2:144.000=yellow flash=1.000=0=0=1=====,
240.000=white flash=1.000=0=0=1=====,
;
#KEYSOUNDS:;

//---------------dance-single - M. Simmons----------------
#NOTES:
     dance-single:
     M. Simmons:
     Easy:
     4:
     0.309,0.318,0.239,0.080,0.000:
0000
0000
0000
0000
,
0000
0000
0000
0000
,
0000
0000
0000
0000
,
0000
0000
0000
0000
,
1000
0100
1000
0001
,
0100
0010
1000
0100
,
1000
0001
0100
0010
,
2002
0000
0000
3003
,
0001
1000
0100
0100
,
1000
0010
0100
0100
,
0001
1000
0001
0001
,
0010
0100
1000
1000
,
0100
1000
0001
0100
,
0010
0100
0010
1000
,
0001
0100
0001
1000
,
1001
0110
1001
0110
,
0001
0001
1000
0100
,
0010
0001
1000
0001
,
0100
0100
0010
1000
,
0001
1000
0100
0010
,
0100
1000
0010
0001
,
0010
1000
0001
0100
,
1000
0100
0001
1000
,
0100
0001
0100
1000
,
1001
0000
1002
0000
0000
1000
0000
0100
,
0003
0000
0000
0110
0000
0110
0000
0000
,
0110
0000
0120
0000
0000
0100
0000
2000
,
0000
0000
0000
3030
,
0001
1000
0100
0001
,
0100
1000
0001
0100
,
0010
0010
1000
0001
,
0100
0001
1000
0100
,
0010
0010
1000
0010
,
0001
0010
1000
0010
,
0001
0001
1000
0100
,
1000
0001
0100
0010
,
0110
0000
0110
0000
0001
0001
0000
1000
,
0000
0100
0000
1000
0001
0000
0110
0000
,
1001
0000
1001
0000
0010
0010
0000
1000
,
0000
0001
0000
0100
0001
0000
1001
0000
,
0110
0000
0110
0000
0100
0100
0000
0010
,
0000
1000
0000
0001
1000
0000
0110
0000
,
1001
0000
1001
0000
0100
0100
0000
0020
,
0000
0000
0000
0130
,
0000
0100
0000
1000
0000
0001
0000
0100
,
0000
0010
0000
0001
0000
0010
0000
1000
,
0000
0100
0000
0001
0000
0100
0000
0010
,
0000
1000
0000
0010
0000
0001
0000
1000
,
0000
0010
0000
0001
0000
0010
0000
0100
,
0000
0001
0000
1000
0000
0100
0000
0001
,
0000
0100
0000
1000
0000
0001
0000
1000
,
0000
0010
0000
0010
0000
0100
0000
0100
,
0110
0000
0110
0000
1000
1000
0000
0001
,
0000
0100
0000
0001
1000
0000
0110
0000
,
1001
0000
1001
0000
0100
0100
0000
1000
,
0000
0001
0000
0200
0000
0000
0000
0000
,
0320
0000
0000
0000
0000
1000
0000
0100
,
0000
0000
0000
0100
0000
0000
0030
0000
,
2000
0000
0000
0000
0000
0001
0000
0010
,
0000
0000
0000
0001
0000
0000
3000
0000
;

//---------------dance-single - M. Simmons----------------
#NOTES:
     dance-single:
     M. Simmons:
     Challenge:
     11:
     0.916,0.851,0.257,0.053,1.000:
0000
0000
0000
0000
,
0000
0000
0000
0000
,
1000
0000
0000
0001
0000
0000
0000
0000
1000
0000
0000
0001
0000
0000
0000
0000
1000
0000
0000
0001
0000
0000
0000
0000
1000
0000
0000
0000
0010
0000
0000
0000
0000
0000
0000
0000
0010
0000
0000
0000
0000
0000
0000
0000
0010
0000
0000
0000
0000
0000
0000
0000
1000
0000
0000
0000
0001
0000
0000
0000
0100
0000
0000
0000
,
0010
0000
0000
1000
0000
0000
0000
0000
0010
0000
0000
1000
0000
0000
0000
0000
0010
0000
0000
1000
0000
0000
0000
0000
0010
0000
0000
1000
0000
0000
0000
0000
0001
0000
0000
0000
0100
0000
0000
0000
0001
0000
0000
0000
1000
0000
0000
0000
0000
0000
0000
0000
0001
0000
0000
0000
0100
0000
0000
0000
0010
0000
0000
0000
,
1000
0000
0000
0001
0000
0000
0000
0000
1000
0000
0000
0001
0000
0000
0000
0000
1000
0000
0000
0001
0000
0000
0000
0000
1000
0000
0000
0000
0100
0000
0000
0000
0000
0000
0000
0000
0010
0000
0000
0000
0000
0000
0000
0000
0001
0000
0000
0000
0000
0000
0000
0000
1000
0000
0000
0000
0100
0000
0000
0000
1000
0000
0000
0000
,
0001
0000
0000
0010
0000
0000
0000
0000
0001
0000
0000
0010
0000
0000
0000
0000
0001
0000
0000
0010
0000
0000
0000
0000
0001
0000
0000
0000
0100
0000
0000
0000
0000
0000
0000
0000
0100
0000
0000
0000
0000
0000
0000
0000
0100
0000
0000
0000
0010
0000
0000
0000
1000
0000
0000
0000
0100
0000
0000
0000
0010
0000
0000
0000
,
0100
0000
0000
1000
0000
0000
0000
0000
0100
0000
0000
1000
0000
0000
0000
0000
0100
0000
0000
1000
0000
0000
0000
0000
0100
0000
0000
0000
1000
0000
0000
0000
0000
0000
0000
0000
0010
0000
0000
0000
0000
0000
0000
0000
0100
0000
0000
0000
0000
0000
0000
0000
0010
0000
0000
0000
1000
0000
0000
0000
0001
0000
0000
0000
,
0100
0000
0000
0010
0000
0000
0000
0000
0100
0000
0000
0010
0000
0000
0000
0000
0100
0000
0000
0010
0000
0000
0000
0000
0100
0000
0000
0010
0000
0000
0000
0000
1000
0000
0000
0001
0000
0000
0100
0000
0000
0010
0000
0000
0100
0000
0000
0001
0000
0000
1000
0000
0000
0100
0000
0000
0010
0000
0000
0001
0000
0000
0010
0000
,
0100
0000
0000
1000
0000
0000
0000
0000
0100
0000
0000
0010
0000
0000
0000
0000
0100
0000
0000
1000
0000
0000
0000
0000
0100
0000
0000
0000
1000
0000
0000
0000
0000
0000
0000
0000
0010
0000
0000
0000
0000
0000
0000
0000
0100
0000
0000
0000
0000
0000
0000
0000
0010
0000
0000
0000
1000
0000
0000
0000
0001
0000
0000
0000
,
0010
0000
0000
0100
0000
0000
0000
0000
0010
0000
0000
0001
0000
0000
0000
0000
0010
0000
0000
0100
0000
0000
0000
0000
0010
0000
0000
0000
0001
0000
0000
0000
0000
0000
0000
0000
1000
0000
0000
0000
0000
0000
0000
0000
0001
0000
0000
0000
0000
0000
0000
0000
1000
0000
0000
0000
0100
0000
0000
0000
0010
0000
0000
0000
,
0001
0000
0000
1000
0000
0000
0000
0000
0001
0000
0000
0100
0000
0000
0000
0000
0001
0000
0000
0010
0000
0000
0000
0000
0001
0000
0000
0000
1000
0000
0000
0000
0000
0000
0000
0000
0100
0000
0000
0000
0000
0000
0000
0000
1000
0000
0000
0000
0000
0000
0000
0000
0100
0000
0000
0000
0010
0000
0000
0000
0100
0000
0000
0000
,
1000
0000
0000
0001
0000
0000
0000
0000
1000
0000
0000
0010
0000
0000
0000
0000
1000
0000
0000
0000
0100
0000
0000
0000
0000
0000
0000
0000
1000
0000
0000
0000
0001
0000
0000
0000
0000
0000
0000
0000
0100
0000
0000
0000
0010
0000
0000
0000
0000
0000
0000
0000
1000
0000
0000
0000
0001
0000
0000
0000
0100
0000
0000
0000
,
0001
0000
0000
1000
0000
0000
0000
0000
0001
0000
0000
0100
0000
0000
0000
0000
0001
0000
0000
1000
0000
0000
0000
0000
0001
0000
0000
0000
0100
0000
0000
0000
0000
0000
0000
0000
0010
0000
0000
0000
0000
0000
0000
0000
0001
0000
0000
0000
0000
0000
0000
0000
0010
0000
0000
0000
1000
0000
0000
0000
0001
0000
0000
0000
,
0100
0000
0000
0010
0000
0000
0000
0000
0100
0000
0000
0001
0000
0000
0000
0000
0100
0000
0000
0010
0000
0000
0000
0000
0100
0000
0000
0000
0001
0000
0000
0000
0000
0000
0000
0000
0001
0000
0000
0000
0000
0000
0000
0000
0001
0000
0000
0000
0000
0000
0000
0000
1000
0000
0000
0000
0100
0000
0000
0000
1000
0000
0000
0000
,
0100
0000
0000
0010
0000
0000
0000
0000
0100
0000
0000
1000
0000
0000
0000
0000
0100
0000
0000
0010
0000
0000
0000
0000
0100
0000
0000
0000
1000
0000
0000
0000
0000
0000
0000
0000
0001
0000
0000
0000
0000
0000
0000
0000
1000
0000
0000
0000
0000
0000
0000
0000
0010
0000
0000
0000
0100
0000
0000
0000
0001
0000
0000
0000
,
0100
0010
0100
0001
1000
0100
0000
0100
1000
0001
0100
0010
1000
0001
1000
0100
,
0010
0000
0000
0100
0000
0000
0000
0000
1000
0000
0000
0100
0000
0000
0000
0000
0010
0000
0000
0100
0000
0000
0000
0000
1000
0000
0000
0000
0100
0000
0000
0000
0000
0000
0000
0000
0010
0000
0000
0000
0000
0000
0000
0000
0001
0000
0000
0000
0000
0000
0000
0000
0010
0000
0000
0000
0001
0000
0000
0000
1000
0000
0000
0000
,
0001
0000
0000
0100
0000
0000
0000
0000
0001
0000
0000
1000
0000
0000
0000
0000
0001
0000
0000
0010
0000
0000
0000
0000
0001
0000
0000
0000
0100
0000
0000
0000
0000
0000
0000
0000
0100
0000
0000
0000
0000
0000
0000
0000
0100
0000
0000
0000
0000
0000
0000
0000
0010
0000
0000
0000
0100
0000
0000
0000
0001
0000
0000
0000
,
1000
0000
0000
0100
0000
0000
0000
0000
1000
0000
0000
0100
0000
0000
0000
0000
1000
0000
0000
0001
0000
0000
0000
0000
1000
0000
0000
0000
0100
0000
0000
0000
0000
0000
0000
0000
1000
0000
0000
0000
0000
0000
0000
0000
0001
0000
0000
0000
0000
0000
0000
0000
0100
0000
0000
0000
0010
0000
0000
0000
1000
0000
0000
0000
,
0001
0000
0000
0100
0000
0000
0000
0000
0010
0000
0000
1000
0000
0000
0000
0000
0100
0000
0000
0000
0010
0000
0000
0000
0000
0000
0000
0000
0001
0000
0000
0000
0010
0000
0000
0000
0000
0000
0000
0000
0001
0000
0000
0000
1000
0000
0000
0000
0000
0000
0000
0000
0010
0000
0000
0000
0001
0000
0000
0000
0010
0000
0000
0000
,
1000
0000
0000
0001
0000
0000
0000
0000
0100
0000
0000
0010
0000
0000
0000
0000
1000
0000
0000
0100
0000
0000
0000
0000
0010
0000
0000
0000
0001
0000
0000
0000
0000
0000
0000
0000
1000
0000
0000
0000
0000
0000
0000
0000
0001
0000
0000
0000
0000
0000
0000
0000
0100
0000
0000
0000
0010
0000
0000
0000
1000
0000
0000
0000
,
0001
0000
0000
0100
0000
0000
0000
0000
0010
0000
0000
1000
0000
0000
0000
0000
0100
0000
0000
0010
0000
0000
0000
0000
0100
0000
0000
0000
0010
0000
0000
0000
0000
0000
0000
0000
0010
0000
0000
0000
0000
0000
0000
0000
0010
0000
0000
0000
0000
0000
0000
0000
0001
0000
0000
0000
0100
0000
0000
0000
0001
0000
0000
0000
,
0100
0000
0000
0010
0000
0000
0000
0000
1000
0000
0000
0001
0000
0000
0000
0000
0100
0000
0000
0010
0000
0000
0000
0000
0100
0000
0000
0000
0010
0000
0000
0000
0000
0000
0000
0000
1000
0000
0000
0000
0000
0000
0000
0000
0010
0000
0000
0000
0000
0000
0000
0000
0100
0000
0000
0000
0001
0000
0000
0000
1000
0000
0000
0000
,
0100
0010
0000
0001
1000
0001
0000
0100
0010
1000
0001
0100
0001
1000
0100
0010
,
0001
0000
1000
0000
0010
0100
0000
0100
0001
1000
0000
0100
0010
0000
0001
0000
,
1000
0000
0010
0100
0010
1000
0001
0010
0100
0010
0001
0100
0010
1000
0001
1000
,
0010
0000
0100
0000
0001
1000
0000
0100
0010
0100
1000
0100
0010
0001
1000
0000
,
0010
0100
0010
1000
0001
0010
0100
0010
0000
0001
0100
0001
0100
0010
1000
0100
,
0010
0000
0001
0100
0000
0001
0010
0000
0100
1000
0000
0001
0100
0000
0020
0000
,
1030
0100
0010
0100
0000
0000
1000
0000
0010
0000
0200
0000
0000
0000
0000
0000
,
0310
0000
1000
0000
0001
0010
0100
0000
1000
0000
0001
0000
0100
0000
0010
0000
,
1000
0000
0001
0000
0010
0100
1000
0001
0100
0010
0100
0001
1000
0100
0010
0001
,
1000
0010
0100
0001
1000
0100
0010
0100
1000
0001
1000
0010
0100
0001
0010
0001
,
1000
0000
0010
0100
0001
1000
0100
0010
0100
1000
0001
0100
0010
1000
0001
0010
,
1000
0010
0000
0010
0001
0010
0100
1000
0100
0001
0000
0100
0000
1000
0000
0000
,
1001
0000
0001
0011
0000
0010
0110
0000
0100
1100
0000
1000
1001
0000
0020
0000
,
0200
0000
1000
0000
0001
0001
0330
0110
,
0000
1100
0000
0101
0010
0000
1001
0000
,
1001
0001
0101
0010
1000
1000
0100
0011
,
0000
1010
0000
0110
1000
0000
0011
0000
,
2002
0000
0100
0000
0010
0010
3003
1001
,
0000
0011
0000
1001
0100
0000
0110
0000
,
1100
0001
1100
0010
0001
0001
1000
1010
,
1010
0011
0011
1010
0001
1000
1001
0000
,
0001
0000
0000
0100
0000
0000
0000
0000
0001
0000
0000
0100
0000
0000
0000
0000
0001
0000
0000
0100
0000
0000
0000
0000
0001
0000
0000
0000
1000
0000
0000
0000
0000
0000
0000
0000
0100
0000
0000
0000
0000
0000
0000
0000
0010
0000
0000
0000
0000
0000
0000
0000
0100
0000
0000
0000
0010
0000
0000
0000
0100
0000
0000
0000
,
1000
0000
0000
0100
0000
0000
0000
0000
1000
0000
0000
0100
0000
0000
0000
0000
1000
0000
0000
0100
0000
0000
0000
0000
1000
0000
0000
0000
0001
0000
0000
0000
0000
0000
0000
0000
0001
0000
0000
0000
0000
0000
0000
0000
0001
0000
0000
0000
0000
0000
0000
0000
1000
0000
0000
0000
0100
0000
0000
0000
0010
0000
0000
0000
,
0001
0000
0000
1000
0000
0000
0000
0000
0001
0000
0000
0010
0000
0000
0000
0000
0001
0000
0000
0100
0000
0000
0000
0000
0001
0000
0000
0000
1000
0000
0000
0000
0000
0000
0000
0000
0010
0000
0000
0000
0000
0000
0000
0000
0100
0000
0000
0000
0000
0000
0000
0000
0010
0000
0000
0000
1000
0000
0000
0000
0010
0000
0000
0000
,
1000
0000
0000
0100
0000
0000
0000
0000
0010
0000
0000
0001
0000
0000
0000
0000
1000
0000
0000
0000
0001
0000
0000
0000
0000
0000
0000
0000
0100
0000
0000
0000
0010
0000
0000
0000
0000
0000
0000
0000
1000
0000
0000
0000
0100
0000
0000
0000
0000
0000
0000
0000
1000
0000
0000
0000
0100
0000
0000
0000
0010
0000
0000
0000
,
0001
0000
0000
1000
0000
0000
0000
0000
0010
0000
0000
0100
0000
0000
0000
0000
0010
0000
0000
1000
0000
0000
0000
0000
0010
0000
0000
0000
1000
0000
0000
0000
0000
0000
0000
0000
0100
0000
0000
0000
0000
0000
0000
0000
0010
0000
0000
0000
0000
0000
0000
0000
0100
0000
0000
0000
1000
0000
0000
0000
0010
0000
0000
0000
,
0100
0000
0000
0001
0000
0000
0000
0000
0100
0000
0000
0010
0000
0000
0000
0000
0100
0000
0000
0001
0000
0000
0000
0000
0100
0000
0000
0000
0001
0000
0000
0000
0000
0000
0000
0000
0001
0000
0000
0000
0000
0000
0000
0000
0001
0000
0000
0000
0000
0000
0000
0000
0010
0000
0000
0000
1000
0000
0000
0000
0010
0000
0000
0000
,
0001
0000
0000
1000
0000
0000
0000
0000
0001
0000
0000
1000
0000
0000
0000
0000
0001
0000
0000
1000
0000
0000
0000
0000
0010
0000
0000
0000
0100
0000
0000
0000
0000
0000
0000
0000
0010
0000
0000
0000
0000
0000
0000
0000
1000
0000
0000
0000
0000
0000
0000
0000
0100
0000
0000
0000
0010
0000
0000
0000
0001
0000
0000
0000
,
1000
0001
0010
0100
1000
0001
0000
1000
0100
0010
0100
0001
0100
1000
0010
1000
,
0010
0000
0000
0100
0000
0000
0000
0000
0010
0000
0000
0100
0000
0000
0000
0000
0010
0000
0000
0100
0000
0000
0000
0000
0000
0000
0000
0000
0001
0000
0000
0000
0000
0000
0000
0000
1000
0000
0000
0000
0000
0000
0000
0000
0100
0000
0000
0000
0000
0000
0000
0000
1000
0000
0000
0000
0100
0000
0000
0000
1000
0000
0000
0000
,
0100
0000
0000
0010
0000
0000
0000
0000
0100
0000
0000
0010
0000
0000
0000
0000
0100
0000
0000
0010
0000
0000
0000
0000
0000
0000
0000
0000
0001
0000
0000
0000
0000
0000
0000
0000
0100
0000
0000
0000
0000
0000
0000
0000
0001
0000
0000
0000
0000
0000
0000
0000
1000
0000
0000
0000
0100
0000
0000
0000
0010
0000
0000
0000
,
0001
0000
0000
1000
0000
0000
0000
0000
0001
0000
0000
0100
0000
0000
0000
0000
0001
0000
0000
0010
0000
0000
0000
0000
0000
0000
0000
0000
0100
0000
0000
0000
0000
0000
0000
0000
0010
0000
0000
0000
0000
0000
0000
0000
0001
0000
0000
0000
0000
0000
0000
0000
1000
0000
0000
0000
0001
0000
0000
0000
0100
0000
0000
0000
,
0010
0000
0000
1000
0000
0000
0000
0000
0010
0000
0000
0100
0000
0000
0000
0000
0001
0000
0000
0000
1000
0000
0000
0000
0000
0000
0000
0000
0100
0000
0000
0000
0010
0000
0000
0000
0000
0000
0000
0000
0001
0000
0000
0000
0100
0000
0000
0000
0000
0000
0000
0000
0010
0000
0000
0000
0100
0000
0000
0000
0010
0000
0000
0000
,
1000
0000
0000
0010
0000
0000
0000
0000
1000
0000
0000
0001
0000
0000
0000
0000
1000
0000
0000
0000
0100
0000
0000
0000
0000
0000
0000
0000
0010
0000
0000
0000
0000
0000
0000
0000
0100
0000
0000
0000
0000
0000
0000
0000
0010
0000
0000
0000
0000
0000
0000
0000
0001
0000
0000
0000
1000
0000
0000
0000
0001
0000
0000
0000
,
0100
0000
0000
0010
0000
0000
0000
0000
0100
0000
0000
0010
0000
0000
0000
0000
0100
0000
0000
0000
0001
0000
0000
0000
0000
0000
0000
0000
1000
0000
0000
0000
0000
0000
0000
0000
1000
0000
0000
0000
0000
0000
0000
0000
1000
0000
0000
0000
0000
0000
0000
0000
0100
0000
0000
0000
0010
0000
0000
0000
0100
0000
0000
0000
,
0010
0000
0000
0001
0000
0000
0000
0000
0010
0000
0000
0001
0000
0000
0000
0000
0010
0000
0000
0000
0100
0000
0000
0000
0000
0000
0000
0000
1000
0000
0000
0000
0000
0000
0000
0000
0001
0000
0000
0000
0000
0000
0000
0000
0100
0000
0000
0000
0000
0000
0000
0000
0010
0000
0000
0000
0001
0000
0000
0000
0010
0000
0000
0000
,
1000
0100
0000
0010
0001
0010
0100
1000
0040
0400
0000
0000
0000
0000
0000
0330
,
1001
0000
0000
0000
;

//---------------dance-single - M. Simmons----------------
#NOTES:
     dance-single:
     M. Simmons:
     Hard:
     7:
     0.455,0.532,0.062,0.018,0.483:
0000
0000
0000
0000
,
0000
0000
0000
0000
,
0000
0000
0000
0000
,
0000
0000
0000
0000
,
1000
0000
0000
0000
0100
0000
0000
0010
0000
0010
0000
0010
0000
0000
0000
0000
,
0100
0000
0000
0000
1000
0000
0000
0001
0000
0001
0000
0001
0000
0000
0000
0000
,
0100
0000
0000
0000
0010
0000
0000
1000
0000
1000
0000
1000
0000
0000
0000
0000
,
0001
0000
0001
0000
0001
0000
0001
0000
1000
0001
1000
0001
1000
0001
1000
0001
,
1000
0000
0010
0000
0100
0000
0000
0001
0000
0001
0000
0001
0000
0000
0000
0000
,
1000
0000
0100
0000
0010
0000
0000
0100
0000
0100
0000
0100
0000
0000
0000
0000
,
1000
0000
0010
0000
0100
0000
0000
0001
0000
0001
0000
0001
0000
0000
0000
0000
,
1000
0000
0010
0000
0000
0100
0000
0000
0001
0000
0000
1000
0000
0000
0100
0000
,
0010
0000
0001
0000
0010
0000
0000
0100
0000
0100
0000
0100
0000
0000
0000
0000
,
1000
0000
0001
0000
0100
0000
0000
0001
0000
0001
0000
0001
0000
0000
0000
0000
,
1000
0000
0010
0000
0100
0000
0000
0010
0000
0010
0000
0010
0000
0000
0000
0000
,
1000
1001
0001
0110
,
1000
0000
0100
0000
1000
0000
0000
0001
0000
0001
0000
0001
0000
0000
0000
0000
,
0001
0000
0100
0000
0001
0000
0000
1000
0000
1000
0000
1000
0000
0000
0000
0000
,
0010
0000
0100
0000
0010
0000
0000
0100
0000
0100
0000
0100
0000
0000
0000
0000
,
0010
0000
1000
0000
0000
0001
0000
0000
0100
0000
0000
0001
0000
0000
1000
0000
,
0100
0000
1000
0000
0010
0000
0000
1000
0000
1000
0000
1000
0000
0000
0000
0000
,
0100
0000
0010
0000
0001
0000
0000
1000
0000
1000
0000
1000
0000
0000
0000
0000
,
0100
0000
0010
0000
0100
0000
0000
0100
0000
0100
0000
0100
0000
0000
0000
0000
,
1000
0001
0100
0001
1000
0001
0100
0001
,
1000
0100
0100
1000
0000
0001
0100
0001
,
1000
1000
0100
1000
0000
0001
0100
0010
,
0100
0100
0001
1000
0000
0010
1000
0001
,
0100
0000
0100
0000
0001
0000
1000
0100
0000
0010
0001
0000
1000
0000
0001
0000
,
0100
0010
1000
0001
0100
0001
1000
0100
,
0010
0100
1000
0001
0100
0002
0000
0000
,
1003
0100
0000
1000
0000
0001
0100
0010
,
1000
0001
0100
0001
1000
0100
0010
0001
,
0010
0100
0000
0100
1000
0000
1000
0001
0000
0001
1000
0000
0001
0000
0100
0000
,
0010
0100
0000
0100
0010
0000
0010
1000
0000
1000
0001
0000
1000
0000
0100
0000
,
0010
0100
0000
0100
0010
0000
0010
0001
0000
0001
1000
0000
0001
0000
0100
0000
,
0020
0000
0000
1000
0000
0000
0100
0000
0000
0001
0000
0000
0130
0000
0100
0000
,
0010
0000
1000
0000
0001
0001
0000
1000
,
0000
0100
0000
1000
1000
0000
0001
0000
,
0100
0000
0100
0000
0010
0010
0000
1000
,
0000
0001
0000
1000
1000
0000
0001
0000
,
0100
0000
0010
0000
0100
0100
0000
0001
,
0000
1000
0000
0100
0010
0000
0010
0000
,
0001
0000
1000
0000
0001
0001
0000
1000
,
0001
0100
0001
1000
0100
1000
0001
0100
,
0001
0000
1000
0000
0100
0000
0000
0010
0000
0010
0000
0010
0000
0000
0000
0000
,
0010
0000
0100
0000
1000
0000
0000
0001
0000
0001
0000
0001
0000
0000
0000
0000
,
0001
0000
1000
0000
0010
0000
0000
0100
0000
0100
0000
0100
0000
0000
0000
0000
,
0010
0000
1000
0000
0000
0001
0000
0000
0100
0000
0000
0001
0000
0000
1000
0000
,
0100
0000
0010
0000
0001
0000
0000
1000
0000
1000
0000
1000
0000
0000
0000
0000
,
0100
0000
1000
0000
0001
0000
0000
0100
0000
0100
0000
0100
0000
0000
0000
0000
,
0010
0000
1000
0000
0010
0000
0000
0100
0000
0100
0000
0100
0000
0000
0000
0000
,
0001
1100
0010
0101
,
0010
0000
1000
0000
0001
0000
0000
0100
0000
0100
0000
0100
0000
0000
0000
0000
,
0001
0000
1000
0000
0100
0000
0000
0010
0000
0010
0000
0010
0000
0000
0000
0000
,
0100
0000
0010
0000
0001
0000
0000
1000
0000
1000
0000
1000
0000
0000
0000
0000
,
0010
0000
0100
0000
0000
0001
0000
0000
1000
0000
0000
0100
0000
0000
0010
0000
,
0001
0000
1000
0000
0001
0000
0000
0100
0000
0001
0000
0100
0000
0000
0000
0000
,
0010
0000
1000
0000
0001
0000
0000
1000
0000
0001
0000
1000
0000
0000
0000
0000
,
0100
0000
0010
0000
0001
0000
0000
1000
0000
0100
0000
0010
0000
0000
0000
0000
,
0100
0011
0100
1010
,
1001
0000
0000
0000
;

//---------------dance-single - M. Simmons----------------
#NOTES:
     dance-single:
     M. Simmons:
     Medium:
     5:
     0.333,0.319,0.035,0.142,0.155:
0000
0000
0000
0000
,
0000
0000
0000
0000
,
0000
0000
0000
0000
,
0000
0000
0000
0000
,
1000
0100
1000
0001
,
0100
0000
0000
0000
0010
0000
0000
1000
0000
1000
0000
1000
0000
0000
0000
0000
,
0001
1000
0100
0010
,
2002
0000
0000
3003
,
0010
0100
0001
1000
,
0100
0000
0000
0000
0010
0000
0000
0001
0000
0001
0000
0001
0000
0000
0000
0000
,
0100
0010
1000
0001
,
1000
0000
0001
0000
0000
0001
0000
0000
0001
0000
0000
0001
0000
0000
1000
0000
,
0010
0100
0010
1000
,
0001
0000
0000
0000
0010
0000
0000
0100
0000
0100
0000
0100
0000
0000
0000
0000
,
1000
0001
0100
0010
,
1000
0001
0001
1000
0020
0000
0000
0000
,
0130
0010
1000
0001
,
1000
0000
0000
0000
0100
0000
0000
0010
0000
0010
0000
0010
0000
0000
0000
0000
,
0100
1000
0001
0100
,
0010
0000
1000
0000
0000
1000
0000
0000
1000
0000
0000
1000
0000
0000
1000
0000
,
0001
0100
0010
1000
,
0100
0000
0000
0000
0010
0000
0000
0001
0000
0001
0000
0001
0000
0000
0000
0000
,
0001
1000
0010
0100
,
0010
0100
0010
0010
2000
0000
0000
0000
,
3001
0010
0100
0010
,
0001
0000
1000
0000
0001
0100
0100
0001
,
1000
0100
0010
0001
,
2002
0000
0000
3003
,
0001
0100
0010
0100
,
0010
0100
0010
0100
0001
2000
0000
0000
,
3100
0010
0001
0010
,
0100
1000
0001
0100
,
0010
0010
1000
2000
,
3001
0001
0100
0200
,
0310
0010
0001
0002
,
0013
1000
0001
1001
,
0100
0000
0200
0000
0000
0000
0000
0010
,
0000
0010
0000
0310
0100
0000
0001
0000
,
1000
0000
2000
0000
0000
0000
0000
0001
,
0000
0001
0000
3001
1000
0000
0100
0000
,
0010
0000
0020
0000
0000
0000
0000
0100
,
0000
0100
0000
0130
0010
0000
0001
0000
,
1000
0000
0002
0000
0000
0000
0000
1003
,
0001
1000
0001
1000
0001
1000
1001
0000
,
0010
1000
0001
0100
,
0001
0000
0000
0000
1000
0000
0000
0001
0000
0001
0000
0001
0000
0000
0000
0000
,
1000
0100
0010
0100
,
1000
0000
0001
0000
0000
0001
0000
0000
0001
0000
0000
0001
0000
0000
0001
0000
,
1000
0010
0100
0010
,
1000
0000
0000
0000
0001
0000
0000
0010
0000
0010
0000
0010
0000
0000
0000
0000
,
0100
1000
0001
0100
,
0001
1000
1000
0100
0020
0000
0000
0000
,
0130
1000
0001
0100
,
0010
0000
0000
0000
0100
0000
0000
0010
0000
0010
0000
0010
0000
0000
0000
0000
,
0100
0010
1000
0001
,
1000
0000
0100
0000
0000
0100
0000
0000
0100
0000
0000
0100
0000
0000
0100
0000
,
0010
0001
1000
0001
,
0100
0000
0000
0000
0010
0000
0000
0100
0000
0100
0000
0100
0000
0000
0000
0000
,
0001
1000
0100
0010
,
0001
1000
1000
0010
0200
0000
0000
0000
,
0310
0000
0000
0000
;

//---------------dance-single - M. Simmons----------------
#NOTES:
     dance-single:
     M. Simmons:
     Beginner:
     1:
     0.080,0.080,0.027,0.000,0.000:
0000
0000
0000
0000
,
0000
0000
0000
0000
,
0000
0000
0000
0000
,
0000
0000
0000
0000
,
1000
0000
0000
0000
,
0001
0000
0000
0000
,
0100
0000
0000
0000
,
0010
0000
0000
0000
,
1000
0000
0000
0000
,
0100
0000
0000
0000
,
1000
0000
0000
0000
,
0001
0000
0000
0000
,
1000
0000
0000
0000
,
0100
0000
0000
0000
,
0010
0000
0000
0000
,
0001
0000
0000
0000
,
1001
0000
0000
0000
,
0001
0000
0000
0000
,
1000
0000
0000
0000
,
0010
0000
0000
0000
,
0100
0000
0000
0000
,
0010
0000
0000
0000
,
1000
0000
0000
0000
,
0001
0000
0000
0000
,
0110
0000
0000
0000
,
0000
0000
0000
0000
,
0100
0000
0000
0000
,
0010
0000
0000
0000
,
1000
0000
0000
0000
,
0001
0000
0000
0000
,
0100
0000
0000
0000
,
0001
0000
0000
0000
,
1000
0000
0000
0000
,
0100
0000
0000
0000
,
1000
0000
0000
0000
,
0001
0000
0000
0000
,
0100
0000
0010
0000
,
0010
0000
0000
0000
,
0100
0000
0001
0000
,
0001
0000
0000
0000
,
1000
0000
0100
0000
,
0100
0000
0000
0000
,
0010
0000
0100
0000
,
0100
0000
0000
0000
,
1000
0000
0000
0000
,
0001
0000
0000
0000
,
0100
0000
0000
0000
,
0010
0000
0000
0000
,
0100
0000
0000
0000
,
0001
0000
0000
0000
,
1000
0000
0000
0000
,
0010
0000
0000
0000
,
0100
0000
0000
0000
,
0010
0000
0000
0000
,
1000
0000
0000
0000
,
0001
0000
0000
0000
,
1000
0000
0000
0000
,
0100
0000
0000
0000
,
1000
0000
0000
0000
,
0001
0000
0000
0000
,
0110
0000
0000
0000
;

//---------------dance-double - M. Simmons----------------
#NOTES:
     dance-double:
     M. Simmons:
     Challenge:
     10:
     0.780,0.824,0.408,0.009,1.000:
00000000
00000000
00000000
00000000
,
00000000
00000000
00000000
00000000
,
00010000
00000000
00001000
00000000
00010000
00001000
00000000
00100000
00000000
01000000
00000000
10000000
00000000
00010000
01000000
00000000
,
00100000
00000000
01000000
00000000
00010000
10000000
00000000
00001000
00010000
00000000
00000001
00001000
00000000
00000010
00000100
00000000
,
00000110
00000000
00001000
00000000
00000100
00000010
00000000
00001000
00000000
00010000
00000000
00100000
00000000
01000000
00010000
00000000
,
10000000
00000000
01000000
00000000
00100000
01000000
00000000
00010000
00000000
00001000
00000000
00000100
00000000
00000010
00001000
00000010
,
00000100
00000000
00000001
00000000
00000100
00000000
00001000
00010000
00000000
01000000
00000000
00100000
00000000
00010000
00100000
00000000
,
00101000
00000000
00011000
00000000
00010100
00000000
00001100
00000000
00010000
00001000
00010000
00000010
00000100
00000001
00000010
00000100
,
00001000
00000000
00000010
00000000
00001000
00000000
00000001
00000100
00000000
00000010
00000000
00000100
00000000
00000010
00010000
00000000
,
00001000
00000000
00100000
00000000
01000000
00000000
10000000
00010000
00000000
01000000
00000000
00011000
00000000
00000100
00001000
00000010
,
00000100
00000000
00001000
00000000
00010000
00000000
01000000
00010000
00000000
00001000
00000000
00000100
00000000
00001000
00010000
00000000
,
00100000
00000000
00010000
00000000
00001000
00000100
00000000
00000100
00000010
00000000
00010000
01000000
00000000
00100000
00010000
10000000
,
01000000
00000000
00010000
00000000
00001000
00000000
01000000
10000000
00000000
01000000
00000000
00001000
00000000
00000100
00000010
00001000
,
00000010
00000000
00001000
00000000
00000001
00000000
00000010
00001000
00000000
00010000
00000000
00100000
00000000
00010000
00001000
00000000
,
00010000
00000000
00000001
00000000
00001000
00000000
00000100
00010000
00000000
01000000
00000000
00010000
00000000
00001000
00010000
00000000
,
00000010
00000001
00000000
00000010
00010000
00000100
00000000
00010000
00001000
01000000
00100000
10000000
01000000
00100000
00001000
00010000
,
00001000
00000000
00010000
00000000
01000000
00000000
10000000
00010000
00000000
01000000
00000000
10000000
00000000
01000000
00001000
00000000
,
00010000
00000000
00000010
00000000
00000001
00000000
00000010
00001000
00000000
00000100
00000000
00000010
00000000
00001000
00010000
00001000
,
01000000
00000000
00100000
00000000
00010000
00000000
00001000
00010000
00000000
00000100
00000000
00000010
00000000
00001000
00000010
00000000
,
00000001
00000000
00000100
00000000
00001000
00010000
00000000
00100000
01000000
00000000
00001000
00010000
00000000
00000100
00000010
00000000
,
00001000
00000000
00010000
00000000
00001000
00000000
01000000
10000000
00000000
01000000
00000000
00010000
00000000
00100000
00001000
00010000
,
00000100
00000000
00001000
00000000
00000001
00000000
00000100
00000010
00000000
00001000
00000000
00000100
00000000
00010000
00001000
00000000
,
00100000
00000000
00010000
00000000
01000000
00000000
00001000
00000100
00000000
00000010
00000000
00010000
00000000
01000000
00100000
00001000
,
00010000
00000100
00000000
00000010
00000100
00010000
00000000
00000100
00000010
00000001
00000100
00001000
00010000
00001000
00000100
00000001
,
00001000
00000000
00000100
00000000
00010000
00000000
01000000
00000000
10000000
00010000
00000000
00100000
00010000
00000000
01000000
00001000
,
00010000
00000000
00000100
00000000
00000010
00000001
00001000
00000000
00000010
00001000
00000010
00000001
00000010
00010000
00000100
00000001
,
00000100
00010000
00100000
00010000
00000100
00010000
00100000
00010000
,
00000100
00001000
00000001
00000100
00000010
00001000
00000100
00010000
00000000
00001000
01000000
00010000
00100000
00001000
00010000
00000100
,
00001000
00000010
00000100
00001000
00010000
00001000
00100000
00010000
,
00100000
00010000
00100000
00001000
00000000
000000M0
00001000
00000000
00010000
00000000
00200000
00000000
01000000
00000000
10000000
00000000
,
01000000
00000000
00010000
00000000
01300000
00001000
00010000
00000000
00000100
00000000
00000010
00000000
00001000
00000000
00000010
00000000
,
00000001
00000000
00000100
00000000
00001000
00010000
00000100
00000010
00000000
00000010
00000100
00010000
00001000
01000000
10000000
01000000
,
00010000
00100000
00001000
00010000
00000100
00001000
00000100
00010000
00000010
00000100
00001000
00010000
00000100
00000010
00000001
00001000
,
00000001
00000000
00000100
00001000
00010000
01000000
10000000
00010000
01000000
00100000
01000000
00010000
10000000
01000000
00100000
00001000
,
00010000
00000010
00000000
00000100
00000001
00001000
00000100
00000010
00001000
00010000
00001000
01000000
00000000
00001000
00000000
00000000
,
00010000
00000000
01000000
10000000
00000000
00001000
00010000
00000000
00000001
00001000
00000000
00001000
00010000
00000000
10000000
00000000
,
01000000
00100000
10010000
00000000
00001000
00001000
00010000
00010100
,
00000000
00001001
00000000
00010100
00001001
00000000
00000010
00001000
,
00001100
00010000
00001100
00010000
01010000
01010000
00100000
11000000
,
00000000
00011000
00000000
00000101
00010010
00000100
00000110
00000000
,
00000001
00001000
00000110
00000000
00000100
00000100
00000001
00000110
,
00000000
00011000
00000000
00000110
00001100
00000000
00011000
00000000
,
01100000
01000000
01100000
01000000
00110000
00110000
00010000
00101000
,
10000000
00100000
00010000
00001000
00000010
00001000
00010000
00100000
,
10000000
00000000
00010000
00000000
00100000
00000000
00001000
00010000
00000000
00000100
00000000
00001000
00000000
00000010
00000100
00000000
,
00000001
00000000
00000100
00000000
00001000
00000000
00010000
00001000
00000000
00100000
00000000
00110000
00000000
00010000
10000000
01000000
,
00010000
00000000
00001000
00000000
00010000
00000000
00000010
00000100
00000000
00000001
00000000
00001000
00000000
00000100
00000010
00000000
,
00001000
00000000
00010000
00000000
00001000
01000000
00000000
00100000
01000000
00000000
00001000
00010000
00000000
00000100
00000010
00000000
,
00000001
00000000
00001000
00000000
00010000
00000000
10000000
01000000
00000000
00100000
00000000
01000000
00000000
10000000
00010000
00000000
,
00001000
00000000
00000001
00000000
00001000
00000000
00000100
00000010
00000000
00000100
00000000
00010000
00000000
00001000
00010000
00001000
,
00100000
00000000
01000000
00000000
10000000
00000000
00010000
01000000
00000000
00001000
00000000
00010000
00000000
00001000
00000100
00000010
,
00000001
00000010
00000000
00001000
00000100
00010000
00000000
00001000
01000000
00100000
00010000
00001000
00010000
00000100
00000010
00001000
,
00010000
00000000
01010000
00000000
10010000
00000000
00000000
01000000
00000000
00001000
00000000
00000100
00000000
00000010
00001000
00000000
,
00001001
00000000
00000110
00000000
00001001
00000000
00000000
00010000
00000000
00010000
00000000
00010000
00000000
00001000
01000000
00000000
,
10010000
00000000
01100000
00000000
10010000
00000000
00000000
00100000
00000000
00001000
00000000
00000010
00000000
00000001
00001000
00000000
,
00000010
00000000
00001000
00000000
00000100
00010000
00000000
01000000
10000000
00000000
00001000
00010000
00000000
00000100
00000001
00000100
,
00010000
00000000
00011000
00000000
00110000
00000000
00000000
01000000
00000000
00010000
00000000
00100000
00000000
00001000
00010000
00001000
,
00010000
00000000
00011000
00000000
00001100
00000000
00000000
00000100
00000000
00000001
00000000
00000100
00000000
00001000
00000100
00001000
,
00000100
00000000
00011000
00000000
00001010
00000000
00000000
00010000
00000000
00010000
00000000
00010000
00000000
00001000
01000000
10000000
,
01000000
00001000
00000000
00010000
00000100
00000001
00000000
00000100
00010000
00001000
00100000
00000010
00010000
00000100
01000000
00001000
,
00010000
00000000
00000000
00000000
;

//---------------dance-double - M. Simmons----------------
#NOTES:
     dance-double:
     M. Simmons:
     Hard:
     9:
     0.524,0.638,0.213,0.044,0.550:
00000000
00000000
00000000
00000000
,
00000000
00000000
00000000
00000000
,
00000000
00000000
00000000
00000000
,
00000000
00000000
00000000
00000000
,
00010000
00000000
00100000
00000000
01000000
00000000
00000000
00010000
00000000
00001000
00000000
00000100
00000000
00000000
00000000
00000000
,
00000010
00000000
00000100
00000000
00000001
00000000
00000000
00000100
00000000
00001000
00000000
00010000
00000000
00000000
00000000
00000000
,
00001000
00000000
01000000
00000000
00100000
00000000
00000000
10000000
00000000
01000000
00000000
00010000
00000000
00000000
00000000
00000000
,
01000000
00000000
10000000
00000000
01000000
00000000
10000000
00000000
01000000
00100000
00010000
00100000
01000000
00100000
00010000
00100000
,
01000000
00000000
00010000
00000000
00001000
00000000
00000000
00000100
00000000
00000010
00000000
00000001
00000000
00000000
00000000
00000000
,
00000010
00000000
00001000
00000000
00000100
00000000
00000000
00010000
00000000
00001000
00000000
01000000
00000000
00000000
00000000
00000000
,
00100000
00000000
00010000
00000000
00100000
00000000
00000000
10000000
00000000
01000000
00000000
00010000
00000000
00000000
00000000
00000000
,
01000000
00000000
00100000
00000000
00000000
00001000
00000000
00000000
00010000
00000000
00000000
00000100
00000000
00000000
00000010
00000000
,
00000001
00000000
00001000
00000000
00000010
00000000
00000000
00000100
00000000
00001000
00000000
00010000
00000000
00000000
00000000
00000000
,
01000000
00000000
00100000
00000000
00010000
00000000
00000000
10000000
00000000
00010000
00000000
10000000
00000000
00000000
00000000
00000000
,
01000000
00000000
00010000
00000000
00001000
00000000
00000000
00010000
00000000
00000100
00000000
00000001
00000000
00000000
00000000
00000000
,
00000100
00001000
00000000
00000100
00001000
00000100
00000000
00010000
00001000
00000000
00011000
00000000
00011000
00000000
00011000
00000000
,
00001000
00000000
01000000
00000000
00100000
00000000
00000000
10000000
00000000
00010000
00000000
10000000
00000000
00000000
00000000
00000000
,
01000000
00000000
00010000
00000000
00001000
00000000
00000000
00010000
00000000
00000100
00000000
00000010
00000000
00000000
00000000
00000000
,
00000001
00000000
00001000
00000000
00000010
00000000
00000000
00000100
00000000
00001000
00000000
00010000
00000000
00000000
00000000
00000000
,
00001000
00000000
01000000
00000000
00000000
10000000
00000000
00000000
01000000
00000000
00000000
00001000
00000000
00000000
00010000
00000000
,
00000100
00000000
00000010
00000000
00000001
00000000
00000000
00001000
00000000
00000001
00000000
00000100
00000000
00000000
00000000
00000000
,
00000010
00000000
00000100
00000000
00000010
00000000
00000000
00010000
00000000
00001000
00000000
00010000
00000000
00000000
00000000
00000000
,
00000100
00000000
00010000
00000000
01000000
00000000
00000000
00100000
00000000
00001000
00000000
00100000
00000000
00000000
00000000
00000000
,
00010100
00011000
00000110
00001001
,
00000010
00001000
00000100
00010000
00001000
01000000
00100000
00010000
,
00100000
10000000
01000000
00010000
00001000
00010000
00000100
00001000
,
00000010
00000100
00000010
00001000
00000001
00000010
00000001
00000010
,
00001000
00010000
00100000
00010000
00100000
10000000
00010000
01000000
,
00010000
00000000
10000000
00010000
00000000
10000000
00010000
00000000
10000000
00010000
00000000
10000000
00010000
00000000
10010000
00000000
,
01000000
00001000
00010000
00000100
00001000
00000002
00000000
00000000
,
00000103
00000010
00001000
00000100
00010000
00001000
01000000
00100000
,
00010000
00100000
10000000
01000000
00010000
00001000
00000100
00000010
,
00001000
00000001
00000000
00000100
00000010
00000000
00001000
00000001
00000000
00000100
00000001
00000000
00001000
00000100
00001000
00000000
,
00000100
00010000
00000000
00001000
00100000
00000000
00010000
01000000
00000000
00100000
00010000
00000000
00100000
10000000
00100000
00000000
,
01000000
00010000
00000000
00100000
00010000
00000000
01000000
00001000
00000000
00010000
00000100
00000000
00000010
00000100
00000010
00000000
,
00000100
00000100
00010000
00010000
00001000
00001000
00010000
00011000
,
00002000
00000000
02003000
00000000
00100000
00001000
00000000
00100000
,
00000000
00100000
00000000
10000000
00010000
03000000
01000000
00000000
,
00001000
00010000
00000100
00001000
00000010
00000010
00000100
00000101
,
00000000
00001010
00000000
00000001
00000100
00001000
00010000
00000000
,
00002000
00000000
00023000
00000000
00000100
00000100
00000000
00000010
,
00000000
00000010
00000000
00001000
00000100
00030000
00010000
00000000
,
00001000
01000000
00100000
00010000
00100000
10000000
01000000
00010000
,
01010000
00110000
01010000
00110000
01001000
00110000
01001000
00110000
,
00001000
00000000
00010000
00000000
00000100
00000000
00000000
00000010
00000000
00000001
00000000
00001000
00000000
00000000
00000000
00000000
,
00000010
00000000
00010000
00000000
00000100
00000000
00000000
00001000
00000000
00000100
00000000
00010000
00000000
00000000
00000000
00000000
,
00001000
00000000
01000000
00000000
00100000
00000000
00000000
00010000
00000000
00100000
00000000
10000000
00000000
00000000
00000000
00000000
,
01000000
00000000
00010000
00000000
00000000
00000100
00000000
00000000
00010000
00000000
00000000
00000010
00000000
00000000
00000100
00000000
,
00000010
00000000
00001000
00000000
00000001
00000000
00000000
00000100
00000000
00001000
00000000
00010000
00000000
00000000
00000000
00000000
,
00001000
00000000
00100000
00000000
00010000
00000000
00000000
10000000
00000000
01000000
00000000
10000000
00000000
00000000
00000000
00000000
,
00010000
00000000
01000000
00000000
00100000
00000000
00000000
01000000
00000000
00001000
00000000
01000000
00000000
00000000
00000000
00000000
,
00001000
00010000
00000000
00000100
00001000
00000100
00000000
00010000
00001000
00000000
00110000
00000000
00101000
00000000
00011000
00000000
,
00000100
00000000
00001000
00000000
00000010
00000000
00000000
00000100
00000000
00000010
00000000
00001000
00000000
00000000
00000000
00000000
,
00000100
00000000
00010000
00000000
00001000
00000000
00000000
01000000
00000000
00100000
00000000
01000000
00000000
00000000
00000000
00000000
,
00001000
00000000
00010000
00000000
00000100
00000000
00000000
00000010
00000000
00000001
00000000
00000010
00000000
00000000
00000000
00000000
,
00000100
00000000
00010000
00000000
00000000
00001000
00000000
00000000
01000000
00000000
00000000
00010000
00000000
00000000
00100000
00000000
,
10000000
00000000
00100000
00000000
00010000
00000000
00000000
00100000
00000000
00001000
00000000
00000100
00000000
00000000
00000000
00000000
,
00000010
00000000
00001000
00000000
00000001
00000000
00000000
00000100
00000000
00001000
00000000
00010000
00000000
00000000
00000000
00000000
,
01000000
00000000
00100000
00000000
01000000
00000000
00000000
00100000
00000000
00001000
00000000
00010000
00000000
00000000
00000000
00000000
,
00011000
00000000
00000000
00000000
00010100
00000000
00000000
00000000
00001000
00010000
00001000
00010000
00000100
00010000
00000100
00010000
,
00001000
00000000
00000000
00000000
;

//---------------dance-double - M. Simmons----------------
#NOTES:
     dance-double:
     M. Simmons:
     Easy:
     3:
     0.270,0.319,0.062,0.062,0.000:
00000000
00000000
00000000
00000000
,
00000000
00000000
00000000
00000000
,
00000000
00000000
00000000
00000000
,
00000000
00000000
00000000
00000000
,
01000000
00000000
00010000
00000000
,
10000000
00000000
01000000
00000000
,
00100000
00000000
00001000
00000000
,
00010000
00010000
00020000
00000000
,
00031000
00100000
00010000
10000000
,
01000000
00100000
00001000
00001000
,
00010000
00000100
00000010
00000001
,
00001000
00000000
00001000
00000000
,
00001000
00000010
00000100
00000010
,
00010000
00001000
00100000
00010000
,
10000000
01000000
00100000
00010000
,
00100000
00001000
00010000
00001000
,
00010000
00000100
00001000
00000010
,
00000100
00000001
00001000
00001000
,
00000100
00010000
00001000
00010000
,
01000000
00000000
01000000
00000000
,
01000000
10000000
00010000
01000000
,
00001000
00010000
00000100
00001000
,
00000100
00000010
00000100
00000010
,
00001100
00001100
00010100
00010100
,
00001000
00000000
00010000
00000000
,
00001000
00000000
01000000
00000000
,
00100000
00000000
10000000
00000000
,
00020000
00000000
00000000
00000000
,
00130000
00001000
00010000
00000100
,
00000010
00000001
00002002
00000000
,
00003003
00000010
00010000
00001000
,
00100000
00010000
00100000
00001000
,
00010000
00000010
00000100
00000010
,
00001000
00000100
00010000
01000000
,
10000000
00010000
01000000
00100000
,
20020000
00000000
00000000
30030000
,
01000000
00000000
00001000
00000000
00010000
00010000
00000000
00001000
,
00000000
00010000
00000000
00001000
00010000
00000000
00000100
00000000
,
00001000
00000000
00001000
00000000
00000010
00000100
00000000
00000010
,
00000000
00000100
00000000
00000010
00000100
00000000
00000001
00000000
,
00001000
00000000
00000100
00000000
00001000
00000100
00000000
00001000
,
00000000
00000100
00000000
00001000
00000100
00000000
00010000
00000000
,
00001000
00000000
01000000
00000000
00010000
01000000
00000000
00010000
,
00020000
00000000
00000000
00000000
,
00030000
10000000
00000000
01000000
00000000
00100000
00000000
00010000
,
00000000
00100000
00000000
00001000
00000000
00010000
00000000
00000100
,
00000000
00000010
00000000
00000001
00000000
00001000
00000000
00000010
,
00000000
00000100
00000000
00000100
00000000
00000010
00000000
00000010
,
00000000
00001000
00000000
00000100
00000000
00010000
00000000
00001000
,
00000000
01000000
00000000
00100000
00000000
01000000
00000000
00010000
,
00000000
10000000
00000000
01000000
00000000
00100000
00000000
00010000
,
00000000
00000000
00000000
00010000
00000000
00000000
00000000
00010000
,
00100000
00001000
00010000
00000100
,
00000010
00000001
00001000
00000010
,
00000100
00000010
00010000
00001000
,
00010000
00010000
00001000
00001000
,
00100000
00010000
10000000
00100000
,
01000000
00010000
01000000
00001000
,
00010000
00000100
00000010
00000001
,
00001000
00001000
00000010
00000010
,
00000110
00000000
00000000
00000000
;

//---------------dance-double - M. Simmons----------------
#NOTES:
     dance-double:
     M. Simmons:
     Medium:
     5:
     0.336,0.346,0.168,0.035,0.075:
00000000
00000000
00000000
00000000
,
00000000
00000000
00000000
00000000
,
00000000
00000000
00000000
00000000
,
00000000
00000000
00000000
00000000
,
00001000
00000000
00000000
00000000
00010000
00000000
00000000
00000100
00000000
00000100
00000000
00000100
00000000
00000000
00000000
00000000
,
00001000
00000000
00000000
00000000
00000010
00000000
00000000
00000100
00000000
00000100
00000000
00000100
00000000
00000000
00000000
00000000
,
00000010
00000000
00000000
00000000
00010000
00000000
00000000
00001000
00000000
00001000
00000000
00001000
00000000
00000000
00000000
00000000
,
00100000
00010000
00100000
00010000
00220000
00000000
00000000
00330000
,
01000000
00001000
00010000
00000100
,
00000001
00000100
00001000
00000010
,
00000100
00001000
00010000
01000000
,
00100000
00000000
00001000
00000000
00000000
00001000
00000000
00000000
00001000
00000000
00000000
00001000
00000000
00000000
00001000
00000000
,
00010000
00000100
00000010
00000001
,
00001000
00000010
00000100
00001000
,
00010000
01000000
00100000
00010000
,
10010000
01100000
00110000
00011000
,
00001000
00010000
00000100
00000010
,
00000001
00001000
00000010
00000010
,
00000100
00000010
00010000
00001000
,
00010000
00000000
00001000
00000000
00000000
00001000
00000000
00000000
00001000
00000000
00000000
00001000
00000000
00000000
00001000
00000000
,
00100000
00010000
10000000
01000000
,
00010000
00001000
00000100
00000001
,
00001000
00000100
00000010
00001000
,
00011000
00110000
00011000
00010100
,
00001000
00000000
00000010
00000100
00000000
00000000
00000010
00000000
,
00010000
00000000
00001000
00100000
00000000
01000000
00000000
00000000
,
01000000
00000000
10000000
00010000
00000000
00000000
00100000
00000000
,
00004000
00000000
00000000
00000000
,
00013000
00000100
00001000
00000010
,
00000100
00000010
00001000
00000000
00000001
00002000
00000000
00000000
,
00003100
00000000
00010000
00001000
00000000
00000000
00100000
00000000
,
00010000
10000000
00000000
10000000
00000000
10000000
00000000
00000000
,
01000000
00000000
00010000
00001000
00000000
00000000
00010000
00000000
,
00000100
00000000
00000010
00000001
00000000
00000001
00000000
00000000
,
00001000
00000000
00000100
00010000
00000000
00000000
00001000
00000000
,
00002000
00010000
00100000
01003000
,
01010000
00000000
00100000
10000000
00000000
00000000
00010000
00000000
,
00100000
00000000
00001000
00010000
00000000
00010000
00000000
00000000
,
00000100
00001000
00000010
00000000
00000100
00000010
00000100
00000000
,
00000001
00000001
00001000
00001000
,
00000100
00000000
00010000
00001000
00000000
00000000
00100000
00000000
,
00100000
01000000
00000000
10000000
00000000
10000000
00000000
00000000
,
00010000
00000000
00100000
00000000
00001000
00010000
00000000
00000100
,
00001000
00000100
00001000
00000100
00001000
00000100
00001000
00000100
,
00001000
00000010
00000100
00000010
,
00001000
00000100
00000001
00000100
,
00001000
00000010
00010000
00001000
,
00100000
00000000
00010000
00000000
00000000
00010000
00000000
00000000
00010000
00000000
00000000
00010000
00000000
00000000
00010000
00000000
,
01000000
10000000
01000000
00010000
,
10000000
01000000
00010000
00001000
,
00010000
00000100
00000010
00000001
,
00001001
00000110
00001100
00011000
,
00001000
00100000
00010000
10000000
,
01000000
00100000
00001000
00001000
,
00010000
00000100
00000010
00000001
,
00001000
00000000
00000100
00000000
00000000
00000100
00000000
00000000
00000100
00000000
00000000
00000100
00000000
00000000
00000100
00000000
,
00001000
00000010
00000100
00000010
,
00010000
00001000
00100000
00010000
,
10000000
01000000
00100000
01000000
,
01100000
00110000
00101000
00011000
,
00010100
00000000
00000000
00000000
;
