#TITLE:Tears in May;
#SUBTITLE:;
#ARTIST:Missing Heart;
#TITLETRANSLIT:;
#SUBTITLETRANSLIT:;
#ARTISTTRANSLIT:;
#GENRE:Ethnic;
#CREDIT:Sync by HellRazor;
#BANNER:Tears in May-bn.png;
#BACKGROUND:Tears in May-bg.png;
#LYRICSPATH:;
#CDTITLE:;
#MUSIC:Tears in May.ogg;
#OFFSET:-0.192;
#SAMPLESTART:53.920;
#SAMPLELENGTH:13.780;
#SELECTABLE:YES;
#BPMS:0.000=140.000;
#STOPS:;
#BGCHANGES:0.000=Tears in May-bg.png=1.000=0=0=1=====,
16.000=In The Groove Rebirth/1124_JumpBack.mpg=1.000=1=0=1=SongBgWithMovieViz==CrossFade==,
32.000=In The Groove Rebirth/163_JB_HD.mpg=1.000=0=0=1===FadeRight==,
48.000=In The Groove Rebirth/161_JB_HD.mpg=1.000=0=0=1=====,
64.000=In The Groove Rebirth/257_JB_HD.mpg=1.000=0=0=1=====,
80.000=In The Groove Rebirth/307_JB_HD.mpg=1.000=0=0=1===FadeRight==,
96.000=In The Groove Rebirth/175_JB_HD.mpg=1.000=0=0=1=====,
112.000=In The Groove Rebirth/174_JB_HD.mpg=1.000=0=0=1=====,
126.000=In The Groove Rebirth/174_JB_HD.mpg=0.000=0=0=1=====,
127.000=Tears in May-bg.png=1.000=0=0=1=====,
128.000=In The Groove Rebirth/161_JB_HD.mpg=1.000=0=0=1=====,
144.000=In The Groove Rebirth/875_JumpBack.mpg=1.000=0=0=1===FadeLeft==,
160.000=In The Groove Rebirth/406_JB_HD.mpg=1.000=0=0=1=====,
176.000=In The Groove Rebirth/163_JB_HD.mpg=1.000=0=0=1===FadeUp==,
192.500=In The Groove Rebirth/307_JB_HD.mpg=1.000=0=0=1===FadeDown==,
208.000=In The Groove Rebirth/1124_JumpBack.mpg=1.000=1=0=1===CrossFade==,
224.000=In The Groove Rebirth/175_JB_HD.mpg=1.000=0=0=1=SongBgWithMovieViz====,
240.000=In The Groove Rebirth/875_JumpBack.mpg=1.000=1=0=1=SongBgWithMovieViz==CrossFade==,
256.000=Tears in May-bg.png=1.000=1=0=1===CrossFade==,
99999=-nosongbg-=1.000=0=0=0 // don't automatically add -songbackground-
;
#BGCHANGES2:96.000=flash=1.000=0=0=1====1^1^1^0.5=,
128.000=white flash=1.000=0=0=1=====,
160.000=flash=1.000=0=0=1====1^1^1^0.5=,
224.000=white flash=1.000=0=0=1=====,
;
#KEYSOUNDS:;

//---------------dance-single - D. Bernardone----------------
#NOTES:
     dance-single:
     D. Bernardone:
     Challenge:
     11:
     0.797,0.919,0.470,0.148,0.766:
0000
0000
0000
0000
,
0000
0000
0000
0000
,
1000
0010
0001
0010
1000
0010
0001
0010
,
1000
0100
1000
0010
1000
0100
1000
0010
,
1000
0001
0100
0001
0010
0001
0100
0001
,
0010
0100
1000
0001
0010
0100
1000
0001
,
0100
1000
0100
0001
1000
0001
0010
0100
,
1000
0001
0100
0001
1000
0100
1000
0001
,
0010
0000
0001
0000
1000
0000
0010
0000
1000
0000
0001
0000
0100
0000
0010
1000
,
0010
1001
0101
1001
,
1100
0000
0100
0000
1000
0000
0001
0000
0100
0000
0010
0000
0100
0000
0001
1000
,
0001
0010
0100
1000
0001
0100
0010
1000
,
0001
0010
0100
0010
0001
1000
0100
1000
0010
0100
0001
0100
0010
1000
0100
1000
,
0001
0010
0001
1000
0100
1000
0001
0100
0001
0010
0100
1000
0100
0010
0001
1000
,
0100
0010
0100
1000
0001
0100
0010
0100
0001
1000
0100
0010
0100
1000
0010
0100
,
0010
1000
0100
1000
0001
0100
0010
1000
0100
0010
0001
1000
0100
0010
0001
1000
,
0001
0000
0101
0010
1000
0000
1100
0010
,
0001
0000
0000
0000
0011
0000
0100
0000
1000
0000
0000
0000
1001
0000
0000
0001
,
0100
0000
0000
0000
1010
0000
0000
0100
0001
0000
0000
0000
0110
0000
0000
1000
,
0100
0000
0000
0000
0011
0000
0001
0100
0010
0000
1000
0000
1100
0000
0100
0010
,
0100
0000
0000
0000
0011
0000
0001
0100
0001
0000
0000
0000
1010
0000
1000
0100
,
1000
0000
0000
0000
0101
0000
0100
0010
0100
0000
0001
0000
1001
0000
1000
0100
,
0010
0000
0000
0000
0110
0000
0001
0010
0100
0000
0000
0000
1100
0000
0001
0100
,
0010
0000
0000
0000
0101
0000
1000
0100
0010
0000
0100
0000
0120
0000
0000
0000
,
0031
0000
0010
0000
0100
0000
1000
0000
0001
0000
0100
0000
0001
0000
1000
0100
,
0010
0001
1000
0010
1001
0001
0101
0100
,
0110
0010
1000
0100
0011
0001
0100
0010
,
1010
1000
0001
0100
0110
0010
1010
1000
,
0100
1000
0001
1000
0100
1000
0001
0100
0010
0100
0001
0010
0100
1000
0010
1000
,
0100
0010
0100
1000
0010
0100
0001
0010
0100
1000
0100
1000
0100
0010
0001
0010
,
0001
0100
0001
0100
0010
1000
0010
1000
0100
1000
0001
0100
0001
1000
0010
1000
,
0001
0010
0001
0100
0010
1000
0100
1000
0001
0000
0000
0000
0011
0000
0000
0000
,
1001
0000
0001
0100
0010
0000
1000
0000
0100
0000
0010
0001
1000
0000
0010
1000
,
0100
1000
0100
0010
0110
0010
0011
0001
,
0101
0000
0001
0000
1000
0000
0100
0010
0001
0000
0100
0000
0110
0000
0000
0000
,
2000
0000
0200
0000
0002
0000
0020
3333
,
1000
0100
1000
0100
0010
0001
0010
0001
0100
0010
0100
0010
1000
0001
0100
0010
,
0100
0001
1000
0100
1000
0001
0100
0001
1000
0010
1000
0001
0010
0001
1000
0001
,
1000
0001
0010
0001
0010
0001
0100
0001
0100
0001
1000
0001
1000
0001
0010
0100
,
1000
0100
0010
0001
0100
0010
0100
0001
1000
0100
0010
0100
1000
0001
0100
0001
,
1000
0000
0010
0100
M001
0000
0010
0000
010M
0000
1000
0010
010M
0000
0010
1000
,
010M
1000
001M
M100
01M1
M100
011M
0010
,
101M
0M00
1000
0000
0001
0000
0100
0001
1000
0000
0010
000M
M110
0000
0000
0000
,
2000
0000
0200
0000
0012
0000
0020
3333
,
1000
0000
0100
M010
0100
0000
100M
0000
01M0
0000
1000
0010
0100
M000
00M1
0000
,
1001
0000
0000
000M
1000
00M0
0001
M000
0011
0M00
0000
000M
1100
0000
0000
0MM0
,
1001
0000
0010
0000
0100
0000
0001
1000
0001
0000
M010
0000
010M
0000
0010
0001
,
M100
0000
0000
00M0
1001
0000
0000
000M
1100
0000
0100
000M
0010
MM00
0001
0000
,
1001
0000
0000
M000
0010
0000
0001
0100
0001
0000
1000
0100
1000
0000
0001
0010
,
0100
0000
1000
000M
1100
0000
0100
0010
0001
0000
M100
0000
0101
0000
0100
0010
,
1000
0000
0001
00M0
M101
0000
0100
0010
1000
0000
110M
0000
0110
0000
0100
1000
,
001M
0000
1000
0000
1010
0000
0001
0100
0010
0000
100M
0000
1100
0000
0001
1000
,
0001
0100
0010
1000
0100
0010
0001
0010
0100
1000
0001
0100
0010
0100
0010
1000
,
0100
1000
0100
0010
0001
0010
0001
0100
0010
0100
0010
1000
0001
0100
0010
1000
,
0010
0100
0001
1000
0100
0010
0001
0010
0100
1000
0100
0010
0100
1000
0010
0100
,
0010
1000
0100
1000
0010
1000
0001
0100
0001
0010
0001
0100
0010
1000
0001
1000
,
0004
0000
0000
0000
0020
0000
0000
0003
,
0400
0000
0000
0030
2000
0000
0000
0300
,
0040
0000
0000
3000
0200
0000
0000
0030
,
0004
0000
0000
0300
0020
0000
0000
0003
,
0400
0000
0000
0030
2000
0000
0000
0300
,
0004
0000
0000
3000
0013
0000
0110
0000
,
2001
0000
0000
0000
,
0200
0000
0000
0002
0000
0000
0000
0000
,
0013
0000
0000
0000
,
0000
0000
0000
0000
,
3300
0000
0000
0000
;

//---------------dance-single - D. Bernardone----------------
#NOTES:
     dance-single:
     D. Bernardone:
     Beginner:
     1:
     0.099,0.084,0.000,0.000,0.000:
0000
0000
0000
0000
,
0000
0000
0000
0000
,
0000
0000
0000
0000
,
0000
0000
0000
0000
,
1000
0000
0000
0000
,
0001
0000
0000
0000
,
1000
0000
0000
0000
,
0010
0000
0000
0000
,
1000
0000
0000
0000
,
0001
0000
0001
0000
,
0001
0000
0000
0000
,
1000
0000
0010
0000
,
0010
0000
0000
0000
,
0100
0000
0100
0000
,
0100
0000
0000
0000
,
0001
0000
0000
0000
,
1000
0000
0000
0000
,
0100
0000
0000
0000
,
1000
0000
0000
0000
,
0100
0000
0000
0000
,
0010
0000
0000
0000
,
0001
0000
0000
0000
,
0010
0000
0000
0000
,
0001
0000
0000
0000
,
1000
0000
0000
0000
,
1000
0000
1000
0000
,
1000
0000
0000
0000
,
0001
0000
0001
0000
,
0001
0000
0000
0000
,
0100
0000
0010
0000
,
0100
0000
0000
0000
,
0001
0000
1000
0000
,
1000
0000
0000
0000
,
0100
0000
0010
0000
,
0010
0000
0000
0000
,
0001
0000
0001
0000
,
0001
0000
0000
0000
,
1000
0000
0000
0000
,
0010
0000
0000
0000
,
0100
0000
0001
0000
,
0001
0000
0000
0000
,
1000
0000
0100
0000
,
0010
0000
0000
0000
,
0001
0000
0001
0000
,
0010
0000
0000
0000
,
0001
0000
1000
0000
,
0010
0000
0000
0000
,
0100
0000
0100
0000
,
0010
0000
0000
0000
,
1000
0000
1000
0000
,
1000
0000
0000
0000
,
0100
0000
0010
0000
,
0010
0000
0000
0000
,
0001
0000
0000
0000
,
1000
0000
0000
0000
,
0001
0000
0001
0000
,
0100
0000
0000
0000
,
0001
0000
0000
0000
,
1000
0000
0000
0000
,
0010
0000
0000
0000
,
1000
0000
0000
0000
,
0001
0000
0100
0000
,
0100
0000
0000
0000
,
0001
0000
1000
0000
,
0010
0000
0000
0000
;

//---------------dance-single - D. Bernardone----------------
#NOTES:
     dance-single:
     D. Bernardone:
     Easy:
     3:
     0.251,0.287,0.052,0.174,0.000:
0000
0000
0000
0000
,
0000
0000
0000
0000
,
0001
0010
0100
0000
,
1000
0001
1000
0000
,
0010
0100
0001
0000
,
1000
0100
1000
0000
,
0010
1000
0001
0000
,
0010
0001
0010
0000
,
0001
1000
0100
0000
,
1000
0010
0100
0001
,
2000
0000
0000
0000
,
3100
0000
0010
0001
,
2000
0000
0000
0000
,
3001
0010
0100
1000
,
0002
0000
0000
0000
,
0100
0000
0013
0100
,
1000
1000
0100
0000
,
1000
1000
0001
0000
,
0100
0100
0001
0000
,
0010
0010
0100
0000
,
0010
0010
0001
0000
,
1000
1000
0010
0000
,
1000
1000
0100
0000
,
1000
1000
0001
0000
,
0100
0010
0010
1000
,
0100
0000
0010
0001
,
1000
0100
0100
0010
,
0001
0000
1000
0010
,
0100
0001
0001
1000
,
0100
0000
0100
0000
,
0100
0000
0010
0000
,
0001
1000
2002
3003
,
0001
0100
0001
0010
,
0001
0000
0100
0100
,
0020
0000
0030
0010
,
1000
0100
1000
0010
,
2000
0000
0000
0000
,
3001
0000
0010
0010
,
0200
0000
1300
0001
,
1000
0000
0010
0010
,
0200
0000
0000
0000
,
0301
0000
1000
0010
,
2000
0000
3000
1000
,
0010
0100
0010
1000
,
0002
0000
0000
0000
,
1003
0000
0100
0100
,
0020
0000
0000
0000
,
0031
0000
0100
0000
,
0100
0010
0010
0000
,
1000
0100
0010
0001
,
2000
0000
0000
0000
,
3001
0000
0100
0010
,
2000
0000
0000
0000
,
3001
0010
0100
1000
,
0002
0000
0000
0003
,
1001
1001
0110
0110
,
1000
0010
1000
0010
,
1000
0001
1000
0001
,
0010
0100
0010
0100
,
0010
0001
0010
0100
,
1000
0001
1000
0001
,
1000
0010
0100
0010
,
0200
0000
0000
0000
,
0302
0003
2000
3000
,
2002
0000
0000
0000
,
0000
0000
0000
0000
,
3003
0000
0000
0000
;

//---------------dance-double - D. Bernardone----------------
#NOTES:
     dance-double:
     D. Bernardone:
     Easy:
     3:
     0.240,0.258,0.174,0.331,0.000:
00000000
00000000
00000000
00000000
,
00000000
00000000
00000000
00000000
,
00000000
00000000
00000000
00000000
,
00000000
00000000
00000000
00000000
,
00020000
00000000
00000000
00000000
,
02030000
00000000
00000000
00000000
,
03002000
00000000
00000000
00000000
,
00023000
00000000
00000000
00000000
,
00030020
00000000
00000000
00000000
,
00000130
00000001
00000010
00000100
,
00001001
00000000
00000000
00000000
,
00011000
00000000
00001000
00010000
,
00011000
00000000
00000000
00000000
,
00010000
10000000
01000000
00100000
,
02000000
00000000
00000000
00000000
,
03100000
00000000
10010000
00000000
,
10000000
00010000
01000000
00010000
,
00100000
00001000
00010000
00001000
,
00010000
00000100
00010000
00000010
,
00001000
00000001
00000010
00000100
,
00001000
00000001
00000100
00001000
,
00010000
00100000
10000000
01000000
,
10000000
00010000
00100000
00010000
,
10000000
01000000
00010000
00001000
,
00000020
00000000
00000000
00000000
,
00000031
00000000
00000100
00000100
,
00000100
00000000
00000010
00000000
,
00010000
00000000
00001000
01000000
,
02002000
00000000
03003000
00000000
,
00010000
00000000
00100000
00000000
,
02000000
00000000
00000000
00000000
,
00100000
03010000
10000000
01000000
,
22000000
00000000
33000000
00000000
,
00110000
00000000
00001000
00010000
,
00022000
00000000
00033000
00001000
,
00010000
00000100
00000010
00000001
,
00000200
00000000
00000000
00000000
,
00000310
00000000
00001000
00000001
,
00002002
00000000
00003003
00000000
,
00011000
00000000
00001000
01000000
,
02200000
00000000
03300000
00000000
,
10010000
00000000
10000000
00100000
,
02200000
00000000
03300000
01000000
,
00010000
00100000
01000000
00010000
,
00002000
00000000
00000000
00000000
,
00020000
00033000
00001000
00010000
,
00000200
00000000
00000000
00000000
,
00000310
00000000
00000000
00000000
00001001
00000000
00000000
00000110
,
00000000
00002002
00003003
00000000
,
00000001
00000010
00001000
00010000
,
00200000
00000000
00000000
00000000
,
10300000
00000000
00010000
01000000
,
02020000
00000000
03030000
00000000
,
01000000
00001000
00010000
00000100
,
00000020
00000000
00000000
00000000
,
00000031
00000000
00001000
00000000
,
00000002
00000000
00000000
00000000
,
00000023
00000000
00000000
00000000
,
00000230
00000000
00000000
00000000
,
00020300
00000000
00000000
00000000
,
00032000
00000000
00000000
00000000
,
00013000
00000000
00001000
00010000
,
00012000
00000000
00000000
00000000
,
00013000
00000000
00000000
00011000
00000000
00000000
00000000
00000000
,
00022000
00000000
00000000
00000000
,
00000000
00000000
00000000
00000000
,
00033000
00000000
00000000
00000000
;

//---------------dance-double - D. Bernardone----------------
#NOTES:
     dance-double:
     D. Bernardone:
     Medium:
     4:
     0.346,0.373,0.270,0.470,0.000:
00000000
00000000
00000000
00000000
,
00000000
00000000
00000000
00000000
,
10000000
01000000
00100000
01000000
,
00100000
00001000
00010000
00001000
,
00010000
00000100
00010000
00000100
,
00010000
00000010
00001000
00000010
,
00001000
00000001
00001000
00000001
,
00001000
00000100
00001000
00000100
,
00001000
00000000
00000010
00000000
00000100
00000000
00000000
00000100
,
00000001
00000010
00000100
00010000
,
00020200
00000000
00000000
00000000
00030300
00000000
00000000
00010000
,
00000200
00000000
00000010
00001000
,
00020000
00000000
00000000
00000000
00030300
00000000
00000000
00001000
,
01000000
00100000
10000000
01000000
,
00220000
00000000
00000000
00000000
00330000
00000000
00000000
00010000
,
01000000
00000000
00100000
00100000
,
11000000
20000000
31000000
00200000
,
00310000
00020000
01030000
02000000
,
03010000
00200000
00301000
00020000
,
00030100
00000200
00001300
00002000
,
00003010
00000020
00000130
00000200
,
00000301
00000002
00001003
00002000
,
00003001
00000020
00000130
00000200
,
00000310
00000002
00000103
00000200
,
00000320
00000000
00000000
00000000
00000000
00000000
00000030
00001000
,
00000200
00000000
00000010
00000001
,
00002300
00000000
00003020
00000000
,
00000230
00000000
00000301
00001000
,
00000200
00000000
00000000
00000000
,
00020300
00000000
02030000
00000000
,
03100000
20020000
00000000
00000000
00030000
00000000
300M0000
00000000
,
00011000
00001001
00000110
00010100
,
00020020
00000000
00000000
00000000
00030030
00000000
00000000
00000100
,
00020000
00000000
00031000
00010000
,
00200000
00000000
00000000
10000000
,
00010000
01000000
00010000
10000000
,
02000000
00000000
00000000
00000000
03300000
00000000
00000000
00010000
,
10000000
00000000
01010000
01001000
,
00201000
00000000
01000000
00001000
,
00020000
00330000
00011000
00010100
,
00002200
00000000
00000000
00000000
00003300
00000000
00000000
00000001
,
00000020
00000000
00001030
00010000
,
00200000
00000000
00000000
00010000
,
00001000
00010000
01000000
10000000
,
02300000
00000000
00000000
00000000
,
00200000
03300000
00110000
00101000
,
00021000
00000000
00000010
00000100
,
00031000
00000000
00000000
00000000
00001001
00000000
00000000
00011000
,
00000000
00000000
10010000
00000000
00000000
00000000
00000000
10000000
,
01000000
00100000
00001000
01000000
,
02002000
00000000
00000000
00000000
03003000
00000000
00000000
00001000
,
00200000
00000000
01000000
10000000
,
00020000
00000000
00000000
00000000
00330000
00000000
00000000
00100000
,
00001000
00010000
00000100
00000010
,
00002002
00000000
00000000
00000000
00003003
00000000
00000000
00000001
,
00000100
00000110
00001010
00010010
,
00011000
00010000
00001000
00010000
,
00001000
01000000
00010000
01000000
,
00010000
10000000
01000000
10000000
,
01000000
00100000
01000000
00100000
,
01000000
00100000
00001000
00100000
,
00001000
01000000
00010000
10000000
,
10010000
00000000
00000000
00000000
,
00011000
00000000
00000000
00001001
00000000
00000000
00000000
00000000
,
00000022
00000000
00000000
00000000
,
00000000
00000000
00000000
00000000
,
00000033
00000000
00000000
00000000
;

//---------------dance-double - D. Bernardone----------------
#NOTES:
     dance-double:
     D. Bernardone:
     Hard:
     8:
     0.586,0.660,0.165,0.148,0.296:
00000000
00000000
00000000
00000000
,
00000000
00000000
00000000
00000000
,
10000000
01000000
00010000
01000000
10000000
01000000
00010000
00000000
,
00010000
01000000
00010000
00001000
00000100
00001000
00010000
00000000
,
00010000
00000100
00000001
00000100
00001000
00000100
00000010
00001000
,
00010000
00100000
00010000
00001000
00000010
00001000
00010000
00000000
,
00010000
01000000
00010000
00001000
00000010
00001000
00010000
01000000
,
00010000
00000000
00001000
00100000
10000000
00100000
01000000
00000000
,
10000000
00000000
00100000
00000000
10000000
00000000
00100000
00000000
00010000
00000000
00100000
00000000
10000000
00000000
01000000
00100000
,
00010000
01000000
00001000
00010000
00000010
00000000
00000110
00000000
,
00010010
00000000
00000000
00000000
00001000
00000000
01000000
00000000
00001000
00000000
00010000
00000000
00000100
00000000
00001000
00000010
,
00000100
00000001
00001000
00000010
00010000
00000000
00101000
00000000
,
01100000
00000000
00000000
00000000
00010000
00000000
00010000
00000000
01000000
00000000
01000000
00000000
00001000
00000000
00010000
00001000
,
00010000
01000000
00010000
00000100
00001000
00000000
00000001
00001000
,
00001001
00000000
00000000
00000000
00010000
00000000
00010000
00000000
00001000
00000000
00001000
00000000
00100000
00000000
00010000
00100000
,
00010000
00000000
10000000
00000000
01000000
00000000
10000000
00000000
00100000
00000000
01000000
00000000
00010000
00100000
01000000
10000000
,
00010000
00000000
00100000
00000000
00001000
00000000
00010000
00000010
,
00000100
00000000
00000001
00000000
00001000
00000000
00000100
00010000
,
00001000
00000000
01000000
00000000
00100000
00000000
10000000
00010000
,
01000000
00000000
00010000
00000000
00100000
00000000
00001000
00010000
,
00000100
00000000
00000010
00000000
00000001
00000000
00000100
00000010
,
00010000
00000000
00001000
00000000
01000000
00000000
00010000
10000000
,
00100000
00000000
01000000
00000000
00001000
00000000
00010000
00000100
,
00001000
00000000
00000010
00000000
00000200
00000000
00000001
00000001
,
00000302
00000000
00000000
00000000
00000010
00000000
00000000
00000000
00001000
00000000
00000000
00000000
00000013
00000000
00000100
00001000
,
00000200
00000000
00010000
00000000
00001000
00000000
00010300
00001000
,
00002000
00000000
00100000
00000000
00010000
00000000
00103000
00010000
,
00020000
00000000
01000000
00000000
10000000
00000000
01030000
00100000
,
00100000
10000000
01000000
00100000
00001000
00010000
00000100
00000000
,
00001200
00010300
00001020
00010030
,
00001000
00010000
00000100
00000000
00002000
00000000
00003010
00000000
00020000
00000000
00031000
00000000
00200000
00000000
00310000
00000000
,
20000000
31000000
00200000
00301000
02000000
03010000
10010000
00000000
,
10010000
00000000
00000000
10000000
01000000
00000000
00000000
01000000
00010000
00000000
00000000
00010000
00001000
00000000
00000000
00001000
,
00000100
00000000
00000000
00000100
00000001
00000000
00000000
00000001
00000010
00000000
00000000
00000010
00000100
00000000
00000000
00000000
,
00001001
00000000
00000000
00000001
00000010
00000000
00000000
00000010
00001000
00000000
00000000
00001000
00010000
00000000
00000000
00010000
,
00100000
00000000
00000000
00100000
10000000
00000000
00000000
10000000
01000000
00000000
00000000
01000000
00100000
00000000
00000000
00000000
,
00100000
01000000
00100000
00001000
00010000
00001000
00000100
00000001
,
00000010
00000000
00000000
00000000
00000010
00000000
00000100
00000000
00010000
00000000
00001000
00000000
00100000
00010000
00100000
00010000
,
00100000
00000000
01000000
00000000
10000000
00000000
00100000
00000000
01000000
00000000
00001000
00000000
00010000
00000100
00010000
00000100
,
00010000
00000000
00000000
00000000
00010000
00000000
00000010
00000000
00000100
00000000
00000010
00000000
00001000
00000001
00001000
00000001
,
00001000
00000000
00000000
00000001
00000100
00000000
00000000
00000100
00001000
00000000
00000000
00001000
00010000
00000000
00000000
00010000
,
00100000
00000000
00000000
00100000
01000000
00000000
00000000
01000000
00001000
00000000
00000000
00001000
01000000
00000000
00000000
01000000
,
00100000
00000000
00000000
10000000
00100000
00000000
00000000
00100000
00010000
00000000
00000000
00010000
00001000
00000000
00000000
00001000
,
00000100
00000000
00000000
00000100
00000010
00000000
00000000
00000010
00001000
00000000
00000000
00001000
00000100
00000000
00000000
00000000
,
00011000
00000000
00000000
00010000
00001000
00000000
00000000
00001000
00000010
00000000
00000000
00000010
00001000
00000000
00000000
00001000
,
00010000
00000000
00000000
00010000
00100000
00000000
00000000
00100000
00010000
00000000
00000000
00010000
00001000
00000000
00000000
00000000
,
00011000
00000000
00000000
00001000
00010000
00000000
00000000
00010000
01000000
00000000
00000000
01000000
00010000
00000000
00000000
00010000
,
00001000
00000000
00000000
00001000
00000100
00000000
00000000
00000100
00001000
00000000
00000000
00001000
00010000
00000000
00000000
00000000
,
00011000
00000000
00000000
10000000
00010000
00000000
00000000
10000000
00010000
00000000
00000000
10000000
00010000
00000000
01000000
00100000
,
01000000
10000000
01000000
00001000
,
00011000
00000000
00000000
00000000
00010000
00000000
00000010
00001000
00000010
00000000
00000000
00000000
00001000
00000000
00000001
00000100
,
00000001
00000000
00000000
00000000
00000010
00000000
00000100
00001000
00000100
00000000
00000000
00000000
00011000
00000000
00000000
00000000
,
00001000
00000000
00100000
00000000
00010000
00000000
10000000
00000000
01000000
00000000
00010000
00000000
00001000
00000000
00000010
00000100
,
00001000
00000000
00000001
00000000
00000100
00000000
00001000
00000000
00000100
00000000
00000010
00000000
00010000
00000000
00001000
00100000
,
00010000
00000000
10000000
00000000
01000000
00000000
00010000
00000000
00001000
00000000
01000000
00000000
00001000
00000000
00010000
00000100
,
00001000
00000000
00000010
00000000
00001010
00000000
00000000
00000000
00001001
00000000
00000001
00000000
00000011
00000000
00000001
00001000
,
00000100
00000010
00001000
00000000
00001000
00000010
00000100
00000000
,
00010000
00001000
01000000
00100000
00010000
00100000
10000000
01000000
,
00100000
00001000
01000000
00000000
01000000
00001000
00100000
00000000
,
01000000
00010000
00001000
00000100
00000020
00000000
00000001
00000000
,
00001030
00000100
00000010
00001000
00010000
00001000
00000010
00000000
,
00000100
00010000
00001000
01000000
00100000
10000000
00010000
00000000
,
00100000
01000000
10000000
00000000
00100000
01000000
00001000
00000000
,
00010000
01000000
10000000
00010000
02000000
00000000
03001000
00000000
,
00220000
00000000
00000000
00000000
,
00000000
00000000
00000000
00000000
,
00330000
00000000
00000000
00000000
;

//---------------dance-double - D. Bernardone----------------
#NOTES:
     dance-double:
     D. Bernardone:
     Challenge:
     9:
     0.618,0.594,0.157,0.157,0.165:
00000000
00000000
00000000
00000000
,
00000000
00000000
00000000
00000000
,
10000000
01000000
00100000
00010000
10000000
01000000
00100000
00001000
,
00010000
00000100
00000010
00000001
00001000
00000100
00000010
00000001
,
00001000
00000010
00010000
00000100
00010000
00000010
00010000
00000100
,
00010000
00001000
00100000
00001000
01000000
00001000
00100000
00001000
,
00010000
01000000
00100000
01000000
00010000
01000000
00100000
01000000
,
00010000
00001000
00000100
00001000
00010000
00001000
00000100
00001000
,
00010000
00000000
00000010
00000000
00000100
00000000
00000010
00000000
00010000
00000000
00000010
00000000
00000100
00000000
00000010
00001000
,
00000100
00021000
01030000
10100000
,
10010000
00000000
10000000
00000000
01000000
00000000
00010000
00000000
01000000
00000000
10000000
00000000
01000000
00000000
00100000
00001000
,
00010000
00000010
00000100
00000010
00020010
00000000
00230000
00000000
,
01300000
00000000
00001000
00000000
00010000
00000000
00100000
00000000
00010000
00000000
00001000
00000000
01000000
00000000
00100000
10000000
,
00010000
01000000
01002000
00000000
00003010
00000100
00001001
00000000
,
00000110
00000000
00000100
00000000
00000001
00000000
00000100
00000000
00001000
00000000
00000100
00000000
00000001
00000000
00001000
00000100
,
00000010
00001000
00010000
00100000
00010000
00001000
00000010
00000001
,
00001000
00001000
00000100
00000100
,
00010000
00010000
00100000
00100000
,
01000000
01000000
00010000
00010000
,
00100000
00100000
01000000
01000000
,
10000000
00100000
00010000
00000100
,
00010000
00100000
10000000
01000000
,
00010000
00000010
00010000
01000000
,
00100000
00001000
00010000
00000010
,
00000200
00000000
00000000
00000000
00000001
00000000
00000000
00000000
00001000
00000000
00000000
00000000
00000301
00000000
00001000
00000001
,
00000020
00000100
00000032
00000203
,
00002300
01000000
00023000
00000100
,
00032000
00000100
00023000
02030000
,
13000000
00100000
00010000
00001000
00000100
00001000
00010000
00000000
,
00000100
00000010
00000001
00000100
00001000
00010000
00100000
00000000
,
01000000
00001000
00010000
00000000
00000010
00000000
00000100
00000000
00001000
00000000
00010000
00000000
00100000
00000000
00000000
00000000
,
01000000
00100000
00010000
00001000
00000200
00000001
00000301
00000000
,
00000010
00000000
00000100
00000000
00010000
00000000
00001000
00000000
01000000
00000000
00001000
00000000
00010000
00000000
00001000
00100000
,
01000000
00000000
10000000
00000000
00100000
00000000
01000000
00000000
00010000
00000000
00100000
00000000
00001000
00000000
00010000
00000010
,
00000100
00000000
00001000
00000000
00010000
00000000
00000100
00000000
00000010
00000000
00001000
00000000
00010000
00000000
00001000
01000000
,
00100000
00000000
10000000
00000000
01000000
00000000
00010000
00000000
01000000
00000000
00100000
00000000
00001000
00000000
00010000
00000100
,
00000010
00000000
00000001
00000000
00000100
00000000
00000010
00010000
00001000
00000000
00100000
00000000
01000000
00000000
10000000
00100000
,
01000000
00000000
00010000
00000000
10000000
00000000
00100000
01000000
00001000
00000000
00010000
00000000
00100000
00000000
01000000
00010000
,
10000000
00000000
01000000
00000000
00010000
00000000
00001000
00010000
00000100
00000000
00001000
00000000
00000010
00000000
00000100
00000001
,
00000010
00000000
00001000
00000000
00010000
00000000
00001000
01000000
00010000
00000000
01000000
00100000
10000000
00000000
01000000
00100000
,
00001000
00000000
00010000
00000000
00000010
00000000
00000100
00000001
00000010
00000000
00001000
00000000
00010000
00000000
00001000
00000100
,
00000010
00000000
00001000
00000000
00000100
00000000
00010000
00001000
01000000
00000000
00100000
00000000
00010000
00000000
00100000
10000000
,
01000000
00000000
00010000
00000000
00001000
00000000
00010000
00000100
00000010
00000000
00000001
00000000
00000100
00000000
00001000
00010000
,
00000100
00000000
00000010
00000000
00001000
00000000
00010000
00100000
10000000
00000000
00010000
00000000
00100000
00000000
01000000
10000000
,
00010000
00000000
01000000
00000000
00100000
00000000
01000000
00001000
00010000
00000000
00001000
00010000
00000010
00000000
00001000
00000100
,
00000010
00000000
00001000
00000000
00010000
00000000
00000100
00001000
00000001
00000000
00000010
00000000
00000100
00000000
00001000
00000001
,
00000010
00000000
00000000
00000000
00000100
00000000
00000010
00000000
00001000
00000000
00010000
00000000
00001000
00000000
00100000
00010000
,
00200000
00000000
01300000
10000000
00010000
10000000
01000000
00000000
,
10010000
00000000
00000000
00000000
01100000
00000000
00000000
00000000
01100000
00000000
00000000
00000000
01100000
00000000
10000000
01000000
,
00010000
00001000
00000100
00000001
00000100
00001000
00010000
00001000
,
00000110
00000000
00000000
00000000
00001001
00000000
00000000
00000000
00001001
00000000
00000000
00000000
00001001
00000000
00000010
00000100
,
00001000
00010000
01000000
10000000
00100000
01000000
00100000
00010000
,
00001000
00000000
00100000
00000000
00001000
00000000
01000000
00000000
00001000
00000000
00100000
00000000
00001000
00000000
01000000
00010000
,
00000100
00000000
00000010
00000000
00010000
00000000
00001000
00000000
00010000
00000000
00000100
00000000
00010000
00000000
00000010
00001000
,
00100000
00000000
01000000
00000000
00001000
00000000
00010000
00000000
00001000
00000000
00100000
00000000
00001000
00000000
00010000
00000100
,
00000001
00000000
00001100
00000000
00110000
00000000
01100000
10000000
,
00010000
01000000
00100000
01000000
00010000
01000000
00100000
01000000
,
00001000
00000100
00001000
00000100
00000010
00000001
00000010
00000001
,
00001000
00000100
00000010
00010000
00100000
01000000
00001000
00010000
,
00100000
00010000
10000000
01000000
00010000
00100000
00001000
00000010
,
00000100
00010000
00000100
00010000
01000000
10000000
01000000
10000000
,
00100000
00010000
00100000
00010000
10000000
01000000
00001000
00000010
,
00000200
00000000
00000301
00000100
00001000
00000100
00010000
00001000
,
00000020
00000000
00000130
00000000
00010000
00001000
00100000
00001000
,
00000020
00000000
00000000
00000000
,
00000030
00000000
00000000
00000000
;

//---------------dance-single - D. Bernardone----------------
#NOTES:
     dance-single:
     D. Bernardone:
     Medium:
     6:
     0.352,0.402,0.339,0.235,0.000:
0000
0000
0000
0000
,
1000
0100
1000
0000
0001
0010
0001
0000
,
0001
0100
0001
0000
1000
0010
1000
0000
,
0100
0010
0100
0000
1000
0001
1000
0000
,
2001
0000
0000
0000
,
0002
0000
0000
3003
,
0210
0000
0000
0000
,
0020
0330
1001
0110
,
2002
0000
0000
0000
3003
0000
0000
1000
,
0100
0001
0010
1000
,
1001
0000
1000
0001
0100
0000
0000
0001
,
0020
0000
0100
1000
,
0031
0000
1000
0010
0100
0000
0000
0001
,
1000
0010
0001
0100
,
2002
0000
0000
0000
3003
0000
0000
1000
,
0001
0000
1001
0000
,
1000
0001
0100
0010
,
1000
0001
0100
1000
,
0100
0001
0010
1000
,
0010
0000
0001
0000
1000
0000
0100
0010
,
0010
0000
0100
0000
1000
0000
0001
0100
,
0100
0000
0010
0000
0100
0000
0001
0010
,
0010
0000
0100
0000
1000
0000
0100
0010
,
0010
0000
0001
0000
1000
0000
0010
0100
,
0200
0000
1000
0000
0301
0000
0000
1000
,
0200
0000
0001
0010
,
2000
0000
0001
0000
,
0010
3300
1000
0001
,
2002
0000
0000
0000
,
0010
0000
0010
3003
,
0110
2002
0000
0000
3003
0000
M00M
0000
,
0011
1100
1001
0110
,
1001
0000
1000
0001
0100
0000
0000
0001
,
0010
0110
1000
0001
,
1002
0000
0000
1000
,
1000
1000
0010
0100
,
2000
0000
0000
0000
,
0010
3003
0001
1000
,
0101
0000
0000
0000
0001
1000
0001
1000
,
0001
0000
1010
0101
,
1001
0000
1000
0100
0010
0000
0000
0001
,
0100
0000
0110
1001
,
0210
0000
0000
0010
,
0010
0010
1000
0010
,
0002
0000
0000
0000
,
1000
0303
0001
0010
,
0100
0100
2000
0000
0000
0000
0000
0000
,
3001
0000
0000
0000
0110
0000
0000
1001
,
0000
0000
2200
0000
3300
0000
0000
0001
,
0010
0200
1000
0010
,
2000
0000
0000
0000
3300
0000
0000
1000
,
0001
0000
1010
0101
,
1001
0000
0000
0000
,
1101
0000
0000
0000
,
1011
0000
0000
0000
,
1001
0000
0110
0000
,
1001
1000
0001
0000
1000
0001
1000
0000
,
0001
0100
0001
0000
0100
0001
0100
0000
,
1000
0010
1000
0000
0010
1000
0010
0000
,
1000
0100
1000
0000
0100
1000
0100
0000
,
0010
0001
0010
0000
0001
0010
0001
0000
,
0100
0010
0100
0000
1100
0000
0101
0000
,
0210
0000
0000
0000
,
0010
0000
0000
1000
0000
0000
0000
0000
,
0002
0000
0000
0000
,
0000
0000
0000
0000
,
0303
0000
0000
0000
;

//---------------dance-single - D. Bernardone----------------
#NOTES:
     dance-single:
     D. Bernardone:
     Hard:
     8:
     0.608,0.537,0.331,0.383,0.204:
0000
0000
0000
0000
,
0000
0000
0000
0000
,
1000
0100
0010
0001
1000
0010
0100
0001
,
0020
0100
0032
1000
,
0013
0100
1000
0010
0100
0001
0010
0001
,
2000
0100
3020
0001
,
0130
0001
0010
1000
0010
0100
1000
0001
,
0200
1000
0302
0023
,
0130
0000
1000
0000
0001
0000
0100
0000
1000
0000
0100
0000
0010
0000
1000
0100
,
0020
0032
0203
0310
,
1001
0000
0001
0000
0100
0000
1000
0000
0100
0000
0001
0000
0010
0000
0100
1000
,
0001
0001
0001
0001
0200
0000
0310
0000
,
1010
0000
1000
0000
0100
0000
0001
0000
0100
0000
1000
0000
0010
0000
0100
0001
,
2000
3200
2300
3010
,
0101
0000
0001
0000
0010
0000
1000
0000
0010
0000
0001
0000
0100
0000
0010
1000
,
0001
0001
0001
0001
0020
0000
0230
0000
,
1300
0101
0010
1001
,
1000
0000
0011
0000
0100
1000
0010
0100
,
0001
0011
1000
1010
,
0100
0000
1001
0000
0001
0010
0100
1000
,
0001
0000
0000
0000
0110
0000
0000
1000
0100
0000
0000
0000
1001
0000
0000
0100
,
0001
0000
0000
0000
0011
0000
0000
0100
1000
0000
0000
0000
1010
0000
0000
0001
,
0010
0000
0100
0000
1100
0000
0001
0100
0001
0000
0000
0000
0011
0000
0000
1000
,
0001
0000
0000
0000
0110
0000
0000
0001
0100
0000
0010
0000
1000
0000
1000
0000
,
0200
0000
0000
0000
0001
0000
0000
0000
1000
0000
0000
0000
0001
0000
0310
0001
,
0200
1000
0302
0023
,
0230
1000
0320
0001
,
0230
1000
0320
0032
,
1003
0010
0100
0001
1000
1000
1000
0000
,
1100
0001
0100
0000
0011
1000
0100
0000
,
0010
0001
1000
0000
0110
0000
0001
0000
2000
0000
3100
0000
0010
0000
0010
0000
,
0002
0100
0103
0000
1020
0000
0130
0000
,
0001
0000
1000
0000
0100
0000
0000
1000
0001
0000
0000
0000
0010
0000
0100
1000
,
0001
0000
0000
0000
0110
0000
0000
0010
1000
0000
0000
1000
0100
0000
0000
0100
,
0010
0000
0000
0000
0001
0000
0100
0001
0100
0000
0010
0000
0010
0000
1000
0100
,
1000
0000
0000
0000
0001
0000
0100
0010
1000
0000
0000
0000
0100
0000
0010
0001
,
1000
0000
0000
0000
0010
0000
0100
0001
1000
0000
0100
0000
0100
0000
0010
0001
,
0100
0000
0000
0000
1001
0000
0000
1000
0100
0000
0000
0100
0010
0000
0000
0010
,
0002
0000
0010
0010
1003
1000
1100
0001
,
1000
0010
0101
1100
,
1001
0000
0000
0001
0100
0000
0010
0100
0010
0000
0000
1000
0100
0000
1000
0010
,
0100
0000
0000
0000
0101
0000
0000
0001
0010
0000
0000
0010
0100
0000
0000
0100
,
1000
0000
0000
0001
0100
0000
0001
1000
0001
0000
0010
0000
0100
0000
0000
1000
,
0100
0000
0000
0100
0010
0000
0000
0000
0012
0000
0000
0000
1000
0000
0000
0000
,
0103
0000
0000
0010
0100
0000
0001
0000
0010
0000
0010
0000
0100
0000
1000
0010
,
0100
0000
0000
0000
0001
0000
0001
0000
0020
0000
0000
0000
0130
0000
0000
1000
,
0001
0000
0000
0000
0100
0000
0000
0001
1000
0000
0000
0000
0100
0000
0100
0010
,
0001
0000
0100
0010
1000
0000
0100
0010
,
0011
0000
0000
0000
0001
0000
0000
0100
1000
0000
0000
0100
0001
0000
0010
0100
,
0020
0230
2300
3010
,
2001
0000
0000
0000
0010
0000
0000
0000
0100
0000
0000
0000
0010
0000
3001
0010
,
0100
0000
1000
0010
0200
0000
0301
0000
,
0011
0010
0100
1000
0001
0010
0100
0000
,
1100
0100
0010
0001
1000
0100
0010
0000
,
0101
0100
0010
1000
0001
0100
0010
0000
,
1010
0000
0110
0000
1001
0000
1000
1000
,
0010
0100
1000
0100
0010
0100
1000
0100
,
0010
1000
0100
1000
0010
0001
0010
0001
,
1001
0100
0010
0001
0010
1000
0010
0100
,
2000
0001
0001
3001
0200
0010
0010
0310
,
2000
0100
0100
0000
0001
0001
0001
0000
,
3020
0100
0100
0000
0001
0000
1000
0000
,
0130
0000
0001
1000
0001
1000
0001
1000
,
0100
0000
0000
0000
0010
0000
0001
0000
2000
0000
0000
0000
3020
0000
0000
0030
,
0202
0000
0000
0000
,
0303
0000
0000
0000
;
