#TITLE:Supremacy;
#SUBTITLE:;
#ARTIST:KaW;
#TITLETRANSLIT:;
#SUBTITLETRANSLIT:;
#ARTISTTRANSLIT:;
#GENRE:Trance;
#CREDIT:Sync by HellRazoR;
#BANNER:Supremacy-bn.png;
#BACKGROUND:Supremacy-bg.png;
#LYRICSPATH:;
#CDTITLE:;
#MUSIC:Supremacy.ogg;
#OFFSET:-0.012;
#SAMPLESTART:40.483;
#SAMPLELENGTH:14.000;
#SELECTABLE:YES;
#DISPLAYBPM:142.000:71.000;
#BPMS:0.000=142.180,160.000=71.090,176.000=142.180;
#STOPS:;
#BGCHANGES:0.000=Supremacy-bg.png=1.000=0=0=1=====,
16.000=In The Groove Rebirth/901_JumpBack.mpg=1.000=1=0=1=SongBgWithMovieViz==CrossFade==,
28.000=Supremacy-bg.png=1.000=0=0=1=====,
32.000=In The Groove Rebirth/875_JumpBack.mpg=1.000=0=0=1=====,
48.000=In The Groove Rebirth/882_JumpBack.mpg=1.000=0=0=1=====,
64.000=In The Groove Rebirth/900_JumpBack.mpg=1.000=0=0=1=====,
80.000=In The Groove Rebirth/902_JumpBack.mpg=1.000=0=0=1=====,
92.000=In The Groove Rebirth/902_JumpBack.mpg=1.000=1=0=1=SongBgWithMovieViz==CrossFade==,
96.000=In The Groove Rebirth/888_JumpBack.mpg=1.000=0=0=1=====,
112.000=In The Groove Rebirth/896_JumpBack.mpg=1.000=0=0=1===SlideLeft==,
128.000=In The Groove Rebirth/1129_JumpBack.mpg=1.000=0=0=1=====,
144.000=In The Groove Rebirth/873_JumpBack.mpg=1.000=0=0=1===SlideDown==,
160.000=In The Groove Rebirth/259_JB_HD.mpg=0.600=1=0=1=Kaleidoscope2x2==CrossFade==,
168.000=In The Groove Rebirth/873_JumpBack.mpg=0.400=1=0=1=Kaleidoscope2x2==CrossFade==,
176.000=In The Groove Rebirth/896_JumpBack.mpg=1.000=0=0=1=====,
192.000=In The Groove Rebirth/882_JumpBack.mpg=1.000=0=0=1=====,
204.000=Supremacy-bg.png=1.000=0=0=1=====,
208.000=In The Groove Rebirth/902_JumpBack.mpg=1.000=0=0=1=====,
224.000=In The Groove Rebirth/1129_JumpBack.mpg=1.000=1=0=1===CrossFade==,
236.000=Supremacy-bg.png=1.000=0=0=1=====,
99999=-nosongbg-=1.000=0=0=0 // don't automatically add -songbackground-
;
#BGCHANGES2:28.000=white flash=1.000=0=0=1=====,
32.000=white flash=1.000=0=0=1=====,
96.000=yellow flash=1.000=0=0=1=====,
128.000=white flash=1.000=0=0=1=====,
156.000=white flash=1.000=0=0=1=====,
176.000=yellow flash=1.000=0=0=1=====,
204.000=white flash=1.000=0=0=1=====,
208.000=white flash=1.000=0=0=1=====,
236.000=white flash=1.000=0=0=1=====,
;
#KEYSOUNDS:;

//---------------dance-single - G. Marchan----------------
#NOTES:
     dance-single:
     G. Marchan:
     Challenge:
     11:
     0.962,0.000,0.657,0.362,1.000:
0000
0000
0000
0000
,
0000
0000
0000
0000
,
0001
0100
0010
0100
0001
0010
0100
1000
0100
0000
0110
0000
0011
0000
1001
0000
,
0001
0010
0100
1000
0100
0010
0001
0000
0100
0010
1000
0001
1000
0000
0100
0000
,
0010
0100
0010
0001
0100
0010
1000
0001
1000
0000
1010
0000
0110
0000
1001
0000
,
1000
0100
0010
0100
1000
0001
0100
0000
0010
0100
0001
0100
0010
1000
0100
0000
,
1000
0100
0010
0001
0010
0100
0010
0001
1000
0000
1001
0000
1100
0000
0011
0000
,
0001
0010
0001
1000
0001
0100
0010
0000
0100
0010
0100
0001
1000
0010
0100
0000
,
0110
0000
1000
0100
1000
0000
0010
0000
0100
0000
0001
1000
0100
0000
0001
0000
,
0100
0000
1000
0010
0100
0000
0001
0000
0101
0000
0000
0110
0000
0000
1010
0000
,
1000
0000
0001
0100
0010
0000
0100
0000
0001
0000
1000
0100
1000
0000
0100
0000
,
0001
0000
0100
0010
0001
0000
0100
0000
0010
0100
0000
0101
0000
0000
1001
0000
,
1000
0010
0100
0000
1000
0000
0100
0000
0010
1000
0100
0000
0001
0000
0100
0000
,
0010
0001
0010
0000
0001
0000
0010
0000
0001
1000
0100
0000
0010
0000
0100
0000
,
1000
0010
0100
0000
0001
0000
1000
0000
0100
0010
0001
0000
0100
0000
0010
0000
,
1000
0001
1000
0000
0100
0000
0001
0000
0100
1000
0001
0000
0100
0000
0010
0000
,
1000
0100
0010
0001
0010
0100
1000
0100
0010
0000
0011
0000
0110
0000
1001
0000
,
1000
0010
1000
0100
0010
0100
1000
0100
0010
0000
0110
0000
0011
0000
0110
0000
,
0010
0001
0100
0010
0100
0010
1000
0100
0010
0000
0011
0000
1100
0000
1001
0000
,
0001
0100
0010
1000
0100
0010
0001
0100
0010
0000
1010
0000
0110
0000
0101
0000
,
0001
0010
0100
0010
0001
0100
0010
0100
0010
0000
0110
0000
1001
0000
1100
0000
,
0100
0010
0001
1000
0010
0100
0001
0010
0100
0000
1001
0000
0110
0000
1010
0000
,
1000
0100
1000
0100
1000
0100
0010
0001
0010
0000
0110
0000
0011
0000
1100
0000
,
2002
0000
0000
0000
0000
0000
3003
0000
1000
0100
0010
0001
1000
0100
0010
0001
,
0100
0001
0000
0001
0010
0000
0010
1000
0000
1000
0010
0000
0010
0000
0100
0000
,
0010
0001
0000
0101
0000
0000
0010
0000
0100
0010
0000
0000
1000
0001
0000
0000
,
0001
0100
0000
0100
0010
0000
0010
0001
0000
0001
0010
0000
0100
0000
0001
0000
,
0202
0000
0000
0000
0000
0000
0000
0303
0000
0000
0M0M
0000
0000
0000
0001
0000
0100
0000
0000
0000
0010
0000
0000
0000
1000
0000
0100
0000
0000
0000
0000
0000
,
1000
0010
0000
0010
0100
0000
0100
1000
0000
1000
0100
0000
0010
0000
1000
0000
,
0100
0010
0000
0011
0000
0000
0100
0000
0010
1000
0000
0000
0110
0000
0000
0000
,
0001
0100
0000
0100
0010
0000
0010
0001
0000
0001
0010
0000
1000
0000
0100
0000
,
2200
0000
0000
0000
0000
0000
0000
0000
0000
0000
0000
0000
0000
3300
0000
0000
MM00
0000
0000
0000
1000
0000
0001
0000
0000
0000
0000
0000
0100
0000
0000
0000
,
0001
1000
0000
1000
0100
0000
0100
0001
0000
0001
0100
0000
0010
0000
0001
0000
,
0100
0010
0000
1010
0000
0000
0100
0000
0001
0010
0000
0000
0100
1000
0000
0000
,
0001
1000
0000
1000
0001
0000
0010
1000
0000
1000
0010
0000
0100
0000
0010
0000
,
0022
0000
0000
0000
0000
0000
0000
0000
0033
0000
0000
00MM
0000
0000
0001
0000
0100
0000
0000
0000
1000
0000
0000
0000
0100
0000
0001
0000
0000
0000
0000
0000
,
0010
0100
0000
0100
0010
0000
0001
0100
0000
0100
0001
0000
1000
0000
0100
0000
,
0001
0100
0000
1100
0000
0000
0010
0000
0001
0100
0000
0000
0110
0000
0000
0000
,
0001
0100
0000
0101
0000
1001
0000
0000
0100
0010
0100
0000
0001
1000
0001
0000
,
0220
0000
0000
0000
0000
0000
0330
0000
0000
0MM0
0000
0000
0001
0000
1000
0000
0000
0000
1010
0000
0000
0000
0100
0000
0001
0000
0000
0000
0001
0000
0000
0000
,
1000
0000
0000
0000
0000
0000
0100
0000
0000
0000
0000
0000
1000
0000
0000
0000
000M
0000
0100
0000
0000
0000
0000
0000
1000
0000
0000
0000
0000
0000
0000
0000
0000
0000
0000
0000
0100
0000
0000
0000
0000
0000
0000
0000
0000
0000
0000
0000
00M1
0000
0000
0000
0000
0000
0000
0000
0000
0000
0000
0000
0100
0000
0000
0000
000M
0000
0000
0000
0000
0000
0000
0000
1000
0000
0000
0000
0000
0000
0000
0000
0000
0000
0000
0000
0010
0000
0000
0000
0000
0000
0000
0000
0000
0000
0000
0000
1000
0000
0000
0000
0000
0000
0100
0000
0000
0000
0000
0000
0010
0000
0000
0000
0000
0000
0001
0000
0000
0000
0000
0000
0100
0000
0000
0000
0000
0000
0000
0000
0000
0000
0000
0000
1000
0000
0000
0000
0000
0000
0000
0000
0000
0000
0000
0000
01M0
0000
0000
0000
0000
0000
0000
0000
0000
0000
0000
0000
0001
0000
0000
0000
0000
0000
0000
0000
0000
0000
0000
0000
0100
0000
0000
0000
0000
0000
0000
0000
M000
0000
0000
0000
0010
0000
0000
0000
0000
0000
0000
0000
0000
0000
0000
0000
,
0100
0000
0000
0000
0000
0000
0010
0000
0000
0000
0000
0000
0100
0000
0000
0000
000M
0000
0010
0000
0000
0000
0000
0000
0100
0000
0000
0000
0000
0000
0000
0000
M000
0000
0000
0000
0001
0000
0000
0000
0000
0000
0000
0000
0000
0000
0000
0000
01M0
0000
0000
0000
0000
0000
0000
0000
0000
0000
0000
0000
1000
0000
0000
0000
0000
0000
0000
0000
0000
0000
0000
0000
0100
0000
0000
0000
0000
0000
0000
0000
M000
0000
0000
0000
0001
0000
0000
0000
0000
0000
0000
0000
0000
0000
0000
0000
01M0
0000
0000
0000
0000
0000
0001
0000
0000
0000
0000
0000
0100
0000
0000
0000
0000
0000
0001
0000
0000
0000
0000
0000
0100
0000
0000
0000
0000
0000
0000
0000
M000
0000
0000
0000
0010
0000
0000
0000
0000
0000
0000
0000
0000
0000
0000
0000
100M
0000
0000
0000
0000
0000
0000
0000
0000
0000
0000
0000
0000
0000
0000
0000
0000
0000
0100
0000
0000
0000
0000
0000
0000
0000
0000
0000
0000
0000
0000
0000
00M0
0000
0000
0000
1000
0000
0000
0000
0000
0000
0000
0000
0000
0000
0000
0000
,
0001
0000
0000
0000
0000
0000
0010
0000
0000
0000
0000
0000
0100
0000
0000
0000
0000
0000
1000
0000
0000
0000
0000
0000
0010
0000
0000
0000
0000
0000
0000
0000
0M00
0000
0000
0000
0001
0000
0000
0000
0000
0000
0000
0000
0000
0000
0000
0000
0010
0000
0000
0000
0000
0000
0000
0000
0000
0000
0000
0000
1000
0000
0000
0000
000M
0000
0000
0000
0000
0000
0000
0000
0100
0000
0000
0000
0000
0000
0000
0000
0000
0000
0000
0000
1000
0000
0000
0000
0000
0000
0000
0000
0000
0000
0000
0000
0010
0000
0000
0000
0000
0000
0100
0000
0000
0000
0000
0000
0010
0000
0000
0000
M000
0000
0100
0000
0000
0000
0000
0000
0010
0000
0000
0000
0000
0000
0000
0000
000M
0000
0000
0000
0100
0000
0000
0000
0000
0000
0000
0000
0000
0000
0000
0000
1000
0000
0000
0000
0000
0000
0000
0000
0000
0000
0000
0000
0100
0000
0000
0000
000M
0000
0000
0000
0000
0000
0000
0000
0010
0000
0000
0000
0000
0000
0000
0000
0000
0000
0000
0000
1000
0000
0000
0000
0000
0000
0000
0000
0000
0000
0000
0000
,
1M10
0000
0000
0000
0000
0000
0000
0000
0000
0000
0000
0000
1010
0000
0000
0000
000M
0000
0000
0000
0000
0000
0000
0000
1010
0000
0000
0000
0000
0000
0000
0000
0M00
0000
0000
0000
0000
0000
0000
0000
0000
0000
0000
0000
0000
0000
0000
0000
0001
0000
0000
0000
0000
0000
0100
0000
0000
0000
0000
0000
0001
0000
0000
0000
M000
0000
0100
0000
0000
0000
0000
0000
0001
0000
0000
0000
0000
0000
0100
0000
00M0
0000
0000
0000
0001
0000
0000
0000
0000
0000
0000
0000
0000
0000
0000
0000
0110
0000
0000
0000
0000
0000
0000
0000
0000
0000
0000
0000
0110
0000
0000
0000
M000
0000
0000
0000
0000
0000
0000
0000
0110
0000
0000
0000
0000
0000
0000
0000
000M
0000
0000
0000
0000
0000
0000
0000
0000
0000
0000
0000
0000
0000
0000
0000
1000
0000
0000
0000
0000
0000
0100
0000
0000
0000
0000
0000
1000
0000
0000
0000
00M0
0000
0100
0000
0000
0000
0000
0000
1000
0000
0000
0000
0000
0000
0100
0000
0000
0000
0000
0000
1000
0000
0000
0000
0000
0000
0000
0000
0000
0000
0000
0000
,
0M01
0000
0000
0010
0000
0000
0100
0000
000M
1000
0000
0000
0100
0000
0000
0000
0000
0000
0110
0000
0000
0000
0000
0000
0010
0000
0000
0001
0000
0000
0010
0000
0000
0001
0000
0000
0010
0000
0000
0000
0000
0000
0011
0000
0000
0000
0000
0000
,
1000
0010
0100
0001
1000
0000
1100
0000
1000
0100
0010
0001
0100
0000
0101
0000
,
0001
0100
0001
0100
0001
0000
0101
0000
0100
0010
1000
0001
0100
0000
0110
0000
,
1000
0100
1000
0100
1000
0000
1001
0000
0001
0010
0100
0010
0001
0000
0011
0000
,
0010
0001
0010
0001
0010
0100
1000
0100
0010
0100
1000
0010
0100
0010
0100
0001
,
0100
0010
1000
0100
1000
0001
1000
0100
0010
0001
0010
0001
0010
0100
0010
0001
,
0010
0100
1000
0001
1000
0100
1000
0010
0100
0001
1000
0010
0100
0001
0100
0001
,
2002
0000
0000
0000
0000
0000
3003
M00M
,
2000
0000
0200
3000
0002
0300
2000
0003
0020
3000
0002
0030
0200
0003
2000
030M
,
0000
00M0
0000
0M00
0000
00M0
3000
000M
0100
0001
0000
0000
0101
0000
0000
0000
,
0002
0000
0200
0003
2000
0300
0002
3000
0020
0003
2000
0030
0200
3000
0002
0300
,
M000
0000
0M00
0000
00M0
0000
0M03
0000
M100
0010
0000
0000
1001
0000
0000
0000
,
0002
0000
0200
0003
2000
0300
0002
3000
2000
0003
0200
3000
0020
0300
2000
0030
,
0M00
0000
00M0
0000
000M
0000
30M0
0000
1M00
0001
0000
0000
0110
0000
0000
0000
,
0001
0100
0000
0100
1000
0000
1000
0100
0000
0100
0001
0000
1000
0000
0010
0000
,
2002
0000
0000
0000
3003
M00M
0000
0000
;

//---------------dance-single - G. Marchan----------------
#NOTES:
     dance-single:
     G. Marchan:
     Hard:
     9:
     0.687,0.000,0.505,0.343,0.671:
0000
0000
0000
0000
,
0000
0000
0000
0000
,
0000
0000
0000
0000
,
0000
0000
0000
0000
,
0001
0100
0001
0000
1000
0000
0100
0000
1000
0000
0100
0000
1000
0000
0001
0000
,
0100
0010
0100
0000
0001
0000
1000
0000
0010
0000
0100
0000
0001
0000
0010
0000
,
0100
0010
0100
0000
0010
0000
0001
0000
0100
0000
0010
0000
1000
0000
0010
0000
,
2002
0000
0000
0000
0000
3003
M00M
0000
,
1001
0000
0000
0100
0010
0000
0000
0000
1100
0000
0000
0010
0001
0000
0000
0000
,
0101
0000
0000
0010
1000
0000
0100
0000
0110
0000
0000
0001
1000
0000
0010
0000
,
1010
0000
0000
0001
0100
0000
0000
0000
1001
0000
0000
0010
0100
0000
0000
0000
,
0101
0000
0000
0010
1000
0000
0100
0000
1100
0000
0000
0101
0000
0000
1001
0000
,
1100
0000
0000
0001
0010
0000
0100
0000
0110
0000
0000
0010
0001
0000
0100
0000
,
0101
0000
0000
0010
1000
0000
0001
0000
0110
0000
0000
1000
0100
0000
0001
0000
,
1001
0000
0000
0100
0010
0000
0100
0000
0101
0000
0000
1000
0100
0000
0010
0000
,
0011
0000
0000
0100
0001
0000
1000
0000
0101
0000
0000
0001
0100
0000
0010
0000
,
1000
0010
0100
0000
0100
0000
0010
0000
1000
0000
0100
0000
1001
0000
0000
0000
,
0001
0010
0100
0000
0100
0000
0010
0000
0110
0000
0100
0000
1001
0000
0000
0000
,
1000
0100
0010
0000
0010
0000
0100
0000
0010
0000
1000
0000
1001
0000
0000
0000
,
0001
0010
0001
0000
1000
0000
0100
0000
0110
0000
0100
0000
1100
0000
0000
0000
,
1000
0100
0010
0000
0001
0000
1000
0000
0100
0000
0010
0000
0011
0000
0010
0000
,
0001
0100
0000
0100
0101
0100
1001
0000
,
1000
0100
0010
0000
0010
0000
0110
0000
0000
0000
0100
0000
1100
0000
0100
0000
,
2002
0000
0000
0000
0000
3003
0000
0000
1000
0100
0010
0001
1000
0000
0000
0000
,
1000
0100
0000
0100
1000
0000
1000
0010
0000
0100
0001
0000
0001
0000
0100
0000
,
0010
0100
0000
0110
0000
0000
0001
0000
1000
0100
0000
0000
1000
0100
0000
0000
,
0010
0001
0000
0001
0010
0000
0100
1000
0000
1000
0100
0000
0010
0000
0100
0000
,
0020
0000
0000
0000
0000
0000
0000
0031
0100
0000
0100
0000
0010
1000
0000
0000
,
0100
0010
0000
0010
0100
0000
1000
0001
0000
0001
1000
0000
0010
0000
0100
0000
,
0001
0100
0000
0101
0000
0000
0100
0000
0010
1000
0000
0000
1010
0000
0000
0000
,
0010
1000
0000
1000
0010
0000
0100
0010
0000
0010
0100
0000
0010
0000
0010
0000
,
0200
0000
0000
0000
0000
0000
0000
0000
0000
0000
0310
1000
0000
0000
0100
0000
,
1000
0100
0000
0100
1000
0000
0001
0100
0000
0100
0001
0000
0010
0000
0100
0000
,
1000
0010
0000
1010
0000
0000
0010
0000
0100
0010
0000
0000
0010
1000
0000
0000
,
0010
1000
0000
1000
0010
0000
1000
0100
0000
0100
1000
0000
0010
0000
0100
0000
,
0002
0000
0000
0000
0000
0000
0000
1003
0100
0000
1000
0000
0010
0100
0000
0000
,
0010
0100
0000
0100
0001
0000
0001
1000
0000
1000
0100
0000
0100
0000
0010
0000
,
0001
0100
0000
0110
0000
0000
0010
0000
1000
0100
0000
0000
1100
0000
0000
0000
,
0001
0100
0000
0101
0000
1001
0000
0000
0100
0010
1000
0000
0100
0010
0001
0000
,
2002
0000
0000
0000
3003
0000
0010
1000
0000
1010
0000
0010
0100
0000
0010
0000
,
0110
0000
0001
0MM0
2002
0000
3003
0200
0000
M02M
0300
0031
M100
0000
001M
1000
,
0100
0000
000M
0000
M010
0000
0000
0000
0022
0000
0M00
0000
0033
0000
0200
0000
M00M
0000
0020
0000
0300
0000
1030
0000
0M02
0000
0000
0020
M000
0003
0200
0030
,
2000
0000
0300
0000
001M
3000
0000
0000
0220
0000
M00M
0000
0330
0000
0002
0000
0MM0
0000
2000
0000
0003
0000
3100
0000
0011
0000
0000
0000
M001
0000
00M0
0000
,
0100
000M
M010
0000
2002
0MM0
3003
0200
000M
M020
0300
0031
1000
0M00
0010
000M
,
1000
0100
0000
0100
1000
0000
0000
0000
0010
0001
0000
0001
0010
0000
0000
0000
,
0100
1000
0000
1000
0001
0000
0000
0000
0100
0010
0000
0010
1000
0000
0000
0000
,
0100
0010
0000
0100
0010
0000
0000
0000
0001
1000
0000
0100
1000
0000
0000
0000
,
0100
0010
0000
0001
0100
0000
0000
0000
0010
0001
0000
0001
0010
0000
0000
0000
,
0001
0100
0000
0100
0010
0000
0100
0000
0010
1000
0000
1000
0001
0000
0100
0000
,
0010
1000
0000
1000
0100
0000
1000
0000
0001
0100
0000
0001
1000
0000
0100
0000
,
0010
0001
0000
0010
0100
0000
0010
0000
0001
0100
0000
0100
0010
0000
0100
0000
,
2002
0000
0000
0000
0000
0000
3003
M00M
,
1001
0000
0100
0010
0M00
1000
0010
020M
,
M000
0000
00M0
0000
000M
0000
M000
0000
0301
1000
0000
0000
1100
0000
0000
0000
,
0010
000M
0100
0010
0M00
0001
1000
0M20
,
M000
0000
000M
0000
0M00
0000
M000
0000
0130
0001
0000
0000
0101
0000
0000
0000
,
0100
000M
1000
0100
00M0
0001
0100
M002
,
0M00
0000
00M0
0000
0M00
0000
M000
0000
1003
0100
0000
0000
0110
0000
0000
0000
,
1000
0100
0000
0100
0010
0000
0010
0001
0000
0001
1000
0000
1000
0000
0010
0000
,
2002
0000
0000
0000
3003
M00M
0000
0000
;

//---------------dance-single - G. Marchan----------------
#NOTES:
     dance-single:
     G. Marchan:
     Medium:
     7:
     0.476,0.000,0.067,0.076,0.181: // measure 1
0000
0000
0000
0000
,  // measure 2
0000
0000
0000
0000
,  // measure 3
0000
0000
0000
0000
,  // measure 4
0000
0000
0000
0000
,  // measure 5
1000
0010
0100
0000
0001
0001
0001
0000
,  // measure 6
1000
0001
0010
0000
0100
0100
0100
0000
,  // measure 7
0010
0001
0100
0000
0010
0010
0010
0000
,  // measure 8
1000
0001
0010
0100
1000
0001
1001
0000
,  // measure 9
0001
1000
0001
0000
1000
0010
0100
0000
,  // measure 10
0010
0010
1000
0001
1000
0100
1000
0001
,  // measure 11
1000
0010
0100
0000
0010
1000
1000
0000
,  // measure 12
1000
0000
0001
0000
1000
0000
0100
0000
1000
0000
0000
1000
0000
0000
1000
0000
,  // measure 13
0001
0100
0010
0000
1000
0100
0010
0000
,  // measure 14
0001
0010
0001
0000
1000
0100
1000
0010
,  // measure 15
0100
0001
1000
0000
0001
0100
0010
0000
,  // measure 16
0100
0000
0010
0000
0100
0000
0001
0000
0100
0000
0000
0100
0000
0000
0100
0000
,  // measure 17
0001
1000
0010
0010
,  // measure 18
0010
0100
0000
0100
0010
1000
0100
0010
,  // measure 19
0001
0001
0100
0010
,  // measure 20
1000
0100
0000
0010
0001
0100
0010
1000
,  // measure 21
0100
0000
0010
0001
0000
0100
0010
1000
,  // measure 22
0000
0000
0000
0000
1000
0100
0010
0001
,  // measure 23
1000
0000
0100
0010
0000
0001
0100
0010
,  // measure 24
0000
0000
0000
0000
1000
0000
0000
0000
1000
0100
0000
0000
0010
0000
0000
0000
,  // measure 25
0001
1000
0000
0000
0010
0000
0100
0000
0010
0000
1000
0000
0001
0000
0100
0000
,  // measure 26
0010
1000
0000
1000
0000
0000
0000
0000
0001
0100
0000
0000
0100
0000
0000
0000
,  // measure 27
0001
0100
0000
0000
0010
0000
1000
0000
0100
0000
1000
0000
0010
0000
1000
0000
,  // measure 28
0200
0000
0000
0000
0310
0001
1000
0000
,  // measure 29
0001
0100
0000
0000
0001
0000
0100
0000
0010
0000
1000
0000
0010
0000
0100
0000
,  // measure 30
0010
0100
0000
0100
0000
0000
0000
0000
1000
0001
0000
0000
0001
0000
0000
0000
,  // measure 31
0001
0100
0000
0000
0010
0000
1000
0000
0010
0000
0100
0000
0010
0000
0100
0000
,  // measure 32
0202
0000
0000
0000
0000
0000
0000
0303
0000
0000
0000
0000
1001
0000
0000
0000
,  // measure 33
0001
0100
0000
0000
0010
0000
1000
0000
0100
0000
1000
0000
0001
0000
0010
0000
,  // measure 34
0100
1000
0000
0000
0100
0000
0010
0000
0001
0010
0000
0000
0010
0000
0000
0000
,  // measure 35
0001
1000
0000
0000
0010
0000
0100
0000
0001
0000
1000
0000
0010
0000
0100
0000
,  // measure 36
0002
0000
0000
0000
0003
0000
0000
1000
0001
0000
0100
0000
0010
1000
0000
0000
,  // measure 37
1000
0100
0000
0000
1000
0000
0001
0000
0100
0000
0010
0000
1000
0000
0100
0000
,  // measure 38
0010
0001
0000
0001
0000
0000
0000
0000
0001
0100
0000
0000
0100
0000
0000
0000
,  // measure 39
0001
1000
0001
0000
0010
0100
0010
0001
,  // measure 40
2000
0000
0000
3010
0100
0010
0000
0100
,  // measure 41
0100
0000
0001
0000
0001
0000
0000
0100
0000
0010
0000
0000
1000
0000
0100
0000
,  // measure 42
0100
0000
0000
0000
0010
0000
0000
0100
0000
0010
0000
0000
0001
0000
0000
0000
,  // measure 43
0100
0000
0010
0000
0100
0000
0000
0001
0000
1000
0000
0000
0001
0000
0001
0000
,  // measure 44
0100
0000
0010
0000
1000
0000
0000
0100
0000
0100
0000
0000
0010
0000
0001
0000
,  // measure 45
0001
0100
0001
0000
1000
0001
1000
0000
,  // measure 46
0001
0100
0010
0000
1000
0100
0010
0000
,  // measure 47
0001
0010
0100
0000
0001
1000
0010
0000
,  // measure 48
1000
0100
1000
0000
0001
0100
0010
0000
,  // measure 49
0100
0010
0100
0000
0001
0010
0100
0000
,  // measure 50
0010
0100
1000
0000
0001
0100
0010
0000
,  // measure 51
0100
0001
1000
0000
0001
1000
0100
0000
,  // measure 52
2002
0000
0000
3003
,  // measure 53
0001
0100
0001
1000
0000
0001
0100
0100
,  // measure 54
0000
0000
0000
0000
0000
0000
0000
0000
0010
0001
0000
0000
1001
0000
0000
0000
,  // measure 55
0001
0100
0001
1000
0000
1000
0010
0100
,  // measure 56
0000
0000
0000
0000
0000
0000
0000
0000
0010
1000
0000
0000
1001
0000
0000
0000
,  // measure 57
1000
0100
0001
0100
0000
0001
0100
0010
,  // measure 58
0000
0000
0000
0000
0000
0000
0000
0000
0010
0001
0000
0000
1001
0000
0000
0000
,  // measure 59
1000
0100
0000
0100
0010
0000
0010
0001
0000
0001
1000
0000
1000
0000
0010
0000
,  // measure 60
0020
0030
0000
0000
;

//---------------dance-single - G. Marchan----------------
#NOTES:
     dance-single:
     G. Marchan:
     Beginner:
     1:
     0.122,0.000,0.029,0.000,0.000:
0000
0000
0000
0000
,
0000
0000
0000
0000
,
0000
0000
0000
0000
,
0000
0000
0000
0000
,
1000
1000
0000
0000
,
0001
0001
0000
0000
,
1000
0000
0001
0000
,
1000
0000
0000
0000
,
0001
0000
0000
0000
,
1000
0000
0000
0000
,
0001
0000
0000
0000
,
0010
0000
0000
0000
,
0100
0000
1000
0000
,
0000
0001
0000
0000
,
1000
0000
0000
0000
,
0010
0000
1000
0000
,
0001
0000
0000
0010
,
0000
0010
0000
0010
,
0000
0001
0000
0100
,
0000
0100
0000
0100
,
0000
0001
0000
0000
,
0000
1000
0000
0000
,
0001
0000
0100
0000
,
0010
0000
1000
0000
,
1001
0000
0000
0000
,
0001
0000
0000
0000
,
0001
0000
1000
0000
,
0001
0000
0000
0000
,
1000
0000
0000
0000
,
0001
0000
0010
0000
,
0100
0000
1000
0000
,
0100
0000
0000
0000
,
1000
0000
0100
0000
,
0010
0000
0001
0000
,
0001
0000
1000
0000
,
0001
0000
0000
0000
,
0110
0000
0000
0000
,
0001
0000
0100
0000
,
0000
0010
0000
0000
,
1000
0000
0001
0000
,
1001
1000
0000
0010
,
0000
0001
0000
0010
,
0000
1000
0000
0001
,
0100
0000
0001
0001
,
0001
0000
0000
0000
,
0100
0000
0000
0000
,
0010
0000
0000
0000
,
1000
0000
0000
0000
,
0100
0000
0000
0000
,
0010
0000
0000
0000
,
0001
0000
0000
0000
,
0100
0000
0000
0000
,
0010
0000
1000
0000
,
0000
0000
0001
0000
,
1000
0000
0010
0000
,
0000
0000
0100
0000
,
0010
0000
0100
0000
,
0000
0000
0001
0000
,
1000
1000
1000
1000
,
1000
0000
0000
0000
;

//---------------dance-single - G. Marchan----------------
#NOTES:
     dance-single:
     G. Marchan:
     Easy:
     3:
     0.290,0.000,0.162,0.124,0.000:
0000
0000
0000
0000
,
0000
0000
0000
0000
,
0000
0000
0000
0000
,
0000
0000
0000
0000
,
0001
1000
1000
0100
,
0010
0001
0001
0100
,
0010
1000
1000
0001
,
2002
0000
0000
0000
0000
3003
0000
0000
,
1001
1000
0000
0001
,
0100
0100
0000
0100
,
0001
0100
0000
0001
,
0010
0010
0000
0000
,
0101
0001
0000
1000
,
0100
0100
0000
0100
,
0010
0010
0001
0100
,
0001
0100
0000
0001
,
1000
1000
0000
0001
,
0100
0100
0010
1000
,
0100
0100
0000
0010
,
0001
0001
0000
1000
,
0010
0010
0100
0001
,
1000
1000
0000
0001
,
1000
1000
0000
0001
,
0010
0001
0010
0100
,
1001
0000
0100
0000
,
1100
0000
0010
0000
,
0101
0100
0001
1000
,
0010
0000
1000
1000
,
0010
0100
0001
1000
,
1100
0000
1001
0001
,
1000
0010
0100
0010
,
2002
0000
0000
0000
0000
0000
0000
0000
0000
3003
0000
0000
0000
0000
0000
0000
,
0001
0001
0010
0100
,
0110
0000
1001
0000
,
1000
1000
0100
1000
,
1000
0000
1000
0010
,
0010
0100
0001
0100
,
0110
0000
1001
0000
,
0001
0001
1000
1000
,
2002
0000
0000
3003
,
1000
0001
0100
0000
1000
0100
1000
0000
,
0001
0010
0001
0000
0100
0010
1000
0000
,
0010
0100
0010
0000
1000
0100
0010
0000
,
0010
0010
0010
0010
0100
0100
0100
0100
,
1001
0001
0100
0100
,
0010
0010
1000
1000
,
1000
0001
0100
0100
,
0100
0010
0010
1000
,
0001
0001
0100
0100
,
0010
0010
1000
1000
,
0010
0100
0001
1000
,
2002
0000
0000
0000
0000
0000
0000
0000
0000
3003
0000
0000
0000
0000
0000
0000
,
1000
0010
0010
0200
,
0000
0000
0300
0000
,
0001
0010
0010
0200
,
0000
0000
0300
0000
,
0010
0001
1000
0020
,
0000
0000
0030
0000
,
1000
1000
0001
0010
,
2002
0000
0000
3003
;

//---------------dance-double - M. Simmons----------------
#NOTES:
     dance-double:
     M. Simmons:
     Challenge:
     11:
     0.867,0.000,0.562,0.114,0.919:
00000000
00000000
00000000
00000000
,
00000000
00000000
00000000
00000000
,
00000100
00010000
00000000
00000010
00010000
00000000
00000010
00000000
00001000
00000000
00001010
00000000
00100010
00000000
00101000
00000000
,
00001000
01000000
00000000
01000000
00010000
10000000
00000000
00001000
00100000
00000000
00001000
00000000
00010000
00000000
00000010
00000000
,
00000100
00000001
00000000
00000100
00000010
00010000
00001000
00000000
01000000
00000000
01001000
00000000
00010100
00000000
01001000
00000000
,
00000100
00000010
00000000
00000001
00001000
00000100
00000000
00001000
00000100
00000000
00010000
00000000
00000100
00000000
00010000
00000000
,
00001000
00010000
00000000
00001000
01000000
00001000
00000000
00001000
00010000
00000000
00010100
00000000
00101000
00000000
00010010
00000000
,
02000200
00000000
00000000
00000000
00000000
03000300
00000000
00000000
00001000
00010000
00000100
00010000
00000000
00000100
00010000
00000000
,
00001000
01000000
00100000
10000000
00100000
01000000
00001000
00010000
,
00000100
00000000
00000010
00000000
00000001
00000000
00001000
00000000
00001010
00000000
00000000
00001100
00000000
00000100
00010000
00000000
,
00001000
01000000
00100000
10000000
00010000
01000000
00001000
10000000
,
01000000
00000000
00100000
00000000
00001000
00000000
00010000
00000000
00010100
00000000
00000000
00000110
00000000
00000000
00000010
00000001
,
00001000
00000010
00000100
00000010
00010000
00001000
01000000
10000000
,
01000000
00000000
00001000
00000000
00010000
00000000
00000100
00000000
00010010
00000000
00000000
00000110
00000000
00000100
00000001
00000010
,
00000100
00010000
00001000
01000000
00000100
00000010
00000001
00000010
,
00000100
00000000
00010000
00000000
00001000
00000000
01000000
00000000
00100000
10000000
00000000
00010000
00100000
01000000
10000000
00000000
,
00010000
01000000
00001000
00010000
00000010
00100000
00010000
01000000
,
00010000
00000000
10000000
00000000
01000000
00000000
00100000
00000000
00101000
00000000
00000000
00110000
00000000
00000100
00001000
00000000
,
00000010
00000100
00000010
00001000
00000001
00000100
00000010
00010000
,
00001000
00000000
01000000
00000000
10000000
00000000
01000000
00000000
01010000
00000000
00000000
11000000
00000000
00100000
00010000
01000000
,
00001000
00010000
00000100
00010000
00001000
00100000
00001000
01000000
,
00000010
00000000
00000100
00000000
00000001
00000000
00001000
00000000
00001100
00000000
00000000
00001010
00000000
00000010
00001000
00000010
,
00000100
00000000
00000010
00001000
00000010
00000000
00010000
00000000
00000100
00000000
00010000
00001000
00100000
00000000
01000000
00000000
,
10000000
00000000
00010000
01000000
00100000
00000000
01000000
00000000
00001000
00010000
00001000
00010000
00000000
00001000
00010000
00000000
,
00001000
01000000
00000000
01000000
00000100
00000000
00000100
00000010
00000000
00000010
00000001
00000000
00000100
00000000
00001000
00000000
,
00010000
00001000
00000000
01001000
00000000
00000000
00100000
00000000
10000000
01000000
00000000
00000000
00100000
00010000
00000000
00000000
,
01000000
00001000
00000000
00001000
00000100
00000000
00000100
00000010
00000000
00000010
00001000
00000000
00001001
00000000
00000110
00000000
,
00020010
00000000
00000000
00000000
00030000
00000000
00000000
00001000
01000000
00000000
00100000
00000000
10000000
01000000
00000000
00000000
,
00100000
00001000
00000000
00001000
00010000
00000000
00010000
00000001
00000000
00000001
00000100
00000000
00000110
00000000
00010010
00000000
,
00010000
00001000
00000000
01001000
00000000
00000000
00001000
00000000
01000000
00100000
00000000
00000000
10010000
00000000
00000000
00000000
,
10000000
01000000
00000000
01000000
00010000
00000000
00010000
00001000
00000000
00001000
00000100
00000000
00000010
00000000
00000002
00000000
,
00002000
00000000
00000000
00000000
00000000
00000003
00000000
00000000
00003000
00000000
00010000
00001000
00000000
00000000
01001000
00000000
,
00010000
10000000
01000000
00000000
00100000
00010000
10000000
00000000
00010000
01000000
00001000
00010000
00000000
00010000
00000100
00000000
,
00000010
00000001
00001000
00000000
00000010
00000100
00000010
00000000
00001000
00000100
00000010
00000001
00000000
00000100
00000010
00000000
,
00010000
00000100
00010000
00000000
00001000
01000000
00100000
00000000
01000000
00001000
00100000
00010000
00000000
00100000
01000000
00000000
,
00220000
00000000
00000000
00000000
00330000
00000000
00000000
00100000
00001000
00000000
00000100
00000000
00000010
00010000
00000000
00000000
,
00000010
00000100
00000001
00000000
00000010
00000100
00001000
00000000
01000000
00100000
00010000
01000000
00000000
00010000
01000000
00000000
,
00001000
00010000
00000100
00000000
00000010
00001000
00010000
00000010
00000100
00000000
00000100
00000000
00001010
00000000
00000000
00000000
,
00000001
00000100
00000001
00000100
00000000
00001001
00000000
00000000
00000100
00010000
00000100
00000000
00010000
00001000
00010000
00000000
,
00102000
00000000
00000000
00000000
00003000
00000000
10000000
01000000
00000000
00100000
00000000
01000000
10000000
00000000
10010000
00000000
,
01000000
00100000
01000000
00000000
00001000
00000000
00010000
00000000
00011000
00000000
00010000
00000000
00000100
00000000
00000000
00000000
00000010
00000100
00000010
00000000
00000001
00000000
00000010
00000000
00000110
00000000
00000100
00000000
00001000
00000000
00000000
00000000
,
00000010
00010000
00000010
00000000
00010000
00000000
00001000
00000000
01001000
00000000
00010000
00000000
10000000
00000000
01000000
00000000
00100000
00010000
00100000
00000000
01000000
00000000
00010000
00000000
00011000
00000000
00010000
00000000
00000100
00000000
00000000
00000000
,
00000010
00000001
00000010
00000000
00000100
00000000
00001000
00000000
00001010
00000000
00000010
00000000
00010000
00000000
00000000
00000000
00001000
01000000
00001000
00000000
01000000
00000000
00100000
00000000
10010000
00000000
01000000
00000000
00010000
00000000
00000000
00000000
,
10000000
00000000
10000000
00000000
10000000
00000000
00000000
00000000
01000000
00010000
01000000
00010000
01000000
00000000
00010000
00000000
00001000
00000000
00001000
00000000
00001000
00000000
00000000
00000000
00010000
00000010
00010000
00000010
00010000
00000000
00010010
00000000
,
00000010
00000100
00000001
00001000
00000100
00000000
00000010
00000000
00000100
00010000
00001000
00000000
00101000
00000000
00011000
00000000
,
00001000
00000000
01000000
00000000
00100000
00000000
01000000
00000000
00010000
00000000
00000000
00000000
10000000
00010000
10000000
00000000
01000000
00000000
00100000
00000000
00001000
00000000
01000000
00000000
00100000
00000000
00000000
00000000
10100000
00000000
00000000
00000000
,
01000000
00001000
00010000
00000100
00010000
00000000
00001000
00000000
00010000
00000010
00000100
00000000
00001001
00000000
00000110
00000000
,
00000010
00000000
00001000
00000000
00000100
00000000
00010000
00000000
00001000
00000000
00000000
00000000
00010000
00001000
00010000
00000000
00001000
00000000
01000000
00000000
00100000
00000000
01000000
00000000
00010000
00000000
00000000
00000000
10010000
00000000
00000000
00000000
,
01000000
00100000
01000000
00001000
00010000
00000000
00000100
00000000
00000010
00000100
00010000
00000000
00011000
00000000
01001000
00000000
,
00001000
00000000
00010000
00000000
00000100
00000000
00010000
00000000
00001000
00000000
00000000
00000000
01000000
00001000
01000000
00000000
00100000
00000000
10000000
00000000
00100000
00000000
01000000
00000000
00010000
00000000
00000000
00000000
10010000
00000000
00000000
00000000
,
01000000
00100000
01000000
10000000
00001000
00000000
00100000
00000000
00000010
00000100
00000010
00000000
00001001
00000000
00010010
00000000
,
00200020
00000000
00000000
00000000
00300030
00000000
00000000
00000000
00001000
00010000
00000100
00010000
00000000
00010000
00000100
00000000
,
00010000
00000100
00000000
00000100
01000000
00000000
01000000
00100000
00000000
00100000
10000000
00000000
10000000
00000000
00100000
00000000
,
01000000
00000000
00001000
00000000
00100000
00000000
01000000
00100000
00010000
10000000
00000000
00000000
10001000
00000000
00000000
00000000
,
00001000
00010000
00000000
00010000
00000010
00000000
00000010
00000100
00000000
00000100
00000001
00000000
00000010
00000000
00000100
00000000
,
00010000
00000000
00001000
00000000
01000000
00000000
00100000
01000000
00010000
10000000
00000000
00000000
00011000
00000000
00000000
00000000
,
00010000
00000100
00000000
00000100
00000010
00000000
00000010
00000001
00000000
00000001
00001000
00000000
00000010
00000000
00000100
00000000
,
00000010
00000000
00010000
00000000
00001000
00000000
00010000
00000010
00010000
00000100
00000000
00000000
00010100
00000000
00000000
00000000
,
00001000
01000000
00000000
01000000
10000000
00000000
10000000
01000000
00000000
01000000
00001000
00000000
00010000
00000000
00000100
00000000
,
00200200
00000000
00300300
00000000
;

//---------------dance-double - M. Simmons----------------
#NOTES:
     dance-double:
     M. Simmons:
     Hard:
     8:
     0.644,0.000,0.343,0.124,0.490:
00000000
00000000
00000000
00000000
,
00000000
00000000
00000000
00000000
,
01000000
00001000
01000000
00001000
01000000
00000000
00010000
00000000
10000000
00000000
01000000
00000000
00100000
00000000
00010000
00000000
,
00100000
00001000
00100000
00000000
00101000
00000000
00001000
00000000
00010000
00000100
00010000
00000000
00010100
00000000
00000100
00000000
,
00010000
00000010
00010000
00000010
00010000
00000000
00000100
00000000
00000010
00000000
00000001
00000000
00001000
00000000
00000010
00000000
,
00000100
00000010
00000100
00000000
00000110
00000000
00000001
00000000
00001000
00000001
00001000
00000000
00001001
00000000
00000010
00000000
,
00010000
00000010
00010000
00000010
00010000
00000000
00001000
00000000
01000000
00000000
00100000
00000000
01000000
00000000
00001000
00000000
,
00022000
00000000
00000000
00033000
00000100
00000100
00000100
00000100
,
00010000
00000000
00000000
00001000
00000000
00000000
01000000
00000000
00100000
00000000
00000000
10000000
00000000
00000000
01000000
00000000
,
10000000
00000000
00000000
00010000
00000000
00000000
01000000
00000000
00100000
00000000
00000000
01100000
00000000
01000000
00010000
00000000
,
01000000
00000000
00000000
00001000
00000000
00000000
00010000
00000000
00001000
00000000
00000000
00010000
00000000
00000000
00000010
00000000
,
00000100
00000000
00000000
00000010
00000000
00000000
00001000
00000000
00000001
00000000
00000000
00001001
00000000
00000001
00000010
00000000
,
00000100
00000000
00000000
00010000
00000000
00000000
00001000
00000000
00010000
00000000
00000000
00000100
00000000
00000000
00000010
00000000
,
00000100
00000000
00000000
00010000
00000000
00000000
00001000
00000000
01000000
00000000
00000000
01100000
00000000
01000000
00010000
00000000
,
10000000
00000000
00000000
01000000
00000000
00000000
00100000
00000000
01000000
00000000
00000000
00100000
00000000
00000000
00001000
00000000
,
00010000
00000000
00000000
00000100
00000000
00000000
00001000
00000000
00000100
00000000
00000000
00010100
00000000
00001000
01000000
00001000
,
01000000
00000000
00000000
00010000
00000000
00000000
10000000
00000000
01000000
00000000
00000000
10000000
00000000
00000000
00100000
00000000
,
01000000
00000000
00000000
00001000
00000000
00000000
00010000
00000000
00001000
00000000
00000000
01001000
00000000
00001000
00010000
00000000
,
00000100
00000000
00000000
00000010
00000000
00000000
00000001
00000000
00000010
00000000
00000000
00000100
00000000
00000000
00001000
00000000
,
00000001
00000000
00000000
00000100
00000000
00000000
00000010
00000000
00010000
00000000
00000000
00011000
00000000
00001000
00100000
00001000
,
00100000
00000000
00000000
01000000
00000000
00000000
10000000
00000000
00010000
00000000
00000000
01000000
00000000
00000000
00010000
00000000
,
10000000
00000000
00000000
01000000
00000000
00000000
00100000
00000000
00001000
00000000
00000000
00011000
00000000
00010000
00000010
00010000
,
00000010
00000100
00000001
00001000
00000100
00000010
00000100
00010000
,
00020200
00000000
00000000
00000000
00000000
00000000
00000000
00030300
00010000
00000000
00010000
00000000
00010000
00000000
00010000
00000000
,
00010000
00001000
00000000
00001000
00010000
00000000
00010000
00001000
00000000
00001000
01000000
00000000
00100000
00000000
10000000
00000000
,
00010000
01000000
00000000
01010000
00000000
00000000
00010000
00000000
10000000
01000000
00000000
00000000
11000000
00000000
00000000
00000000
,
00100000
00010000
00000000
00010000
00100000
00000000
00100000
00001000
00000000
00001000
00100000
00000000
00001000
00000000
00010000
00000000
,
00011000
00000000
00000000
00000000
00000000
00000000
00000000
00000100
00001000
00000000
00000010
00000000
00001000
00000010
00000000
00000000
,
00000100
00000010
00000000
00000010
00000100
00000000
00000100
00000001
00000000
00000001
00000100
00000000
00000010
00000000
00001000
00000000
,
00000100
00010000
00000000
00011000
00000000
00000000
00001000
00000000
01000000
00001000
00000000
00000000
01001000
00000000
00000000
00000000
,
00001000
00010000
00000000
00010000
00001000
00000000
00001000
01000000
00000000
01000000
00100000
00000000
10000000
00000000
01000000
00000000
,
00200000
00000000
00000000
00000000
00300000
00000000
00000000
00000000
00000000
00000000
01000000
00100000
00000000
00000000
10010000
00000000
,
01000000
00001000
00010000
00000100
00010000
00001000
01000000
00100000
,
10000000
01000000
00000000
01100000
00000000
00000000
00100000
00000000
00001000
00010000
00000000
00000000
00010100
00000000
00000000
00000000
,
00000100
00000010
00000100
00001000
00000001
00000100
00000010
00001000
,
00001001
00000000
00000000
00000000
00000000
00000000
00000000
00000100
00001000
00000000
00000100
00000000
00010000
00001000
00000000
00000000
,
00010000
00001000
01000000
00100000
01000000
00010000
10000000
01000000
,
00100000
00001000
00000000
00011000
00000000
00000000
00010000
00000000
00000100
00001000
00000000
00000000
00001010
00000000
00000000
00000000
,
00000100
00000000
00000010
00000000
00000100
00000000
00000001
00000000
00001000
00000100
00001000
00000000
00000100
00001000
00000100
00000000
,
00010200
00000000
00000000
00000000
00000300
00000000
00010000
00000100
00000000
00010000
00000100
00000000
00010000
00000000
00010000
00000000
,
00001000
00000000
00100000
00000000
00101000
00000000
00000000
00010000
01000000
00000000
00100000
00000000
10100000
00000000
00000000
00000000
,
01000000
00000000
00001000
00000000
00011000
00000000
00010000
00000100
00010000
00000000
00001000
00000000
00011000
00000000
00000000
00000000
,
00010000
00000000
00000100
00000000
00000110
00000000
00000000
00000100
00001000
00000000
00000001
00000000
00001001
00000000
00000000
00000000
,
00000001
00000000
00000001
00000000
00000001
00000000
00000000
00000000
00001000
00000100
00001000
00000100
00001000
00000000
00000000
00000000
00000100
00000000
00000100
00000000
00000100
00000000
00000000
00000000
00010000
00000100
00010000
00000100
00010000
00000000
00000000
00000000
,
00001000
01000000
00100000
10000000
00100000
01000000
00010000
00100000
,
01000000
00100000
00001000
00010000
00000010
00000100
00000020
00000000
,
00000130
00000001
00000100
00000010
00001000
00000100
00010000
00001000
,
00010000
00000010
00000100
00000001
00000010
00000100
00020000
00000000
,
00031000
00100000
01000000
10000000
00001000
00100000
00010000
01000000
,
00100000
01000000
00001000
00010000
00000100
00000010
00000200
00000000
,
00010300
00001000
00100000
00010000
01000000
00100000
01000000
00001000
,
02002000
00000000
00000000
03003000
00001000
00001000
00001000
00001000
,
00001000
00010000
00000000
00000100
00001000
00000010
00000100
00000010
,
00000000
00000000
00000000
00000000
00000000
00000000
00000000
00000000
00000100
00000001
00000000
00000000
00001001
00000000
00000000
00000000
,
00000100
00000000
00010000
00001000
01000000
00100000
01000000
00001000
,
00000000
00000000
00000000
00000000
00000000
00000000
00000000
00000000
00010000
00001000
00000000
00000000
01001000
00000000
00000000
00000000
,
00001000
00000000
01000000
00100000
10000000
00100000
01000000
00010000
,
00000000
00000000
00000000
00000000
00000000
00000000
00000000
00000000
10000000
01000000
00000000
00000000
01100000
00000000
00000000
00000000
,
00100000
00010000
00000000
00010000
00100000
00000000
00100000
00001000
00000000
00001000
00100000
00000000
00001000
00000000
00010000
00000000
,
00022000
00000000
00033000
00000000
;

//---------------dance-double - M. Simmons----------------
#NOTES:
     dance-double:
     M. Simmons:
     Medium:
     6:
     0.388,0.000,0.210,0.152,0.038:
00000000
00000000
00000000
00000000
,
00000000
00000000
00000000
00000000
,
00000000
00000000
00000000
00000000
,
00000000
00000000
00000000
00000000
,
00010000
00001000
01000000
00001000
00010000
00001000
00001000
00001000
,
00010000
00000100
00010000
00000000
00001000
01000000
00001000
00000000
,
01000000
00100000
10000000
00010000
01000000
00100000
00100000
00100000
,
02200000
00000000
00000000
03300000
,
01000000
00001000
00010000
00000100
,
00010000
00000000
00000010
00000000
00000100
00000001
00001000
00001000
,
00000100
00001000
00000010
00010000
,
00000100
00000000
00010000
00000000
00001000
00010000
00001000
00000000
,
00100000
00010000
01000000
00100000
,
10000000
00000000
00010000
00000000
01000000
00010000
10000000
10000000
,
00010000
01000000
00001000
00010000
,
00000100
00000010
00000110
00000000
,
00001001
00000001
00000100
00000010
,
00010000
00000000
00000100
00000000
00010000
00001000
00010000
00000100
,
00010000
00001000
01000000
00100000
,
10000000
00000000
00010000
00000000
01000000
00100000
01000000
00000000
,
00010000
10000000
01000000
00100000
,
00001000
00000000
00010000
00000000
00000010
00010000
00000100
00000010
,
00000001
00000010
00000100
00001000
,
00002002
00000000
00000000
00003003
,
00000020
00000100
00001000
00000130
,
00000001
00001000
00000000
00000100
00000000
00000000
00000000
00000000
00010100
00000000
00000000
00000000
00010100
00000000
00000000
00000000
,
00001000
00000000
01000000
00000000
00100000
00000000
01000000
01000000
,
01000000
00000000
20020000
30030000
,
00010000
00100000
01000000
00100000
,
00001000
00010000
00000000
00000100
00000000
00000000
00000000
00000000
00010010
00000000
00000000
00000000
00010010
00000000
00000000
00000000
,
00000100
00000000
00000010
00000000
00000001
00000000
00001000
00000001
,
00002000
00000000
00000000
00000000
00000000
00003200
00000000
00000000
,
00010300
00001000
01000000
00100000
,
10000000
00010000
00000000
01000000
00000000
00000000
00000000
00000000
10010000
00000000
00000000
00000000
10010000
00000000
00000000
00000000
,
01000000
00000000
00100000
00000000
00001000
00000000
00010000
00001000
,
00010000
00000000
00000000
00000000
00000100
00000100
00000100
00000000
,
00000010
00000001
00001000
00000010
,
00000100
00000001
00000000
00001000
00000000
00000000
00000000
00000000
00001100
00000000
00000000
00000000
00010100
00000000
00000000
00000000
,
00000100
00000000
00010000
00000000
00001000
01000000
00001000
01000000
,
00002000
00000000
00203000
00000000
,
01300000
10000000
01000000
00100000
00001000
00010000
00001000
00000000
,
00010000
00000100
00000010
00000001
00001000
00000010
00000100
00000000
,
00000010
00001000
00000100
00010000
00001000
00010000
00001000
00000000
,
00100000
01000000
00100000
01000000
00100000
00000000
10010000
00000000
,
01000000
00001000
00010000
00000100
,
00010000
00000000
00000010
00000000
00000100
00000010
00000100
00000010
,
00000100
00000001
00001000
00000100
,
00010000
00000000
00000010
00000000
00010000
00000010
00010000
00000000
,
00001000
01000000
00100000
10000000
,
00010000
00000000
00100000
00000000
01000000
00100000
01000000
00100000
,
01000000
10000000
00010000
01000000
,
02002000
00000000
00000000
03003000
,
00002000
00000000
00003000
00010000
00000000
00000100
00001000
00000100
,
00000000
00000000
00000110
00001001
,
00000020
00000000
00000000
00001030
00000000
00000100
00010000
00000100
,
00000000
00000000
00011000
00011000
,
02000000
00000000
00000000
03100000
00000000
10000000
00010000
10000000
,
00000000
00000000
11000000
11000000
,
00100000
00001000
00010000
00000010
,
00001001
00000000
00000000
00000000
;

//---------------dance-double - M. Simmons----------------
#NOTES:
     dance-double:
     M. Simmons:
     Easy:
     3:
     0.287,0.000,0.143,0.171,0.000:
00000000
00000000
00000000
00000000
,
00000000
00000000
00000000
00000000
,
00000000
00000000
00000000
00000000
,
00000000
00000000
00000000
00000000
,
00001000
00010000
00001000
00000000
,
00001000
01000000
00100000
00000000
,
01000000
00100000
01000000
00000000
,
20020000
00000000
00000000
30030000
,
00010000
00100000
01000000
00100000
,
00001000
00010000
00011000
00000000
,
00010000
00000100
00000010
00000100
,
00001000
00000001
00001001
00000000
,
00000001
00000100
00000010
00000100
,
00000010
00010000
00010010
00000000
,
00000010
00010000
00001000
00100000
,
00001000
01000000
01100000
00000000
,
00100000
10000000
00010000
01000000
,
00010000
10000000
01000000
01000000
,
00100000
00001000
00010000
00000100
,
00010000
00001000
00010000
00010000
,
00000010
00000100
00000001
00000100
,
00000010
00001000
00000100
00000100
,
00000010
00000001
00001000
00000100
,
00002002
00000000
00000000
00003003
,
00000002
00000000
00000000
00000000
,
00000013
00000010
00000100
00000100
,
00000200
00000000
00000000
00000000
,
00010300
00000000
00011000
00000000
,
00200000
00000000
00000000
00000000
,
00310000
00010000
10000000
10000000
,
02000000
00000000
00000000
00000000
,
03100000
00000000
00000000
00000000
00000000
10010000
00000000
00000000
,
00010000
01000000
00010000
01000000
,
00001000
00001000
00010000
00010000
,
00000100
00010000
00001000
00010000
,
00010010
00000000
00000010
00000000
,
00000100
00000010
00001000
00000001
,
00000100
00000100
00000001
00000001
,
00001000
00000100
00010000
00000010
,
00020020
00000000
00000000
00030030
,
00002000
00000000
00000000
00000000
00023000
00000000
00000000
00031000
,
00002000
00000000
01003000
01000000
02000000
00000000
03200000
00000000
,
20300000
00000000
00000000
00000000
,
31000000
01000000
00100000
00100000
00010000
01000000
00010000
00000000
,
01000000
00001000
00010000
00000100
,
00010000
00001000
00010000
00010000
,
00000010
00000100
00000001
00001000
,
00000100
00000010
00000001
00000001
,
00000010
00000100
00010000
00001000
,
01000000
00100000
01000000
01000000
,
00010000
10000000
01000000
00100000
,
02200000
00000000
00000000
03300000
,
01000000
00000000
10000000
00000000
00010000
00000000
00000000
01001000
,
00000000
00000000
00001000
00001000
,
00010000
00000000
00000100
00000000
00010000
00000000
00000000
00010010
,
00000000
00000000
00000010
00000010
,
00000100
00000000
00000001
00000000
00001000
00000000
00000000
00001100
,
00000000
00000000
00010000
00010000
,
00001000
00010000
00001000
00010000
,
00101000
00000000
00000000
00000000
;
