#TITLE:Summer;
#SUBTITLE:;
#ARTIST:☺;
#TITLETRANSLIT:;
#SUBTITLETRANSLIT:;
#ARTISTTRANSLIT:;
#GENRE:Happy Hardcore;
#CREDIT:Sync by HellRazoR;
#BANNER:Summer-bn.png;
#BACKGROUND:Summer-bg.png;
#LYRICSPATH:;
#CDTITLE:;
#MUSIC:Summer.ogg;
#OFFSET:-0.0755;
#SAMPLESTART:24.080;
#SAMPLELENGTH:12.000;
#SELECTABLE:YES;
#DISPLAYBPM:160.000;
#BPMS:0.000=160.025;
#STOPS:;
#BGCHANGES:0.000=Summer-bg.png=1.000=0=0=1=====,
16.000=In The Groove Rebirth/1139_JumpBack.mpg=1.000=0=0=1=====,
32.000=In The Groove Rebirth/1159_JumpBack.mpg=1.000=0=0=1=====,
48.000=In The Groove Rebirth/411_JB_HD.mpg=1.000=0=0=1===SlideRight==,
64.000=In The Groove Rebirth/274_JB_HD.mpg=1.000=0=0=1=====,
80.000=In The Groove Rebirth/243_JB_HD.mpg=1.000=0=0=1===SlideLeft==,
96.000=In The Groove Rebirth/209_JB_HD.mpg=1.000=0=0=1=====,
112.000=Summer-bg.png=1.000=0=0=1=====,
112.500=Summer-bg.png=1.000=0=0=1====0^0^1^1=,
113.000=Summer-bg.png=1.000=0=0=1====0^1^0^1=,
113.500=Summer-bg.png=1.000=0=0=1====1^0^0^1=,
114.000=Summer-bg.png=1.000=0=0=1====0^1^0^1=,
114.500=Summer-bg.png=1.000=0=0=1====0^0^1^1=,
115.000=Summer-bg.png=1.000=0=0=1=====,
116.000=In The Groove Rebirth/253_JB_HD.mpg=1.000=0=0=1=====,
132.000=In The Groove Rebirth/1133_JumpBack.mpg=1.000=0=0=1=====,
148.000=In The Groove Rebirth/411_JB_HD.mpg=1.000=0=0=1=====,
164.000=In The Groove Rebirth/243_JB_HD.mpg=1.000=0=0=1===SlideUp==,
180.000=In The Groove Rebirth/1139_JumpBack.mpg=0.500=0=0=1=Checkerboard1File2x2====,
196.000=In The Groove Rebirth/1159_JumpBack.mpg=0.500=0=0=1=Checkerboard2File2x2=Summer-bg.png===,
212.000=In The Groove Rebirth/209_JB_HD.mpg=1.000=0=0=1=====,
228.000=In The Groove Rebirth/274_JB_HD.mpg=1.000=0=0=1===SlideDown==,
244.000=Summer-bg.png=1.000=0=0=1=====,
244.500=Summer-bg.png=1.000=0=0=1====0^0^1^1=,
244.750=Summer-bg.png=1.000=0=0=1====0^1^0^1=,
245.000=Summer-bg.png=1.000=0=0=1====1^0^0^1=,
245.250=Summer-bg.png=1.000=0=0=1====0^1^0^1=,
245.750=Summer-bg.png=1.000=0=0=1====0^0^1^1=,
246.000=Summer-bg.png=1.000=0=0=1=====,
246.250=Summer-bg.png=1.000=0=0=1====0^0^1^1=,
246.500=Summer-bg.png=1.000=0=0=1====0^1^0^1=,
246.750=Summer-bg.png=1.000=0=0=1====1^0^0^1=,
247.000=Summer-bg.png=1.000=0=0=1====0^1^0^1=,
247.500=Summer-bg.png=1.000=0=0=1====0^0^1^1=,
247.750=Summer-bg.png=1.000=0=0=1=====,
248.000=In The Groove Rebirth/253_JB_HD.mpg=1.000=0=0=1=====,
264.000=In The Groove Rebirth/1133_JumpBack.mpg=1.000=0=0=1=====,
280.000=Summer-bg.png=1.000=0=0=1=====,
99999=-nosongbg-=1.000=0=0=0 // don't automatically add -songbackground-
;
#BGCHANGES2:16.000=flash=1.000=0=0=1====0^1^1^1=,
31.000=white flash=2.000=0=0=1=====,
32.000=flash=1.000=0=0=1====0^1^1^1=,
64.000=white flash=1.000=0=0=1=====,
116.000=flash=1.000=0=0=1====0^0^1^1=,
148.000=white flash=1.000=0=0=1=====,
248.000=white flash=1.000=0=0=1=====,
264.000=flash=1.000=0=0=1====0^1^1^1=,
;
#KEYSOUNDS:;

//---------------dance-single - M. Simmons----------------
#NOTES:
     dance-single:
     M. Simmons:
     Easy:
     3:
     0.351,0.319,0.192,0.137,0.000:
0000
0000
0000
0000
,
0000
0000
0000
0000
,
0000
0000
0000
0000
,
0000
0000
0000
0000
,
1001
0001
0000
0110
,
1000
0001
0000
0110
,
0100
1000
0000
1001
,
0001
0010
0000
1001
,
1000
0010
0100
0010
,
1000
0100
1000
0001
,
0010
0100
1000
0100
,
0010
0001
0100
0001
,
1000
0010
0100
0001
,
1000
0100
0010
0001
,
1000
0010
0100
0010
,
1000
0001
0010
0100
,
0020
0000
0130
1000
,
0002
0000
1003
0001
,
0200
0000
0310
0100
,
1001
0110
1001
0000
,
1000
0100
1000
0001
,
1000
0100
1000
0001
,
1000
0100
1000
0001
,
0010
0100
0010
0100
,
0010
0001
0100
0001
,
0010
0001
0100
0001
,
0010
0001
0100
0001
,
1000
0001
1000
0000
,
2002
0000
0000
3003
,
0001
1000
0110
0000
,
1000
0100
0010
0010
,
0010
0100
1001
0000
,
0001
1000
0010
0010
,
1001
0000
0110
0000
,
1001
0000
0110
0000
,
1000
0001
0010
0100
,
0010
0001
1000
0001
,
2000
0000
0100
0000
,
0010
0001
3010
0000
,
0020
0000
1000
0000
,
0100
1000
0130
0000
,
1002
1000
0100
1000
,
0010
0100
0013
0000
,
0210
0001
0010
0001
,
1000
0001
0310
0000
,
0100
0000
1000
0000
,
0001
1000
0001
0000
,
1000
0000
0010
0000
,
0100
0010
0100
0000
,
1000
0100
0010
0001
,
1000
0001
0100
0100
,
0001
1000
0010
1000
,
0100
0010
0110
0000
,
0001
2000
0000
0000
3001
0000
0010
0000
,
0100
2000
0000
0000
3100
0000
0010
0000
,
0100
2000
0000
0000
3001
0000
0100
0000
,
0010
0200
0000
0000
0301
0000
1000
0000
,
0001
0010
0100
0010
,
0001
1000
0001
0100
,
0010
0100
0001
1000
,
0100
0010
0100
0010
0100
0000
0000
0000
,
2002
0000
0000
3003
,
0001
1000
0001
0000
0100
0000
0010
0000
,
1000
0100
1000
0001
,
0100
0010
0100
0000
0001
0000
1000
0000
,
0001
0010
0110
0000
,
0100
0010
0100
0000
1000
0000
0001
0000
,
0100
0010
1000
0001
,
0100
0001
0100
0000
0010
0000
1000
0000
,
0010
0100
0001
1000
,
1001
0000
0000
0000
;

//---------------dance-single - M. Simmons----------------
#NOTES:
     dance-single:
     M. Simmons:
     Challenge:
     10:
     0.828,0.767,0.219,0.274,0.776:
0000
0000
0000
0000
,
0000
0000
0000
0000
,
0000
0000
0000
0000
,
0000
0000
0000
0000
,
1000
0000
0001
0000
0010
0000
0100
1000
0000
0001
0000
0100
0001
0000
1000
0000
,
0100
0000
0010
0000
0001
0000
1000
0010
0000
0100
0000
0010
1000
0000
0001
0000
,
0010
0000
0100
0000
0010
0000
0001
0010
0000
0100
0000
0010
0001
0000
1000
0000
,
0010
0100
0010
0100
0001
0000
1001
0000
,
1000
0100
1000
0000
0001
0000
0100
0000
0010
0100
0010
0000
0110
0000
0000
0000
,
1000
0001
0100
0000
0001
0000
1000
0000
0100
0010
0001
0000
1010
0000
0000
0000
,
0100
0001
1000
0000
0001
0000
0010
0000
0100
0010
0001
0000
1010
0000
0000
0000
,
0100
0010
1000
0001
0010
0000
0000
0000
0100
1000
0001
0100
0010
0000
0000
0000
,
1000
0001
0100
0000
0001
0000
1000
0000
0100
0010
1000
0000
0110
0000
0000
0000
,
0001
0100
0010
0000
0001
0000
0010
0000
1000
0001
0100
0000
1001
0000
0000
0000
,
0001
1000
0100
0000
0010
0000
1000
0000
0010
0001
0100
0000
0101
0000
0000
0000
,
0001
1000
0100
1000
0001
0000
1000
0000
1001
0000
0000
0000
0000
0000
0000
0000
,
0002
0000
0000
0023
0000
0000
0230
0000
0000
0000
1300
0000
0010
0000
0100
0000
,
0020
0000
0000
2030
0000
0000
3002
0000
0000
0000
1003
0000
0001
0000
0010
0000
,
2000
0000
0000
3020
0000
0000
0032
0000
0000
0000
0003
0000
0000
0000
0001
0000
,
0010
1000
0010
0001
0011
0000
0000
0000
,
0001
0000
1000
0010
0000
0100
0001
0000
0010
0100
0000
0010
0001
0000
1000
0000
,
0001
0000
0100
0010
0000
1000
0001
0000
0100
0010
0000
1000
0001
0000
0010
0000
,
0100
0000
1000
0001
0000
0010
0001
0000
0100
0001
0000
1000
0010
0000
0100
0000
,
0001
0100
1000
0100
0001
0100
1000
0100
,
0001
0000
1000
0100
0000
0010
0001
0000
0100
1000
0000
0100
0001
0000
0010
0000
,
1000
0000
0010
0001
0000
0010
0100
0000
0001
0100
0000
1000
0010
0000
0100
0000
,
0010
0000
0001
0010
0000
0100
0001
0000
1000
0100
0000
0001
0100
0000
0010
0000
,
1000
0000
0010
0001
0000
1000
0010
0000
0001
0010
0000
1000
0100
0000
0010
0000
,
0002
2003
3020
0230
0320
0032
0023
0000
,
1030
0000
0100
0000
1000
0000
0001
0010
0000
0100
0000
0010
0001
0000
1000
0000
,
0010
0000
0001
0000
0010
0000
1000
0100
0000
1000
0000
0001
0010
0000
0100
0000
,
0010
0000
1000
0000
0010
0000
0001
0100
0000
0010
0000
0100
0010
0000
1000
0000
,
0001
0000
0010
0000
0100
0000
0010
0000
0011
0000
0001
1000
0001
0000
0010
0000
,
0100
0000
1000
0000
0100
0000
0010
0100
0000
1000
0000
0001
0100
0000
0010
0000
,
0001
0000
0010
0000
1000
0000
0100
0010
0000
1000
0000
0010
0100
0000
1000
0000
,
0001
0000
1000
0000
0010
0000
0001
0010
0000
0100
0000
0010
0001
0000
0010
0000
,
1000
0100
1000
0001
1001
0000
1001
0000
,
1000
0001
1000
0000
0100
0000
0010
0100
0000
1000
0000
0001
0100
0001
0100
0000
,
0010
0100
0010
0000
1000
0000
0001
0010
0000
0100
0000
0010
0001
0010
0001
0000
,
1000
0000
0010
0000
0100
0000
0010
1000
0000
0001
0000
1000
0001
1000
0001
0000
,
0010
0000
0100
0000
1000
0000
0010
0001
0000
0010
0000
1000
0001
0000
0000
0000
,
1000
0000
0100
0000
0010
0000
0001
0100
0000
0010
0000
1000
0001
0010
0100
0000
,
1000
0000
0010
0000
0001
0000
0010
1000
0000
0100
0000
0010
1000
0010
0001
0000
,
0100
0000
0010
0000
1000
0000
0001
0010
0000
0100
0000
0010
0001
1000
0001
0000
,
0100
0000
0010
0000
1000
0000
0001
0010
0100
0000
0000
0000
0000
0000
0000
0000
,
1001
0000
0000
0011
0000
0000
0110
0000
0000
0000
0100
0000
1000
0000
0001
0000
,
0011
0000
1001
0110
0000
1000
0001
0100
,
1001
0000
0000
0110
0000
0000
1001
0000
0000
0000
0100
0000
1000
0000
0010
0000
,
0200
0000
0320
0000
2030
0000
3002
0000
0103
0000
0001
0100
0001
0100
0001
0000
,
2000
0000
0000
3200
0000
0000
0320
0000
0031
0000
1000
0000
0010
0000
0100
0000
,
0020
0000
0000
2030
0000
0000
3002
0000
0013
0000
0001
0000
1000
0000
0100
0000
,
0020
0000
0000
0230
0000
0000
2300
0000
3001
0000
0100
0000
0010
0000
0001
0000
,
0020
0000
1000
0030
1000
0000
0001
0000
0001
0000
1000
0001
1000
0000
0000
0000
,
0001
0000
0010
0001
0000
0010
0100
0000
0010
0001
0000
1000
0010
0000
0100
0000
,
0010
0000
1000
0001
0000
0100
0001
0000
1000
0001
0000
0010
0001
0000
1000
0000
,
0100
0000
0010
0100
0000
1000
0100
0000
0010
0001
0000
0100
0001
0000
1000
0000
,
0100
0000
0010
0000
0001
0000
1000
0000
0010
0000
0100
0000
0001
1000
0001
0100
,
0010
0000
0100
0010
0000
1000
0001
0000
0010
0100
0000
1000
0001
0000
0100
0000
,
0010
0000
0001
0010
0000
1000
0001
0000
0010
0100
0000
0010
0001
0000
1000
0000
,
0100
0000
0010
1000
0000
0010
0001
0000
0100
0010
0000
0001
0010
0000
1000
0000
,
0001
0001
0001
1000
1000
0000
1001
0000
,
0001
0000
0010
0100
1000
0001
0000
0100
0010
1000
0010
0100
0001
0000
0100
0010
,
0100
0000
0001
1000
0001
0000
0010
0000
0100
0000
1000
0001
1000
0000
0010
0000
,
0100
0000
0010
0100
0001
0000
1000
0000
0100
0000
0010
0000
0110
0000
0000
0000
,
0100
0000
1000
0010
0100
0000
0001
0000
1000
0000
0010
0100
0010
0000
1000
0000
,
0100
0000
0010
0100
1000
0000
0001
0000
1001
0000
0000
0000
0000
0000
0000
0000
,
1000
0000
0010
0100
0001
0000
1000
0100
0010
0000
0001
0100
0000
0010
1000
0000
,
0100
0000
1000
0010
0100
0000
0001
0010
0100
0000
0010
0001
0000
0100
0010
0000
,
1000
0000
0001
0100
0001
0000
0010
0100
1000
0000
0100
0010
0000
0001
1000
0000
,
0010
0000
0100
0001
1000
0000
0100
0010
0100
0000
1000
0010
0000
0100
0001
1000
,
0001
0000
0000
0000
;

//---------------dance-single - M. Simmons----------------
#NOTES:
     dance-single:
     M. Simmons:
     Hard:
     8:
     0.598,0.639,0.246,0.183,0.214:
0000
0000
0000
0000
,
0000
0000
0000
0000
,
0000
0000
0000
0000
,
0000
0000
0000
0000
,
1000
0000
0100
0000
1000
0000
0001
0000
0100
0000
0000
0001
1000
0000
0000
0000
,
0001
0000
0010
0000
0100
0000
0010
0000
0001
0000
0000
1000
0001
0000
0000
0000
,
0100
0000
0010
0000
1000
0000
0001
0000
0100
0000
0000
0001
0010
0000
0000
0000
,
0100
0010
0001
1000
1001
0000
1001
0000
,
1000
0100
0010
0100
1100
0000
0011
0000
,
0001
1000
0010
0100
0110
0000
1001
0000
,
1000
0001
0100
0001
0011
0000
1010
0000
,
0100
0010
1000
0001
1001
0100
1001
0000
,
1000
0100
0010
0001
2000
0100
3001
0000
,
1000
0010
0100
0010
0200
0001
0310
0000
,
0100
0001
0010
1000
0020
0001
0130
0000
,
0001
1000
0100
1000
0002
0000
0013
0000
,
0100
0000
0000
1000
0000
0000
0001
0000
0000
0000
0000
0000
0010
0000
0000
0000
,
0100
0000
0000
1000
0000
0000
0001
0000
0000
0000
0000
0000
0100
0000
0000
0000
,
0010
0000
0000
0100
0000
0000
0010
0000
0000
0000
0000
0000
0000
0000
1000
0000
,
0100
1000
0001
0010
0100
0000
0000
0000
,
1000
0100
0010
0001
1000
0100
0010
0001
,
1000
0010
0100
0001
1000
0010
0100
0001
,
1000
0100
1000
0010
0100
0001
0010
0100
,
1000
0100
0010
1000
0010
0001
0100
0010
,
2000
0000
0000
0010
3010
0000
0100
0001
,
0200
0000
0000
0001
0301
0000
0001
0010
,
0002
0000
0000
0100
0103
0000
0100
0010
,
1000
0001
1000
0001
1000
0000
1001
0000
,
0000
0000
4000
0000
0000
0004
0000
0000
0000
0000
0000
0000
3000
0000
0003
0000
,
0010
0000
0100
0000
1000
0000
0010
0100
0000
0000
0000
0001
1000
0000
0000
0000
,
0001
0000
1000
0000
0010
0000
0100
0010
0000
0000
0000
1000
0001
0000
0000
0000
,
0100
0000
0010
0000
0100
0000
0001
0010
0000
0000
0000
0100
0010
0000
0000
0000
,
0100
1000
0001
1000
0012
0000
1000
0000
,
1003
0000
0010
0000
0001
0000
0010
1000
0000
0000
0000
0001
0010
0000
0010
0000
,
0100
0000
1000
0000
0001
0000
0100
0010
0000
0000
0000
0100
0001
0000
0001
0000
,
1000
0000
0100
0000
0010
0000
1000
0010
0000
0000
0000
0010
0100
0000
0100
0000
,
1000
0001
0100
0010
0011
0000
1010
0000
,
0002
0000
0023
0000
2030
0000
3100
0001
,
0000
1000
0100
0010
0001
0000
1010
0000
,
2000
0000
3200
0000
0302
0000
0013
1000
,
0000
0000
0001
0000
0100
0000
0010
0000
1000
0000
0000
0001
0010
0000
0000
0000
,
0200
0000
2300
0000
3020
0000
0031
0010
,
0000
1000
0001
0010
0100
0000
0110
0000
,
0020
0000
2030
0000
3002
0000
1003
0010
,
0000
0001
0100
0001
1000
0000
0011
0000
,
1000
0000
0000
0010
0000
0000
0100
0000
0000
0000
0000
0000
0010
0000
0000
0000
,
1000
0000
0011
0110
0000
0000
1001
0000
,
1000
0000
0000
0001
0000
0000
0100
0000
0000
0000
0010
0100
0000
0000
0001
0000
,
1000
0000
1000
0000
0001
0000
0001
0000
1000
0000
0001
1000
0000
0000
0000
0000
,
0001
0000
0000
0010
0000
0000
0100
0000
0000
0000
0000
0100
1000
0000
0000
0000
,
0010
0000
0000
0100
0000
0000
0010
0000
0000
0000
0000
0010
1000
0000
1000
0000
,
0001
0000
0000
0010
0000
0000
0001
0000
0000
0000
0000
0000
0000
0000
1000
0000
,
0010
0000
0001
0000
0010
0000
1000
0000
0001
0000
0000
1000
0001
0000
0000
0000
,
0001
0100
0010
0100
0001
1000
0100
0010
,
0001
0100
0001
1000
0100
0010
1000
0010
,
0001
0100
0010
0001
0010
1000
0001
0100
,
0001
1000
0100
1000
0001
0010
0001
0100
,
0001
1000
0010
1000
0100
0010
0001
0010
,
1000
0010
0001
1000
0001
0100
0001
1000
,
0001
0000
0010
0100
0000
0000
1000
0000
0010
0000
0000
0100
0000
0000
0010
0000
,
1000
0011
1010
1001
,
0001
0000
1000
0001
1000
0001
0000
1000
0001
1000
0001
1000
0001
0000
1000
0001
,
1000
0000
0001
0000
0001
0000
0000
1000
0000
0000
0001
0000
1000
0000
0000
0000
,
0001
0000
0001
0000
0001
0000
0000
0010
0000
0000
0100
0000
1000
0000
0000
0000
,
0010
0000
0010
0000
0010
0000
0000
0100
0000
0000
0001
0000
1000
0000
0000
0000
,
1100
0011
1001
0000
,
0001
0000
1000
0000
0100
0000
0000
0010
0001
0000
0000
0001
1000
0000
0000
0000
,
0010
0000
1000
0000
0100
0000
0000
1000
0001
0000
0000
0001
0100
0000
0000
0000
,
0010
0000
0100
0000
0010
0000
0000
0001
0010
0000
0000
0010
1000
0000
0000
0000
,
1000
0100
1000
0100
1000
0000
0000
0000
,
1001
0000
0000
0000
;

//---------------dance-single - M. Simmons----------------
#NOTES:
     dance-single:
     M. Simmons:
     Beginner:
     1:
     0.107,0.128,0.119,0.000,0.000:
0000
0000
0000
0000
,
0000
0000
0000
0000
,
0000
0000
0000
0000
,
0000
0000
0000
0000
,
1000
0000
0000
0000
,
0100
0000
0000
0000
,
1000
0000
0000
0000
,
1001
0000
0000
0000
,
0001
0000
0000
0000
,
0100
0000
0000
0000
,
0010
0000
0000
0000
,
0100
0000
0000
0000
,
0001
0000
0000
0000
,
1000
0000
0000
0000
,
0100
0000
0000
0000
,
0010
0000
0000
0000
,
0110
0000
0000
0000
,
1001
0000
0000
0000
,
0110
0000
0000
0000
,
1001
0000
0000
0000
,
0001
0000
0000
0000
,
0010
0000
0000
0000
,
0100
0000
0000
0000
,
1000
0000
0000
0000
,
0010
0000
0000
0000
,
0100
0000
0000
0000
,
0001
0000
0000
0000
,
1000
0000
0000
0000
,
1001
0000
0000
0000
,
1001
0000
0000
0000
,
0001
0000
0000
0000
,
0100
0000
0000
0000
,
0001
0000
0000
0000
,
0010
0000
0000
0000
,
0100
0000
0000
0000
,
0010
0000
0000
0000
,
0100
0000
0100
0100
,
0100
0000
0000
0000
,
1000
0000
0000
0000
,
0001
0000
0000
0000
,
0010
0000
0000
0000
,
0001
0000
0000
0000
,
0100
0000
0000
0000
,
0010
0000
0000
0000
,
1000
0000
0000
0000
,
1001
0000
0000
0000
,
1001
0000
0000
0000
,
0110
0000
0000
0000
,
0110
0000
0000
0000
,
0001
0000
0000
0000
,
0100
0000
0000
0000
,
0010
0000
0000
0000
,
0100
0000
0000
0000
,
0001
0000
0000
0000
,
1000
0000
0000
0000
,
0100
0000
0000
0000
,
0010
0000
0000
0000
,
0100
0000
0000
0000
,
1000
0000
0000
0000
,
0010
0000
0000
0000
,
0100
0000
0000
0000
,
0110
0000
0000
0000
,
0001
0000
0000
0000
,
0100
0000
0000
0000
,
0001
0000
0000
0000
,
1000
0000
0000
0000
,
0100
0000
0000
0000
,
0010
0000
0000
0000
,
0001
0000
0000
0000
,
1000
0000
0000
0000
,
0110
0000
0000
0000
;

//---------------dance-single - M. Simmons----------------
#NOTES:
     dance-single:
     M. Simmons:
     Medium:
     5:
     0.395,0.383,0.456,0.027,0.000:
0000
0000
0000
0000
,
0000
0000
0000
0000
,
0000
0000
0000
0000
,
0000
0000
0000
0000
,
1000
0010
0100
0001
,
0101
1010
1001
1000
,
0001
0100
0010
1000
,
0100
0010
1001
1001
,
1000
0010
0100
0010
,
1000
0000
0100
0000
0010
0000
0100
1000
,
0001
0100
0010
0001
,
0010
0000
1000
0000
0100
0000
0010
0100
,
1000
0100
0010
0001
,
1000
0000
0010
0000
0100
0000
0010
1000
,
0001
0100
0001
1000
,
0010
0000
0100
0010
0100
0000
0000
0000
,
1001
0000
0000
0011
0000
0000
0000
0000
,
0110
0000
0000
1100
0000
0000
0000
0000
,
1001
0000
0000
0110
0000
0000
0000
0000
,
0001
0001
1000
1000
0001
0000
0000
0000
,
1000
0000
0100
0000
0010
0001
0010
0000
,
0100
1000
0002
0000
,
1003
0000
0010
0000
0100
0010
0100
0000
,
0001
1000
1100
1010
,
1000
0000
0001
0000
0100
0000
0001
0010
,
0001
1000
0100
1000
,
0010
0000
0100
0000
0010
0000
1000
0001
,
1000
1001
1001
0000
,
0000
0020
0000
0200
0000
0000
0330
0000
,
0010
0000
1000
0100
1000
0000
0001
0000
,
1000
0000
0010
0100
0010
0000
0010
0000
,
1000
0000
0001
0100
0001
0000
0001
0000
,
1010
0101
1010
0000
,
1000
0000
0100
0010
0100
0000
0100
0000
,
0010
0000
0001
1000
0001
0000
0001
0000
,
0100
0000
0010
1000
0010
0000
0010
0000
,
0110
0101
1001
0000
,
1100
0001
1000
0010
,
1000
0010
0000
0100
0001
0000
1000
0000
,
0001
0000
0100
0000
0010
0000
1000
0100
,
0000
0010
0001
0000
0101
0000
0000
0000
,
0100
0010
1000
0001
,
0100
0001
0000
1000
0010
0000
0010
0000
,
0001
0010
1000
0010
,
0100
0001
0000
0010
0100
0000
0000
0000
,
0100
0000
0000
1100
0000
0000
0000
0000
,
1000
0000
0001
1001
0000
0000
0000
0000
,
0001
0000
0000
0011
0000
0000
0000
0000
,
0010
0010
0100
0100
1000
0000
0000
0000
,
0010
1000
0001
0100
,
0010
0100
0001
1000
,
0100
0010
0001
0010
,
0100
0001
0100
0000
,
1100
0000
1010
0000
,
1001
0000
0101
0000
,
1001
0000
0011
0000
,
0110
0000
1100
0000
,
1000
0010
0100
0010
,
0001
0010
1000
0100
,
0010
0100
1000
0001
,
1001
0110
1001
0000
,
4000
0000
0000
3000
,
0011
0000
0010
0100
0000
0000
0110
0000
,
1100
0000
1000
0001
0000
0000
1001
0000
,
0010
0000
0100
0001
0000
0000
0101
0000
,
1000
0100
1000
0000
,
1001
0000
0010
0100
0000
0000
0101
0000
,
1000
0000
0100
0010
0000
0000
0110
0000
,
0001
0000
1000
0100
0000
0000
1100
0000
,
1001
0110
1001
0000
,
1001
0000
0000
0000
;

//---------------dance-double - M. Simmons----------------
#NOTES:
     dance-double:
     M. Simmons:
     Challenge:
     11:
     0.845,0.799,0.338,0.283,0.821:
00000000
00000000
00000000
00000000
,
00000000
00000000
00000000
00000000
,
00000000
00000000
00000000
00000000
,
00000000
00000000
00000000
00000000
,
00010000
00000000
00001000
00000000
00100000
00000000
00000100
00010000
00000000
00001000
00000000
01000000
00100000
00000000
10000000
00000000
,
00010000
00000000
00100000
00000000
01000000
00000000
00010000
00001000
00000000
00010000
00000000
00000100
00000010
00000000
00000001
00000000
,
00001000
00000000
00000010
00000000
00010000
00000000
00001000
01000000
00000000
00100000
00000000
10000000
00010000
00000000
00100000
00000000
,
01000000
00010000
00001000
00000100
00000001
00000000
00001001
00000000
,
00010000
00001000
00010000
00000000
00000100
00001000
00000010
00000000
00000100
00000010
00001000
00000000
00000001
00001000
00000001
00000000
,
00010000
00001000
00100000
00000000
00010000
10000000
00100000
00000000
01000000
00100000
10000000
00000000
10010000
00000000
00000000
00000000
,
10000000
01000000
00100000
00000000
00010000
01000000
00001000
00000000
00010000
00000100
00001000
00000000
00000010
00000100
00000010
00000000
,
00001000
00000001
00000100
00000001
00001000
00000100
00010000
00001000
00100000
00000000
00000000
00000000
00000000
00000000
00000000
00000000
,
01000000
10000000
00010000
00000000
01000000
00001000
00010000
00000000
00000100
00001000
00000001
00000000
00001000
00000001
00000100
00000000
,
00000001
00001000
00000100
00000000
00010000
00001000
01000000
00000000
00010000
10000000
01000000
00000000
10010000
00000000
00000000
00000000
,
01000000
00001000
00010000
00000000
00000100
00001000
00000001
00000000
00000100
00001000
00010000
00001000
00010000
01000000
10000000
00000000
,
00010000
01000000
00001000
00010000
00000100
00010000
00001000
10000000
00010000
00000000
00000000
00000000
00000000
00000000
00000000
00000000
,
10000000
01000000
00100000
00001000
00010000
00010100
00001100
00000000
,
00000001
00000100
00001000
00010000
01000000
11000000
10010000
00000000
,
01000000
00100000
00010000
00001000
00000100
00000110
00000101
00000000
,
00000001
00001000
00010000
10000000
10010000
00000000
00000000
00000000
,
10000000
00000000
01000000
00000000
00100000
00001000
00000000
00010000
00000000
00000100
00000000
00001000
00000001
00000100
00000010
00000000
,
00010000
00000000
00001000
00000000
01000000
00010000
00000000
10000000
00000000
00100000
00000000
01000000
00010000
00100000
00001000
00000000
,
00010000
00000000
00000010
00000000
00000100
00000010
00000000
00010000
00000000
00001000
00000000
00100000
00010000
10000000
00100000
00000000
,
01000000
00010000
00000000
00100000
00001000
00000000
00010000
00000100
00000000
00000010
00000001
00000000
00001001
00000000
00000000
00000000
,
00000010
00000000
00010000
00000000
00000100
00001000
00000000
01000000
00000000
10000000
00000000
00010000
01000000
00000100
00001000
00000000
,
00000001
00000000
00000100
00000000
00000010
00010000
00000000
00001000
00000000
00100000
00000000
00000010
00010000
00001000
00100000
00000000
,
01000000
00000000
10000000
00000000
00010000
01000000
00000000
00100000
00000000
00010000
00000000
00100000
10000000
00001000
00010000
00000000
,
00000100
00001000
00000000
00000100
00000010
00000000
00000100
00010000
00000000
00000100
00001000
00000100
00001000
00000000
00000000
00000000
,
00000002
00000023
00002030
00023000
00230000
20300000
30010000
00000000
,
01000000
00000000
00001000
00000000
00010000
00000000
00000100
00000010
00000000
00001000
00000000
00010000
00100000
00000000
01000000
00000000
,
00001000
00000000
00000100
00000000
00000001
00000000
00001000
00000100
00000000
00010000
00000000
00001000
00100000
00000000
00010000
00000000
,
10000000
00000000
01000000
00000000
00010000
00000000
00001000
00010000
00000000
01000000
00000000
10000000
00010000
00000000
01000000
00000000
,
00001000
00010000
00000010
00000001
00000010
00001000
00010100
00000000
,
00001000
00000000
01000000
00000000
00100000
00000000
00010000
00100000
00000000
10000000
00000000
00001000
00010000
00000000
00000100
00000000
,
00000010
00000000
00000001
00000000
00001000
00000000
00000100
00010000
00000000
01000000
00000000
10000000
00010000
00000000
01000000
00000000
,
00100000
00000000
00010000
00000000
00001000
00000000
00100000
00001000
00000000
00010000
00000000
00000100
00000010
00000000
00000001
00000000
,
00001000
00000000
00001000
00000000
00000100
00000000
00000100
00000000
00010000
00000000
00001000
00010000
00001000
00000000
00100000
00010000
,
00200000
02300000
23000000
30020000
,
02030000
03200000
00000000
20300000
30010000
00000000
10010000
00000000
,
00200000
00000000
00302000
00000000
00003200
00000000
00000302
00001000
,
00002003
00003200
00000000
00010300
00011000
00000000
00101000
00000000
,
02000000
23000000
30020000
02030000
,
03002000
00023000
00000000
00030020
00000130
00000000
00001001
00000000
,
00000020
00000000
00020030
00000000
02030000
00000000
23000000
30020000
,
00000000
00130000
00001000
00010000
00000010
00000000
00011000
00000000
,
01000000
10000000
00010000
01000000
00010000
00110000
00101000
00000000
,
00000100
00000000
00010000
00001000
01000000
01100000
01001000
00000000
,
00010000
00000010
00000100
00000001
00001000
00001100
00010100
00000000
,
00001000
00010000
00001000
00000000
00100000
00010000
00100000
00000000
01000000
10000000
01000000
00100000
00010000
00000000
00000000
00000000
,
00100000
00001000
00010000
00000001
00000100
00001010
00010100
00000000
,
00001000
10000000
00100000
01000000
00001000
00001100
00000011
00000000
,
00010000
00000100
01000000
00100000
00010000
00011000
00010100
00000000
,
00000100
00000000
00000100
00000000
00010000
00000000
00010000
00000000
00100000
00000000
00100000
00010000
00100000
00000000
00000000
00000000
,
10000000
00000000
01000000
00000000
00100000
00001000
00000000
00010000
00000000
00000100
00000000
00000010
00000001
00001000
00000010
00000000
,
00000100
00000000
00000010
00000000
00010000
00001000
00000000
01000000
00000000
00100000
00000000
10000000
01000000
00100000
00010000
00000000
,
00100000
00000000
01000000
00000000
00010000
00001000
00000000
00010000
00000000
00000100
00000000
00000010
00000001
00001000
00000001
00000000
,
00000100
00000010
00000000
00001000
00000100
00000000
00010000
00001000
00000000
00100000
00010000
00000000
10100000
00000000
00000000
00000000
,
10000000
00000000
00010000
00000000
00100000
00000010
00000000
00001000
00000000
00000100
00000000
01000000
00010000
00100000
00001000
00000000
,
00010000
00000000
00000001
00000000
00000100
00000010
00000000
00010000
00000000
00000100
00000000
00010000
01000000
10000000
00010000
00000000
,
01000000
00000000
00001000
00000000
00100000
00010000
00000000
01000000
00000000
00001000
00000000
00010000
00000010
00000100
00000001
00000000
,
00010000
00010000
01000000
01000000
10000000
10000000
10010000
00000000
,
01000000
00000000
00001000
00010000
00000100
00000010
00000000
00000001
00001000
00000100
00010000
00001000
00010000
00000000
01000000
10000000
,
00010000
01000000
00010000
00000000
00100000
00001000
00010000
00000000
00000100
00001000
00000010
00000000
00001010
00000000
00000101
00000000
,
00000010
00000100
00001000
00000000
00000010
00010000
00001000
00000000
00100000
00010000
10000000
00000000
00110000
00000000
00000000
00000000
,
01000000
00001000
00010000
00000000
00000100
00001000
00000010
00000000
00010000
00001000
00100000
00000000
00110000
00000000
11000000
00000000
,
10000000
00010000
00100000
00000000
00001000
00010000
00000100
00000010
00000001
00000000
00000000
00000000
00000000
00000000
00000000
00000000
,
00000001
00001000
00000100
00001000
00000100
00000000
00010000
00001000
00100000
00000000
01000000
10000000
00000000
00010000
00000000
01000000
,
00010000
00100000
00001000
00010000
00000100
00000000
00000010
00000001
00001000
00000000
00000100
00000010
00000000
00000100
00000000
00010000
,
00001000
01000000
00100000
10000000
00010000
00000000
01000000
00100000
10000000
00000000
00010000
00100000
00000000
00001000
00000000
00010000
,
00000100
00001000
00000001
00000100
00000010
00000100
00000001
00001000
00000100
00001000
00000001
00000100
00000010
00000000
00000000
00000000
,
00001010
00000000
00000000
00000000
;

//---------------dance-double - M. Simmons----------------
#NOTES:
     dance-double:
     M. Simmons:
     Hard:
     9:
     0.638,0.671,0.201,0.055,0.347:
00000000
00000000
00000000
00000000
,
00000000
00000000
00000000
00000000
,
00000000
00000000
00000000
00000000
,
00000000
00000000
00000000
00000000
,
10000000
01000000
00100000
00000000
00011000
00000000
00101000
00000000
,
00001000
00010000
00000100
00000000
00001100
00000000
00000101
00000000
,
00000001
00001000
00000010
00000000
00001010
00000000
00001100
00000000
,
00010000
00001000
00010000
00000100
00001000
00000000
00001010
00000000
,
00001000
00000001
00000010
00000100
00010000
00001000
00100000
00000000
,
00010000
01000000
00100000
10000000
00010000
00000000
10010000
00000000
,
10000000
00010000
00100000
01000000
00010000
00001000
00000100
00000000
,
00000001
00001000
00000010
00000100
00000001
00000001
00001001
00000000
,
00000001
00001000
00000100
00000010
00001000
00010000
00100000
00000000
,
01000000
00010000
10000000
01000000
00100000
00000000
00101000
00000000
,
00010000
00000010
00000100
00000010
00000001
00000010
00001000
00000000
,
00000100
00010000
00001000
00100000
00020000
00000000
10000000
00000000
,
01030000
00000000
00000000
00100000
00000000
00000000
10000000
00000000
00000000
00000000
00000000
00000000
00010000
00000000
00000000
00000000
,
00100000
00000000
00000000
00001000
00000000
00000000
00010000
00000000
00000000
00000000
00000000
00000000
00000010
00000000
00000010
00000000
,
00000100
00000000
00000000
00000010
00000000
00000000
00010000
00000000
00000000
00000000
00000000
00000000
00000000
00000000
00001000
00000000
,
00100000
00010000
10000000
00100000
00010000
00000000
00000000
00000000
,
00100000
00000000
10000000
00000000
01000000
00000000
00100000
00010000
00000000
01000000
00000000
00010000
00100000
00000000
00001000
00000000
,
00010000
00000000
00000100
00000000
00000010
00000000
00000001
00001000
00000000
00000010
00000000
00000100
00000010
00000000
00010000
00000000
,
00000100
00000000
00010000
00000000
00001000
00000000
00100000
00010000
00000000
01000000
00000000
00100000
00010000
00000000
00100000
00000000
,
10000000
00000000
01000000
00000000
00010000
00000000
00001000
00000100
00000000
00000001
00000000
00000100
00000010
00000000
00001000
00000000
,
00000200
00000000
00000000
00010000
00010300
00000000
00010100
00000000
,
00012000
00000000
00000000
00100000
00103000
00000000
00001000
01000000
,
20100000
00000000
00000000
00010000
30010000
00000000
10000000
01000000
,
00100000
00100000
00001000
00001000
00010000
00010000
00000100
00000100
,
00001000
00000010
00000001
00000010
00001000
00000100
00010100
00000000
,
00001000
00100000
00010000
00100000
00001000
00010000
00000100
00000000
,
00000010
00000001
00000100
00001000
00010000
00000000
00011000
00000000
,
00010000
00001000
00100000
01000000
10000000
00100000
01000000
00000000
,
00001000
00100000
00010000
01000000
00001000
00001000
00101000
00000000
,
00000100
00001000
00000010
00000100
00000001
00000010
00001000
00000000
,
00000010
00000001
00001000
00000010
00000100
00000000
00010010
00000000
,
00000100
00010000
00001000
00000100
00000010
00001000
00000001
00000000
,
00000100
00000010
00010000
00001000
00100000
00000000
00110000
00000000
,
01000000
10000000
00000000
00100000
01000000
00000000
00000000
00000000
00010000
00100000
00000000
00001000
00010000
00000000
00000000
00000000
,
00001000
00010000
00000000
00010000
00000100
00000000
00000100
00000000
00001000
00000010
00000000
00000100
00000010
00000000
00000000
00000000
,
00001000
00000001
00000000
00000010
00001000
00000000
00000000
00000000
00000010
00000001
00000000
00000100
00001000
00000000
00000000
00000000
,
00010000
00001000
00000000
00100000
01000000
00000000
00010000
00000000
01000000
10000000
00100000
01000000
10000000
00000000
00000000
00000000
,
01000000
00010000
00000000
00100000
00001000
00000000
00000000
00000000
00010000
00000010
00000000
00000100
00000001
00000000
00000000
00000000
,
00001000
00000100
00000000
00010000
00000010
00000000
00001000
00000000
00000010
00010000
00000000
00000100
00010000
00000000
00000000
00000000
,
00001000
01000000
00000000
00100000
01000000
00000000
00000000
00000000
00100000
10000000
00000000
00010000
00100000
00000000
00000000
00000000
,
01000000
10000000
00000000
00010000
01000000
00000000
00100000
00000000
01000000
00001000
00000000
00010000
00001000
00000000
00000000
00000000
,
00001000
00000000
00000000
00100000
00000000
00000000
10000000
00000000
00000000
00000000
00000000
00000000
00000000
00000000
00100000
00000000
,
00001000
00000000
00010000
00000100
00000000
00000000
00001100
00000000
,
00000001
00000000
00000000
00000100
00000000
00000000
00010000
00000000
00000000
00000000
00010000
00000000
00000000
00000000
00000100
00000000
,
00000001
00001000
00000010
00010000
00010100
00000000
00000000
00000000
,
00001000
00000000
00000000
00100000
00000000
00000000
00010000
00000000
01000000
00000000
00000000
00000000
01000000
00000000
00100000
00000000
,
10000000
00000000
00000000
00001000
00000000
00000000
00010000
00000000
00000100
00000000
00000000
00000000
00000100
00000000
00001000
00000000
,
00000010
00000000
00000000
00000100
00000000
00000000
00001000
00000000
00010000
00000000
00000000
00000000
00001000
00000000
00100000
00000000
,
00010000
01000000
00100000
00010000
00100000
00000000
00000000
00000000
,
10000000
00000000
01000000
00000000
10000000
00000000
00010000
00100000
00000000
00001000
00000000
00010000
00000100
00000000
00001000
00000000
,
00000010
00000000
00000100
00000000
00000010
00000000
00001000
00000001
00000000
00000010
00000000
00000100
00001000
00000000
00000010
00000000
,
00010000
00000000
00000100
00000000
00000001
00000000
00000100
00001000
00000000
00000010
00000000
00000100
00001000
00000000
00010000
00000000
,
01000000
01000000
10000000
10000000
00010000
00010000
02000000
00000000
,
03100000
00000000
10000000
00000000
00010000
00000000
00100000
01000000
00000000
00010000
00000000
00001000
00010000
00000000
00000010
00000000
,
00000100
00000000
00000010
00000000
00000001
00000000
00000010
00001000
00000000
00000001
00000000
00000010
00001000
00000000
00010000
00000000
,
00100000
00000000
10000000
00000000
00010000
00000000
01000000
00100000
00000000
01000000
00000000
00010000
10000000
00000000
01000000
00000000
,
00100000
00100000
00001000
00001000
00010000
00010000
00000200
00000000
,
00001300
00000000
00000010
00001000
00000010
00001000
00000000
00000001
00001000
00000001
00001000
00000001
00001000
00000000
00000001
00000010
,
00000001
00000010
00000100
00010000
00001000
01000000
00100000
00000000
,
10000000
01000000
00010000
00001000
00000100
00000000
00000010
00000000
,
00001000
00000001
00000010
00001000
00000010
00000100
00001000
00000000
,
00000001
00001000
00000010
00010000
00000100
00000100
00011000
00000000
,
00100000
00010000
01000000
00100000
10000000
00010000
01000000
00010000
,
00100000
10000000
00100000
00010000
01000000
00100000
10000000
01000000
,
00001000
00000100
00000010
00000001
00000100
00000010
00001000
00000001
,
00000100
00000010
00000100
00000001
00001000
00000100
00000010
00000001
,
00001001
00000000
00000000
00000000
;

//---------------dance-double - M. Simmons----------------
#NOTES:
     dance-double:
     M. Simmons:
     Medium:
     6:
     0.450,0.415,0.301,0.055,0.100:
00000000
00000000
00000000
00000000
,
00000000
00000000
00000000
00000000
,
00000000
00000000
00000000
00000000
,
00000000
00000000
00000000
00000000
,
10000000
00100000
01000000
00000000
00100000
00000000
10000000
00000000
,
00010000
00100000
00001000
00000000
00010000
00000000
00000100
00000000
,
00001000
00000001
00000100
00000000
00000010
00000000
00001000
00000000
,
00001002
00010000
00001003
00000110
,
00010000
00001000
00100000
00000000
00010000
00000000
00010000
00000000
,
10000000
01000000
00100000
00000000
01000000
00000000
01000000
00000000
,
10000000
01000000
00010000
00000000
00001000
00000000
00001000
00000000
,
00010000
00000000
00010100
00000000
00000000
00000100
00000100
00000000
,
00001000
00000010
00000100
00000000
00000001
00000000
00000001
00000000
,
00001000
00000100
00010000
00000000
00001000
00000000
00001000
00000000
,
01000000
00100000
00010000
00000000
00100000
00000000
00100000
00000000
,
10010000
00000000
00110000
00000000
00000000
00001000
00001000
00000000
,
00010000
00000000
00000000
00010000
00000000
00000000
00010000
00000000
00000000
00000000
00000000
00000000
00000100
00000000
00000000
00000000
,
00000010
00000000
00000000
00000010
00000000
00000000
00000010
00000000
00000000
00000000
00000000
00000000
00000001
00000000
00000000
00000000
,
00001000
00000000
00000000
00001000
00000000
00000000
00001000
00000000
00000000
00000000
00000000
00000000
00000000
00000000
00000000
00000000
,
00001100
00011000
00110000
00000000
,
01000000
00000000
00000000
00000000
10000000
00000000
00000000
00000000
00010000
00000000
00000000
01000000
00010000
00000000
00100000
00000000
,
00010000
00000000
00000000
00000000
01000000
00000000
00000000
00000000
00001000
00000000
00000000
00010000
00001000
00000000
00010000
00000000
,
00000100
00000000
00000000
00000000
00000010
00000000
00000000
00000000
00000001
00000000
00000000
00001000
00000010
00000000
00000100
00000000
,
00000010
00010010
00001010
00010010
,
00000100
00000000
00000000
00000000
00010000
00000000
00000000
00000000
00001000
00000000
00000000
01000000
00100000
00000000
01000000
00000000
,
00010000
00000000
00000000
00000000
10000000
00000000
00000000
00000000
01000000
00000000
00000000
00100000
00010000
00000000
00100000
00000000
,
00001000
00000000
00000000
00000000
00010000
00000000
00000000
00000000
00001000
00000000
00000000
01000000
00010000
00000000
10000000
00000000
,
01000000
00010000
00001000
00000000
,
00010000
00001000
00010000
00001000
00010000
00010000
00000100
00000000
,
00001000
00000010
00000100
00000000
00000010
00000000
00001010
00000000
,
00000100
00010000
00001000
00000000
01000000
00000000
10100000
00000000
,
01000000
00010000
00100000
00000000
00001000
00000000
00011000
00000000
,
00020100
00000000
00001000
00000000
00000000
00000010
00030010
00000000
,
00000010
00000100
00001000
00000000
00010000
00000000
00011000
00000000
,
01000000
00010000
10000000
00000000
01000000
00000000
00101000
00000000
,
00010000
00000100
00001000
00000000
00000001
00000000
00001001
00000000
,
00000120
00010000
00001030
00001010
,
00000100
00000000
00010000
00000000
00001000
00000000
01000000
00100000
,
00000000
10000000
00000000
01000000
00100000
00000000
00100000
00000000
,
00001000
00000000
00010000
00000000
00000100
00000000
00001000
00000001
,
00000000
00000100
00000000
00000010
00010000
00000000
00000000
00000000
,
00001000
00000000
00010000
00000000
00001000
00000000
01000000
00010000
,
00000000
10000000
00000000
01000000
00100000
00000000
01000000
00000000
,
10000000
00000000
00010000
00000000
00100000
00000000
00001000
00010000
,
00000000
00000100
00001000
00000100
00001000
00000000
00000000
00000000
,
00000001
00000000
00000000
00000001
00000000
00000000
00000001
00000000
00000000
00000000
00000000
00000000
00000000
00000000
00001000
00000000
,
00001000
00000000
00000010
00000010
00000000
00000000
00000200
00000000
,
00000310
00000000
00000000
00000010
00000000
00000000
00000010
00000000
00000000
00020000
00000000
00000000
00030000
00000000
00000000
00000000
,
00011000
00011000
00010100
00000000
,
00000100
00000000
00000000
00010000
00000000
00000000
00001000
00000000
00000000
00000000
00000000
00000000
01000000
00000000
00000000
00000000
,
00100000
00000000
00000000
10000000
00000000
00000000
00100000
00000000
00000000
00000000
00000000
00000000
01000000
00000000
00000000
00000000
,
00010000
00000000
00000000
00100000
00000000
00000000
00010000
00000000
00000000
00000000
00000000
00000000
00000000
00000000
00000000
00000000
,
10010000
00110000
00011000
00000000
,
00000010
00000000
00000000
00000000
00000100
00000000
00000000
00000000
00000010
00000000
00000000
00001000
00000100
00000000
00010000
00000000
,
00001000
00000000
00000000
00000000
01000000
00000000
00000000
00000000
00100000
00000000
00000000
10000000
00010000
00000000
01000000
00000000
,
00010000
00000000
00000000
00000000
00100000
00000000
00000000
00000000
00001000
00000000
00000000
00010000
00000100
00000000
00001000
00000000
,
00000001
00000000
00000100
00000000
00000000
00000001
00000001
00000000
,
00001000
00000000
00000000
00000000
00000100
00000000
00000000
00000000
00010000
00000000
00000000
00001000
00010000
00000000
00000100
00000000
,
00001000
00000000
00000000
00000000
00000010
00000000
00000000
00000000
00010000
00000000
00000000
00001000
01000000
00000000
00010000
00000000
,
10000000
00000000
00000000
00000000
01000000
00000000
00000000
00000000
00100000
00000000
00000000
01000000
00010000
00000000
00001000
00000000
,
00010000
00001000
00001000
00000000
,
00010000
00000000
00004000
00000000
00000000
00000000
00003000
00040000
00000000
00000000
00000000
00000000
00000000
00030000
00002000
00000000
,
00103000
00000000
01000000
00000000
10000000
00000000
00010000
00100000
,
00000000
00001000
00000000
00010000
00000100
00000000
00001000
00000000
,
00000001
00000000
00000100
00000000
00001000
00000000
00010000
00001000
,
00000000
00100000
00000000
00010000
10000000
00000000
00000000
00000000
,
11000000
00000000
01100000
00000000
00110000
00000000
00100000
00001000
,
00000000
00010000
00000000
00000100
00001000
00000000
00000001
00000000
,
00000101
00000000
00000110
00000000
00001010
00000000
00000100
00010000
,
00000000
00001000
00100000
00001000
00100000
00000000
00000000
00000000
,
00101000
00000000
00000000
00000000
;

//---------------dance-double - M. Simmons----------------
#NOTES:
     dance-double:
     M. Simmons:
     Easy:
     3:
     0.359,0.319,0.192,0.237,0.000:
00000000
00000000
00000000
00000000
,
00000000
00000000
00000000
00000000
,
00000000
00000000
00000000
00000000
,
00000000
00000000
00000000
00000000
,
00001000
00010000
00000100
00001000
,
00000010
00000100
00000020
00001000
,
00001030
00000100
00010000
00001000
,
01000000
00100000
20000000
00000000
,
30010000
01000000
00010000
00100000
,
00001000
00010000
00000200
00001000
,
00001300
00000001
00000100
00000010
,
00000100
00000001
00002000
00000000
,
00003010
00000100
00000010
00010000
,
00001000
01000000
00020000
10000000
,
10030000
00100000
01000000
00100000
,
10000000
00010000
10010000
00000000
,
02000000
00000000
00000000
03100000
00000000
00000000
00000000
00000000
,
02000000
00000000
00000000
03010000
00000000
00000000
00000000
00000000
,
00200000
00000000
00000000
00301000
00000000
00000000
00000000
00000000
,
00011000
00011000
00011000
00000000
,
00010000
00000100
00001000
00000001
,
00000100
00000010
00000100
00000001
,
00001000
00000100
00010000
00001000
,
00100000
00010000
10000000
00010000
,
01000000
00010000
10000000
01000000
,
00100000
00001000
00010000
00000100
,
00001000
00000001
00000100
00000010
,
00000020
00001000
00001030
00000000
,
00020200
00000000
00000000
00030300
,
00001000
01000000
00100000
01000000
,
00010000
10000000
02000000
00100000
,
03100000
00010000
00100000
00001000
,
00010000
00000010
00000200
00000000
,
00000310
00001000
00000001
00000100
,
00000001
00001000
00000200
00010000
,
00010300
00001000
00100000
01000000
,
10000000
00010000
02000000
00100000
,
03100000
10000000
00010000
01000000
,
00001000
00010000
00000100
00001000
,
00000001
00000100
00000010
00000100
,
00000001
00001000
00001001
00000000
,
00000100
00010000
00001000
00010000
,
00000100
00000010
00000001
00001000
,
00000010
00010000
00001000
00100000
,
00010000
10000000
10010000
00000000
,
02000000
00000000
00000000
03001000
00000000
00000000
00000000
00000000
,
00020000
00000000
00000000
00030100
00000000
00000000
00000000
00000000
,
00002000
00000000
00000000
00003001
00000000
00000000
00000000
00000000
,
00001001
00000110
00001001
00000000
,
00000020
00000000
00000000
00000130
00000000
00000000
00000000
00000000
,
00000020
00000000
00000000
00001030
00000000
00000000
00000000
00000000
,
00000200
00000000
00000000
00010300
00000000
00000000
00000000
00000000
,
00011000
00011000
00011000
00000000
,
00001000
01000000
00100000
01000000
,
00010000
10000000
01000000
00100000
,
00001000
00001000
00000010
00000001
,
00001000
00000010
00000200
00000010
,
00000310
00001000
00000001
00001000
,
00000100
00010000
00001000
01000000
,
00010000
10000000
01000000
00100000
,
01100000
01100000
10010000
00000000
,
00202000
00000000
00000000
00303000
,
00001000
00010000
00000100
00001000
,
00000001
00000100
00000120
00000100
,
00000130
00000001
00001000
00000100
,
00010000
00001000
00011000
00000000
,
00001000
01000000
00100000
01000000
,
00010000
10000000
21000000
01000000
,
31000000
00100000
00001000
00010000
,
00000010
00000100
00000010
00000000
,
00001001
00000000
00000000
00000000
;
