#TITLE:Sugar Sweet;
#SUBTITLE:;
#ARTIST:Oscillator X;
#TITLETRANSLIT:;
#SUBTITLETRANSLIT:;
#ARTISTTRANSLIT:;
#GENRE:Bubblegum Dance;
#CREDIT:Sync by HellRazoR;
#BANNER:Sugar Sweet-bn.png;
#BACKGROUND:Sugar Sweet-bg.png;
#LYRICSPATH:;
#CDTITLE:;
#MUSIC:Sugar Sweet.ogg;
#OFFSET:-0.083;
#SAMPLESTART:92.120;
#SAMPLELENGTH:12.000;
#SELECTABLE:YES;
#DISPLAYBPM:148.000;
#BPMS:0.000=148.000;
#STOPS:154=1.62162,220=0.81081;
#BGCHANGES:0.000=Sugar Sweet-bg.png=1.000=0=0=1=====,
16.000=In The Groove Rebirth/1130_JumpBack.mpg=1.000=0=0=1===FadeRight==,
32.000=In The Groove Rebirth/1164_JumpBack.mpg=1.000=0=0=1===FadeRight==,
48.000=In The Groove Rebirth/265_JB_HD.mpg=1.000=0=0=1===FadeRight==,
64.000=In The Groove Rebirth/1148_JumpBack.mpg=1.000=0=0=1=====,
80.000=In The Groove Rebirth/1125_JumpBack.mpg=1.000=0=0=1===FadeRight==,
96.000=In The Groove Rebirth/269_JB_HD.mpg=1.000=0=0=1=====,
112.000=In The Groove Rebirth/252_JB_HD.mpg=1.000=0=0=1===FadeRight==,
128.000=In The Groove Rebirth/1130_JumpBack.mpg=1.000=0=0=1=====,
144.000=In The Groove Rebirth/1164_JumpBack.mpg=1.000=0=0=1===FadeRight==,
154.000=Sugar Sweet-bg.png=1.000=0=0=1=====,
156.000=In The Groove Rebirth/1148_JumpBack.mpg=1.000=0=0=1=====,
172.000=In The Groove Rebirth/1125_JumpBack.mpg=1.000=0=0=1===FadeRight==,
188.000=In The Groove Rebirth/269_JB_HD.mpg=1.000=0=0=1=SongBgWithMovieViz==FadeRight==,
204.000=In The Groove Rebirth/265_JB_HD.mpg=1.000=0=0=1===FadeRight==,
220.000=Sugar Sweet-bg.png=1.000=0=0=1===FadeRight==,
222.000=In The Groove Rebirth/1130_JumpBack.mpg=1.000=0=0=1=====,
238.000=In The Groove Rebirth/1148_JumpBack.mpg=1.000=0=0=1===FadeRight==,
254.000=In The Groove Rebirth/1125_JumpBack.mpg=1.000=0=0=1===FadeRight==,
270.000=In The Groove Rebirth/1164_JumpBack.mpg=1.000=0=0=1===FadeRight==,
286.000=Sugar Sweet-bg.png=1.000=0=0=1=====,
99999=-nosongbg-=1.000=0=0=0 // don't automatically add -songbackground-
;
#BGCHANGES2:64.000=flash=1.000=0=0=1====1^0^1^1=,
96.000=white flash=1.000=0=0=1=====,
128.000=flash=1.000=0=0=1====1^0^1^1=,
154.000=white flash=1.000=0=0=1=====,
155.000=white flash=2.000=0=0=1=====,
156.000=flash=1.000=0=0=1====1^0^1^1=,
221.000=white flash=2.000=0=0=1=====,
222.000=flash=1.000=0=0=1====1^0^1^1=,
286.000=white flash=1.000=0=0=1=====,
;
#KEYSOUNDS:;

//---------------dance-single - W. Hodge----------------
#NOTES:
     dance-single:
     W. Hodge:
     Challenge:
     9:
     0.471,0.537,0.050,0.150,0.142:
0000
0000
0000
0000
,
0000
0000
0000
0000
,
0000
0000
0000
0000
,
0000
0000
0000
0000
,
1000
1000
0100
0100
0010
0010
0001
0001
,
0100
0010
1000
0100
0000
0100
2000
0000
,
0000
0001
0000
0010
,
0000
0000
0001
0000
0000
0000
0010
3000
,
0001
0001
0100
0100
0010
0010
1000
1000
,
0001
0000
0100
0000
0010
0000
0100
0000
0000
0000
0100
0010
0200
0000
0000
0000
,
0000
0010
0000
0001
,
0000
0000
0010
0000
0000
0000
0001
0300
,
0001
0001
1000
1000
0010
0010
0100
0100
,
0001
1000
0100
1000
0000
1000
0020
0000
,
0000
0100
0000
1000
,
2000
0000
0030
0000
3001
0000
1000
0000
0001
0100
0001
0100
0001
0000
0100
0001
,
0100
0010
1000
0000
0100
0000
1000
0000
,
0010
0100
0001
0000
0010
0000
0100
0000
,
1000
0100
0010
0000
0001
0000
0100
0000
,
0001
0010
0100
0000
1000
0000
0001
0100
,
0010
0100
0001
0000
1000
0000
0100
0000
,
0010
0100
1000
0000
0010
0000
0100
0000
,
0001
1000
0010
0000
1000
0000
0001
0000
,
0100
0010
0100
0000
0001
0000
1000
0010
,
1000
0100
0001
0100
1000
0100
0001
0100
,
2000
0000
0000
3002
0000
0000
0003
0000
1000
0000
0000
0000
0010
0000
0000
0000
,
0100
0001
1000
0100
1000
0000
0011
0000
,
0100
0000
0101
0000
0001
0000
1000
0001
,
0010
0100
0001
0100
0010
0100
0001
0100
,
0020
0000
0000
0230
0000
0000
0300
0000
1000
0000
0000
0000
0001
0000
0000
0000
,
0010
0100
1000
0100
0010
0000
1001
0000
,
0010
0000
0100
0000
0010
0000
0100
0000
0010
0000
2000
0000
3001
0100
0001
0100
,
0001
0010
0100
0000
1000
0000
0010
0000
,
0100
0000
0001
0000
0000
0001
0000
0000
0010
0000
0100
0000
0000
0100
0000
0000
,
1000
0010
0100
0000
0001
0000
1000
0000
,
0001
0000
0100
0000
0000
0100
0000
0000
0010
0000
1000
0000
0000
1000
0000
0000
,
0001
1000
0010
0000
1000
0000
0100
0000
,
1000
0000
0001
0000
0000
0001
0000
0000
0100
0000
0010
0000
0000
0010
0000
0000
,
1000
0000
0001
0000
0100
0000
0010
0100
0010
MMMM
0000
0000
0010
0000
0100
0000
,
0001
0010
1000
0010
0001
0010
1000
0010
,
0002
0000
0000
2003
0000
0000
3000
0000
0010
0000
0000
0000
1000
0000
0000
0000
,
0100
0010
0001
0010
0100
0000
1001
0000
,
1000
0000
1010
0000
0010
0000
0100
0001
,
1000
0010
0001
0010
1000
0010
0001
0010
,
0200
0000
0000
0320
0000
0000
0030
0000
1000
0000
0000
0000
0001
0000
0000
0000
,
0100
0010
1000
0010
0100
0000
1001
0000
,
0100
0000
0010
0000
0100
0000
0010
0000
0100
0000
0002
0000
1003
0010
1000
0010
,
1000
0001
1000
0010
,
0100
0001
1000
0100
,
0010
0001
0100
0010
,
1000
0001
1000
0100
,
0010
0000
0001
0000
0000
1000
0000
0000
0001
0000
0000
1000
0000
0000
0001
0000
,
0100
0000
0010
0000
0000
0010
0000
0000
1000
0000
0100
0000
0000
0100
0000
0000
,
1000
0000
0010
0000
0000
0100
0000
0000
0010
0000
0000
0100
0000
0000
0010
0000
,
0100
0000
0001
0000
0000
0001
0000
0000
0010
0000
0100
0000
0000
0100
0000
0000
,
0000
MMMM
0000
0000
1000
0000
0001
0000
1000
0000
1000
0000
0100
0000
0100
0000
,
0010
0010
0001
0001
0100
0010
0100
0001
,
0000
0000
0001
1000
0002
0000
0000
0000
0000
0000
0000
0000
0100
0000
0000
0000
,
0000
1000
0000
0100
,
0000
0000
1000
0003
0010
0010
0100
0100
,
1000
1000
0010
0010
0100
0001
1000
0001
,
0000
0001
0020
0000
0000
0000
0100
0000
,
0000
0001
0000
0100
,
0000
0000
0001
0030
0100
0100
1000
1000
,
0001
0001
1000
1000
0001
0100
0001
0010
,
0000
0000
0010
0001
0020
0000
0000
0000
0000
0000
0000
0000
0001
0000
0000
0000
,
0000
0100
0000
0001
,
0000
0000
0100
0030
0100
0100
1000
1000
,
0010
0010
0100
0100
0001
1000
0010
1000
,
0000
1000
0200
0000
0000
0000
1000
0000
,
0000
0000
0010
0000
0000
0000
1000
0300
,
1000
0001
1000
0001
1000
0000
0001
1000
0001
0000
0000
0000
0000
0000
0000
0000
;

//---------------dance-single - W. Hodge----------------
#NOTES:
     dance-single:
     W. Hodge:
     Hard:
     7:
     0.399,0.388,0.067,0.000,0.000:
0000
0000
0000
0000
,
0000
0000
0000
0000
,
0000
0000
0000
0000
,
0000
0000
0000
0000
,
0001
0010
0100
0000
1000
0001
1000
0000
,
0010
0100
0001
1000
0000
0001
1000
0000
,
0100
1000
0001
1000
,
0010
0100
0001
0100
,
0001
1000
0100
0000
1000
0010
0100
0000
,
0001
0010
0100
1000
0000
0001
1000
0000
,
0100
1000
0001
0100
,
0010
0100
0001
0010
,
1000
0100
1000
0000
0010
1000
0001
0000
,
0100
0010
0100
0001
0000
1000
0001
0000
,
0100
1000
0001
0100
,
0001
0000
0010
0000
0100
1000
0100
0000
,
0100
0010
0001
0000
0100
0000
0001
0000
,
1000
0100
0010
0000
0000
0100
1000
0000
,
0001
0100
0010
0100
,
0001
1000
0010
0000
0000
1000
0001
0000
,
0100
0010
1000
0100
,
0010
0001
0010
0000
0000
0100
0010
0000
,
0100
1000
0001
0100
,
0010
0100
0001
0000
0000
0100
0010
0000
,
1000
0001
0100
0001
1000
0001
0100
0001
,
1000
0001
1000
0001
,
0000
0010
0100
1000
0001
0000
0100
0000
,
0010
0100
0001
0010
,
0000
1000
0001
1000
0100
1000
0001
1000
,
0100
1000
0010
0100
,
0000
0100
0010
1000
0001
0000
1000
0000
,
0100
0010
0100
0010
0100
1000
0001
1000
,
0010
0100
0001
0000
1000
0000
0100
0000
,
1000
0100
0010
0000
0000
0100
1000
0000
,
0010
0100
0001
1000
,
0010
0100
0001
0000
0000
0100
0010
0000
,
1000
0100
0010
0001
,
0010
0100
1000
0000
0000
0100
0010
0000
,
0001
0100
0010
0001
,
0000
1000
0010
1000
0001
1000
0010
1000
,
0001
1000
0001
1000
,
0000
0100
0010
0001
1000
0000
0010
0000
,
0100
0010
0100
0001
,
0000
0001
1000
0001
0010
0001
1000
0001
,
0010
0001
0100
0010
,
0000
0100
0010
1000
0001
0000
0001
0000
,
0010
0100
0010
0100
0010
0001
1000
0001
,
0100
0010
1000
0001
,
0100
0001
1000
0100
,
1000
0001
0100
0001
,
1000
0100
1000
0001
,
0100
1001
0000
0101
,
0000
0110
0000
1010
,
0000
1100
0000
0110
,
0000
0011
0000
1001
,
0000
0000
1000
0000
0001
0100
0010
0000
,
0010
0100
0001
0000
1000
0100
0010
0001
,
0000
0100
0001
0000
1000
0000
0100
0000
,
1000
0010
0100
0001
,
0010
0000
0100
0000
1000
0001
0100
0000
,
0010
1000
0001
0000
1000
0100
0010
0001
,
0000
0100
0001
0000
1000
0000
0001
0000
,
1000
0001
0010
0100
,
1000
0000
0100
0000
0010
0001
0010
0000
,
0100
1000
0100
0000
1000
0001
0100
0010
,
0000
0100
0001
0000
1000
0000
0001
0000
,
1000
0100
1000
0010
,
0100
0000
0001
0000
1000
0001
0010
0000
,
0100
1000
0001
0000
1000
0100
0010
0001
,
0000
0100
0010
0000
0100
0000
0001
0000
,
1000
0100
1000
0010
,
0100
0000
0001
1000
0001
0000
0000
0000
;

//---------------dance-single - W. Hodge----------------
#NOTES:
     dance-single:
     W. Hodge:
     Medium:
     5:
     0.297,0.298,0.042,0.000,0.000:
0000
0000
0000
0000
,
0000
0000
0000
0000
,
0000
0000
0000
0000
,
0000
0000
0000
0000
,
1000
0100
0010
0001
,
0100
0000
0001
0000
0000
1000
0001
0000
,
1000
0010
0000
0100
,
0000
0001
0000
1000
,
0001
0100
0010
1000
,
0001
0000
1000
0000
0000
0001
1000
0000
,
0100
1000
0000
0010
,
0000
0100
0000
0001
,
0010
0100
1000
0001
,
1000
0000
0100
0000
0000
0010
0001
0000
,
0100
0001
0000
1000
,
0000
0001
0100
0001
,
1000
0010
0100
0001
,
1000
0001
1000
0100
,
0010
0001
0010
0100
,
1000
0010
0100
0000
,
1000
0010
0100
0010
,
0001
0010
1000
0100
,
0001
0100
0001
0100
,
1000
0010
0100
0000
,
0001
1000
0100
1000
,
0010
0100
0001
0010
,
0100
1000
0100
0010
,
0001
0010
0100
1000
,
0001
0100
0010
1000
,
0010
1000
0010
0100
,
0001
0010
0100
0010
,
0001
0000
1000
0000
0001
1000
0001
0000
,
1000
0010
0100
0010
,
0100
0001
0100
1000
,
0100
1000
0100
0010
,
0001
0010
0100
0000
,
0001
0100
0010
1000
,
0010
1000
0010
1000
,
0100
0010
0001
0011
,
1100
1000
0010
1000
,
0010
0100
0000
0001
,
0000
0100
0010
1000
,
0100
1000
0000
1000
,
0000
0010
0100
0001
,
0010
0100
0000
1000
,
0000
0010
0100
0001
,
0100
0000
0010
0000
1000
0001
1000
0010
,
0100
0010
0100
0001
,
0010
0100
1000
0010
,
1000
0100
0010
0001
,
0100
0001
0010
0100
,
1000
0010
0000
0010
,
1000
0001
0000
0001
,
0010
0100
0000
0100
,
1000
0010
0000
0010
,
0000
1010
0101
0001
,
0010
0100
1000
0010
,
0000
1000
0010
0000
0100
0000
0001
0000
,
0000
1000
0000
0010
,
0000
1000
0100
0010
,
0001
0000
0010
0000
0100
0000
1000
0010
,
0000
0010
1000
0000
0010
0000
0100
0000
,
0000
0001
0000
0010
,
0000
0100
1000
0010
,
0100
0001
1000
0100
,
0000
1000
0010
0000
1000
0000
0010
0000
,
0000
0100
0000
0001
,
0000
0010
0001
0010
,
0100
0000
1000
0000
0010
0000
1000
0001
,
0000
0001
1000
0000
0010
0000
0100
0000
,
0000
0001
0010
0001
,
0010
0100
1100
0000
;

//---------------dance-single - W. Hodge----------------
#NOTES:
     dance-single:
     W. Hodge:
     Easy:
     2:
     0.186,0.269,0.042,0.000,0.000:
0000
0000
0000
0000
,
0000
0000
0000
0000
,
0000
0000
0000
0000
,
0000
0000
0000
0000
,
1000
0000
0010
0000
,
0100
0000
0001
0000
,
1000
0000
0100
0000
,
0010
0000
0001
0000
,
0100
0000
0001
0000
,
1000
0000
0100
0000
,
1000
0000
0010
0000
,
0100
0000
0001
0000
,
1000
0000
0100
0000
,
1000
0000
0010
0000
,
0100
0000
0001
0000
,
0010
0000
0100
0000
,
1000
0000
0001
0000
,
1000
0001
1000
0001
,
1000
0000
0010
0000
,
0100
0000
0001
0000
,
0010
0000
0100
0000
,
1000
0001
1000
0001
,
1000
0000
0010
0000
,
0100
0000
0001
0000
,
1000
0000
0100
0000
,
0010
0000
0001
0000
,
0010
0000
0100
0000
,
1000
0000
0010
0000
,
0100
0000
0001
0000
,
1000
0000
0100
0000
,
1000
0000
0010
0000
,
0100
0000
0001
0000
,
1000
0000
0100
0000
,
1000
0000
0010
0000
,
0100
0000
0001
0000
,
1000
0001
1000
0000
,
0010
0000
0100
0000
,
0001
0000
0010
0000
,
0100
0000
1000
0110
,
1001
0000
0100
0000
,
0010
0000
1000
0000
,
0001
0000
1000
0000
,
0100
0000
0010
0000
,
0001
0000
0010
0000
,
0100
0000
1000
0000
,
0001
0000
1000
0000
,
0010
0000
0100
0000
,
0001
0000
1000
0000
,
0100
0000
1000
0000
,
0010
0000
0100
0000
,
0001
0000
1000
0000
,
0001
0100
0001
0100
,
1000
0100
1000
0100
,
0010
0100
0010
0100
,
0001
0100
0001
0100
,
0001
1001
0110
0000
,
0010
0000
1000
0000
,
0010
0000
0100
0000
,
0001
0000
0100
0000
,
0010
0000
1000
0000
,
0100
0000
1000
0000
,
0100
0000
0010
0000
,
0001
0000
0010
0000
,
0100
0000
1000
0000
,
0100
0000
1000
0000
,
0001
0000
0010
0000
,
0100
0000
1000
0000
,
0001
0000
1000
0000
,
0010
0000
0100
0000
,
0001
0000
1000
0000
,
0001
0000
0100
0000
,
0010
0000
1001
0000
;

//---------------dance-single - W. Hodge----------------
#NOTES:
     dance-single:
     W. Hodge:
     Beginner:
     1:
     0.107,0.119,0.017,0.000,0.000:
0000
0000
0000
0000
,
0000
0000
0000
0000
,
0000
0000
0000
0000
,
0000
0000
0000
0000
,
1000
0000
1000
0000
,
0100
0000
0100
0000
,
0010
0000
0000
0000
,
0001
0000
0000
0000
,
0001
0000
0001
0000
,
0100
0000
0100
0000
,
0010
0000
0000
0000
,
1000
0000
0000
0000
,
0100
0000
0100
0000
,
0010
0000
0010
0000
,
0001
0000
0000
0000
,
0001
0000
0000
0000
,
0100
0000
0000
0000
,
0010
0000
0000
0000
,
1000
0000
0000
0000
,
0100
0000
0100
0000
,
0010
0000
0000
0000
,
0001
0000
0000
0000
,
1000
0000
0000
0000
,
0010
0000
0010
0000
,
0010
0000
0000
0000
,
1000
0000
0000
0000
,
0001
0000
0000
0000
,
0010
0000
0000
0000
,
0100
0000
0000
0000
,
1000
0000
0000
0000
,
0001
0000
0000
0000
,
1000
0000
0000
0000
,
1001
0000
0000
0000
,
0001
0000
0000
0000
,
0010
0000
0000
0000
,
0001
0000
0000
0000
,
1000
0000
0000
0000
,
0100
0000
0000
0000
,
0010
0000
0010
0100
,
0100
0000
0000
0000
,
1000
0000
0000
0000
,
0010
0000
0000
0000
,
0100
0000
0000
0000
,
0001
0000
0000
0000
,
1000
0000
0000
0000
,
0100
0000
0000
0000
,
1000
0000
0000
0000
,
0010
0000
0000
0000
,
0100
0000
0000
0000
,
0001
0000
0000
0000
,
1000
0000
0000
0000
,
0010
0000
0000
0000
,
0100
0000
0000
0000
,
0001
0000
0000
0000
,
0010
0000
0000
0000
,
0100
0000
1000
0000
,
1000
0000
0100
0000
,
0100
0000
0010
0000
,
0000
0000
0001
0000
,
0000
0000
0100
0000
,
0100
0000
0010
0000
,
0010
0000
1000
0000
,
0000
0000
0001
0000
,
0000
0000
1000
0000
,
1000
0000
0100
0000
,
0100
0000
0010
0000
,
0000
0000
0001
0000
,
0000
0000
0100
0000
,
0100
0000
0010
0000
,
0010
0000
1000
0000
,
0000
0000
0001
0000
,
1000
0000
1001
0000
;

//---------------dance-double - M. Simmons----------------
#NOTES:
     dance-double:
     M. Simmons:
     Challenge:
     9:
     0.587,0.601,0.409,0.159,0.175:
00000000
00000000
00000000
00000000
,
00000000
00000000
00000000
00000000
,
00000000
00000000
00000000
00000000
,
00000000
00000000
00000000
00000000
,
10000000
00001000
01000000
00000100
00010000
00000001
00100000
00000010
,
10000000
00001000
00010000
00000001
00000000
00100000
00000010
00000000
,
00011000
00000000
00010100
00000000
00000000
00000100
00000100
00000000
,
00010000
00001000
00100000
00000000
00101000
00000000
00101000
00000000
,
00001000
10000000
00000100
01000000
00000010
00100000
00000001
00010000
,
00001000
00010000
00000100
01000000
00000000
00001000
00010000
00000000
,
00011000
00000000
00101000
00000000
00000000
00100000
00100000
00000000
,
00000000
00000000
00001000
00000000
00010000
00000100
00000000
00000000
00010000
00000000
00000000
00000000
00001000
00000000
00000000
00000000
,
00010000
00001000
00100000
00000100
01000000
00000010
00010000
00001000
,
10000000
00001000
00010000
00000001
00000000
00010000
00010000
00000000
,
00010010
00000000
00011000
00000000
00000000
01000000
01000000
00000000
,
00001000
00010000
00000000
00001000
00000000
00000000
00010000
00000100
00000000
00000000
00000000
00000000
00000000
00000000
00000000
00000000
,
00011000
00000000
00101000
00000000
00110000
00000000
11000000
10000000
,
00000000
00000000
00010000
00000000
00000000
00000000
01000000
00000000
00000000
00000000
00100000
00000000
00010000
00001000
00000000
00000010
,
00000000
00000000
00000001
00000000
00000100
00000000
00000000
00001010
00000000
00000000
00000001
00000000
00001000
00000000
00000000
00000000
,
00000100
00000010
00000100
00010000
00001000
01000000
00100000
10000000
,
00010000
00000000
01010000
00000000
00110000
00000000
01001000
00001000
,
00000000
00000000
00010000
00000000
00000000
00000000
00000100
00000000
00000000
00000000
00000010
00000000
00000001
00000000
00001000
00000010
,
00000000
00000100
00000010
00000000
00010000
00001000
00010000
00000000
,
00000100
00000000
00000100
00000000
00010000
00001000
01000000
00100000
,
10000000
01000000
10000000
01000000
00010000
01000000
00010000
01000000
,
00001000
00010000
00001000
00010000
00000100
00010000
00000100
00010000
,
00000200
00000320
00002030
00003002
,
00000023
00000100
00000030
00000100
00000010
00000000
00001001
00000000
,
00000001
00000010
00000001
00000010
00001000
00000010
00001000
00000010
,
00010000
00001000
00010000
00001000
00100000
00001000
00100000
00001000
,
00200000
20300000
30020000
00230000
,
01300000
10000000
00000000
00100000
01000000
00000000
01000000
00010000
00000000
00010000
00100000
00000000
00100000
00010000
10000000
00010000
,
10000000
00000000
01010000
00000000
00110000
00000000
01001000
00001000
,
00000000
00000000
00010000
00000000
00000000
00000000
00000100
00000000
00000000
00000000
00000010
00000000
00000001
00001000
00000000
00000010
,
00000000
00000000
00000100
00000000
00000010
00000000
00000000
00001100
00000000
00000000
00000010
00000000
00000001
00000000
00000000
00000000
,
00001000
00000100
00010000
00000100
00010000
00001000
01000000
00100000
,
10000000
00000000
01010000
00000000
00101000
00000000
00010100
00000100
,
00000000
00000000
00000010
00000000
00000000
00000000
00000001
00000000
00000000
00000000
00001000
00000000
00000010
00000000
00000100
00000001
,
00000000
00000000
00000100
00000000
00000010
00000000
00000000
00000000
00MM11MM
0000MM00
00000000
00000000
11000000
00000000
00000000
00000000
,
10010000
00000000
10000000
00100000
10000000
00100000
00010000
00100000
,
00010000
00100000
00001000
00010000
00001000
00010000
00000010
00010000
,
00000020
00000000
00000000
00000000
00000130
00000000
00001000
00000000
00000010
00000000
00000000
00000200
00000000
00000000
00000002
00000000
,
00000000
00000000
00000303
00000000
00000101
00000000
00000000
00000000
00001000
00000100
00000000
00000100
00000010
00000001
00000000
00000010
,
00000001
00000010
00000001
00000010
00000100
00000010
00000100
00000010
,
00001000
00000010
00001000
00000010
00010000
00001000
00010000
00001000
,
00200000
20300000
32000000
03200000
,
10300000
00000000
00100000
00000000
00010000
00000000
00000000
00000000
00100000
00010000
00000000
00010000
00100000
01000000
00000000
10000000
,
00100000
00110000
00101000
00011000
,
00010010
00001100
00001001
00010010
,
00000210
00000010
00001000
00010000
,
00000001
00000010
00000001
00010300
,
00000100
00000001
00001000
00000100
00010000
00001000
01000000
00100000
,
10000000
01000000
00100000
00010000
00100000
00001000
00010000
00000010
,
00000100
00000001
00001000
00000100
00010000
00001000
01000000
00100000
,
10000000
01000000
00010000
00001000
00000100
00000010
00001000
00000001
,
000MMM1M
000000M0
00000000
00000000
10010000
00000000
00000000
00000000
10000000
00000000
00001000
00000000
00010000
00000000
00000001
00000000
,
00100000
00000010
01000000
00000100
00010000
00001000
00100000
00000010
,
00000000
00010000
00001000
00000000
00011000
00000000
00101000
00000000
,
00000000
01000000
01000000
00000000
00001000
00010000
00000100
00000000
,
00010010
00000000
00010100
00000000
01000000
00000100
00100000
00000010
,
10000000
00001000
00010000
00000001
00100000
00000010
00010000
00001000
,
00000000
01000000
00000100
00000000
00010000
00000000
00011000
00000000
,
00000000
00000000
00000010
00000000
00000010
00000000
00000000
00000000
00010000
00001000
00000000
00001000
00100000
00000000
00100000
00001000
,
00000000
00011000
00011000
00000000
00000010
01000000
00001000
00010000
,
00000100
00100000
00000010
01000000
00001000
00010000
00000100
00100000
,
00000000
00000100
01000000
00000000
00001000
00000000
00010000
00000000
,
00000100
00000000
00000000
00000000
00010000
00000000
00000000
00000000
00001000
00010000
00000000
00010000
00000100
00000000
00000100
00010000
,
00000000
00010000
00001000
00000000
00001000
00010000
00000000
00010000
00001000
00000000
10000000
00000000
00001000
00000000
00010000
00000000
,
00000001
00010000
00001000
00100000
00000010
01000000
00000100
00010000
,
00000000
00001000
00010000
00000000
00011000
00000000
00010100
00000000
,
00010010
00000000
00000000
00000000
00010001
00000000
00000000
00000000
00000100
00010000
00000000
00010000
00000010
00000000
00100000
00001000
,
00000000
00001000
01000000
00000000
00001000
00000000
00000000
00000000
00022000
00000000
00000000
00000000
00000000
00000000
00000000
00000000
,
00033000
00000000
00000000
00000000
;

//---------------dance-double - M. Simmons----------------
#NOTES:
     dance-double:
     M. Simmons:
     Hard:
     8:
     0.521,0.507,0.192,0.142,0.150:
00000000
00000000
00000000
00000000
,
00000000
00000000
00000000
00000000
,
00000000
00000000
00000000
00000000
,
00000000
00000000
00000000
00000000
,
10000000
01000000
00100000
01000000
10000000
01000000
00100000
00010000
,
00100000
00001000
00100000
00001000
00000000
00010000
00010000
00000000
,
00001000
00010000
00000100
00000010
,
00000001
00001000
00000010
00000100
,
00000010
00001000
00000010
00000100
00000010
00001000
00000010
00000100
,
00000010
00010000
00000010
00010000
00000000
00001000
00001000
00000000
,
00010000
00001000
01000000
00100000
,
20010000
00000000
30010000
00000000
,
01000000
00010000
00100000
00010000
01000000
00010000
00100000
00010000
,
01000000
00001000
01000000
00001000
00000000
00010000
00010000
00000000
,
00000100
00000010
00000001
00001000
,
00001002
00000010
00000103
00000000
,
00000002
00000000
00002003
00000000
00003200
00000000
00010300
00001000
,
00000000
00000000
00010000
00000000
00000000
00000000
00010000
00000000
00000000
00000000
00010000
00000000
00001000
00010000
00000000
00000000
,
00001000
00000000
01000000
00000000
00100000
00000000
10000000
00010000
,
00100000
01000000
10000000
10000000
,
00020000
00000000
20030000
00000000
32000000
00000000
03100000
00001000
,
00000000
00000000
00001000
00000000
00000000
00000000
00001000
00000000
00000000
00000000
00001000
00000000
00010000
00001000
00000000
00000000
,
00010000
00001000
00100000
00000000
00010000
00000000
10000000
00100000
,
00100000
01000000
00001000
00010000
,
00000100
00000010
00000001
00000010
00000100
00000010
00000001
00000010
,
00000200
00000000
00000000
00001000
00000300
00000000
00000000
00000000
00001000
00000000
00000010
00000000
00000100
00000000
00000010
00000000
,
00010010
00000000
00000000
00000000
00001000
00000000
00100000
00000000
00001000
00000000
00000000
00100000
00000000
00000000
00001000
00000000
,
00000000
01000000
01000000
00000000
00100000
10000000
00100000
00000000
,
10000000
01000000
00010000
01000000
10000000
01000000
00010000
01000000
,
20000000
00000000
00000000
00010000
30000000
00000000
00000000
00000000
01000000
00000000
00001000
00000000
01000000
00000000
00000000
00000000
,
00000000
00000000
00001000
00000000
00001000
00000000
00000100
00000000
00000010
00000000
00000000
00001010
00000000
00000000
00001001
00000000
,
00000000
00000000
00000001
00000000
00000010
00000000
00000000
00000000
00000100
00000010
00000100
00000010
00000100
00000000
00000000
00000000
,
00020000
00000000
00032000
00000000
02003000
00000000
03010000
00100000
,
00000000
00000000
00100000
00000000
00000000
00000000
00100000
00000000
00000000
00000000
00100000
00000000
00010000
00100000
00000000
00001000
,
00000000
00010000
00001000
00000000
01000000
00100000
10000000
01000000
,
00100000
01100000
00110000
00000000
,
02000000
00000000
23000000
00000000
30020000
00000000
01030000
00001000
,
00000000
00000000
00001000
00000000
00000000
00000000
00001000
00000000
00000000
00000000
00001000
00000000
00010000
00001000
00000000
00010000
,
00000000
00000100
00000010
00000000
00001001
00000000
00000110
00000000
,
00000001
00000010
00000001
00000100
00000001
00000010
00000001
00000100
,
00000001
00000000
00000000
00001000
00000000
00000000
00000100
00000000
00000100
00000000
00010000
00000000
00010000
00000000
00000000
00000000
,
00011000
00000000
00001000
00000000
00100000
00000000
00010000
00000000
10000000
00000000
00000000
00100000
00000000
00000000
01000000
00000000
,
00000000
00000000
00010000
00000000
00010000
00000000
00000000
00000000
10000000
01000000
10000000
01000000
10000000
00000000
00000000
00000000
,
10000000
00010000
01000000
00010000
10000000
00010000
01000000
00010000
,
10000000
00000000
00000000
01000000
00000000
00000000
00100000
00000000
00001000
00000000
00010000
00000000
00000010
00000000
00000100
00000000
,
00000110
00001001
00000110
00001001
,
00000001
00000000
00000010
00000000
00001000
00000000
00010000
00000000
00100000
00000000
10000000
00000000
00010000
00000000
01000000
00010000
,
01000000
00000000
00000000
00100000
01000000
00000000
00000000
01000000
00010000
00000000
00000000
00010000
10000000
00000000
00000000
10000000
,
01000000
00000000
00000000
01000000
00100000
00000000
00000000
00100000
00001000
00000000
00000000
00001000
00010000
00000000
00000000
00010000
,
00000010
00000000
00000000
00000010
00000100
00000000
00000000
00000100
00000001
00000000
00000000
00000001
00001000
00000000
00000000
00001000
,
00000100
00000000
00000000
00000100
00010000
00000000
00000000
00010000
00001000
00000000
00000000
00001000
01000000
00000000
00000000
01000000
,
00100000
10000000
00010000
00000000
01000000
00010000
00100000
00000000
,
00001000
00010000
00000100
00000000
00001000
00000010
00000100
00000000
,
00000010
00001000
00000001
00000000
00000100
00000001
00001000
00000000
,
00000100
00000010
00000100
00001000
00000001
00000100
00000010
00000000
,
00001001
00000000
00000010
00000000
00010000
00001000
00010000
00000100
,
00010000
00001000
00100000
00001000
01000000
00100000
10000000
00010000
,
00000000
01000000
01010000
00000000
00010000
00000000
10000000
00000000
,
01000000
00100000
00001000
00010000
,
00000010
00000000
00000100
00000000
00000010
00001000
00000010
00000100
,
00000001
00001000
00000100
00000010
00000001
00000010
00000100
00001000
,
00000000
00000010
00010000
00000000
00011000
00000000
00101000
00000000
,
00001000
00001000
00001000
00000000
01000000
00000000
00100000
00000000
,
10000000
10000000
10000000
00000000
01000000
00100000
00010000
00100000
,
00001000
00010000
00000010
00000100
00000010
00010000
00001000
00100000
,
00000000
01000000
00100000
00000000
01000000
00000000
10000000
00000000
,
00010000
00000000
01000000
00000000
01001000
01000000
00001000
00000000
,
00020100
00000000
00030000
00000000
00000100
00000010
00000100
00001000
,
00000001
00000100
00000010
00010000
00001000
00100000
00001000
00100000
,
00000000
00010000
10000000
00000000
01000000
00000000
00100000
00000000
,
01100000
01000000
10010000
00000000
,
01000000
00010000
01000000
00000000
00010000
01000000
00010000
00000000
01001000
00000000
00000000
00000000
00000000
00000000
00000000
00000000
;

//---------------dance-double - M. Simmons----------------
#NOTES:
     dance-double:
     M. Simmons:
     Medium:
     6:
     0.395,0.418,0.217,0.033,0.029:
00000000
00000000
00000000
00000000
,
00000000
00000000
00000000
00000000
,
00000000
00000000
00000000
00000000
,
00000000
00000000
00000000
00000000
,
10000000
01000000
10000000
01000000
10000000
01000000
10000000
01000000
,
00100000
01000000
00100000
01000000
00000000
00100000
00100000
00000000
,
00001000
00010000
00000010
00000000
,
00000100
00000010
00001000
00000000
,
00000001
00000100
00000001
00000100
00000001
00000100
00000001
00000100
,
00000001
00000010
00000001
00000010
00000000
00000100
00000100
00000000
,
00010000
00001000
01000000
00000000
,
00010000
00100000
00001000
00000000
,
00001000
00010000
00001000
00010000
00001000
00010000
00001000
00010000
,
00000100
00010000
00000100
00010000
00000000
00000010
00000010
00000000
,
00001000
00000001
00000100
00000010
,
00010000
00000000
00001000
00000000
00022000
00000000
00000000
00033000
,
00001000
00000000
01000000
00000000
00100000
00000000
10000000
00010000
,
00000000
00000000
00000000
00000000
00000000
00100000
01000000
00000000
,
01100000
10000000
00010000
00100000
,
00001000
00001000
00001000
00000000
,
00010000
00000000
00000100
00000000
00000010
00000000
00000001
00001000
,
00000000
00000000
00000000
00000000
00000000
00000010
00001000
00000000
,
00000010
00000100
00001001
00000000
,
00000010
00000010
00000010
00000000
,
00010000
00001000
00010000
00001000
,
00100000
00000000
00000000
00100000
00000000
00000000
00000000
00000000
01000000
00000000
10000000
00000000
01000000
00000000
00000000
00000000
,
00100000
00000000
00000000
00000000
00001000
00000000
00000000
00000000
00100000
00000000
00000000
00010000
00000000
00000000
01000000
00000000
,
00000000
00000000
00001000
00000000
00010000
00010000
00010000
00000000
,
00000100
00000010
00000001
00001000
,
00000010
00000000
00000000
00000100
00000000
00000000
00000000
00000000
00000010
00000000
00000100
00000000
00000010
00000000
00000000
00000000
,
00001000
00000000
00000000
00000000
00000001
00000000
00000010
00000000
00000001
00000000
00000000
00001001
00000000
00000000
00002002
00000000
,
00000000
00000000
00003003
00000000
,
00000010
00000000
00010000
00000000
00001000
00000000
00100000
00010000
,
00000000
00000000
00000000
00000000
00000000
01000000
00100000
00000000
,
01100000
10000000
00010000
00100000
,
01000000
01000000
01000000
00000000
,
00100000
00000000
00001000
00000000
00010000
00000000
00000100
00000010
,
00000000
00000000
00000000
00000000
00000000
00000010
00000100
00000000
,
00000110
00000001
00001001
00001100
,
00001100
00000100
00010000
00001000
,
01000000
00000000
00000000
00100000
00000000
00000000
00000000
00000000
10000000
00000000
00010000
00000000
10000000
00000000
00000000
00000000
,
01000000
01000000
01100000
00000000
,
00001000
00010000
00011000
00000000
,
00000100
00000010
00000001
00001000
,
00000010
00000000
00000000
00000100
00000000
00000000
00000000
00000000
00000010
00000000
00001000
00000000
00000010
00000000
00000000
00000000
,
00010000
00000000
00000000
00000000
00001000
00000000
00000000
00000000
00011000
00000000
00000000
00101000
00000000
00000000
00011000
00000000
,
00000000
00000000
00001000
00010000
00001000
00000000
00000000
00000000
,
01000000
00100000
10000000
00010000
,
00100000
00001000
00010000
00000010
,
00000100
00000001
00001000
00000100
,
00000010
00000001
00001000
00000010
,
00010000
00000000
00011000
00000000
00000000
00001000
00001000
00000000
,
00100000
00000000
00110000
00000000
00000000
00010000
00010000
00000000
,
10000000
00000000
10010000
00000000
00000000
10000000
10000000
00000000
,
01000000
00100000
01000000
00000000
00100000
01000000
00100000
00000000
,
10010000
00000000
01000000
00000000
00010000
00100000
00010000
00100000
,
00010000
00100000
00010000
00100000
00001000
00100000
00001000
00100000
,
00000000
00001000
00001000
00000000
00010000
00000000
00000100
00000000
,
00000010
00000001
00001000
00000010
,
00000110
00000000
00000000
00000000
00000010
00001000
00000010
00001000
,
00000010
00001000
00000010
00001000
00000010
00000100
00000010
00000100
,
00000000
00000010
00000010
00000000
00010000
00000000
00001000
00000000
,
00011000
00000000
00000000
00001000
00001000
00000000
00011000
00000000
,
00011000
00000000
00000000
00000000
00001000
00100000
00001000
00100000
,
00001000
00100000
00001000
00100000
00001000
00010000
00001000
00010000
,
00000000
00001000
00001000
00000000
01000000
00000000
00100000
00000000
,
10000000
00010000
00100000
01000000
,
01100000
00000000
00000000
00000000
01000000
00100000
01000000
00100000
,
01000000
00100000
01000000
00100000
01000000
10000000
01000000
10000000
,
00000000
01000000
01000000
00000000
00100000
00000000
00001000
00000000
,
00101000
00000000
00000000
00001000
00001000
00001000
00000000
00010000
,
00010000
00010000
00000000
00000000
00011000
00000000
00000000
00000000
;

//---------------dance-double - M. Simmons----------------
#NOTES:
     dance-double:
     M. Simmons:
     Easy:
     3:
     0.255,0.269,0.150,0.042,0.000:
00000000
00000000
00000000
00000000
,
00000000
00000000
00000000
00000000
,
00000000
00000000
00000000
00000000
,
00000000
00000000
00000000
00000000
,
10000000
01000000
00100000
00000000
,
00100000
01000000
10000000
10010000
,
00000000
01000000
00000000
00001000
,
00000000
00010000
00000000
00000100
,
00000010
00000100
00000010
00000100
,
00001000
00000001
00001000
00001001
,
00000000
00000010
00000000
00010000
,
00000000
00001000
00000000
01000000
,
00010000
10000000
00010000
10000000
,
00010000
00100000
00010000
00110000
,
00100000
00001000
00000000
00010000
,
00000000
00000010
00000000
00000100
,
00000020
00000100
00001000
00001030
,
00000010
00000000
00010000
00000000
,
00001000
00001000
00001000
00000000
,
00010000
00010000
00010000
00000000
,
00002000
00010000
00100000
00103000
,
00001000
00000000
01000000
00000000
,
00100000
00000000
10000000
00000000
,
10010000
10010000
10010000
00000000
,
10000000
01000000
00000000
00100000
,
00000000
00001000
00000000
00010000
,
00000000
00000010
00000010
00000010
,
00000000
00000100
00000010
00000100
,
00000000
00000010
00000000
00010000
,
00000000
00000100
00000000
00010000
,
00001000
00100000
00010000
00000000
,
01100000
01100000
01100000
00000000
,
20000000
01000000
00100000
30100000
,
10000000
01000000
00000000
00100000
,
00000000
00001000
00000000
00010000
,
00000000
00000010
00000000
00000100
,
00000002
00000010
00001000
00001003
,
00000001
00000100
00000000
00000010
,
00000000
00001000
00001001
00000010
,
00000110
00000010
00000000
00010000
,
00000000
00001000
00000000
00010000
,
00000000
00001000
00001000
00001000
,
00000000
00100000
00100000
00100000
,
01000000
10000000
00000000
00010000
,
00000000
01000000
00000000
00001000
,
00000000
00010000
00010000
00010000
,
00000000
00000100
00000100
00000100
,
00001001
00000000
00000000
00000000
,
00000000
00000000
00000000
00000000
,
00000200
00000000
00000000
00000000
,
00000300
00000000
00010000
00010000
,
00010000
00001000
00000000
00010000
,
00000000
00001000
00000000
01000000
,
00000000
00100000
00000000
10000000
,
00000000
00010000
00000000
10000000
,
10010000
01000000
00001000
00010000
,
00001000
00010000
00000100
00010000
,
00000100
00001100
00000010
00000001
,
00000000
00001000
00000000
00000010
,
00000000
00010000
00001000
00010000
,
00001000
00010000
00001000
00100000
,
00001000
00101000
00001000
01000000
,
00000000
00100000
00000000
10000000
,
00000000
00010000
01000000
00100000
,
01000000
00100000
10000000
00010000
,
10000000
10010000
00100000
00001000
,
00000000
00010000
00000000
00000100
,
00000000
00000010
00000001
00000010
,
00000001
00000010
00000100
00000010
,
00000100
00000110
00001000
00000100
,
00000000
00010000
00000000
00000100
,
00000000
00010000
00011000
00000000
;
