#TITLE:Strikebeam;
#SUBTITLE:;
#ARTIST:Waterflame;
#TITLETRANSLIT:;
#SUBTITLETRANSLIT:;
#ARTISTTRANSLIT:;
#GENRE:Drum & Bass;
#CREDIT:Sync by HellRazoR;
#BANNER:Strikebeam-bn.png;
#BACKGROUND:Strikebeam-bg.png;
#LYRICSPATH:;
#CDTITLE:;
#MUSIC:Strikebeam.ogg;
#OFFSET:-0.201;
#SAMPLESTART:80.822;
#SAMPLELENGTH:13.700;
#SELECTABLE:YES;
#DISPLAYBPM:140.000;
#BPMS:0.000=140.000;
#STOPS:;
#BGCHANGES:0.000=Strikebeam-bg.png=1.000=0=0=1=====,
12.000=In The Groove Rebirth/261_JB_HD.mpg=1.000=0=0=1=====,
28.000=In The Groove Rebirth/264_JB_HD.mpg=1.000=0=0=1=====,
44.000=In The Groove Rebirth/890_JumpBack.mpg=1.000=0=0=1=====,
60.000=In The Groove Rebirth/1151_JumpBack.mpg=1.000=0=0=1=====,
76.000=In The Groove Rebirth/208_JB_HD.mpg=1.000=0=0=1=====,
92.000=In The Groove Rebirth/263_JB_HD.mpg=1.000=0=0=1=====,
108.000=In The Groove Rebirth/261_JB_HD.mpg=1.000=0=0=1=====,
124.000=In The Groove Rebirth/264_JB_HD.mpg=1.000=0=0=1===SlideDown==,
140.000=In The Groove Rebirth/890_JumpBack.mpg=1.000=0=0=1=====,
156.000=In The Groove Rebirth/1151_JumpBack.mpg=1.000=0=0=1=====,
172.000=In The Groove Rebirth/208_JB_HD.mpg=1.000=0=0=1=====,
184.000=In The Groove Rebirth/208_JB_HD.mpg=1.000=1=0=1=SongBgWithMovieViz==CrossFade==,
188.000=In The Groove Rebirth/263_JB_HD.mpg=1.000=0=0=1=====,
204.000=In The Groove Rebirth/264_JB_HD.mpg=1.000=0=0=1=====,
220.000=In The Groove Rebirth/890_JumpBack.mpg=1.000=0=0=1=====,
236.000=In The Groove Rebirth/208_JB_HD.mpg=1.000=0=0=1=====,
252.000=Strikebeam-bg.png=1.000=1=0=1===CrossFade==,
99999=-nosongbg-=1.000=0=0=0 // don't automatically add -songbackground-
;
#BGCHANGES2:12.000=white flash=1.000=0=0=1=====,
28.000=white flash=1.000=0=0=1=====,
60.000=white flash=1.000=0=0=1=====,
92.000=white flash=1.000=0=0=1=====,
156.000=yellow flash=1.000=0=0=1=====,
220.000=white flash=1.000=0=0=1=====,
;
#KEYSOUNDS:;

//---------------dance-single - M. Simmons----------------
#NOTES:
     dance-single:
     M. Simmons:
     Challenge:
     11:
     0.944,0.000,0.197,0.349,1.000:
0000
0000
0000
0000
,
0000
0000
0000
0000
,
0000
0000
0000
0000
,
1001
0001
0010
0100
0010
0001
1000
0010
,
0100
0001
0100
1000
0100
0001
1000
0100
,
0010
0001
1000
0100
1000
0001
0100
0010
,
0100
0001
1000
0100
0001
0100
0010
0001
,
1000
0000
0010
0000
1000
0001
0000
0001
0100
0010
0000
0010
1000
0000
0001
0000
,
0010
0000
0100
0000
0000
0000
0100
0000
1000
0000
0000
0000
0001
0100
0001
0000
0100
0000
0010
0000
1000
0000
0000
0000
0010
0000
1000
0000
0000
0000
0000
0000
,
0001
0000
0100
0000
0001
1000
0000
1000
0100
0010
0000
0010
0001
0000
1000
0000
,
0010
0000
0000
0000
1000
0000
0000
0000
0100
0000
0000
0000
1000
0010
1000
0000
0010
0000
0100
0000
0010
0000
0000
0000
1000
0000
0001
0000
0010
0000
0000
0000
,
0100
0000
1000
0000
0001
0100
0000
0100
0001
1000
0000
0100
0010
0000
0001
0000
,
1000
0000
0000
0000
0010
0000
0000
0000
0100
0000
0000
0000
0010
1000
0010
0000
0100
0000
0010
0000
0001
0000
0000
0000
0010
0000
1000
0000
0001
0000
0000
0000
,
1000
0000
0100
0000
0010
0001
0000
1000
0001
0100
0000
0010
1000
0000
0001
0000
,
1000
0000
0000
0000
0100
0000
0000
0000
0010
0000
0000
0000
0001
1000
0001
0000
0100
0000
0010
0000
1000
0000
0000
0000
0010
0000
0100
0000
0001
0000
0000
0000
,
1001
0000
0100
0010
1000
0000
0100
0010
0100
1000
0001
0000
1001
0000
0002
0000
,
1003
0000
0000
0000
0100
0000
1000
0000
0100
0000
0000
0000
0010
0001
0010
0000
0001
0000
1000
0000
0010
0000
0000
0000
1000
0000
0001
0000
0100
0000
0000
0000
,
0010
0000
0000
0000
0100
0000
0010
0000
0100
0000
0000
0000
0001
0000
1000
0100
1000
0000
0100
0000
0010
0000
0000
0000
0011
0000
0000
0000
0002
0000
0000
0000
,
1003
0000
0000
0000
0010
0000
0100
0000
0001
0000
0000
0000
1000
0100
1000
0100
1000
0000
0100
0000
0010
0000
0000
0000
0001
0000
1000
0000
0010
0000
0000
0000
,
0110
0000
0000
0000
0010
0000
1000
0000
0010
0000
0000
0000
0100
0000
0001
1000
0001
0000
0100
0000
0001
0000
0000
0000
1000
0000
0100
0000
0010
0000
0000
0000
,
0002
0000
0000
0000
1003
0000
0010
0000
1000
0000
0000
0000
0001
1000
0001
1000
0001
0000
0010
0000
0001
0000
0000
0000
1000
0000
0010
0000
1000
0000
0000
0000
,
0001
0000
0000
0000
0100
0000
0010
0000
0100
0000
0000
0000
0001
0000
1000
0100
1000
0000
0100
0000
0010
0000
0000
0000
0011
0000
0000
0000
1001
0000
0000
0000
,
1200
0000
0000
0000
1300
0000
0000
0000
0001
0000
0100
0000
0000
0000
0010
1000
0010
0000
0100
0000
0000
0000
0100
0000
0001
0000
0000
0000
1000
0000
0001
0000
,
1000
0000
0100
1000
0100
0010
0002
0000
1003
0010
0000
0010
1000
0000
1001
0000
,
0101
0000
0000
0000
0001
0000
0010
0000
0001
0000
0000
0000
1000
0100
1000
0100
1000
0000
0001
0000
1000
0000
0000
0000
0010
0000
1000
0000
0010
0000
0000
0000
,
0100
0000
0000
0000
0010
0000
1000
0000
0010
0000
0000
0000
0100
0000
0001
1000
0001
0000
0100
0000
0001
0000
0000
0000
1100
0000
0000
0000
0110
0000
0000
0000
,
0010
0000
0000
0000
0001
0000
1000
0000
0001
0000
0100
0000
0010
1000
0010
1000
0010
0000
0100
0000
0010
0000
0000
0000
0100
0000
0010
0000
0200
0000
0000
0000
,
0301
0000
0000
0000
1000
0000
0100
0000
1000
0000
0000
0000
0100
0000
0010
0001
0010
0000
0100
0000
1000
0000
0000
0000
1001
0000
0000
0000
0110
0000
0000
0000
,
0010
0000
0000
0000
1000
0000
0001
0000
0100
0000
0000
0000
0001
0010
0001
0010
0001
0000
1000
0000
0100
0000
0000
0000
0010
0000
0001
0000
0010
0000
0000
0000
,
0001
0000
0000
0000
1000
0000
0010
0000
1000
0000
0000
0000
0100
0000
1000
0100
1000
0000
0100
0000
0010
0000
0000
0000
0001
0000
1000
0000
0001
0000
0000
0000
,
0200
0000
0000
0000
0310
0000
1000
0000
0010
0000
0100
0000
0010
1000
0010
1000
0010
0000
0100
0000
0001
0000
0000
0000
1000
0000
0100
0000
1000
0000
0000
0000
,
0110
0010
0000
0001
1000
0001
1000
0000
0010
0000
0100
0000
0001
0010
0001
0000
,
1000
0100
0000
1000
0010
1000
0010
0000
0100
0000
0010
0000
1000
0001
0010
0000
,
0001
1000
0000
0001
0010
0100
1000
0000
0100
0000
0010
0000
0001
1000
0010
0000
,
0100
0010
0000
0100
0010
1000
0010
0000
0100
0000
0001
0000
0010
0100
1000
0000
,
0001
0100
0001
0000
1010
0000
0100
0001
0000
0001
0010
0000
0100
0010
0100
0000
,
1000
0010
1000
0000
0011
0000
0100
1000
0000
1000
0010
0000
0100
0010
0100
0000
,
0001
1000
0001
0000
0110
0000
0100
0001
0000
1000
0100
0000
0010
0001
0010
0000
,
0100
0010
0100
0000
1001
0000
0001
0010
0000
0010
0100
0000
1000
0010
1000
0000
,
2001
0000
0000
3200
0000
0000
0310
0000
0001
0000
1000
0000
0010
0000
0100
0000
,
0020
0000
0130
0001
1000
0001
0010
0001
,
2000
0000
3100
0010
0001
1000
0010
0100
,
0020
0230
0302
2003
3200
0320
0230
2300
,
3002
0000
0103
0010
0100
0001
0010
0100
,
1000
1000
0100
0100
0010
0010
0001
0001
,
1001
0000
0001
0100
0010
0100
0001
0010
,
0100
1000
0100
0010
0100
1000
0100
0010
0100
0010
0001
0010
0100
0010
0001
0010
,
0100
1000
0000
0001
1000
0001
0100
0010
2000
3000
2000
3000
0001
0010
0000
0010
,
0100
1000
0100
0010
0100
0002
0000
0103
1000
0000
0010
0000
0100
0010
0000
0100
,
0010
1000
0010
0100
0020
0000
0030
0100
0001
0000
0020
0000
0000
0130
1000
0000
,
0100
0010
0001
0010
0001
1000
0000
0010
0100
0000
0010
0000
1000
0001
0000
0000
,
0010
0100
1000
0100
0000
0020
0000
0031
1000
0000
0010
1000
0000
0010
1000
0001
,
0100
0001
0010
0100
1000
0001
0000
0100
0001
0000
1000
0000
0100
1000
0000
0100
,
0010
0001
0010
0001
0100
0010
0100
0010
2000
0000
0000
0000
3001
0010
0000
0001
,
1000
0100
1000
0001
0100
0010
0000
0100
0020
0030
0020
0030
0100
0001
0000
0100
,
0020
0000
1030
0000
0100
1000
0000
0100
0010
0000
0001
0010
0000
0001
0000
1000
,
0001
0100
0001
1000
0010
0100
0010
1000
0001
0000
0010
0000
1000
0010
0002
0000
,
0013
0100
1000
0100
0010
0001
0000
1000
0002
0000
0203
0000
0310
1000
0010
0000
,
0100
0001
0100
0010
0100
0002
0000
1003
0100
0000
0010
0000
0001
1000
0000
0001
,
0100
1000
0100
0001
0100
0010
0000
1000
0001
0000
0010
0000
0001
1000
0000
0100
,
1000
0100
0010
0001
1000
0010
0000
0100
0020
0030
0020
0030
0100
0010
0100
0000
,
0001
1000
0001
0010
0100
0010
0001
1000
0020
0000
0000
0000
0130
0000
0010
1000
,
0010
0100
0001
1000
0100
0000
0000
0010
0001
0000
1000
0010
0000
0100
0010
0000
,
1000
0000
0000
0001
0010
0001
0000
1000
0010
0000
0100
0010
0000
2020
0000
0000
,
0000
0000
0000
0000
0000
0000
0000
0000
0000
3030
0000
0000
0000
0000
0000
0000
;

//---------------dance-single - M. Simmons----------------
#NOTES:
     dance-single:
     M. Simmons:
     Hard:
     9:
     0.677,0.000,0.134,0.295,0.586:
0000
0000
0000
0000
,
0000
0000
0000
0000
,
0000
0000
0000
0000
,
1000
0100
1000
0001
,
0010
0000
0100
0000
1000
0010
1000
0001
,
1000
0100
0010
0001
,
0100
0000
0010
0000
0100
0001
0100
0010
,
0100
0000
0000
0010
1000
0000
0001
0000
0100
0000
0000
0001
1000
0000
0100
0000
,
0010
0000
0000
0001
0010
0000
0001
1000
0001
0000
0100
0000
0100
0000
0000
0000
,
0010
0000
0000
1000
0010
0000
0100
0000
0001
0000
1000
0000
0100
0000
0000
0000
,
0010
0000
0000
0100
0010
0000
0001
0010
0001
0000
1000
0000
1000
0000
0000
0000
,
0010
0000
0000
0100
0010
0000
1000
0000
0001
0000
0000
0100
0001
0000
1000
0000
,
0100
0000
0000
1000
0001
0000
0100
0001
0100
0000
0010
0000
0010
0000
0000
0000
,
1000
0000
0000
0010
1000
0000
0001
0000
0010
0000
0100
0000
1000
0000
0000
0000
,
0001
0000
0000
0100
0001
0000
1000
0001
1000
0000
0010
0000
0020
0000
0000
0000
,
0130
0000
0001
0000
0100
0001
0000
0100
0001
0000
1000
0000
0100
1000
0000
0100
,
1000
0000
0010
0000
0100
0010
1000
0010
1000
0000
0001
0000
0100
0001
0000
0001
,
0100
0000
0010
0000
1000
0001
0000
0001
0010
0000
0100
0000
1000
0010
0000
0010
,
0100
0000
0001
0000
1000
0100
0010
0001
0010
0000
0001
0000
1000
0001
0000
0100
,
0001
0000
0010
0000
1000
0010
0000
0100
1000
0000
0001
0000
0100
0010
0000
0010
,
0001
0000
0010
0000
1000
0010
0100
0010
1000
0000
0001
0000
0100
0001
0000
0001
,
0010
0000
0100
0000
1000
0010
0000
0010
0001
0000
0010
0000
1000
0001
0000
0001
,
0100
0000
0010
0000
0000
0000
0100
0010
0100
0000
0000
0001
0000
0000
0001
0000
,
2000
0000
0000
3100
0000
0000
0010
0000
0001
0000
0010
0000
0001
0000
0010
0000
,
0200
0000
0000
1300
0000
0000
0100
0000
1000
0000
0001
0000
0010
0000
0001
0000
,
2000
0000
0000
3010
0000
0000
0100
0000
0010
0000
0100
0000
0001
0000
0010
0000
,
0200
0000
0000
0310
0000
0000
0001
0000
0010
0000
0001
0000
1000
0000
0010
0000
,
0200
0000
0000
1300
0000
0000
0100
0000
0010
0000
1000
0000
0001
0000
0010
0000
,
0200
0000
0000
0310
0000
0000
0001
0000
0010
0000
0001
0000
1000
0000
0100
0000
,
0020
0000
0000
0130
0000
0000
1000
0000
0010
0000
0100
0000
0010
0000
0001
0000
,
0020
0000
0000
0130
0000
0000
0001
0000
1000
0000
0100
0000
0010
0000
0001
0000
,
1001
0000
0001
0000
0010
0001
0000
0001
0010
0000
0000
0000
0200
0000
0000
0000
,
1300
0000
0010
0000
0100
0010
0000
0010
0100
0000
0000
0000
0002
0000
0000
0000
,
1003
0000
0100
0000
1000
0010
0000
0010
0100
0000
0000
0000
0002
0000
0000
0000
,
1003
0000
0100
0000
1000
0010
0000
0010
1000
0000
0000
0000
0200
0000
0000
0000
,
1300
0000
0001
0000
0010
0100
0000
0100
0010
0000
0001
0010
0001
0000
1000
0000
,
1000
0000
0010
0000
0100
0010
0000
0010
1000
0000
0001
1000
0001
0000
0100
0000
,
0001
0000
1000
0000
0100
0010
0000
0010
0100
0000
1000
0010
1000
0000
0010
0000
,
0100
0000
0001
0000
0010
0001
0000
0001
1000
0000
0010
1000
0020
0000
0000
0000
,
1030
0000
0000
1001
0000
0000
0001
0000
0010
0000
0100
0000
0010
0000
0001
0000
,
1000
0000
0000
0011
0000
0000
0010
0000
0100
0000
1000
0000
0010
0000
0100
0000
,
0010
0000
0000
1010
0000
0000
0010
0000
0010
0000
0100
0000
0100
0000
0001
0000
,
0010
0100
1000
0001
0010
0100
1000
0001
,
1000
0000
0000
0110
0000
0000
0010
0000
1000
0000
0001
0000
0100
0000
0001
0000
,
2000
0000
0001
0000
0010
0000
0001
0001
,
3001
0000
1001
0000
0001
0010
0100
0000
,
1000
1000
0100
0100
1000
1000
0040
0000
,
0130
0000
0001
0100
0000
0100
0000
0000
0002
0000
0000
0000
2003
0000
0000
0000
,
3100
0010
0100
0010
0100
0010
0000
0010
0001
0000
0020
0000
0000
0000
0031
0000
,
1000
0001
0000
1000
0001
0100
0000
0000
0020
0000
0000
0000
0130
0000
0100
0000
,
0001
0100
0001
0100
0001
0100
0000
0100
0010
0000
0010
0000
0000
0000
1000
0000
,
1000
0010
0000
1000
0010
0200
0000
0000
0301
0000
0001
0000
0000
0000
1000
0000
,
0100
0010
0100
0010
0100
0010
0000
0010
0002
0000
0000
0000
2003
0000
0000
0000
,
3020
0000
1030
0010
1000
0010
1000
0000
0020
0000
0000
0000
0030
0100
0010
0000
,
0100
0001
0100
0001
0100
0002
0000
0000
2003
0000
0000
0000
0000
0000
0000
0000
,
3000
0000
0110
0000
0000
0011
0000
0000
0001
0000
1001
0000
0000
0001
0100
0000
,
0010
0100
0010
1000
0010
0100
0000
0100
0001
0000
1000
0000
0001
0010
0001
0000
,
0010
0100
0010
0100
0020
0000
0000
0130
1000
0000
1000
0000
0000
1000
0001
0000
,
0100
0001
0100
0001
0100
0000
0000
0001
0100
0000
0000
0000
1010
0000
0000
0000
,
0001
1000
0001
0000
0100
0001
0000
0000
1000
0000
0100
0000
0000
0010
0001
0000
,
0020
0000
0130
1000
0100
1000
0100
0000
0110
0000
0020
0000
0000
0000
0030
0000
,
0001
0100
0001
0000
0100
0001
0100
0000
0202
0000
0000
0000
0303
0001
1000
0000
,
0100
1000
0100
1000
0100
0000
0000
0000
0110
0000
0000
0000
0000
0000
0000
0000
,
1001
0000
0000
0001
0100
0001
0000
0100
0001
0000
0100
0001
0000
0202
0000
0000
,
0000
0303
0000
0000
;

//---------------dance-single - M. Simmons----------------
#NOTES:
     dance-single:
     M. Simmons:
     Beginner:
     1:
     0.106,0.000,0.081,0.000,0.000:
0000
0000
0000
0000
,
0000
0000
0000
0000
,
0000
0000
0000
0000
,
1001
0000
0000
0000
,
0000
0000
0000
0000
,
0000
0000
0000
0000
,
0000
0000
0000
0000
,
1001
0000
0000
0000
,
0001
0000
0000
0000
,
0100
0000
0000
0000
,
0001
0000
0000
0000
,
1000
0000
0000
0000
,
0100
0000
0000
0000
,
0010
0000
0000
0000
,
0100
0000
0000
0000
,
0110
0000
0000
0000
,
0001
0000
0000
0000
,
0100
0000
0000
0000
,
0010
0000
0000
0000
,
1000
0000
0000
0000
,
0001
0000
0000
0000
,
0100
0000
0000
0000
,
0001
0000
0000
0000
,
1001
0000
0000
0000
,
1000
0000
0000
0000
,
0010
0000
0000
0000
,
0100
0000
0000
0000
,
0001
0000
0000
0000
,
0010
0000
0000
0000
,
0001
0000
0000
0000
,
1000
0000
0000
0000
,
0110
0000
0000
0000
,
0001
0000
0000
0000
,
1000
0000
0000
0000
,
0100
0000
0000
0000
,
0010
0000
0000
0000
,
0001
0000
0000
0000
,
0010
0000
0000
0000
,
0100
0000
0000
0000
,
1001
0000
0000
0000
,
0001
0000
0100
0000
,
0100
0000
0000
0000
,
0010
0000
1000
0000
,
1000
0000
0000
0000
,
0001
0000
0010
0000
,
0010
0000
0000
0000
,
0001
0000
1000
0000
,
1001
0000
0001
0000
,
1000
0000
0010
0000
,
1000
0000
0010
0000
,
0100
0000
0000
0000
,
0001
0000
0010
0000
,
0001
0000
1000
0000
,
0001
0000
1000
0000
,
0010
0000
0000
0000
,
0110
0000
0010
0000
,
0100
0000
0001
0000
,
0100
0000
0010
0000
,
1000
0000
0000
0000
,
0001
0000
0010
0000
,
0001
0000
0010
0000
,
0100
0000
0010
0000
,
0100
0000
0000
0000
,
1001
0000
0000
0000
;

//---------------dance-single - M. Simmons----------------
#NOTES:
     dance-single:
     M. Simmons:
     Medium:
     5:
     0.414,0.000,0.170,0.206,0.000:
0000
0000
0000
0000
,
0000
0000
0000
0000
,
0000
0000
0000
0000
,
0001
0010
0000
0100
0000
0010
0000
0001
,
0000
1000
0000
0010
0000
0001
0000
0010
,
1000
0001
0000
0100
0000
0001
0000
1000
,
0000
0100
0000
0010
0000
0001
0000
0010
,
0001
1000
0001
0000
0100
0000
0010
0000
,
1000
0010
1000
0000
1010
0000
1001
0000
,
0001
0010
0001
0000
0010
0000
0100
0000
,
1000
0001
1000
0000
0110
0000
0000
0000
,
0010
1000
0010
0000
0100
0000
0001
0000
,
0100
0010
1000
0000
0011
0000
1001
0000
,
0001
0100
0010
0000
0001
0000
0010
0000
,
1000
0010
1000
0000
2100
0000
0000
0000
,
3001
0100
0000
0001
0000
1000
0000
0100
,
0010
0001
0000
0010
0000
0100
0000
1000
,
0001
0100
0000
0010
0000
0100
0000
0001
,
0010
0100
0000
0010
0001
0000
1001
0000
,
0001
0100
0000
0010
0000
0100
0000
0010
,
1000
0010
0000
0100
0000
0001
0000
1000
,
0100
0010
0000
0100
0000
1000
0000
0001
,
0010
0001
0000
1000
2010
0000
0010
0000
,
3010
0000
0100
0000
0001
1000
0001
1000
,
0001
0000
0010
0000
0100
0000
1000
0100
,
1000
0000
0001
0000
0010
0001
0010
0001
,
0010
0000
0100
0000
1000
0000
0001
1000
,
0001
0000
0100
0000
0010
1000
0010
1000
,
0010
0000
0100
0000
0001
0000
0010
0100
,
0010
0000
0100
0000
1000
0100
1000
0100
,
1000
0000
0001
0000
0010
0000
0001
1000
,
0020
0100
0000
0001
,
0000
1000
0000
0031
,
0100
0002
0000
1000
,
0000
0100
0000
0013
,
0001
2000
0000
0100
,
0000
0010
0000
3001
,
1000
0200
0000
0010
,
0000
0001
0000
1300
,
1001
0000
0110
0000
0010
1000
0010
0000
,
1010
0000
0000
0001
1000
0001
1000
0000
,
1001
0000
0000
0001
0010
0001
0010
0000
,
0200
2300
3002
0203
,
0310
0000
0000
1000
0010
1000
0001
0000
,
0001
0000
0001
0010
0100
1000
0100
0010
,
0001
0000
1001
0000
0100
0010
0100
0000
,
0001
0000
0001
0000
1000
0100
1000
0000
,
0200
0000
2300
0000
3001
0001
0000
0100
,
0002
0000
0203
0000
0310
0010
0000
1000
,
0020
0000
0230
0000
0301
0001
0000
1000
,
0002
0000
2003
0000
3001
0001
0000
0010
,
0100
0000
0110
0000
1000
0001
0000
0001
,
1000
0000
0110
0000
0010
0100
0000
0100
,
0001
0000
1000
0000
2100
0000
0000
3001
,
1000
0000
0010
0000
1000
0010
1000
0010
,
1000
0000
0001
0000
0010
0010
0000
0100
,
0100
0000
0010
0000
0001
0001
0000
1000
,
1000
0010
1000
0000
2010
0000
0000
3010
,
1000
0000
0010
0000
0100
0100
0000
0100
,
0100
0000
0001
0000
1000
0100
0000
0010
,
0001
0000
0010
0000
0010
0001
0000
1000
,
0010
1000
0010
0000
2001
0000
0000
3001
,
0010
0000
0100
0000
0010
0100
0000
0010
,
0022
0000
0000
0000
0000
0000
0000
0000
0000
0000
0000
0000
0000
0033
0000
0000
;

//---------------dance-single - M. Simmons----------------
#NOTES:
     dance-single:
     M. Simmons:
     Easy:
     3:
     0.290,0.000,0.125,0.268,0.000: // measure 1
0000
0000
0000
0000
,  // measure 2
0000
0000
0000
0000
,  // measure 3
0000
0000
0000
0000
,  // measure 4
2002
0000
0000
0000
,  // measure 5
0000
0000
3003
0000
,  // measure 6
0220
0000
0000
0000
,  // measure 7
0000
0000
0330
0000
,  // measure 8
0010
0000
1000
0000
,  // measure 9
0001
0000
0100
0000
,  // measure 10
0001
0000
1000
0000
,  // measure 11
0100
0000
0110
0110
,  // measure 12
0010
0000
0001
0000
,  // measure 13
1000
0000
0010
0000
,  // measure 14
0100
0000
0010
0000
,  // measure 15
1000
0000
1001
1001
,  // measure 16
0001
0010
0001
0000
,  // measure 17
1000
0001
1000
0000
,  // measure 18
0010
1000
0010
0000
,  // measure 19
0100
0010
0100
0000
,  // measure 20
0001
1000
0100
0000
,  // measure 21
0100
1000
0001
0000
,  // measure 22
0001
1000
0010
0000
,  // measure 23
0010
1000
0001
0000
,  // measure 24
2001
3000
0100
0010
,  // measure 25
0002
0003
1000
0010
,  // measure 26
0200
0300
0010
1000
,  // measure 27
0020
0030
0100
0010
,  // measure 28
2000
3000
0001
0100
,  // measure 29
0002
0003
1000
0100
,  // measure 30
0020
0030
0100
0010
,  // measure 31
0002
0003
1000
0010
,  // measure 32
2001
0000
3020
0000
,  // measure 33
0230
0000
0320
0000
,  // measure 34
2030
0000
3002
0000
,  // measure 35
0023
0000
0230
0000
,  // measure 36
0310
0001
1000
0010
,  // measure 37
0100
0001
0100
0010
,  // measure 38
1000
0001
0010
0100
,  // measure 39
1000
0001
1001
0000
,  // measure 40
0002
0000
0103
0010
,  // measure 41
2000
0000
3010
0100
,  // measure 42
0002
0000
1003
0100
,  // measure 43
0010
0001
0010
0100
,  // measure 44
0210
0000
1300
0001
,  // measure 45
1000
1000
0010
0010
,  // measure 46
1000
0000
0001
0100
,  // measure 47
0001
1000
0110
0110
,  // measure 48
0110
0010
1000
0001
,  // measure 49
0010
0100
0010
0001
,  // measure 50
1000
0010
0100
0001
,  // measure 51
0100
0010
2000
0100
,  // measure 52
3001
0100
0010
1000
,  // measure 53
0001
0010
0100
0010
,  // measure 54
0001
1000
0010
0100
,  // measure 55
0001
0100
0020
1000
,  // measure 56
0130
0010
1000
0001
,  // measure 57
0010
0100
1000
0100
,  // measure 58
0010
0001
0100
0010
,  // measure 59
0001
0010
2000
0001
,  // measure 60
3100
1000
0001
0100
,  // measure 61
0010
0001
0010
1000
,  // measure 62
0001
0010
0200
0010
,  // measure 63
0301
0100
1000
0001
,  // measure 64
2002
0000
0000
0000
,  // measure 65
3003
0000
0000
0000
;

//---------------dance-double - M. Simmons----------------
#NOTES:
     dance-double:
     M. Simmons:
     Easy:
     3:
     0.281,0.000,0.081,0.116,0.000:
00000000
00000000
00000000
00000000
,
00000000
00000000
00000000
00000000
,
00000000
00000000
00000000
00000000
,
10000000
00000000
00010000
00000000
,
00100000
00000000
00001000
00000000
,
00010000
00000000
00000010
00000000
,
00000100
00000000
00000001
00000000
,
00001001
00001000
00000000
00000100
,
00000000
00010000
00001000
00010000
,
00000000
00001000
00000000
01000000
,
00000000
00100000
10000000
00100000
,
00000000
01000000
00000000
00010000
,
00000000
00100000
00001000
00100000
,
00000000
00001000
00000000
00010000
,
00000000
00000010
00000100
00000010
,
00000110
00001001
00000000
00000001
,
00000010
00000100
00000000
00010000
,
00001000
01000000
00000000
00100000
,
10000000
00100000
00000000
01000000
,
00001000
00010000
00000000
00001000
,
00010000
00000100
00000000
00000010
,
00000001
00001000
00000000
00000010
,
00000100
00000010
00010000
00000010
,
00010010
00000000
00001000
00001000
,
00001000
00000000
00010000
00010000
,
00010000
00000000
00001000
00001000
,
00001000
00000000
01000000
01000000
,
01000000
00000000
00100000
00100000
,
00100000
00000000
10000000
10000000
,
10000000
00000000
00010000
00010000
,
00010000
00000000
00100000
00100000
,
00201000
00000000
00000000
00000000
,
00302000
00000000
00000000
00000000
,
00023000
00000000
00000000
00000000
,
00030200
00000000
00000000
00000000
,
00000310
00000001
00001000
00000010
,
00010000
00001000
00010000
00000100
,
00010000
00001000
01000000
00100000
,
01000000
00010000
10000000
01000000
,
02100000
00000000
03100000
00001000
,
00200000
00000000
00301000
00010000
,
00002000
00000000
00013000
00010000
,
00000100
00000100
00000010
00000010
,
00000001
00000000
00001000
00001000
,
00000010
00010000
00000010
00001000
,
00001010
00000010
00010000
00001000
,
01000000
00100000
10000000
00010000
,
00100000
01000000
00100000
00000000
00001000
00000000
00100000
00000000
,
00001000
00100000
00001000
00000000
00200000
00000000
00000000
00000000
,
00301000
00010000
00000100
00000010
,
00000001
00000000
00001000
00000000
00000010
00001000
00000010
00000000
,
00010000
00000010
00010000
00000000
00000100
00000000
00010000
00000000
,
00001000
00010000
00001000
00000000
02000000
00000000
00000000
00000000
,
03100000
10000000
00010000
00100000
,
01000000
00000000
00100000
00000000
00001000
00100000
00001000
00000000
,
00011000
00010000
00000100
00000010
,
00000001
00001000
00000001
00000000
00000200
00000000
00000000
00000000
,
00000310
00010000
00000100
00010000
,
00001000
00000000
00100000
00000000
00010000
00100000
00010000
00100000
,
00010000
10000000
00100000
01000000
,
00001000
00000000
00010000
00001000
00020000
00000000
00000000
00000000
,
00030100
00000010
00000001
00001000
,
00000010
00000000
00010000
00000000
00000010
00010000
00000010
00000000
,
00020020
00000000
00000000
00000000
,
00030030
00000000
00000000
00000000
;

//---------------dance-double - M. Simmons----------------
#NOTES:
     dance-double:
     M. Simmons:
     Medium:
     5:
     0.410,0.000,0.197,0.197,0.018:
00000000
00000000
00000000
00000000
,
00000000
00000000
00000000
00000000
,
00000000
00000000
00000000
00000000
,
10000000
00010000
01000000
00001000
,
00010000
00000000
00000100
00000000
00000010
00000100
00000010
00000100
,
00000010
00000001
00001000
00000010
,
00000100
00000000
00000010
00000000
00010000
00000010
00010000
00000010
,
00010000
00000010
00010010
00000000
,
00000100
00010000
00011000
00000000
,
00001000
01000000
01100000
01000000
,
00001000
00010000
00011000
00000000
,
00001000
00100000
01100000
00000000
,
01000000
10000000
10010000
00000000
,
00010000
00100000
01001000
00001000
,
00010000
00000100
00010010
00000010
,
00000100
00000001
00001000
00000000
00000100
00000000
00000100
00000000
,
00010000
00000010
00010000
00000000
00000100
00000000
00000100
00000000
,
00010000
00001000
00010000
00000000
00001000
00000000
00001000
00000000
,
01000000
00100000
10000000
00000000
10010000
00000000
00000000
00000000
,
00010000
00100000
01000000
00000000
00100000
00000000
00100000
00000000
,
00001000
01000000
00001000
00000000
00010000
00000000
00010000
00000000
,
00000100
00000010
00000001
00000000
00001000
00000000
00001000
00000000
,
00000010
00000100
00000001
00000000
00002001
00000000
00000000
00000000
,
00003100
00000000
00000000
00000100
00000000
00000000
00000000
00000000
00010000
00000000
00000000
00000000
00001000
00000000
00010000
00000000
,
00001000
00000000
00000000
00000000
01000000
00100000
01000000
00010000
,
01000000
00000000
00000000
01000000
00000000
00000000
00000000
00000000
00001000
00000000
00000000
00000000
00010000
00000000
00001000
00000000
,
00010000
00000000
00000000
00000000
00000100
00001000
00000100
00000010
,
00000001
00000000
00000000
00000001
00000000
00000000
00000000
00000000
00001000
00000000
00000000
00000000
00000100
00000000
00010000
00000000
,
00000100
00000000
00000000
00000000
00010000
00001000
01000000
00100000
,
01000000
00000000
00000000
01000000
00000000
00000000
00000000
00000000
00010000
00000000
00000000
00000000
10000000
00000000
01000000
00000000
,
10000000
00000000
00000000
00000000
01000000
00100000
01000000
00100000
,
00020000
00000000
02030000
00000000
,
03200000
00000000
02300000
00000000
,
03002000
00000000
00023000
00000000
,
00030200
00000000
00000320
00000000
,
00000031
00000000
00001000
00000000
00000010
00001000
00000010
00000000
,
00010000
00000000
00000100
00000000
00000010
00000100
00000010
00000000
,
00000100
00000000
00010000
00000000
00001000
01000000
00001000
00000000
,
00100000
00001000
00100000
00001000
00100000
00000000
00101000
00000000
,
00002000
00000000
00000000
01003000
00100000
01000000
00001000
00100000
,
00020000
00000000
00000000
00130000
01000000
00100000
00001000
00010000
,
00002000
00000000
00000000
00013000
00000100
00010000
00000100
00001000
,
00000100
00001000
00000010
00001000
00000010
00000100
00000010
00000100
,
00000020
00000000
00000000
00000130
00000001
00000100
00000010
00001000
,
00000020
00020030
00032000
00023000
,
00032000
00000000
00103000
00010000
00100000
00000000
01000000
00000000
,
10000000
00010000
10000000
00000000
00100000
10000000
00100000
00000000
,
01010000
00110000
00100000
01000000
,
00110000
00101000
00010000
00000100
,
00010100
00000000
00001100
00000000
00000010
00000100
00000010
00000000
,
00000110
00000000
00000101
00000001
00002000
00000000
00000000
00000000
,
00003100
00000010
00000001
00001000
,
00000010
00000000
00010000
00000010
00010000
00000010
00010000
00000000
,
00001000
01000000
00100000
01000000
,
00001000
00100000
01000000
00000000
02100000
00000000
00000000
00000000
,
03100000
00000000
00010000
00000000
10000000
00010000
10000000
00000000
,
00100000
00000000
01000000
00000000
00001000
01000000
00001000
00000000
,
00010000
00000000
00000100
00000000
00000010
00000100
00000010
00000000
,
00000001
00001000
00000010
00001000
00000001
00000000
00000000
00000000
,
00000001
00000000
00000010
00000000
00000100
00010000
00000010
00000000
,
00010000
00000100
00010000
00000000
00001000
00010000
00001000
00000000
,
01000000
00000000
00100000
00000000
10000000
00010000
00100000
00000000
,
01000000
00100000
01000000
00000000
01100000
00000000
00000000
00000000
,
20020000
00000000
00000000
00000000
00000000
00000000
00000000
00000000
00000000
00000000
00000000
00000000
00000000
30030000
00000000
00000000
;

//---------------dance-double - R. Uchima----------------
#NOTES:
     dance-double:
     R. Uchima:
     Challenge:
     11:
     0.774,0.000,0.465,0.206,0.734:
00000000
00000000
00000000
00000000
,
00000000
00000000
00000000
00000000
,
00000000
00000000
00000000
00000000
,
00000101
00000100
00001000
01000000
00010000
10000000
00100000
00010000
,
00000010
00001000
00000100
00000001
00000100
00001000
00000100
00010000
,
01000000
00100000
00010000
00100000
00001000
00000010
00000001
00000100
,
00001000
01000000
10000000
01000000
00010000
00100000
00001000
00010000
,
00010100
00000000
00000100
00010000
00000100
00000000
00001000
00000000
00001010
00000000
00000000
00000000
00010100
00000000
00000000
00000000
,
00000000
00000000
00000000
00000000
00110000
00000000
00000000
00000000
00010000
00000000
00000000
00000000
10000000
00100000
10000000
00000000
00100000
00000000
01000000
00000000
00100000
00000000
00000000
00000000
01000000
00000000
00001000
00000000
00000000
00000000
00000000
00000000
,
00011000
00000000
00001000
00100000
00001000
00000000
00010000
00000000
00010010
00000000
00000000
00000000
00000101
00000000
00000000
00000000
,
00000000
00000000
00000000
00000000
00010010
00000000
00000000
00000000
00001000
00000000
00000000
00000000
00100000
00010000
00100000
00000000
01000000
00000000
10000000
00000000
00100000
00000000
00000000
00000000
01000000
00000000
00010000
00000000
00000000
00000000
00000000
00000000
,
00101000
00000000
00100000
00001000
00010000
00000000
00000100
00000000
00000110
00000000
00000000
00000000
00011000
00000000
00000000
00000000
,
00000000
00000000
00000000
00000000
01010000
00000000
00000000
00000000
01000000
00000000
00000000
00000000
00001000
00100000
00001000
00000000
00010000
00000000
00000100
00000000
00001000
00000000
00000000
00000000
00000010
00000000
00000100
00000000
00000000
00000000
00000000
00000000
,
00000101
00000000
00000001
00000100
00000010
00000000
00001000
00000000
00001010
00000000
00000000
00000000
00011000
00000000
00000000
00000000
,
00000000
00000000
00000000
00000000
10010000
00000000
00000000
00000000
10000000
00000000
00000000
00000000
01000000
00100000
01000000
00000000
00100000
00000000
00010000
00000000
00100000
00000000
00000000
00000000
00001000
00000000
00010000
00000000
00000000
00000000
00000000
00000000
,
00010100
00000000
00010000
00000100
00000000
00000100
00000010
00000000
00000001
00001000
00000000
00000000
00000010
00001000
00000100
00000000
,
00010000
00000000
00001000
00000000
01000000
00000000
00000000
00000000
00000000
00000000
00000000
00000000
00100000
10000000
00100000
00000000
01000000
00000000
00000000
00000000
00010000
00000000
00000000
00000000
00100000
00000000
00010000
00000000
01000000
00000000
00000000
00000000
,
00000000
00000000
00010000
00100000
00000000
00100000
00001000
00000000
00010000
00000100
00000000
00000000
00010000
00000010
00001000
00000000
,
00000010
00000000
00000100
00000000
00000001
00000000
00000000
00000000
00000000
00000000
00000000
00000000
00000010
00000100
00000010
00000000
00000100
00000000
00010000
00000000
00001000
00000000
00000000
00000000
00001000
00000000
00000000
00000000
00100000
00000000
00000000
00000000
,
00110000
00000000
00010000
01000000
00000000
01000000
00001000
00000000
00010000
00000100
00000000
00000000
00000100
00010000
00000100
00000000
,
00010000
00000000
00000010
00000000
00001000
00000000
00000000
00000000
00000000
00000000
00000000
00000000
00000100
00001000
00000100
00000000
00010000
00000000
00000000
00000000
00000100
00000000
00000000
00000000
00100000
00000000
00001000
00000000
00010000
00000000
00000000
00000000
,
00000000
00000000
00001000
01000000
00000000
01000000
00001000
00000000
00010000
00000010
00000000
00000000
00000010
00010000
00001000
00000000
,
00100000
00000000
00001000
00000000
00100000
00000000
00000000
00000000
00110000
00000000
00000000
00000000
00010000
01000000
00010000
00000000
01000000
00000000
00010000
00000000
01000000
00000000
00000000
00000000
00010000
00000000
00000000
00000000
10000000
00000000
00000000
00000000
,
10100000
00000000
00010000
00000000
00101000
00000000
00100000
00001000
00101000
00000000
00000000
00010100
00000000
00000000
00001000
00000000
,
00000001
00000000
00000000
00000000
00000100
00000000
00000000
00000000
00000110
00000000
00000000
00000000
00000010
00001000
00000010
00000000
00001000
00000000
00000010
00000000
00000000
00000000
00010000
00000000
00000100
00000000
00000000
00000000
00000100
00000000
00000000
00000000
,
00010000
00000000
00001000
00000000
00101000
00000000
00100000
00010000
00110000
00000000
00000000
11000000
00000000
00000000
10000000
00000000
,
10010000
00000000
00000000
00000000
01000000
00000000
00001000
00000000
00010000
00000000
00000000
00000000
00001000
00010000
00001000
00000000
00010000
00000000
00000100
00000000
00000000
00000000
00000100
00000000
00001000
00000000
00000000
00000000
00000100
00000000
00000000
00000000
,
00000110
00000000
00000010
00000000
00000001
00000000
00000001
00001000
00001010
00000000
00000000
00010010
00000000
00000000
00000010
00010000
,
00001000
00000000
00000000
00000000
01000000
00000000
00000000
00000000
01001000
00000000
00000000
00000000
00001000
01000000
00001000
00000000
01000000
00000000
00010000
00000000
00000000
00000000
10000000
00000000
00100000
00000000
00000000
00000000
10000000
00000000
00010000
00000000
,
00100000
00000000
00001000
00000000
01001000
00000000
01000000
00001000
00011000
00000000
00000000
00010100
00000000
00000000
00010000
00000100
,
00001000
00000000
00000000
00000000
00000001
00000000
00000000
00000000
00001001
00000000
00000000
00000000
00000001
00000100
00000001
00000000
00000100
00000000
00000010
00000000
00000000
00000000
00000010
00000000
00001000
00000000
00000000
00000000
00000100
00000000
00000000
00000000
,
00022000
00000000
00200000
00000000
,
00000020
00000000
00000000
00033000
00020000
00000000
00000200
00330030
,
02000000
00000000
00000020
00000000
,
00200000
00000000
00000000
00000300
00000200
03000000
02000000
00300330
,
00002000
10000000
20000000
00100000
,
00200000
03000000
01003000
00000000
02000000
00000000
00000200
33300000
,
00020000
00000001
00000002
00000010
,
00000320
00000000
00000100
00000000
00030200
00000000
02000000
03000333
,
01000100
00000000
00000000
00011000
00000000
00000000
00010000
00000000
00000010
00000000
00010000
00000000
00000100
00000000
00001000
00000000
,
00000110
00000000
00000000
00011000
00000000
00000000
01000000
00000000
00100000
00000000
10000000
00000000
01000000
00000000
00100000
00000000
,
00110000
00000000
00000000
00001100
00000000
00000000
00000010
00000000
00000001
00000000
00000100
00000000
00001000
00000000
01000000
00000000
,
00010000
00100000
00001000
00000010
00000001
00000100
00001000
01000000
,
01100000
00000000
10100000
00100000
01000000
00010000
00100000
00001000
,
10000000
00001000
00010000
00000001
00001000
00000001
00010000
00001000
,
01000000
00001000
00100000
00001000
00000010
00001000
00000100
00001000
,
00010000
00100000
00010000
01000000
00010000
00000100
00010000
00000010
,
00010000
00000000
00000001
00000000
00001000
00000100
00000000
00000100
01000000
00000000
00001000
01000000
00000000
01000000
00100000
00000000
,
01000000
00100000
10000000
00010000
00100000
00001000
00000000
00000000
00010000
00000100
00001000
00000000
00000000
00000001
00010000
00000010
,
00001000
00000010
00010000
00001000
00100000
00001000
00000000
10000000
00100000
00000000
10000000
01000000
00100000
00000000
00010000
00000000
,
00100000
00001000
00010000
00000100
00001000
00000001
00000000
00000100
00000010
00000000
00001000
00000001
00000010
00000000
00000100
00000000
,
00000010
00000001
00000000
00000010
00000100
00000010
00000000
00000100
00010000
00000000
00010000
00000100
00000000
01000000
00000000
00000100
,
00000000
01000000
00001000
00010000
00000100
00010000
00000000
00001000
00100000
00000000
00010000
00000000
10000000
00001000
00010000
00000000
,
00001000
00010000
00000010
00001000
00000010
00010000
00001000
00000000
00101000
00000000
00M1MM00
00000000
00010100
00000000
00MM1M00
00000000
,
01000000
00010000
01000000
00001000
00100000
00010000
00000000
00100000
00000200
00000000
00000000
00000000
00000010
00000000
00000300
00000000
,
00000110
00000000
00000010
00000000
00000001
00000100
00000000
00000100
00000010
00000000
00001000
00000000
00000100
00010000
00000000
00000100
,
00000000
00010000
00001000
00100000
00010000
01000000
00100000
00000000
01000000
00000000
00100000
01000000
00000000
00010000
10000000
00000000
,
01000000
00100000
00000000
00000000
00100000
00001000
00000000
00000000
00100000
00000000
00000100
00010000
00000000
00000010
00010000
00000000
,
00000100
00001000
00000001
00000010
00000100
00010000
00000000
00001000
00100000
00000000
00010000
01000000
00000000
01000000
00100000
00000000
,
10000000
01000000
00100000
00001000
00010000
00000100
00000000
00010000
00000010
00000000
00001000
00000000
00000010
00000100
00000000
00000001
,
00000000
00000010
00000100
00001000
00000100
00010000
00000000
00000000
00000100
00000000
00010000
00001000
00000000
00100000
00000000
00001000
,
01000000
00010000
00100000
00001000
00010000
00000100
00010000
00000000
00010100
00000000
00MMM100
00000000
00101000
00000000
001MMM00
00000000
,
00001000
01000000
00010000
10000000
00100000
01000000
00000000
01000000
00000020
00000000
00000000
00000000
00000100
00000000
00000030
00000000
,
00010010
00000000
00010000
00000000
00001000
10000000
00000000
40000000
00010000
00000000
00001000
00000000
00000000
00010000
00000000
00000000
,
00001000
00000000
00000000
00010000
30000000
00000000
00000000
00000000
00000000
00000000
00000000
00000000
00000000
00000000
00000000
00000000
;

//---------------dance-double - D. Bernardone----------------
#NOTES:
     dance-double:
     D. Bernardone:
     Hard:
     9:
     0.608,0.000,0.098,0.304,0.443:
00000000
00000000
00000000
00000000
,
00000000
00000000
00000000
00000000
,
00000000
00000000
00000000
00000000
,
10000000
01000000
00100000
00010000
10000000
01000000
00100000
00001000
,
00010000
00000000
00000000
00000000
00000001
00001000
00000001
00001000
,
00000001
00000100
00000010
00001000
00000001
00000100
00000010
00010000
,
00001000
00000000
00000000
00000000
10000000
01000000
00010000
00001000
,
00011000
00001000
00000000
00010000
,
00000000
00000000
00000000
00000000
00000001
00000000
00000100
00000010
00000100
00000010
00001000
00000000
00000100
00010000
00000000
00000000
,
00000000
00001000
00000000
10000000
,
00000000
00000000
00000000
00000000
00100000
00000000
01000000
00001000
01000000
00001000
00010000
00000000
00000100
00001000
00000000
00000000
,
00000001
00001001
00000010
00000010
,
00010000
00000000
00000100
00000000
00001000
00000000
00000010
00010000
00000010
00010000
00000010
00000000
00001000
00000100
00000000
00000000
,
01000000
00101000
00010000
00010100
,
00000010
00000000
00000001
00000000
00001000
00000000
00000001
00000100
00000001
00000100
00000001
00000000
00001000
00000001
00000000
00000000
,
00000001
00000000
00000100
00000000
00001000
00010000
00000000
00000000
00000010
00001000
00000000
00000000
00000010
00010000
00000000
00000000
,
00001000
00100000
01000000
00010000
02000000
00000000
23000000
00000000
,
30100000
00000000
01000000
00000000
00001000
00010000
00000000
00000000
00000100
00001000
00000000
00000000
00000010
00010000
00000000
00000000
,
00000100
00000010
00001000
00000010
00000002
00000000
00000203
00000000
,
00000310
00000000
00001000
00000000
00000100
00010000
00000000
00000000
00001000
01000000
00000000
00000000
00010000
00100000
00010000
00000000
,
01000000
00010000
10000000
00000000
00000000
00000000
01000000
00100000
00010000
00000000
01000000
00000000
00001000
00000000
00010000
00000000
,
00002000
00000000
00000000
00000000
00003100
00000000
00000000
00000000
00000010
00001000
00000001
00000000
00000010
00000100
00001000
00000000
,
00001001
00000000
00000000
00000000
00000000
00000000
00000000
00000000
00000110
00000000
00000000
00000110
00000000
00000000
00000110
00000000
,
00010010
00000000
00000000
00010000
00000000
00000000
00011000
00000000
00000000
00000000
00001000
00000000
00010000
00000000
00100000
00000000
,
02000000
00000000
00000000
00000000
03010000
0M000000
00000000
00000000
00200000
00000000
00000000
00000000
01300000
00M00000
00000000
00000000
,
10000000
01000000
00010000
00001000
00000000
00010000
00000010
00000100
,
00000002
00000000
00000000
00000000
00000013
0000000M
00000000
00000000
00000200
00000000
00000000
00000000
00001300
00000M00
00000000
00000000
,
00000010
00000100
00001000
00010000
00000000
00001000
00100000
01000000
,
20000000
00000000
00000000
00000000
30010000
M0000000
00000000
00000000
02000000
00000000
00000000
00000000
03001000
0M000000
00000000
00000000
,
00010000
00000010
00000100
00001000
00000100
00000010
00010000
00001000
,
00010000
00000000
00010000
00000000
01000000
00000000
00000000
00000000
00010000
00001000
00010000
00000000
00000010
00000000
00010000
00000000
,
00012000
00000000
02003000
00000000
,
23000000
00000000
30020000
00000000
,
00230000
00000000
02300000
00000000
,
03002000
00000000
00003020
00000000
,
00000032
00001000
00000203
00001000
,
00000320
00001000
00020030
00001000
,
02030000
10000000
03200000
10000000
,
00302000
00000100
00023000
00000010
,
00031000
00000000
00000000
00001000
00000000
00000000
00001000
00000000
00100000
00000000
00001000
00000000
01000000
00000000
00001000
00000000
,
00010000
00000000
00000000
00010000
00000000
00000000
00010000
00000000
00000010
00000000
00010000
00000000
00000100
00000000
00010000
00000000
,
00100000
00000000
00000000
00100000
00000000
00000000
01000000
00000000
00010000
00000000
00100000
00000000
00001000
00000000
00000010
00000000
,
00000100
00001000
00000001
00000100
00001000
00100000
01000000
00010000
,
02000000
00000000
13000000
00100000
01000000
00001000
00010000
00001000
,
00000010
00000100
00001000
00000001
00000010
00001000
00010000
00010000
,
00001000
01000000
00100000
01000000
00001000
01000000
10000000
01000000
,
00001000
00010000
00000100
00000001
00000100
00010000
00000100
00000010
,
00000100
00000000
00001000
00000000
00000001
00001000
00000000
00000000
00000010
00000000
00000100
00000000
00001000
00010000
00000000
00000000
,
00001000
00100000
00001000
00100000
00001000
00010000
00000000
00000000
00001000
00000000
00010000
00000000
01000000
00000000
10000000
00000000
,
00010000
01000000
00000000
01000000
00001000
00010000
00000000
00010000
00000100
00000000
00001000
00000000
00000010
00000000
00000100
00000000
,
00000001
00000010
00000001
00000010
00000001
00001000
00000000
00000000
00000010
00000000
00000010
00000000
00020000
00000000
00000000
00000000
,
00031000
01000000
00000000
01000000
00010000
10000000
00000000
10000000
01000000
00000000
00100000
00000000
00010000
01000000
00000000
00000000
,
00001000
00010000
00001000
00010000
00001000
01000000
00000000
00000000
00100000
00000000
10000000
00000000
01000000
00000000
00010000
00000000
,
00001000
00010000
00001000
00010000
00001000
00010000
00001000
00010000
00000020
00000000
00000000
00000000
00000130
00000000
00000100
00000000
,
00000001
00001000
00000001
00001000
00000001
00000010
00000000
00000000
00000200
00000000
00000000
00000000
00000000
00000000
00000000
00000000
,
00010300
00000000
00001000
00000000
01000000
00010000
00000000
00010000
00100000
00000000
01000000
00000000
10000000
00010000
00000000
00010000
,
01000000
00001000
00010000
00001000
00010000
00000010
00001000
00000000
00000100
00000000
00000001
00000000
00000100
00001000
00000010
00000000
,
00010000
00001000
00000000
00001000
01000000
00010000
00000000
00010000
00100000
00000000
01000000
00000000
00010000
00000000
00010000
00000000
,
00001000
00000100
00001000
00000100
00001000
00010000
00000000
00000000
00000002
00000000
00000010
00000000
00000000
00000000
00000013
00000000
,
00000100
00001000
00000000
00000100
00010000
00001000
00000000
00001000
01000000
00000000
00100000
00000000
10000000
01000000
00000000
01000000
,
00010000
00001000
00010000
00001000
00010000
00000000
00000010
00000000
00000100
00000000
00000001
00000000
00000010
00000000
00001000
00000000
,
00010000
00001000
00000000
01000000
00010000
10000000
00010000
01000000
00100000
00010000
00000000
00000000
00100000
10000000
00010000
00000000
,
10000000
00100000
01000000
00010000
00100000
00000000
00001000
00000000
00000200
00000000
00000001
00000000
00000301
00000000
00000000
00000000
,
00000002
00000000
00000000
00000000
00000013
00000001
00000000
00000010
00000001
00000000
00000100
00000001
00000000
00000001
00000000
00000000
;
