#TITLE:Stop the Music;
#SUBTITLE:;
#ARTIST:CanBlaster;
#TITLETRANSLIT:;
#SUBTITLETRANSLIT:;
#ARTISTTRANSLIT:;
#GENRE:Techno;
#CREDIT:Sync by HellRazor;
#BANNER:Stop The Music-bn.png;
#BACKGROUND:Stop The Music-bg.png;
#LYRICSPATH:;
#CDTITLE:;
#MUSIC:Stop The Music.ogg;
#OFFSET:-0.022;
#SAMPLESTART:84.000;
#SAMPLELENGTH:12.000;
#SELECTABLE:YES;
#BPMS:0.000=145.000;
#STOPS:;
#BGCHANGES:0.000=Stop The Music-bg.png=1.000=0=0=1=====,
13.000=Stop The Music-bg.png=1.000=0=0=1====0^0^1^1=,
14.000=Stop The Music-bg.png=1.000=0=0=1====0^1^0^1=,
15.000=Stop The Music-bg.png=1.000=0=0=1====1^0^0^1=,
15.500=Stop The Music-bg.png=1.000=0=0=1====0^1^0^1=,
15.750=Stop The Music-bg.png=1.000=0=0=1====0^0^1^1=,
16.000=In The Groove Rebirth/172_JB_HD.mpg=1.000=0=0=1=====,
32.000=In The Groove Rebirth/165_JB_HD.mpg=1.000=0=0=1=====,
48.000=In The Groove Rebirth/318_JB_HD.mpg=1.000=0=0=1===SlideDown==,
64.000=In The Groove Rebirth/877_JumpBack.mpg=1.000=0=0=1===SlideUp==,
80.000=In The Groove Rebirth/216_JB_HD.mpg=0.400=0=0=1=Kaleidoscope2x2====,
96.000=In The Groove Rebirth/1129_JumpBack.mpg=0.400=0=0=1=Kaleidoscope2x2====,
112.000=Stop The Music-bg.png=1.000=0=0=1=====,
116.000=In The Groove Rebirth/205_JB_HD.mpg=1.000=0=0=1=====,
132.000=In The Groove Rebirth/257_JB_HD.mpg=1.000=0=0=1=====,
148.000=In The Groove Rebirth/165_JB_HD.mpg=1.000=1=0=1=SongBgWithMovieViz==CrossFade==,
164.000=In The Groove Rebirth/172_JB_HD.mpg=1.000=0=0=1=SongBgWithMovieViz====,
176.000=Stop The Music-bg.png=1.000=0=0=1====0^0^1^1=,
177.000=Stop The Music-bg.png=1.000=0=0=1====0^1^0^1=,
178.000=Stop The Music-bg.png=1.000=0=0=1====1^0^0^1=,
179.000=Stop The Music-bg.png=1.000=0=0=1=====,
180.000=In The Groove Rebirth/216_JB_HD.mpg=1.000=0=0=1=====,
196.000=In The Groove Rebirth/877_JumpBack.mpg=1.000=0=0=1=====,
212.000=In The Groove Rebirth/257_JB_HD.mpg=1.000=0=0=1=====,
228.000=In The Groove Rebirth/1129_JumpBack.mpg=1.000=0=0=1===SlideUp==,
244.000=Stop The Music-bg.png=1.000=1=0=1===CrossFade==,
99999=-nosongbg-=1.000=0=0=0 // don't automatically add -songbackground-
;
#BGCHANGES2:80.000=white flash=1.000=0=0=1=====,
88.000=yellow flash=2.000=0=0=1=====,
96.000=yellow flash=2.000=0=0=1=====,
112.000=white flash=1.000=0=0=1=====,
212.000=white flash=1.000=0=0=1=====,
247.500=white flash=0.500=0=0=1=====,
;
#KEYSOUNDS:;

//---------------dance-single - M. Hattersley----------------
#NOTES:
     dance-single:
     M. Hattersley:
     Challenge:
     10:
     0.797,0.823,0.329,0.516,0.704:
0000
0000
0000
0000
,
0000
0000
0000
0000
,
0000
0000
0000
0000
,
0000
0000
0001
0000
0001
0000
0100
0000
0100
0000
0010
0000
0010
0000
0100
0001
,
2000
0000
0100
0000
0M00
0000
0100
0000
0M00
3000
0100
0000
0000
0000
0001
0000
,
0100
0000
1000
0000
0000
0010
0000
0001
0010
0000
1000
0000
0000
0100
0000
1000
,
0100
0010
0100
0001
0100
1000
0010
0100
,
0002
0000
0010
0000
00M0
0000
0010
0003
0100
1000
0100
1000
0001
0010
0001
1000
,
0200
0000
0001
0000
000M
0000
0001
0000
000M
0300
0001
0000
0000
0000
0100
0000
,
1000
0000
0010
0000
0000
0001
0000
0010
1000
0000
0100
0000
0000
0001
0000
0100
,
1000
0010
0001
0010
1000
0100
0001
0100
,
0020
0000
1000
0000
M000
0000
1000
0030
0010
0001
0010
0001
1000
0010
1000
0100
,
0000
0000
0000
0012
0000
0000
00M3
0000
0000
2010
0000
0000
30M0
0000
0000
0200
0010
0000
0300
0000
0000
0002
0100
0000
,
0003
0000
0000
0120
0000
0000
0M30
0000
0000
2100
0000
0000
3M00
0000
0000
0002
1000
0000
0003
0000
0000
0020
1000
0000
,
0030
0000
0000
2100
0000
0000
3M00
0000
0000
0210
0000
0000
03M0
0000
0000
0020
0001
0000
0030
0000
0000
0020
0100
0000
,
0030
0000
2100
0000
3M00
0000
0201
0000
030M
0010
1000
0010
0100
0001
0010
0100
,
0000
0000
0000
0000
0000
0000
1000
0000
0000
0100
0000
0000
M000
0000
0000
0000
0000
0000
0010
0000
0000
0001
0000
0000
00M0
0000
0000
0000
0000
0000
0001
0000
0100
0000
0000
0000
000M
0000
0000
0000
0000
0000
0010
0000
1000
0000
0000
0000
,
00M0
0000
0000
000M
0000
0000
0100
0000
0000
M010
0000
0000
0M00
0000
0000
0000
0000
0000
001M
0000
0000
M100
0000
0000
00M0
0000
0000
0000
0000
0000
M010
0000
0001
0000
0000
0000
00M0
0000
0000
M000
0000
0000
0100
0000
0010
000M
0000
0000
,
0M00
0000
0000
M000
0000
0000
0100
0000
0000
001M
0000
0000
0M00
0000
0000
0000
0000
0000
01M0
0000
0000
0001
0000
0000
MM00
0000
0000
0000
0000
0000
0010
0000
0100
000M
0000
0000
00M0
0000
0000
M000
0000
0000
0100
0000
0000
10M0
0000
0000
,
0M01
0000
0010
0000
0001
0000
0100
0010
1000
0001
0010
0001
0100
0010
1000
0010
,
1000
0000
0M10
100M
0M10
0000
1M00
001M
1M00
0001
01M0
M001
01M0
0000
M001
0M10
,
M001
0000
0M10
M001
0M10
0000
0M01
M010
0M01
1000
010M
10M0
010M
0000
1000
0000
,
1100
00M0
010M
0010
M001
0M00
M001
0010
010M
10M0
010M
0010
0001
0000
1M00
00MM
,
0000
0000
0100
M01M
0000
0000
0M10
M001
0000
0000
00M1
M100
0000
0000
0100
0000
,
M11M
0000
0010
0000
1000
0000
0100
1000
0100
0010
0001
1000
0001
0100
0001
0000
,
1M1M
0000
1000
0000
0100
0000
0010
0001
0010
0100
1000
0010
1000
0010
0100
0000
,
1MM1
0000
0010
1000
0010
0100
0001
0000
0101
0000
0010
1000
0001
0010
0100
0000
,
11MM
0001
0110
1000
0101
0010
1100
0100
,
4004
0M00
0000
00M0
0000
0000
0M00
0000
0000
0000
00M0
0000
0000
0M00
0000
3003
,
M11M
0100
10MM
0100
0110
0010
MM01
0010
,
0110
0000
0100
0000
10MM
0000
0100
0000
0020
0000
0032
0000
0203
0000
2300
3000
,
1100
0100
M0M1
0100
0101
M0M1
0010
1000
,
1010
0000
0000
0000
0000
0000
0M1M
0000
0000
0000
0000
0000
0100
0000
0000
0000
0000
0000
10M0
0000
0100
0000
1000
0000
0100
0000
0000
0010
0000
0000
M001
0000
0000
0100
0000
0000
0002
0000
0000
2003
0000
0000
3200
0000
0000
0320
0000
0000
,
0031
0100
M0M1
0100
0110
0100
10MM
0100
,
0110
0000
0010
0000
MM01
0000
0010
0000
2000
0000
3002
0000
0203
0000
0320
0030
,
1010
0010
M0M1
0010
0110
0100
0MM1
0010
,
1000
0000
0000
0010
0000
0000
0001
0000
0000
0010
0000
0000
0001
0000
0000
0010
0000
0000
0100
0000
0010
0000
0100
0000
2000
0000
0000
3100
0000
0000
1000
0000
0000
0001
0000
0000
0100
0000
0000
0001
0000
0000
2000
0000
0010
3000
0100
0000
,
0010
2000
0000
0200
0000
0010
3300
0100
,
0010
0002
0000
0103
1000
0100
0001
0010
,
1000
0020
0000
0002
0000
1000
0033
0001
,
0100
1000
0100
0000
0010
0000
0100
0001
0000
0010
0001
0010
0100
1000
0010
0100
,
0001
0200
0000
2000
0000
0010
3300
0100
,
0001
0020
0000
1030
0010
0001
0100
0010
,
1M1M
1000
00MM
1000
11MM
0100
0M0M
1000
,
11MM
0000
0100
0010
0002
0003
0100
0010
1000
0100
0010
0001
1000
0001
0100
0010
,
0200
0000
1000
0000
M000
0000
0010
0000
00M0
0000
0001
0300
000M
0000
0100
0000
,
1000
0000
0100
0000
0000
0001
0000
0010
0100
0000
1000
0000
0010
0100
0000
0001
,
0020
0000
0100
0000
0M00
0000
1000
0000
M000
0000
0001
0030
000M
0000
0010
0000
,
1000
0000
0010
0000
0001
0000
0100
0000
1000
0100
0010
0100
0001
1000
0100
0010
,
0200
0010
00M0
1000
M000
0001
030M
0100
,
1000
0000
0010
0000
0000
0001
0000
0010
1000
0000
0100
0000
0001
0100
0000
0010
,
2000
0000
0010
0000
00M0
0000
0001
0000
000M
0000
0010
3000
00M0
0000
1000
0000
,
0010
0000
0001
0000
0100
0000
0010
0000
0001
0010
0100
0010
1000
0001
0010
0100
,
2000
0M00
0000
3200
M000
0000
0301
0000
0100
0000
1000
0000
0010
0000
0001
0000
,
0010
0000
0100
0000
1000
0100
00M0
0001
M100
0000
0010
0000
1000
0100
00M0
0001
,
M200
0000
0000
2300
0M00
0000
3010
0000
0001
0000
0010
0000
0100
0000
0001
0000
,
0010
0000
0100
0000
1000
0000
0010
0000
0100
0001
0100
0010
1000
0100
1000
0001
,
0200
000M
0000
0302
0M00
0000
0013
0000
1000
0000
0010
0000
0100
0000
1000
0000
,
0010
0000
0001
0000
0010
1M00
0000
01M0
0001
0000
0100
0000
0010
0M01
0000
01M0
,
2000
3100
0001
0010
0120
0130
1000
0100
,
1001
0000
MM10
0000
1001
0000
0100
0001
0010
0100
100M
0100
0010
0100
0001
0100
,
2002
0000
0000
0000
,
0000
0000
0000
0000
0000
3003
0000
0000
;

//---------------dance-single - D. Kincel----------------
#NOTES:
     dance-single:
     D. Kincel:
     Medium:
     6:
     0.410,0.382,0.300,0.085,0.000:
0000
0000
0000
0000
,
0000
0000
0000
0000
,
0000
0000
0000
0000
,
0000
0000
0000
0000
,
1000
0010
0000
1000
0000
0100
0000
0010
,
0001
0010
0000
0100
0000
1000
0000
0001
,
0100
0001
0000
1000
0000
0010
0000
1000
,
0100
1000
0000
0001
0000
0010
0100
0010
,
0001
1000
0000
0010
0000
0100
0000
0001
,
1000
0001
0000
0100
0010
0100
0000
0001
,
0010
0001
0000
0010
0000
0010
0000
0100
,
0000
0100
0000
1000
0000
1000
0001
1000
,
0010
0100
0010
1010
,
0001
0010
0100
0000
0010
0000
0011
0000
,
0001
0000
1000
0000
0010
1000
0010
0000
,
1000
0001
0100
0000
0110
0000
1001
0000
,
0001
1001
0100
0110
,
0001
0000
1001
0000
0100
1000
0000
0001
,
0100
0010
1010
1001
,
1000
0000
0010
0000
0100
0001
1000
0001
,
0100
0000
0000
0010
0000
1010
0000
1000
,
0000
0100
0000
0010
0000
0001
0000
0100
,
0010
0000
0000
0100
0000
0101
0000
0001
,
0000
1000
0000
0100
0000
0010
0000
0001
,
0100
0000
0000
0110
0000
1001
0000
0010
,
0000
1000
0000
0100
0000
0010
0000
0001
,
1001
0000
0110
0000
,
0001
1000
0001
1000
0010
0100
0010
0100
,
0002
0000
0000
0003
,
1001
0100
0110
0001
,
1001
0100
1010
1001
,
0101
0010
1001
0100
,
0011
0000
0100
1000
0001
0000
0001
0000
,
0001
0000
0100
0010
0100
0000
0001
1000
,
0001
0000
0010
0100
0010
0001
1000
0001
,
1000
0010
0101
1000
,
1001
0000
0001
0010
0000
0010
0000
0010
,
0002
0100
0000
0100
0000
0100
0000
0103
,
0000
0020
0000
1000
0000
1000
0000
1030
,
0000
0002
0000
0010
0000
0010
0000
0013
,
0100
0000
1000
0000
0001
0000
0100
0010
,
0200
0000
0000
0001
0000
0301
0000
0010
,
0200
0000
0000
1000
0000
1300
0000
0001
,
0200
0000
0000
0310
1000
0000
0000
0001
,
0010
0010
0100
0100
,
1000
0001
1000
0000
0010
0000
1001
0000
,
0001
1000
0100
0110
,
0001
1000
0001
0000
0100
0000
1010
0000
,
0100
0001
0100
0000
0010
1000
0010
1000
,
0001
0010
0100
1100
,
0001
0100
0010
1010
,
1000
0100
1000
0000
0001
0000
1001
0000
,
0100
0010
0100
0000
0001
1000
0001
0100
,
0010
0000
0000
1000
0000
0001
0000
0010
,
0000
0100
0000
1000
0000
0001
0000
0100
,
0010
0000
0000
1000
0000
0010
0000
0100
,
0000
0001
0000
0010
0000
0100
0000
0010
,
0001
0000
0000
0100
0000
0010
0000
1000
,
0001
0000
0000
0010
0000
0100
0000
1000
,
0001
0000
0000
1000
0010
0000
0000
0100
,
0001
0100
0001
0100
0010
0100
0010
0000
,
2002
0000
0000
0000
,
0000
0000
0000
0000
0000
3003
0000
0000
;

//---------------dance-single - D. Kincel----------------
#NOTES:
     dance-single:
     D. Kincel:
     Hard:
     8:
     0.665,0.676,0.535,0.554,0.291:
0000
0000
0000
0000
,
0000
0000
0000
0000
,
0000
0000
0000
0000
,
0000
1000
1000
0001
0001
0100
0100
0010
,
0M10
1001
0000
1010
0000
0110
0000
0101
,
0010
1001
0000
1010
0100
0001
0010
0100
,
0M10
1001
0000
0101
0000
0110
0000
1010
,
0100
0000
1001
0000
0000
0000
0011
0000
0100
1000
0100
1000
0100
1000
0100
1000
,
01M0
0011
0000
1001
0000
1100
0000
0011
,
0100
1010
0000
0101
1000
0100
0010
0001
,
1M00
0110
0000
0101
0000
1100
0000
0001
,
0010
0000
0100
0000
0M00
0000
0100
0000
0010
0001
0010
0001
0010
0001
0010
0001
,
0010
0000
0100
1000
0000
0000
0001
0100
0000
0000
1020
0000
0000
M000
0130
0000
,
0000
0000
0001
0100
0000
0000
1000
0100
0000
0000
0021
0000
0000
000M
0130
0000
,
0000
0000
0001
0100
0000
0000
0010
1000
0000
0000
0100
0010
0000
0000
0001
1000
,
0000
0000
0010
0000
0010
0000
0100
0001
0000
0000
0010
0001
0010
0000
0100
0000
,
1001
0000
0010
0000
0001
0000
1000
0000
0010
0000
0201
0000
0000
000M
0310
0000
,
0000
0000
0100
0000
0001
0000
1000
0000
0010
0000
1200
0000
0000
M000
0310
0000
,
0000
0000
0001
0000
0010
0000
0010
0000
0100
0000
1000
0100
1000
0000
0010
0000
,
0000
0000
0010
0000
1000
0000
0001
0000
0100
0001
0100
0010
0100
0001
0100
0001
,
0100
0020
0000
2030
0000
3200
0000
0302
,
0000
2003
0000
3020
0000
0032
0000
1003
,
0010
0000
0000
0010
0100
0000
0000
0000
0100
0000
0000
0100
0001
0000
0001
0000
,
0010
0200
0000
2300
0000
3020
0000
0130
,
0010
2000
0000
3020
0000
0032
0000
2003
,
0000
3200
0000
0320
0000
2030
0000
3001
,
1001
0000
0000
0MM0
0000
0000
0000
0000
0110
0000
0000
M00M
0000
0000
0000
0000
,
0010
1010
1000
1001
0100
1100
0010
0011
,
4004
0000
0000
0000
0000
0000
0000
0000
0000
0000
0000
0000
0000
3003
0000
M00M
,
2002
3000
M103
0000
2020
0030
31M0
0000
,
0220
0300
0M31
0000
1001
M001
0101
010M
,
0220
0030
13M0
0000
0202
0300
0M13
0000
,
0220
0000
0030
0000
13M0
0000
0001
1000
0001
0000
0100
0000
0001
0000
0000
0100
,
0020
0030
10M0
0000
0002
0003
001M
0000
,
0200
0300
0M01
0000
0100
1000
0010
0100
,
0020
0030
10M1
0000
0200
0300
0M11
0000
,
0001
0000
0000
0000
1000
0000
0000
0000
0001
0000
0000
0000
1000
0000
0000
0000
0001
0000
0000
0000
0000
0100
0000
0000
0010
0000
0000
0000
0000
0000
0100
0000
0000
0000
0000
0000
0010
0000
0000
0000
0000
0000
0100
0000
0000
0000
0000
0000
,
1001
0010
0000
1000
0000
0100
0000
0010
,
0001
0010
0000
0100
1000
0100
1000
0010
,
1010
0000
0200
0000
0000
0000
0302
0000
0000
0000
0023
0000
0000
0030
0100
0000
,
0010
0000
0100
1000
0000
0000
0001
0100
0000
0000
0010
1000
0000
0000
0001
0010
,
0200
0300
0000
1000
0000
0001
0000
0100
,
0020
0130
0000
0001
1000
0100
0000
0010
,
0002
0000
0103
0000
0000
0000
0010
0000
2000
0000
3100
0000
0000
M000
0000
0000
,
0020
0032
0023
0032
0023
0230
0320
0230
,
1300
0001
0100
0000
0110
0000
1001
0000
,
0010
1000
0100
0000
0011
0100
0100
1000
,
1010
0000
0101
0000
0010
1000
0001
1000
,
0100
0000
0000
0000
0011
0000
0000
0000
0100
0000
1000
0000
0001
0000
1000
0001
,
1000
0010
0100
0000
0101
0000
1001
0000
,
0010
1000
0100
0000
0011
0001
1000
0010
,
0110
0000
0101
0000
1000
0001
0010
0000
,
0001
0000
0010
0000
00M0
0000
0010
0000
0100
0000
0010
0000
0100
0000
1000
0001
,
1000
0001
0100
0010
0100
0001
0100
0001
,
1000
0000
0100
0010
0000
0000
0100
1000
0000
0000
0001
0100
0000
0000
0010
0100
,
0010
1000
0001
0010
0001
1000
0010
0100
,
0001
0000
0010
0100
0000
0000
0010
0001
0000
0000
1000
0010
0000
0000
0100
0001
,
0200
0310
1000
0001
0010
0001
1000
0010
,
0200
0000
0301
0010
0000
0000
0100
1000
0000
0000
0001
0100
0000
0000
0010
1000
,
0020
0000
0130
0000
0001
0000
0010
0100
0020
0000
0130
0000
1000
0000
0001
0100
,
0010
0000
0000
0010
1000
0000
0000
1000
0100
0000
0000
0100
0010
0000
0001
0000
,
2002
0000
0000
0000
,
0000
0000
0000
0000
0000
3003
0000
0000
;

//---------------dance-double - J. Gowen----------------
#NOTES:
     dance-double:
     J. Gowen:
     Hard:
     8:
     0.573,0.558,0.423,0.282,0.169:
00000000
00000000
00000000
00000000
,
00000000
00000000
00000000
00000000
,
00000000
00000000
00000000
00000000
,
00000000
00000000
00000000
00000000
,
00100000
02000000
00000000
00010000
00000000
13000000
00000000
00100000
,
00010000
00001000
00000000
00010000
00001000
00000100
00000001
00000010
,
00000100
00002000
00000000
00000010
00000000
00013000
00000000
00001000
,
00000010
00000100
00000000
00000001
00000010
00001000
00010000
00100000
,
10000000
02000000
00000000
00010000
00000000
13000000
00000000
00010000
,
00100000
01000000
00000000
00010000
00001000
00000100
00000001
00000010
,
00001000
00020000
00000000
00100000
00000000
00031000
00000000
00100000
,
01000000
10000000
00000000
00100000
00010000
00000010
00001000
00000000
,
00000001
00000000
00000010
00000000
00001000
00000000
00010000
00000000
00000010
00000000
00001000
00000010
00000000
00000000
00100000
00000000
,
00000000
00000000
01000000
00000000
10000000
00000000
00100000
00000000
00010000
00000000
00001000
00100000
00000000
00000000
01000000
00000000
,
00000000
00000000
00010000
00000000
00001000
00000000
00000100
00000000
00000010
00000000
00010000
00001000
00000000
00000000
10000000
00000000
,
00000000
00000000
01000000
00000000
00100000
00000000
00001000
00010000
00000000
00000000
00000100
00001000
00000100
00000000
00000001
00000000
,
00000000
00000000
00000100
00000000
00001000
00000000
00000010
00000000
00000100
00000000
00001000
00010000
00000000
00000000
00000100
00010000
,
00000000
00000000
00001000
00000000
01000000
00000000
00100000
00000000
10000000
00000000
01000000
00010000
00000000
00000000
00001000
00010000
,
00000000
00000000
00100000
00000000
00010000
00000000
00001000
00000000
00000100
00000000
00000001
00000010
00000000
00000000
00001000
00000010
,
00000000
00000000
00000100
00000000
00001000
00000000
00000001
00000100
00000000
00000010
00001000
00000000
00000100
00000000
00010000
00000000
,
00001000
00000000
01000000
00000000
00000000
00000000
00010100
00000000
00000000
00000000
00001000
00100000
00000000
00000000
01000000
00000000
,
00000000
00000000
10000000
00000000
00000000
00000000
01010000
00000000
00000000
00000000
00001000
00010000
00000000
00000000
00000001
00000000
,
00000000
00000000
00000100
00000000
00000000
00000000
00001010
00000000
00000000
00000000
00010000
00001000
00000000
00000000
10000000
00000000
,
00000000
00000000
01000000
00000000
00100000
00000000
00010000
01000000
00000000
00100000
10000000
00000000
01000000
00000000
10000000
00000000
,
10010000
00000000
01000000
00000000
00000000
00000000
00001000
00000000
00000000
00000000
00010000
00000100
00000000
00000000
00001000
00000000
,
00001001
00000000
00000100
00000000
00000000
00000000
00000010
00000000
00000000
00000000
00010000
00001000
00000000
00000000
00100000
00000000
,
00110000
10000000
00000000
00100000
10100000
01000000
00000000
00010000
,
00101000
00000000
01010000
00000000
00011000
00000100
01000000
00010000
,
20000000
0M0M0000
000000M0
00M0M000
00000000
00000000
00000M0M
0M0M0000
00000000
00M000M0
0000M00M
0M000M00
30000000
00000000
00000000
00000000
,
02020000
00000000
10000000
03030000
02020000
00000000
00100000
03030000
,
02020000
00000000
00001000
03030000
01010000
00000000
00011000
00000000
,
00002200
00000000
00010000
00003300
00002200
00000000
00000010
00003300
,
00002200
00000000
00000001
00003300
00001000
00000010
00000100
00000000
,
00000202
00000000
00001000
00000303
00002200
00000000
00010000
00003300
,
00022000
00000000
00100000
00033000
00110000
00000000
11000000
00000000
,
02020000
00000000
00001000
03030000
00022000
00000000
00000100
00033000
,
00001100
00000000
00000000
00000000
00011000
00000000
00000000
00000000
00000010
00001000
00000010
00001000
00000010
00001000
00000010
00001000
,
00000010
00000100
00000000
00000001
00000000
00000010
00000000
00001000
,
00010000
01000000
00000000
00010000
00001000
00000010
00000001
00000100
,
00001000
00010000
00000000
00100000
00000000
00010000
00000000
00001000
,
00010000
01000000
10000000
00100000
01000000
00010000
00100000
00000000
,
00000100
00020000
00000000
00100000
00000000
00031000
00000000
00000010
,
00001000
00010000
00000000
00000010
00000001
00001000
00000100
00000010
,
00001000
00010000
00000000
01000000
00010000
00100000
00000000
00010000
,
01010000
00000000
00101000
00000000
10010000
01000000
00100000
10000000
,
00010000
00100000
01000000
00010000
00001000
01000000
00100000
00010000
,
00001000
00000100
00001000
00010000
00000100
00000010
00000001
00000100
,
00001000
00010000
00100000
01000000
00010000
00100000
10000000
00010000
,
01000000
10000000
00100000
00010000
00001000
00000100
00000010
00000000
,
00010000
00001000
00100000
00010000
01000000
10000000
00010000
00100000
,
10000000
01000000
00010000
00001000
00000100
00000001
00000010
00001000
,
00010000
00100000
00010000
00001000
00000010
00000100
00001000
00000010
,
00000100
00001000
00000001
00000010
00000100
00000001
00000010
00000000
,
00000100
00001000
00000000
00010010
00000000
01001000
00000000
10000000
,
00010000
00100000
00000000
00101000
00000000
00010010
00000000
00010000
,
00001000
01000000
00000000
10010000
00000000
11000000
00000000
00010000
,
01000000
10000000
01000000
00010000
00100000
01000000
00010000
00000000
,
00001000
00000100
00000000
00001010
00000000
00011000
00000000
00100000
,
01000000
00010000
00000000
00011000
00000000
01010000
00000000
10000000
,
10100000
00010000
00000000
01000000
01001000
00010000
00000000
00001000
,
00010100
00000000
00101000
00000000
00010000
00100000
10000000
01000000
,
00220000
00000000
00000000
00000000
00000000
00000000
00000000
00000000
00000000
00000000
00000000
00000000
00330000
M000M0M0
00000000
0M000M0M
,
00000000
M000M0M0
00000000
0M000M0M
00000000
M000M0M0
00000000
0M000M0M
00000000
M000M0M0
00000000
00000000
00000000
00000000
00000000
00000000
;

//---------------dance-double - J. Gowen----------------
#NOTES:
     dance-double:
     J. Gowen:
     Medium:
     6:
     0.333,0.377,0.169,0.009,0.000:
00000000
00000000
00000000
00000000
,
00000000
00000000
00000000
00000000
,
00000000
00000000
00000000
00000000
,
00000000
00000000
00000000
00000000
,
00000100
00001000
00000000
00000010
00000000
00000100
00000000
00001000
,
00010000
00000000
00000000
00001000
00100000
00000000
01000000
00000000
,
10000000
00010000
00000000
01000000
00000000
00100000
00000000
00010000
,
00001000
00000100
00001000
00010000
,
00000100
00001000
00000000
00000010
00000000
00000100
00000000
00001000
,
00010000
00000000
00000000
00000010
00010000
00000000
00001000
00000000
,
01000000
00010000
00000000
00100000
00000000
01000000
00000000
00010000
,
00001000
00000010
00001000
00010000
,
00000000
00000100
00001000
00000000
00000001
00000000
00000100
00000010
,
00000000
00010000
00001000
00000000
00100000
00000000
01000000
10000000
,
00000000
00010000
01000000
00000000
00001000
00000000
00010000
00000100
,
00000000
00001000
00000010
00000000
00010000
00001000
00010000
00000000
,
00000000
00000100
00001000
00000000
00000001
00000000
00000010
00000100
,
00000000
00010000
00001000
00000000
01000000
00000000
00010000
10000000
,
00000000
01000000
00100000
00000000
00001000
00000000
00010000
00000100
,
00000000
00001000
00000001
00000000
00000100
00000010
00000100
00000000
,
00000000
00001000
00000000
00010000
00000000
00001000
00000000
00100000
,
00000000
01000000
00000000
00010000
00000000
00001000
00000000
00010000
,
00000000
00000010
00000000
00000100
00000000
00000001
00000000
00001000
,
00000000
00000010
00010000
00000000
00010000
00000000
00000000
00000000
,
00000000
00001000
00000000
01000000
00000000
00010000
00000000
00100000
,
00000000
01000000
00000000
10000000
00000000
00010000
00000000
01000000
,
00010000
00000000
00011000
00000000
,
00010100
00000000
00001000
00000000
00000001
00001000
00000001
00000010
,
00000001
00000000
00000000
00000000
,
00001100
00000000
00010100
00000000
,
00110000
00000000
10000000
01000000
,
01010000
00000000
00010010
00000000
,
00000101
00000000
00001100
00000010
,
00011000
00000000
10010000
00000000
,
00011000
00000000
00000010
00001000
,
00000101
00000000
00010100
00000000
,
00011000
00101000
10010000
11000000
,
00100000
00010000
00000000
01000000
00000000
00001000
00000000
00010000
,
00000100
00000000
00000000
00001000
00000010
00000000
00000100
00000000
,
00001000
00000100
00000000
00000001
00000000
00000010
00000000
00000100
,
00010000
00001000
00100000
01000000
,
10000000
00100000
00000000
00010000
00000000
00001000
00000000
01000000
,
00010000
00000000
00000000
00100000
00001000
00000000
00010000
00000000
,
00000100
00000010
00000000
00001000
00000000
00010000
00000000
00000010
,
00001000
00000000
00000100
00000000
00000010
00000001
00000010
00000000
,
00000100
00000000
00000000
00010000
00000000
00001000
00000000
00000000
,
01000000
00000000
00000000
00100000
00000000
00010000
00000000
00000000
,
00001000
00000000
00000000
00000100
00000000
00000010
00000000
00000000
,
00010000
00001000
01000000
00100000
,
10000000
00000000
00000000
01000000
00000000
00010000
00000000
00000000
,
00001000
00000000
00000000
00000010
00000000
00000001
00000000
00000000
,
00000100
00000000
00000000
00000010
00000000
00010000
00000000
00000000
,
00001000
00100000
00000000
00010000
10000000
00000000
01000000
00000000
,
00000000
00010000
00000000
00001000
00000000
00000010
00000000
00000001
,
00000000
00001000
00000000
00000010
00000000
00000100
00000000
00001000
,
00000000
00010000
00000000
00100000
00000000
01000000
00000000
00010000
,
00100000
00000000
01000000
00000000
10000000
00100000
10000000
00000000
,
00000000
00010000
00000000
01000000
00000000
00100000
00000000
00010000
,
00000000
00001000
00000000
00000100
00000000
00000010
00000000
00001000
,
00000001
00000000
00000000
00010000
00000010
00000000
00000000
01000000
,
00001000
00000000
00100000
00000000
01000000
00100000
00010000
10000000
,
02000000
00000000
00000000
03000000
;

//---------------dance-double - D. D'Amato----------------
#NOTES:
     dance-double:
     D. D'Amato:
     Challenge:
     9:
     0.719,0.706,0.723,0.244,0.324:
00000000
00000000
00000000
00000000
,
00000000
00000000
00000000
00000000
,
00000000
00000000
00000000
00000000
,
00001000
00000000
00100000
00000000
00001000
00000000
00010000
00000000
00001000
00000000
01000000
00000000
00010000
00000000
10000000
00010000
,
10000000
01000000
00000000
11000000
00000000
01010000
00000000
00010000
,
00100000
00000000
01000000
00000000
00000000
00100000
00000000
00001000
00010000
00000000
00000010
00000000
00000000
00000010
00000000
00010000
,
00001000
00100000
01000000
10000000
00000000
10100000
00000000
00100000
,
00010000
00000000
00001000
00000000
00000000
00000000
00010000
00000000
00001000
00000000
00000100
00000000
00000010
00000100
00000010
00001000
,
00000001
00000100
00000000
00000101
00000000
00001100
00000000
00001000
,
00000010
00000000
00000100
00000000
00000000
00000010
00000000
00010000
00001000
00000000
00100000
00000000
00000000
00100000
00000000
00001000
,
00010000
00000010
00000100
00000001
00000000
00000011
00000000
00000010
,
00001000
00000000
00010000
00000000
00000000
00000000
00001000
00000000
00010000
00000000
01000000
00000000
00100000
01000000
00100000
00010000
,
10000000
00000000
01000000
00000000
00100000
00000000
00010000
01000000
00000000
01000000
00001000
00000000
00000000
00011000
00000000
00000000
,
00010000
00000000
00000100
00000000
00000010
00000000
00000001
00000100
00000000
00000100
00000010
00000000
00000000
00001010
00000000
00000000
,
00001000
00000000
00000001
00000000
00000100
00000000
00000001
00001000
00000000
00000100
00001000
00000100
00001000
00000000
00000001
00000000
,
00000100
00000000
00001000
00000000
00001000
00000000
00000100
00000001
00000000
00000000
00000100
00000010
00000100
00000010
00000100
00000000
,
00001001
00000000
00000100
00000000
00000010
00000000
00001000
00000100
00000000
00000100
00010000
00000000
00000000
00011000
00000000
00000000
,
00001000
00000000
01000000
00000000
00100000
00000000
10000000
01000000
00000000
01000000
00100000
00000000
00000000
00110000
00000000
00000000
,
00010000
00000000
10000000
00000000
01000000
00000000
10000000
00010000
00000000
01000000
00010000
01000000
00010000
00000000
10000000
00000000
,
01000000
00000000
00010000
00000000
00010000
00000000
01000000
10000000
00000000
00000000
01000000
00100000
01000000
00100000
01000000
00000000
,
10010000
00000000
00010000
00000000
00200000
00000000
00001000
00000000
00000000
00000000
00000010
00000000
00000000
00300100
00001000
00000000
,
00000001
00000000
00000100
00000000
00000020
00000000
00010000
00000000
00000000
00000000
00100000
00000000
00000000
01000030
00010000
00000000
,
10000000
00000000
01000000
00000000
00010000
00000000
00001000
00000100
00000000
00000001
00000100
00000001
00000100
00000000
00000010
00000000
,
00001000
00000000
00000001
00000000
00000010
00000000
00001000
00010000
00000000
00000000
00001000
00000000
00100000
00000000
00001000
00000000
,
00011000
00000000
00010000
00000000
00000200
00000000
00010000
00000000
00000000
00000000
01000000
00000000
00000000
00100300
00010000
00000000
,
10010000
00000000
00100000
00000000
02000000
00000000
00001000
00000000
00000000
00000000
00000100
00000000
00000000
03000010
00001000
00000000
,
00001001
00000000
00000010
00000000
00001000
00000000
00010000
00000000
00011000
00000000
00001000
00100000
00001000
00000000
01000000
00000000
,
10010000
10000000
01000000
00010000
00001000
00010000
00000010
00010000
,
00022000
00000000
00000000
00033000
,
00010200
00001000
00000310
00000000
00000012
00000100
00001003
00000000
,
00001020
00000100
00010030
00000000
00012000
01003000
00012000
01003000
,
00012000
01000000
00103000
00000000
20100000
01000000
30010000
00000000
,
00210000
00000000
01000000
00000000
00301000
00000000
00000000
00000000
00021000
00000000
00000100
00000000
00030010
00001000
00000010
00000100
,
00000020
00001000
00010030
00000000
00010200
00001000
00000310
00000000
,
00000012
00000100
00001003
00000000
00000120
00001030
00000120
00001030
,
00000120
00001000
00010030
00000000
00020100
00000010
00031000
00000000
,
01002000
00000000
00010000
00000000
00103000
00010000
00100000
01000000
00200000
00000000
00010000
00000000
00301000
00010000
00001000
00010000
,
00011000
00000100
00000000
00000011
00000000
00001001
00000000
00010001
,
00000000
00010100
00000000
00011000
00001000
01000000
00000000
01010000
,
10010000
01000000
00000000
10100000
00000000
10010000
00000000
10001000
,
00010000
01001000
00000000
00011000
00010000
00000100
00000010
00001100
,
00001001
00000010
00000000
00000101
00000000
00001001
00000000
00010001
,
00001100
00010010
00000000
00011000
00001000
00100000
00000000
00110000
,
10010000
00100000
00000000
11000000
00101000
10010000
00000000
10001000
,
01010000
00101000
00000100
00010000
00001000
00000010
00000001
00000100
,
00001001
00000010
00000000
00000011
00000000
00001010
00000000
00001000
,
00000100
00000000
00000010
00000000
00000000
00000100
00000000
00010000
00001000
00000000
01000000
00000000
00000000
01000000
00000000
00001000
,
00010000
00000100
00000010
00000001
00000000
00000101
00000000
00000100
,
00001000
00000000
00010000
00000000
00000000
00000000
00001000
00000000
00010000
00000000
00100000
00000000
01000000
00100000
01000000
00010000
,
10000000
00100000
00000000
10100000
00000000
00110000
00000000
00010000
,
01000000
00000000
00100000
00000000
00000000
01000000
00000000
00001000
00010000
00000000
00000100
00000000
00000000
00000100
00000000
00010000
,
00001000
01000000
00100000
10000000
00000000
11000000
00000000
01000000
,
00010000
00000000
00001000
00000000
00000000
00000000
00010000
00000000
00001000
00000000
00000010
00000000
00000100
00000010
00000100
00001000
,
00000001
00000100
00000001
00000100
00001000
00000100
00001000
00000100
,
00001000
00010000
00001000
00010000
01000000
10000000
01000000
10000000
,
01100000
00010000
00100000
00010000
01000000
00010000
01000000
00010000
,
00100000
00000000
10000000
00000000
00100000
00000000
00010000
00000000
00100000
00000000
10000000
00000000
00100000
01000000
00100000
01000000
,
10000000
01000000
10000000
01000000
00010000
01000000
00010000
01000000
,
00110000
00001000
00010000
00001000
00000100
00000001
00000100
00000001
,
00000110
00001000
00000010
00001000
00010100
00001000
00000100
00001000
,
00000110
00000000
00000001
00000000
00000110
00000000
00001000
00000000
00000110
00000000
00000001
00000000
00000010
00000100
00000010
00000100
,
00000002
00000000
00000000
00002000
00000000
00000000
00000000
00000000
00000000
00000000
00000000
00000000
00000000
00000000
00000000
00000000
,
00000000
00000000
00000000
00000000
00000000
00003003
00000000
00000000
;

//---------------dance-double - D. D'Amato----------------
#NOTES:
     dance-double:
     D. D'Amato:
     Easy:
     4:
     0.284,0.382,0.254,0.254,0.000:
00000000
00000000
00000000
00000000
,
00000000
00000000
00000000
00000000
,
00000000
00000000
00000000
00000000
,
00000000
00000000
00000000
00000000
,
00001001
00000000
00001000
00000001
,
00000100
00000000
00000010
00010000
,
00001000
00000000
00100000
00010000
,
01000000
00000000
00100000
00100000
,
10000000
00000000
00010000
10000000
,
01000000
00000000
00100000
00001000
,
00010000
00000000
00000010
00001000
,
00000100
00000000
00000010
00000010
,
00000001
00000010
00000100
00000100
,
00000000
00010000
00001000
00001000
,
01000000
00100000
10000000
10000000
,
00000000
11000000
01010000
00100000
,
10000000
00100000
01000000
01000000
,
00000000
00001000
00010000
00010000
,
00000100
00000010
00000001
00000001
,
00000000
00000101
00001100
00000010
,
00000001
00000000
00000000
00000100
,
00000000
00000000
00000000
00000000
,
00011000
00000000
00000000
00000000
,
00000000
01000000
01000000
00000000
,
00011000
00000000
00000000
00000100
,
00011000
00000000
00000000
00000000
,
00011000
00000000
00011000
00000000
,
00011000
00001000
00010000
00001000
,
00022000
00000000
00000000
00033000
,
00200000
00310000
20000000
31000000
,
00200000
00310000
02000000
03002000
,
00023000
00030100
00000020
00000031
,
00002000
00003100
00000020
00000032
,
00002003
00003010
00000200
00000301
,
00002000
00003010
00000200
00000320
,
00020030
00031000
00200000
01300000
,
20000000
30010000
02000000
03100000
,
10010000
00000000
00000000
00000000
,
00100000
00000000
00001000
00000100
,
00001001
00000000
00000000
00000000
,
00000010
00000000
00010000
01000000
,
10010000
00000000
00000000
00000000
,
00001001
00000000
00000010
00001000
,
00010100
00000000
01001000
00000000
,
00011000
00001000
00010000
00001000
,
00021000
00000000
00000010
00000000
,
00031000
00000000
00010000
00010000
,
00002000
00000000
00100000
00000000
,
00013000
00000000
00001000
00001000
,
00020000
00000000
00000100
00000000
,
00031000
00000000
00010000
00010000
,
00002000
00000000
01000000
00000000
,
00013000
00000000
00001000
00001000
,
00011000
00000000
00000010
00000000
,
00000001
00000000
00000100
00000000
,
00001000
00000000
00010000
00000000
,
01000000
01000000
00100000
00100000
,
10010000
00000000
00100000
00000000
,
10000000
00000000
01000000
00000000
,
00010000
00000000
00001000
00000000
,
00011000
00010100
00011000
01001000
,
00022000
00000000
00000000
00000000
,
00000000
00000000
00000000
00000000
00000000
00033000
00000000
00000000
;

//---------------dance-single - D. Kincel----------------
#NOTES:
     dance-single:
     D. Kincel:
     Easy:
     3:
     0.362,0.412,0.554,0.244,0.000:
0000
0000
0000
0000
,
0000
0000
0000
0000
,
0000
0000
0000
0000
,
0000
0000
0000
0000
,
1000
0000
0100
0010
,
0100
0000
1000
0000
,
0001
0000
0100
0010
,
0100
0000
0110
0100
,
0010
0000
1000
0001
,
1000
0000
0100
0000
,
0010
0000
0001
1000
,
0001
0000
1001
0001
,
0100
0000
0110
0010
,
1000
0000
1001
1000
,
0100
0000
0010
0010
,
0001
0001
0101
0010
,
1000
0000
1001
0001
,
0010
0000
0110
0010
,
0001
0001
0100
0110
,
1000
0000
1000
1100
,
2001
0000
3200
0000
,
0320
0001
0002
0033
,
2001
0000
0010
3020
,
0200
0030
0001
0301
,
1001
0000
0100
0100
,
1001
0000
0010
0010
,
1001
0100
1001
0010
,
1001
0110
1001
0110
,
2002
0000
0000
3003
,
2010
3000
1002
0003
,
0120
0030
1001
0110
,
2001
3000
0201
0300
,
2100
3000
0020
0230
,
0302
0003
0020
0030
,
0200
0300
1100
1001
,
0020
0130
2000
3001
,
0002
0000
0203
0000
0310
0100
0010
0000
,
0000
1000
0000
0100
0000
1000
0000
0001
,
0000
0100
0000
0001
0000
1000
0000
0000
,
0001
0000
0000
0010
0000
0100
0000
0010
,
0000
0001
0000
1000
0000
0001
0000
0000
,
0110
0000
0000
0010
0000
1000
0000
0000
,
1001
0000
0000
1000
0000
0100
0000
0000
,
0110
0001
1001
0100
,
0110
1001
0110
1001
,
1000
1000
1000
1001
,
0010
0010
0110
1001
,
0001
0001
0001
1001
,
0100
0100
0110
1001
,
1000
0001
1000
1001
,
0010
0100
0110
1001
,
0001
1000
0001
1001
,
0100
0010
0110
1001
,
0001
0000
0000
0010
0000
0100
0000
0010
,
0000
0001
0000
1000
0000
0001
0000
0000
,
0100
0000
0000
0010
0000
0100
0000
0010
,
0000
1000
0000
0001
0000
1000
0000
0000
,
1001
0000
0000
1000
0000
0100
0000
0000
,
1001
0000
0000
0001
0000
0100
0000
0000
,
1010
0000
0101
0000
,
1001
1100
0011
0110
,
2002
0000
0000
0000
,
0000
0000
0000
0000
0000
3003
0000
0000
;

//---------------dance-single - R. Woods----------------
#NOTES:
     dance-single:
     R. Woods:
     Beginner:
     1:
     0.094,0.115,0.000,0.000,0.000:
0000
0000
0000
0000
,
0000
0000
0000
0000
,
0000
0000
0000
0000
,
0000
0000
0000
0000
,
0100
0000
0000
0000
,
0001
0000
0000
0000
,
1000
0000
0000
0000
,
0010
0000
0000
0000
,
0100
0000
0000
0000
,
0001
0000
0000
0000
,
1000
0000
0000
0000
,
0010
0000
0000
0000
,
1000
0000
0000
0000
,
0100
0000
0000
0000
,
0010
0000
0000
0000
,
0001
0000
0000
0000
,
1000
0000
0000
0000
,
0100
0000
0000
0000
,
0010
0000
0000
0000
,
0001
0000
0000
0000
,
0100
0000
0000
0000
,
0010
0000
0000
0000
,
1000
0000
0000
0000
,
0001
0000
0000
0000
,
0100
0000
0000
0000
,
0010
0000
0000
0000
,
1000
0000
0000
0000
,
0001
0000
0001
0000
,
0001
0000
0000
0000
,
1000
0000
0100
0000
,
1000
0000
0100
0000
,
1000
0000
0100
0000
,
1000
0000
0100
0000
,
0010
0000
0001
0000
,
0010
0000
0001
0000
,
0010
0000
0001
0000
,
0010
0000
0001
0000
,
0010
0000
0000
0000
,
0000
0000
0000
0000
,
0100
0000
0000
0000
,
0000
0000
0000
0000
,
1000
0000
0000
0000
,
1000
0000
0000
0000
,
1000
0000
1000
0000
,
1000
1000
1000
0000
,
1000
0000
0000
0000
,
0001
0000
0000
0000
,
0100
0000
0000
0000
,
0010
0000
0000
0000
,
1000
0000
0000
0000
,
0001
0000
0000
0000
,
0100
0000
0000
0000
,
0010
0000
0000
0000
,
1000
0000
0000
0000
,
0010
0000
0000
0000
,
0100
0000
0000
0000
,
0100
0000
0000
0000
,
0001
0000
0000
0000
,
0010
0000
0000
0000
,
0100
0000
0010
0000
,
0100
0000
0100
0000
,
0010
0000
0000
0000
;
