#TITLE:Stars Above;
#SUBTITLE:;
#ARTIST:Digital Explosion;
#TITLETRANSLIT:;
#SUBTITLETRANSLIT:;
#ARTISTTRANSLIT:;
#GENRE:Trance;
#CREDIT:Sync by HellRazor;
#BANNER:Stars Above-bn.png;
#BACKGROUND:Stars Above-bg.png;
#LYRICSPATH:;
#CDTITLE:;
#MUSIC:Stars Above.ogg;
#OFFSET:-0.749;
#SAMPLESTART:47.400;
#SAMPLELENGTH:13.400;
#SELECTABLE:YES;
#BPMS:0.000=144.000;
#STOPS:;
#BGCHANGES:0.000=Stars Above-bg.png=1.000=0=0=1=====,
32.000=In The Groove Rebirth/169_JB_HD.mpg=1.000=0=0=1===SlideUp==,
48.000=In The Groove Rebirth/257_JB_HD.mpg=1.000=0=0=1=====,
64.000=In The Groove Rebirth/174_JB_HD.mpg=1.000=0=0=1=====,
80.000=In The Groove Rebirth/161_JB_HD.mpg=1.000=0=0=1===SlideLeft==,
96.000=In The Groove Rebirth/218_JB_HD.mpg=1.000=0=0=1=SongBgWithMovieViz==SlideDown==,
112.000=In The Groove Rebirth/164_JB_HD.mpg=1.000=0=0=1=====,
128.000=In The Groove Rebirth/178_JB_HD.mpg=1.000=0=0=1=====,
144.000=In The Groove Rebirth/179_JB_HD.mpg=1.000=0=0=1===SlideRight==,
160.000=In The Groove Rebirth/167_JB_HD.mpg=1.000=0=0=1===SlideUp==,
171.000=Stars Above-bg.png=1.000=1=0=1===CrossFade==,
176.000=In The Groove Rebirth/161_JB_HD.mpg=1.000=0=0=1=====,
192.000=In The Groove Rebirth/169_JB_HD.mpg=1.000=0=0=1===SlideLeft==,
208.000=In The Groove Rebirth/257_JB_HD.mpg=1.000=0=0=1=====,
224.000=In The Groove Rebirth/174_JB_HD.mpg=1.000=0=0=1=====,
240.000=In The Groove Rebirth/167_JB_HD.mpg=1.000=0=0=1=====,
256.000=In The Groove Rebirth/179_JB_HD.mpg=1.000=0=0=1===SlideDown==,
272.000=In The Groove Rebirth/218_JB_HD.mpg=1.000=0=0=1=====,
288.000=In The Groove Rebirth/178_JB_HD.mpg=1.000=0=0=1=SongBgWithMovieViz====,
304.000=Stars Above-bg.png=1.000=1=0=1===CrossFade==,
99999=-nosongbg-=1.000=0=0=0 // don't automatically add -songbackground-
;
#BGCHANGES2:174.000=white flash=1.000=0=0=1=====,
302.000=white flash=1.000=0=0=1=====,
;
#KEYSOUNDS:;

//---------------dance-single - C. Sanabria----------------
#NOTES:
     dance-single:
     C. Sanabria:
     Hard:
     8:
     0.500,0.498,0.186,0.295,0.070,389.000,24.000,38.000,22.000,0.000,0.000:
0000
0000
0000
0000
,
0000
0000
0000
0000
,
0000
0000
0000
0000
,
0000
0000
0000
0000
,
0000
0000
0000
0000
,
0000
0000
0000
0000
,
0000
0000
0000
0000
,
0000
0000
0000
0000
,
0010
0000
0000
1000
0000
0000
0001
0000
0100
0000
0000
0010
0000
0000
1000
0000
,
0001
0000
0000
0010
0000
0000
0100
0000
1000
0000
0000
0010
0000
0000
0100
0000
,
0001
0000
0000
1000
0000
0000
0001
0000
1000
0000
0000
0001
0000
0000
1000
0000
,
0100
0000
0000
0010
0000
0000
0001
0000
0100
0000
0000
0010
0000
0000
1000
0000
,
0001
0000
0100
0001
0000
0000
1000
0000
0001
0000
0100
0001
0000
0000
1000
0000
,
0100
0000
0010
0001
0000
0000
1000
0000
0100
0000
0010
0001
0000
0000
1000
0000
,
0100
0000
1000
0100
0000
0000
0000
0000
0010
0000
0001
0010
0000
0000
0000
0000
,
0100
1000
0001
0100
0101
0000
1100
0000
,
0010
0001
0010
0100
0010
0001
0010
0100
,
0010
0001
1000
0001
0100
0010
0100
0000
,
0010
1000
0010
0100
0010
1000
0010
0100
,
0101
0000
1100
0000
1001
0000
1100
0100
,
0010
0001
0010
0100
0010
0001
0010
0100
,
1000
0001
1000
0010
0100
0010
0100
0000
,
0010
1000
0010
0100
0010
1000
0010
0100
,
0001
0010
0100
0000
1000
0010
0100
0000
,
0010
1000
0010
1000
,
0001
0010
0001
0010
,
0100
1100
0001
0101
,
2000
3200
0320
0032
,
1000
0000
2003
0100
0M00
3001
0010
0100
,
2000
0000
3002
0100
0M00
1003
0010
0100
,
0002
0000
1000
1000
0000
0013
0100
0010
,
0002
0023
0230
2300
,
0001
0000
3002
0100
0M00
1003
0100
0010
,
0002
0000
2003
0100
0M00
3001
0100
0010
,
2000
0000
0001
0001
3000
0001
0010
0100
,
2000
3020
0230
0302
,
0003
1000
0100
0010
0100
1000
0001
1000
,
0000
0001
0100
0010
0100
0001
1000
0001
,
0000
1000
0100
0010
0100
1000
0001
1000
,
0000
0001
0100
0010
0100
0001
1000
0001
,
0000
1000
0100
0010
0001
0010
0100
1000
,
0000
0001
0010
0100
1000
0100
0010
0001
,
0000
1000
0100
0010
0100
0001
0100
1000
,
0001
0000
0000
0000
0000
0000
0000
1000
0100
1000
0000
0000
0000
0000
0000
0000
,
1100
0000
0010
0001
0100
0000
1010
0000
,
0100
0001
0000
1000
0000
0001
0000
1000
,
1010
0000
0100
0001
0010
0000
1001
0000
,
0110
0000
0010
0100
0000
1000
0001
0000
,
0101
0000
0010
1000
0100
0000
0011
0000
,
0100
1000
0000
0001
0000
1000
0000
0001
,
0011
0000
0100
1000
0010
0000
1001
0000
,
0110
0000
0010
0100
0000
0001
1000
0000
,
0002
0010
0000
0010
,
2003
0100
0001
0100
,
3002
0010
0000
0100
,
2003
3200
0320
0032
,
1003
0100
1000
0002
0000
1000
1000
1003
,
0001
0100
0001
2000
0000
0001
0001
3001
,
1000
0010
1000
0200
0000
0010
0010
0310
,
0100
1000
0001
0100
1000
0000
1200
0000
,
0301
0100
0001
2000
0000
0100
0100
3100
,
1000
0100
1000
0002
0000
0100
0100
0103
,
0001
0010
0100
2000
0000
0001
0001
3001
,
2000
3020
0230
0302
,
0003
1000
0100
0010
0001
1000
0010
0100
,
0000
0001
0100
0010
1000
0001
0010
0100
,
0000
1000
0100
0010
0001
0010
0100
1000
,
0000
0001
0100
0010
1000
0000
1001
0000
,
0000
1000
0100
1000
0100
0010
0100
0010
,
0000
0001
0010
0001
0010
0100
0010
0100
,
0000
1000
0001
1000
0001
0100
0010
0100
,
0000
0001
0100
0010
1000
0001
1000
0100
,
1100
MM00
MM00
MM00
,
0101
0M0M
0M0M
0M0M
,
0110
0MM0
0MM0
0MM0
,
1001
0000
0000
0000
0000
0000
0000
0010
1000
0001
0000
0000
0000
0000
0000
0000
;

//---------------dance-single - A.J. Kung & M. Stepper----------------
#NOTES:
     dance-single:
     A.J. Kung & M. Stepper:
     Challenge:
     10:
     0.947,1.000,0.660,1.000,0.213,458.000,85.000,311.000,200.000,0.000,0.000:
0000
0000
0000
0000
,
0000
0000
0000
0000
,
0000
0000
0000
0000
,
0000
0000
0000
0000
,
0000
0000
0000
0000
,
0000
0000
0000
0000
,
0000
0000
0000
0000
,
0000
0000
0000
0000
,
0001
0000
0010
0001
0000
0000
1000
0000
0001
0000
0010
0001
0000
0000
0100
0000
,
0010
0000
1000
0010
0000
0000
0100
0000
0010
0000
1000
0010
0000
0000
1000
0000
,
0001
0000
0100
0001
0000
0000
0010
0000
0001
0000
0100
0001
0000
0000
1000
0000
,
0001
0000
0100
0010
0000
0000
1000
0000
0001
0000
0010
0100
0000
0000
1000
0000
,
0001
0000
0001
0100
0000
0000
0010
0000
1000
0000
1000
0100
0000
0000
0010
0000
,
0001
0000
0001
1000
0000
0000
0010
0000
1000
0000
1000
0001
0000
0000
0100
0000
,
0010
0000
1000
0001
0000
0000
0010
0000
0100
0000
1000
0001
0000
0000
0001
0000
,
1000
0100
0010
0001
1000
0010
0100
0001
1000
0001
0010
0100
1000
0001
1000
0100
,
0010
0000
0000
0001
0100
0000
0000
0000
0010
0000
0000
1000
0100
0000
0000
0000
,
0010
0000
0001
0000
0100
0010
0000
0000
0010
0000
1000
0000
0100
0010
0000
0000
,
0001
0010
1000
0000
1000
0010
0001
0000
,
0001
0100
0000
0000
0100
0010
0000
0000
0010
1000
0000
1000
0001
0000
0000
0000
,
0100
0000
0000
0001
0010
0000
0000
0000
0100
0000
0000
1000
0010
0000
0000
0000
,
0100
0000
0001
0000
0010
0100
0000
0000
0100
0000
1000
0000
0010
0100
0000
0000
,
0001
0100
1000
0000
1000
0100
0001
0000
,
0001
0010
0100
1000
0001
0100
0010
1000
0001
0010
0100
1000
0001
0100
0010
1000
,
0001
0101
0100
0110
0100
1100
0100
0110
,
0200
0001
0001
0000
0302
1000
1000
0000
,
1003
1100
0100
0110
0010
0011
1001
0000
,
21MM
0000
0000
0000
0000
0000
0000
0000
0000
0000
0000
0000
0000
0000
0000
3000
2MM1
0000
0000
0000
0000
0000
0000
0000
0000
0000
0000
0000
3000
0000
0000
0000
M1M2
0000
0000
0000
0000
0000
0000
0000
0000
0000
0000
0000
0000
0000
0000
0003
1MM2
0000
0000
0000
0000
0000
0000
0000
0000
0000
0000
0000
0003
0000
0000
0000
,
2MM2
0000
0000
0000
0000
0000
0000
0003
0002
0000
0000
0000
0000
0000
0000
0003
0MM2
0000
0000
0000
3003
0000
0000
0000
0220
0000
0000
0000
0000
0000
0000
0000
M00M
0000
0000
0000
0000
0000
0000
0300
0200
0000
0000
0000
0000
0000
0000
0300
M20M
0000
0000
0000
0000
0000
0000
0300
0130
0000
0000
0000
0000
0000
0000
0000
,
2MM2
0000
0000
0000
0000
0000
0000
3000
2000
0000
0000
0000
0000
0000
0000
3000
2MM0
0000
0000
0000
3003
0000
0000
0000
0220
0000
0000
0000
0000
0000
0000
0000
M00M
0000
0000
0000
0000
0000
0000
0030
0020
0000
0000
0000
0000
0000
0000
0030
M02M
0000
0000
0000
0000
0000
0000
0030
0310
0000
0000
0000
0000
0000
0000
0000
,
2MM2
0000
0000
0000
0000
0000
0000
0000
0000
0000
0000
0000
0000
0000
0000
3003
2MM2
0000
0000
0000
0000
0000
0000
3003
2002
0000
0000
0000
0000
0000
0000
0000
0MM0
0000
0000
0000
0000
0000
0000
0003
0002
0000
0000
0000
0000
0000
0000
3000
2MM0
0000
0000
0000
0000
0000
0000
0003
0002
0000
0000
0000
3003
0000
0000
0000
,
M22M
0000
0000
0000
0000
0000
0000
0000
0000
0000
0000
0000
0000
0000
0000
0030
M02M
0000
0000
0000
0000
0000
0000
0000
0000
0000
0000
0000
0000
0000
0000
0300
M20M
0000
0000
0000
0000
0000
0000
0000
0000
0000
0000
0000
0000
0000
0000
0330
M22M
0000
0000
0000
0000
0000
0000
0000
0330
0000
0000
0000
0000
0000
0000
0000
,
2MM2
0000
0000
0000
0000
0000
0000
3000
2000
0000
0000
0000
0000
0000
0000
3000
2MM0
0000
0000
0000
3003
0000
0000
0000
0220
0000
0000
0000
0000
0000
0000
0000
M00M
0000
0000
0000
0000
0000
0000
0030
0020
0000
0000
0000
0000
0000
0000
0030
M02M
0000
0000
0000
0000
0000
0000
0030
0310
0000
0000
0000
0000
0000
0000
0000
,
2MM2
0000
0000
0000
0000
0000
0000
0003
0002
0000
0000
0000
0000
0000
0000
0003
0MM2
0000
0000
0000
3003
0000
0000
0000
0220
0000
0000
0000
0000
0000
0000
0000
M00M
0000
0000
0000
0000
0000
0000
0300
0200
0000
0000
0000
0000
0000
0000
0300
M20M
0000
0000
0000
0000
0000
0000
0300
0130
0000
0000
0000
0000
0000
0000
0000
,
2MM2
0000
0000
0000
0000
0000
0000
0000
0000
0000
0000
0000
0000
0000
0000
3003
2MM2
0000
0000
0000
0000
0000
0000
3003
2002
0000
0000
0000
0000
0000
0000
0000
0MM0
0000
0000
0000
0000
0000
0000
3000
2000
0000
0000
0000
0000
0000
0000
0003
0MM2
0000
0000
0000
0000
0000
0000
3000
2000
0000
0000
0000
3003
0000
0000
0000
,
M22M
0000
0000
0000
0000
0000
0000
0000
0000
0000
0000
0000
0000
0000
0000
0300
M20M
0000
0000
0000
0000
0000
0000
0000
0000
0000
0000
0000
0000
0000
0000
0030
M02M
0000
0000
0000
0000
0000
0000
0000
0000
0000
0000
0000
0000
0000
0000
0330
M22M
0000
0000
0000
0000
0000
0000
0000
0330
0000
0000
0000
0000
0000
0000
0000
,
2200
0000
0000
0000
0000
0000
0000
3000
2000
0000
0000
0000
0000
0000
0000
0300
0200
0000
0000
0000
3000
0000
0000
0000
0002
0000
0000
0000
0300
0000
0000
0000
2000
0000
0000
0000
0003
0000
0000
0000
0020
0000
0000
0000
3000
0000
0000
0000
0002
0000
0000
0000
0030
0000
0000
0000
2000
0000
0000
0000
0000
0000
0000
0000
,
0000
0000
0000
0000
0000
0000
0000
0003
0002
0000
0000
0000
3000
0000
0000
0000
0200
0000
0000
0000
0003
0000
0000
0000
2000
0000
0000
0000
0300
0000
0000
0000
0002
0000
0000
0000
3000
0000
0000
0000
0020
0000
0000
0000
0003
0000
0000
0000
2000
0000
0000
0000
0030
0000
0000
0000
0002
0000
0000
0000
0000
0000
0000
0000
,
0000
0000
0000
0000
0000
0000
0000
3000
2000
0000
0000
0000
0003
0000
0000
0000
0200
0000
0000
0000
3000
0000
0000
0000
0002
0000
0000
0000
0300
0000
0000
0000
2000
0000
0000
0000
0003
0000
0000
0000
0002
0000
0000
0000
3000
0000
0000
0000
0200
0000
0000
0000
0003
0000
0000
0000
2000
0000
0000
0000
0000
0000
0000
0000
,
0300
0000
3002
0000
0200
0003
2000
0300
0002
3000
2000
0003
0200
3000
0002
0000
,
0300
0000
2003
0000
0020
3000
0002
0030
2000
0003
0200
3000
0002
0300
2000
0000
,
0000
0000
0000
0000
0000
0000
0000
0003
0002
0000
0000
0000
3000
0000
0000
0000
0020
0000
0000
0000
0003
0000
0000
0000
2000
0000
0000
0000
0030
0000
0000
0000
0002
0000
0000
0000
3000
0000
0000
0000
0200
0000
0000
0000
0003
0000
0000
0000
2000
0000
0000
0000
0300
0000
0000
0000
0002
0000
0000
0000
0000
0000
0000
0000
,
0000
0000
0000
0000
0000
0000
0000
3000
2000
0000
0000
0000
0003
0000
0000
0000
0020
0000
0000
0000
3000
0000
0000
0000
0002
0000
0000
0000
0030
0000
0000
0000
2000
0000
0000
0000
0003
0000
0000
0000
0002
0000
0000
0000
3000
0000
0000
0000
0020
0000
0000
0000
0003
0000
0000
0000
2000
0000
0000
0000
0030
0000
0000
0000
,
0002
0000
0000
0000
0000
0000
0000
0000
3003
0000
0000
0000
0000
0000
0001
0010
0100
0000
0000
0000
MMMM
0000
0000
0000
0000
0000
0000
0000
MMMM
0000
0000
0000
,
2200
0000
0000
0000
0000
0000
0000
0000
0000
0000
0000
0000
0000
0000
0000
3000
20M0
0000
0000
0000
0000
0000
0000
0300
020M
0000
0000
0000
0000
0000
0000
3000
20M0
0000
0000
0000
0000
0000
0000
0000
0000
0000
0000
0000
0000
0000
0000
0300
020M
0000
0000
0000
0000
0000
0000
0000
0300
0000
0000
0000
0000
0000
0000
3000
,
2000
0000
0000
0000
0000
0000
0000
0000
00M2
0000
0000
0000
0000
0000
0000
0000
3000
0000
0000
0000
0000
0000
0000
0000
0M20
0000
0000
0000
0000
0000
0000
0000
0000
0000
0000
0000
0000
0000
0000
0003
M002
0000
0000
0000
0000
0000
0000
0000
0000
0000
0000
0000
0030
0000
0000
0000
0M10
0000
0000
0000
0000
0000
0000
0003
,
0202
0000
0000
0000
0000
0000
0000
0000
0000
0000
0000
0000
0000
0000
0000
0300
02M0
0000
0000
0000
0000
0000
0000
0003
M002
0000
0000
0000
0000
0000
0000
0300
02M0
0000
0000
0000
0000
0000
0000
0000
0003
0000
0000
0000
0000
0000
0000
0000
M002
0000
0000
0000
0000
0000
0000
0000
0003
0000
0000
0000
0000
0000
0000
0300
,
202M
0000
0000
0000
0000
0000
0000
0000
0000
0000
0000
0000
0000
0000
0000
0000
0000
0000
0000
0000
0000
0000
0000
0030
0M20
0000
0000
0000
0000
0000
0000
0000
0000
0000
0000
0000
0000
0000
0000
3000
200M
0000
0000
0000
0000
0000
0000
0030
0M20
0000
0000
0000
0000
0000
0000
0000
0000
0000
0000
0000
0000
0000
0000
3030
,
0220
0000
0000
0000
0000
0000
0000
0000
0000
0000
0000
0000
0000
0000
0000
0300
M20M
0000
0000
0000
0000
0000
0000
0030
0020
0000
0000
0000
0000
0000
0000
0300
200M
0000
0000
0000
0000
0000
0000
0000
0M00
0000
0000
0000
0000
0000
0000
0030
0002
0000
0000
0000
0000
0000
0000
0000
3003
0000
0000
0000
0000
0000
0000
0000
,
M002
0000
0000
0000
0000
0000
0000
0000
0200
0000
0000
0000
00M0
0000
0000
0000
0000
0000
0000
0000
0000
0000
0000
0303
M220
0000
0000
0000
0000
0000
0000
0000
0000
0000
0000
0000
0000
0000
0000
0330
202M
0000
0000
0000
0000
0000
0000
0000
0M00
0000
0000
0000
0000
0000
0000
3030
0002
0000
0000
0000
0000
0000
0000
0003
,
2200
0000
0000
0000
0000
0000
0000
0000
0000
0000
0000
0000
0000
0000
0000
3000
200M
0000
0000
0000
0000
0000
0000
0300
0200
0000
0000
0000
0000
0000
0000
3000
002M
0000
0000
0000
0000
0000
0000
0000
0000
0000
0000
0000
0000
0000
0000
0300
M20M
0000
0000
0000
0000
0000
0000
0000
0300
0000
0000
0000
0000
0000
0000
0030
,
M022
0000
0000
0000
0000
0000
0000
0000
0000
0000
0000
0000
0000
0000
0000
0000
0000
0000
0000
0000
0000
0000
0000
0003
M002
0000
0000
0000
0000
0000
0000
0000
0000
0000
0000
0000
0000
0000
0000
0030
0M20
0000
0000
0000
0000
0000
0000
0033
2002
0000
0000
0000
0000
0000
0000
0000
0000
0000
0000
0000
0000
0000
0000
3003
,
1020
1000
0100
1030
,
1002
0013
2100
3001
,
0012
0100
1000
0103
,
M2M1
0000
0000
0000
0000
0000
0000
0000
0000
0000
0000
0000
0000
0000
0000
0300
021M
0000
0000
0000
0000
0000
0000
0000
0000
0000
0000
0000
0300
0000
0000
0000
MM21
0000
0000
0000
0000
0000
0000
0000
0000
0000
0000
0000
0000
0000
0000
0030
012M
0000
0000
0000
0000
0000
0000
0000
0000
0000
0000
0000
0030
0000
0000
0000
,
M220
0000
0000
0000
0000
0000
0000
0030
0020
0000
0000
0000
0000
0000
0000
0030
M02M
0000
0000
0000
0330
0000
0000
0000
2002
0000
0000
0000
0000
0000
0000
0000
00M0
0000
0000
0000
0000
0000
0000
0003
0002
0000
0000
0000
0000
0000
0000
0003
02M0
0000
0000
0000
0000
0000
0000
0300
310M
0000
0000
0000
0000
0000
0000
0000
,
0220
0000
0000
0000
0000
0000
0000
0300
0200
0000
0000
0000
0000
0000
0000
0300
M002
0000
0000
0000
0030
0000
0000
0003
2002
0000
0000
0000
0000
0000
0000
0000
0M00
0000
0000
0000
0000
0000
0000
3000
2000
0000
0000
0000
0000
0000
0000
3000
20M0
0000
0000
0000
0000
0000
0000
3000
0103
0000
0000
0000
0000
0000
0000
0000
,
0220
0000
0000
0000
0000
0000
0000
0000
0000
0000
0000
0000
0000
0000
0000
0330
M22M
0000
0000
0000
0000
0000
0000
0330
0220
0000
0000
0000
0000
0000
0000
0000
0000
0000
0000
0000
0000
0000
0000
0030
0020
0000
0000
0000
0000
0000
0000
0300
M20M
0000
0000
0000
0000
0000
0000
0030
0020
0000
0000
0000
0330
0000
0000
0000
,
2002
0000
0000
0000
0000
0000
0000
0000
0000
0000
0000
0000
0000
0000
0000
3000
2MM0
0000
0000
0000
0000
0000
0000
0000
0000
0000
0000
0000
0000
0000
0000
0003
0002
0000
0000
0000
0000
0000
0000
0000
0000
0000
0000
0000
0000
0000
0000
3003
2MM2
0000
0000
0000
0000
0000
0000
0000
3003
0000
0000
0000
0000
0000
0000
0000
,
0220
0000
0000
0000
0000
0000
0000
0300
0200
0000
0000
0000
0000
0000
0000
0300
M20M
0000
0000
0000
0330
0000
0000
0000
2002
0000
0000
0000
0000
0000
0000
0000
0000
0000
0000
0000
0000
0000
0000
3000
2000
0000
0000
0000
0000
0000
0000
3000
2M00
0000
0000
0000
0000
0000
0000
3000
0013
0000
0000
0000
0000
0000
0000
0000
,
0220
0000
0000
0000
0000
0000
0000
0030
0020
0000
0000
0000
0000
0000
0000
0030
200M
0000
0000
0000
3300
0000
0000
0000
2002
0000
0000
0000
0000
0000
0000
0000
0000
0000
0000
0000
0000
0000
0000
0003
0002
0000
0000
0000
0000
0000
0000
0003
0M02
0000
0000
0000
0000
0000
0000
0003
3010
0000
0000
0000
0000
0000
0000
0000
,
0220
0000
0000
0000
0000
0000
0000
0000
0000
0000
0000
0000
0000
0000
0000
0330
M22M
0000
0000
0000
0000
0000
0000
0330
0220
0000
0000
0000
0000
0000
0000
0000
0000
0000
0000
0000
0000
0000
0000
0300
0200
0000
0000
0000
0000
0000
0000
0030
M02M
0000
0000
0000
0000
0000
0000
0300
0200
0000
0000
0000
0330
0000
0000
0000
,
2002
0000
0000
0000
0000
0000
0000
0000
0000
0000
0000
0000
0000
0000
0000
0003
0MM2
0000
0000
0000
0000
0000
0000
0000
0000
0000
0000
0000
0000
0000
0000
3000
2000
0000
0000
0000
0000
0000
0000
0000
0000
0000
0000
0000
0000
0000
0000
3003
2MM2
0000
0000
0000
0000
0000
0000
0000
3003
0000
0000
0000
0000
0000
0000
0000
,
0202
0000
0000
0000
0000
0000
0000
0300
02M0
0000
0000
0000
0000
0000
0000
0003
0002
0000
0000
0000
0000
0000
0000
0303
M2M2
0000
0000
0000
0000
0000
0000
0003
0002
0000
0000
0000
0000
0000
0000
0300
02M0
0000
0000
0000
0000
0000
0000
0003
0002
0000
0000
0000
0000
0000
0000
0303
M2M2
0000
0000
0000
0000
0000
0000
0000
,
0303
0000
0000
0000
0000
0000
0000
0000
200M
0000
0000
0000
0000
0000
0000
0000
0200
0000
0000
0000
0000
0000
0000
3300
22MM
0000
0000
0000
0000
0000
0000
0300
0200
0000
0000
0000
0000
0000
0000
3000
200M
0000
0000
0000
0000
0000
0000
0300
0200
0000
0000
0000
0000
0000
0000
3300
22MM
0000
0000
0000
0000
0000
0000
0000
,
3300
0000
0000
0000
0000
0000
0000
0000
M002
0000
0000
0000
0000
0000
0000
0000
0020
0000
0000
0000
0000
0000
0000
0033
MM22
0000
0000
0000
0000
0000
0000
0030
0020
0000
0000
0000
0000
0000
0000
0003
M002
0000
0000
0000
0000
0000
0000
0030
0020
0000
0000
0000
0000
0000
0000
0033
MM22
0000
0000
0000
0000
0000
0000
0000
,
0033
0000
0000
0000
0000
0000
0000
0000
200M
0000
0000
0000
0000
0000
0000
0000
0020
0000
0000
0000
0000
0000
0000
3030
2M2M
0000
0000
0000
0000
0000
0000
0030
0020
0000
0000
0000
0000
0000
0000
3000
200M
0000
0000
0000
0000
0000
0000
0030
0020
0000
0000
0000
0000
0000
0000
3030
2M2M
0000
0000
0000
0000
0000
0000
0000
,
3030
0000
0000
0000
0000
0000
0000
0000
02M2
0000
0000
0000
0000
0000
0000
0003
0002
0000
0000
0000
0000
0000
0000
0303
M2M2
0000
0000
0000
0000
0000
0000
0003
0002
0000
0000
0000
0000
0000
0000
0300
20M0
0000
0000
0000
0000
0000
0000
0003
0M02
0000
0000
0000
0000
0000
0000
3003
02M2
0000
0000
0000
0000
0000
0000
0000
,
0303
0000
0000
0000
0000
0000
0000
0000
200M
0000
0000
0000
0000
0000
0000
0000
0200
0000
0000
0000
0000
0000
0000
3300
22MM
0000
0000
0000
0000
0000
0000
0300
0200
0000
0000
0000
0000
0000
0000
3000
002M
0000
0000
0000
0000
0000
0000
0300
M200
0000
0000
0000
0000
0000
0000
0330
220M
0000
0000
0000
0000
0000
0000
0000
,
3300
0000
0000
0000
0000
0000
0000
0000
M002
0000
0000
0000
0000
0000
0000
0000
0020
0000
0000
0000
0000
0000
0000
0033
MM22
0000
0000
0000
0000
0000
0000
0030
0020
0000
0000
0000
0000
0000
0000
0003
M200
0000
0000
0000
0000
0000
0000
0030
002M
0000
0000
0000
0000
0000
0000
0330
M022
0000
0000
0000
0000
0000
0000
0000
,
0033
0000
0000
0000
0000
0000
0000
0000
200M
0000
0000
0000
0000
0000
0000
0000
0020
0000
0000
0000
0000
0000
0000
3030
2M2M
0000
0000
0000
0000
0000
0000
3000
2000
0000
0000
0000
0000
0000
0000
0030
0M02
0000
0000
0000
0000
0000
0000
3000
20M0
0000
0000
0000
0000
0000
0000
3003
2M20
0000
0000
0000
0030
0000
0000
0000
,
3001
0001
0010
0100
1000
0010
0100
0010
,
1001
1000
0010
0100
0001
0010
0100
0010
,
0001
0010
0100
1000
0001
0100
0010
1000
0001
0010
0100
1000
0001
1000
0010
0100
,
0001
0000
0000
0000
0000
0000
0000
0000
0000
0000
0000
0000
0000
0000
1000
0100
0010
0000
0000
0000
0000
0000
0000
0000
MMMM
0000
0000
0000
0000
0000
0000
0000
;

//---------------dance-double - D. Bernardone----------------
#NOTES:
     dance-double:
     D. Bernardone:
     Easy:
     4:
     0.302,0.352,0.062,0.357,0.000,218.000,8.000,46.000,0.000,0.000,0.000:
00000000
00000000
00000000
00000000
,
00000000
00000000
00000000
00000000
,
00000000
00000000
00000000
00000000
,
00000000
00000000
00000000
00000000
,
20000000
00000000
00000000
00000000
,
32000000
00000000
03200000
00000000
,
00302000
00000000
00000000
00000000
,
00023000
00000000
00030200
00000000
,
00000320
00000000
00000000
00000000
,
00000032
00000000
00000203
00000000
,
00002300
00000000
00000000
00000000
,
00023000
00000000
02030000
00000000
,
23000000
00000000
00000000
00000000
,
30200000
00000000
00320000
00000000
,
00032000
00000000
00000000
00000000
,
00003020
00000000
00000032
00000000
,
00001003
00000100
00010000
00001000
,
00010000
00100000
01000000
00010000
,
10000000
01000000
00100000
01000000
,
10000000
00010000
01000000
00001000
,
00010000
00000100
00000010
00000001
,
00001000
00000010
00000100
00001000
,
00010000
00001000
00100000
01000000
,
10000000
00010000
01000000
00001000
,
00020000
00000000
00000000
00000000
,
00030200
00000000
00000320
00000000
,
00000032
00000000
00000000
00000000
,
00001003
00000110
00010000
00011000
,
00001000
00100000
01000000
00000000
,
10000000
00100000
00010000
00000000
,
00001000
01000000
00010000
00000000
,
00100000
01000000
00010000
00001000
,
00010000
00000010
00000100
00000000
,
00000001
00000010
00000100
00000000
,
00010000
00001000
00010000
00000000
,
00100000
01000000
00010000
10000000
,
01000000
01000000
00010000
00010000
,
00001000
00001000
00000100
00000100
,
00000010
00000010
00001000
00001000
,
00000001
00000010
00001000
00010000
,
00100000
00100000
10000000
10000000
,
01000000
01000000
00010000
00010000
,
00001000
00001000
00010000
00010000
,
00011000
00000000
00000110
00000000
,
00000001
00000100
00001000
00000000
,
00000100
00000010
00010000
00010000
,
00001000
00100000
01000000
00000000
,
10000000
00000000
00010000
00010000
,
10000000
00100000
00010000
00000000
,
00100000
01000000
00001000
00001000
,
00010000
00000100
00000010
00000000
,
00000001
00000000
00001000
00001000
,
00000020
00000000
00000000
00000000
,
00020030
00000000
00032000
00000000
,
00203000
00000000
00000000
00000000
,
01300000
10010000
00100000
00011000
,
00010000
00000010
00000200
00000300
,
00000001
00000010
00002000
00003000
,
00010000
00001000
00020000
00030000
,
00100000
01000000
00010000
10000000
,
01000000
00100000
00020000
00030000
,
01000000
00001000
00020000
00030000
,
00000100
00000100
00000200
00000300
,
00000010
00000001
00000100
00001000
,
00020000
00031000
00200000
00310000
,
02000000
03010000
00200000
01300000
,
20000000
30010000
02000000
03001000
,
00010000
00000100
00001000
00000001
,
00000020
00000130
00002000
00003010
,
00020000
00031000
02000000
03100000
,
20000000
31000000
00200000
00301000
,
00020000
00030010
00000200
00000301
,
00001000
00001000
00000100
00000000
,
00000010
00000010
00000100
00000000
,
00010000
00010000
00001000
00001000
,
00011000
00000000
01100000
00000000
;

//---------------dance-single - D. Bernardone----------------
#NOTES:
     dance-single:
     D. Bernardone:
     Beginner:
     1:
     0.099,0.117,0.031,0.000,0.000,85.000,4.000,0.000,0.000,0.000,0.000:
0000
0000
0000
0000
,
0000
0000
0000
0000
,
0000
0000
0000
0000
,
0000
0000
0000
0000
,
0000
0000
0000
0000
,
0000
0000
0000
0000
,
0000
0000
0000
0000
,
0000
0000
0000
0000
,
1000
0000
0000
0000
,
0001
0000
0100
0000
,
0010
0000
0000
0000
,
1000
0000
1000
0000
,
0100
0000
0000
0000
,
0010
0000
0001
0000
,
0100
0000
0000
0000
,
0010
0000
0000
0000
,
1000
0000
0000
0000
,
1000
0000
0100
0000
,
1000
0000
0000
0000
,
0001
0000
0001
0000
,
0001
0000
0000
0000
,
0010
0000
0100
0000
,
0010
0000
0000
0000
,
0001
0000
1000
0000
,
1000
0000
0000
0000
,
0100
0000
0000
0000
,
0100
0000
0000
0000
,
0110
0000
0000
0000
,
0001
0000
0000
0000
,
1000
0000
0000
0001
,
0000
0000
0100
0000
,
0100
0000
0010
0000
,
0100
0000
0000
0000
,
0001
0000
0000
0000
,
1000
0000
0000
0000
,
0100
0000
0100
0000
,
0010
0000
0000
0000
,
0010
0000
0000
0000
,
0010
0000
0000
0000
,
0010
0000
0000
0000
,
0001
0000
0000
0000
,
0001
0000
0000
0000
,
0001
0000
0000
0000
,
1000
0000
1001
0000
,
1000
0000
0000
0000
,
0100
0000
0000
0000
,
0010
0000
0000
0000
,
0001
0000
0001
0000
,
1000
0000
0000
0000
,
0010
0000
0000
0000
,
0100
0000
0000
0000
,
0001
0000
0001
0000
,
1000
0000
0000
0000
,
0010
0000
0000
0000
,
0010
0000
0000
0000
,
0110
0000
0000
0000
,
0001
0000
0000
0000
,
1000
0000
0000
0000
,
0001
0000
0000
0000
,
0010
0000
0100
0000
,
1000
0000
0000
0000
,
0010
0000
0000
0000
,
1000
0000
0000
0000
,
0100
0000
0010
0000
,
0001
0000
0000
0000
,
0001
0000
0000
0000
,
0001
0000
0000
0000
,
0001
0000
1000
0000
,
0100
0000
0000
0000
,
0100
0000
0000
0000
,
0100
0000
0000
0000
,
0100
0000
0000
0000
,
0010
0000
0000
0000
,
0001
0000
0000
0000
,
1000
0000
0000
0000
,
0001
0000
1001
0000
;

//---------------dance-single - D. Bernardone----------------
#NOTES:
     dance-single:
     D. Bernardone:
     Medium:
     6:
     0.488,0.703,0.194,1.000,0.008,271.000,25.000,144.000,0.000,0.000,0.000:
0000
0000
0000
0000
,
0000
0000
0000
0000
,
0000
0000
0000
0000
,
0000
0000
0000
0000
,
0000
0000
0000
0000
,
0000
0000
0000
0000
,
0000
0000
0000
0000
,
0000
0000
0000
0000
,
1000
0000
0000
0001
0100
0000
0000
0100
,
0010
0000
0000
0010
1000
0000
0000
1000
,
0100
0000
0100
0000
,
0010
0000
0000
0000
0001
0000
0000
0001
,
0100
0000
0000
0100
0010
0000
0000
0010
,
1000
0000
0000
1000
0001
0000
0000
0001
,
0010
0000
0000
0010
0100
0000
0000
0100
,
1000
0000
0000
1000
0001
0000
0000
0001
,
1000
1000
1000
1000
,
0100
0100
0010
0010
,
0001
0001
0001
0001
,
0100
0000
0100
0000
0001
0000
0001
0001
,
0010
0010
0010
0010
,
0100
0100
1000
1000
,
0010
0010
0010
0010
,
0100
0000
0100
0000
0001
0000
0001
0001
,
2000
0100
0000
0100
,
0000
0010
0000
0010
,
0000
0001
0000
3001
,
1001
1001
0110
0110
,
2000
3200
0320
0032
,
2003
3020
0230
0320
,
2030
0000
3002
0000
0203
0000
0320
0030
,
2002
3003
0220
0330
2002
3003
0220
0330
,
0002
0023
0230
0320
,
0032
2003
3020
0230
,
0302
0000
2003
0000
3200
0000
2300
3000
,
0220
0330
2002
3003
0220
0330
2002
3003
,
2000
3200
0302
0203
,
2300
3020
0032
0023
,
0230
0302
0023
0032
,
0203
2300
3200
0320
,
0230
0302
0023
2030
,
3020
0032
0203
2300
,
3200
0302
2003
3002
,
1003
0000
0000
0000
0000
0000
0000
0020
0130
0000
0000
0000
0000
0000
0000
0000
,
0001
0000
0010
0100
0010
0000
0000
0000
,
0001
0100
0000
0001
0000
0010
0000
0001
,
1000
0000
0100
0010
0100
0000
0000
0000
,
1000
0000
0000
0010
0000
0100
0001
0000
,
1000
0000
0100
0010
0100
0000
0000
0000
,
0010
0001
0000
0100
0000
0010
0000
1000
,
0100
0000
0010
0001
0100
0000
0000
0000
,
0010
0000
0000
1000
0000
0100
0010
0000
,
0002
0100
0000
0100
,
0000
0010
0000
0010
,
0000
1000
0000
1003
,
1001
1001
0110
0110
,
2000
3002
0203
0302
,
0023
0230
2300
3200
,
2300
0000
3020
0000
0230
0000
0302
0003
,
0022
0033
2200
3300
0022
0033
2200
3300
,
0002
0203
0320
2030
,
3200
2300
3020
0230
,
0302
0000
0023
0000
0032
0000
2003
3000
,
2020
3030
0202
0303
2020
3030
0202
0303
,
2000
3200
0302
2003
,
3002
0203
2300
3002
,
0203
2300
3002
2003
,
3200
0302
2003
3002
,
2003
3020
0032
2003
,
3002
0023
2030
3020
,
0032
2003
3002
0023
,
2030
3002
2003
3002
,
1003
0100
0010
0100
0001
0100
1000
0000
,
0001
0100
0010
0100
1000
0100
0001
0000
,
1000
0010
1000
0001
0010
0001
1000
0001
,
1001
0000
0000
0000
0000
0000
0000
0200
0310
0000
0000
0000
0000
0000
0000
0000
;

//---------------dance-single - D. Bernardone----------------
#NOTES:
     dance-single:
     D. Bernardone:
     Easy:
     3:
     0.236,0.234,0.124,0.124,0.000,181.000,16.000,16.000,0.000,0.000,0.000:
0000
0000
0000
0000
,
0000
0000
0000
0000
,
0000
0000
0000
0000
,
0000
0000
0000
0000
,
0000
0000
0000
0000
,
0000
0000
0000
0000
,
0000
0000
0000
0000
,
0000
0000
0000
0000
,
1000
0000
1000
0000
,
0100
0000
0010
0000
,
0001
0000
0001
0000
,
0100
0000
0010
0000
,
1000
0000
1000
0000
,
0001
0000
0010
0000
,
0100
0000
0100
0000
,
1000
0000
0001
0000
,
0100
0010
0100
0010
,
1000
0100
1000
0100
,
0010
0001
0010
0001
,
2000
3000
0002
0003
,
0100
0010
0100
0010
,
1000
0001
1000
0001
,
0010
0001
0010
0001
,
2000
3000
0020
0030
,
0200
0000
0000
0000
,
0302
0000
2003
0000
,
3200
0000
0000
0000
,
0310
0001
0100
0001
,
0010
0000
1001
0000
,
0100
0000
1001
0000
,
0010
0000
0010
0000
,
0100
1001
0010
1001
,
1000
0000
0110
0000
,
0001
0000
0110
0000
,
1000
0000
1000
0000
,
0001
0110
1000
0110
,
0001
0100
1000
0000
,
0001
0100
1000
0000
,
0001
0100
1000
0000
,
0001
0100
0010
0100
,
0001
0010
1000
0000
,
0001
0010
1000
0000
,
0001
0010
0100
0010
,
0002
0000
1003
0000
,
0010
0010
0010
0000
,
0100
0001
0001
0000
,
0010
0010
0010
0000
,
0100
0000
1000
0000
,
0010
0010
0010
0000
,
0100
0100
0001
0000
,
0010
0100
0010
0000
,
0001
0000
1000
0000
,
0020
0000
0000
0000
,
0230
0000
0302
0000
,
0023
0000
0000
0000
,
0130
1000
0010
1000
,
0100
0000
0110
0000
,
0010
0000
1001
0000
,
0100
0000
0100
0000
,
0010
1001
0100
0110
,
0001
0000
1001
0000
,
0100
0000
0110
0000
,
1000
0000
1000
0000
,
0001
0110
1000
1001
,
1000
0100
0001
0000
,
1000
0100
0001
0000
,
1000
0100
0001
0000
,
1000
0100
0010
0100
,
1000
0010
0001
0000
,
1000
0010
0001
0000
,
1000
0010
0001
0000
,
1000
0010
0100
0010
,
2000
0000
3000
0000
,
0200
0000
0300
0000
,
0010
0010
0001
0001
,
2000
0000
3001
0000
;

//---------------dance-double - D. Bernardone----------------
#NOTES:
     dance-double:
     D. Bernardone:
     Hard:
     9:
     0.580,0.619,0.310,0.264,0.136,449.000,40.000,34.000,2.000,0.000,0.000: // measure 1
00000000
00000000
00000000
00000000
,  // measure 2
00000000
00000000
00000000
00000000
,  // measure 3
00000000
00000000
00000000
00000000
,  // measure 4
00000000
00000000
00000000
00000000
,  // measure 5
20020000
00000000
30030000
00000000
,  // measure 6
02002000
03003000
00020020
00030030
,  // measure 7
00000202
00000000
00000303
00000000
,  // measure 8
00022000
00033000
20020000
30030000
,  // measure 9
10000000
00000000
00100000
01000000
00000000
00000000
00100000
00000000
00010000
00000000
00001000
01000000
00000000
00000000
00100000
00000000
,  // measure 10
00010000
00000000
00001000
00000100
00000000
00000000
00001000
00000000
00010000
00000000
00000010
00000100
00000000
00000000
00000001
00000000
,  // measure 11
00000010
00000000
00000000
00000100
00000000
00000000
00001000
00000000
00000010
00000000
00000000
00000100
00000000
00000000
00001000
00000000
,  // measure 12
00010000
00000000
00000000
00010000
00000000
00000000
00001000
00000000
01000000
00000000
00000000
00010000
00000000
00000000
01000000
00000000
,  // measure 13
00100000
00000000
01000000
00001000
00000000
00000000
00010000
00000000
00100000
00000000
01000000
00001000
00000000
00000000
00010000
00000000
,  // measure 14
00000010
00000000
00000100
00001000
00000000
00000000
00010000
00000000
00000100
00000000
00001000
00000010
00000000
00000000
00000010
00000000
,  // measure 15
00000100
00000000
00000001
00001000
00000000
00000000
00000100
00000000
00010000
00000000
00001000
00100000
00000000
00000000
01000000
00000000
,  // measure 16
00010000
00000000
00001000
00100000
01000000
00000000
00010000
00000000
00001000
00000000
00000100
00000010
00010000
00000000
00001000
00000000
,  // measure 17
00100000
00000000
00000000
00100000
00010000
00000000
00100000
00000000
01000000
00000000
00000000
10000000
00010000
00000000
00100000
00000000
,  // measure 18
00001000
00000000
00000000
00010000
00000010
00000000
00000100
00000000
00000001
00000000
00000010
00000100
00001000
00000000
00000010
00000000
,  // measure 19
00010000
00000000
00000000
00010000
00001000
00000000
00000000
00000000
01000000
00000000
00000000
01000000
00010000
00000000
00000000
00000000
,  // measure 20
10000000
00000000
01000000
00100000
01000000
00000000
00010000
00000000
00001000
00000000
00100000
01000000
00100000
00000000
00001000
00000000
,  // measure 21
00010000
00000000
00000000
00000100
00000010
00000000
00000001
00000000
00000100
00000000
00000000
00001000
00000100
00000000
00000010
00000000
,  // measure 22
00000001
00000000
00000000
00000010
00000100
00000000
00001000
00000000
00010000
00000000
01000000
10000000
00010000
00000000
10000000
00000000
,  // measure 23
01000000
00000000
00100000
00001000
00010000
00000000
00000100
00000000
00001000
00000000
00000001
00000010
00000100
00000000
00010000
00000000
,  // measure 24
00001000
00000000
00100000
00010000
10000000
00000000
01000000
00000000
00010000
00000000
00001000
00010000
00001000
00010000
00001000
00000000
,  // measure 25
01000000
01001000
00011000
10010000
,  // measure 26
01000000
01100000
00001000
00011000
,  // measure 27
00000100
00000000
00001100
00000000
00001000
00000010
00001000
00000000
,  // measure 28
00001100
00011000
00110000
11000000
,  // measure 29
10000000
00000000
00100000
01000000
00000000
00010000
00100000
00001000
,  // measure 30
00010000
00000000
00000100
00000010
00000000
00000001
00000100
00000010
,  // measure 31
00010000
00000000
00001000
00001000
00000000
01000000
00100000
00010000
,  // measure 32
00002000
00003200
00000320
00010030
,  // measure 33
00001000
00000000
00100000
01000000
00000000
10000000
00010000
01000000
,  // measure 34
00001000
00000000
00010000
00000100
00000000
00000010
00000001
00000100
,  // measure 35
00000010
00000000
00010000
00010000
00000000
00001000
00010000
00100000
,  // measure 36
02000000
23000000
32000000
03001000
,  // measure 37
00010000
00000100
00000010
00000001
00000100
00000010
00010000
00000000
,  // measure 38
00001000
00100000
01000000
10000000
00100000
01000000
00001000
00000000
,  // measure 39
00010000
00000100
00000010
00000001
00000100
00000010
00001000
00000000
,  // measure 40
00000001
00000100
00001000
00010000
01000000
00100000
00001000
00010000
,  // measure 41
00001000
00001000
01000000
00000000
00100000
10000000
01000000
00010000
,  // measure 42
00001000
00001000
00010000
00000000
00000010
00000100
00001000
00010000
,  // measure 43
00100000
00100000
01000000
00000000
00001000
00010000
00001000
00000100
,  // measure 44
00000010
00000000
00000000
00000000
000000M0
00000000
00000000
01000000
00020000
00000000
00000000
00000000
00000000
00000000
00000000
00000000
,  // measure 45
10030000
00000000
01000000
00010000
00001000
00000000
00011000
00000000
,  // measure 46
00010000
00000010
00000000
00000110
00000000
00001001
00000000
00000001
,  // measure 47
00000010
00000000
00001000
00010000
00001000
00000000
00011000
00000000
,  // measure 48
01000000
00000000
00000000
00100000
00000000
10000000
01000000
01000000
,  // measure 49
00100000
00000000
00001000
00010000
00001000
00000000
00000110
00000000
,  // measure 50
00000001
00000100
00000000
00010010
00000000
01001000
00000000
00010000
,  // measure 51
00100000
00000000
01000000
10000000
00100000
00000000
01010000
00000000
,  // measure 52
00001000
00000000
00010000
00001100
00000000
00000100
00000010
00000010
,  // measure 53
00000001
00000100
00001000
00000000
00000100
00001000
00010000
00000000
,  // measure 54
00001000
00010000
01000000
00000000
00010000
01000000
10000000
00000000
,  // measure 55
01000000
10000000
00100000
00000000
01000000
00100000
01000000
00000000
,  // measure 56
01010000
00011000
00001010
00000101
,  // measure 57
00000002
00000000
00000013
00000200
00000000
00010300
00001000
00010000
,  // measure 58
00200000
00000000
01300000
00020000
00000000
00130000
01000000
00010000
,  // measure 59
00002000
00000000
00000010
00003020
00000000
00000031
00000100
00001000
,  // measure 60
00011000
01100000
10010000
11000000
,  // measure 61
20000000
00000000
31000000
00200000
00000000
10300000
00100000
00001000
,  // measure 62
00020000
00000000
00030010
00000200
00000000
00000301
00000010
00001000
,  // measure 63
00020000
00000000
00100000
00230000
00000000
01300000
00001000
00010000
,  // measure 64
00011000
00000110
00001100
00000101
,  // measure 65
00000001
00000010
00001000
00010000
01000000
10000000
01000000
00010000
,  // measure 66
00001000
00000100
00001000
00010000
00100000
10000000
00100000
00010000
,  // measure 67
00001000
00000010
00001000
00010000
01000000
10000000
01000000
00010000
,  // measure 68
00001000
00000010
00000100
00000000
00000100
00000010
00000001
00001000
,  // measure 69
00000001
00000100
00001000
00100000
00001000
00000100
00000001
00000001
,  // measure 70
00000010
00001000
00010000
00100000
01000000
00010000
10000000
00100000
,  // measure 71
10000000
01000000
00010000
00000010
00010000
01000000
10000000
10000000
,  // measure 72
00100000
01000000
00001000
00000000
00001000
00000100
00000001
00000010
,  // measure 73
00000011
00000001
00000100
00001000
00020000
01000000
01000000
01030000
,  // measure 74
01100000
10000000
00100000
00010000
00002000
00000100
00000100
00003100
,  // measure 75
00000101
00000010
00010000
00001000
00010000
01000000
10000000
00010000
,  // measure 76
00100000
00000000
00000000
00000000
00M00000
00000000
00000000
00000100
00002000
00000000
00000000
00000000
00000000
00000000
00000000
00000000
,  // measure 77
00003000
00000000
00000000
00000000
;

//---------------dance-double - D. Bernardone----------------
#NOTES:
     dance-double:
     D. Bernardone:
     Medium:
     6:
     0.397,0.472,0.031,0.396,0.000,303.000,4.000,51.000,0.000,0.000,0.000:
00000000
00000000
00000000
00000000
,
00000000
00000000
00000000
00000000
,
00000000
00000000
00000000
00000000
,
00000000
00000000
00000000
00000000
,
00000002
00000000
00000000
00000000
,
00000020
00000003
00000200
00000030
,
00020000
00000000
00000000
00000300
,
00002000
00030000
02000000
00003000
,
00200000
03000000
00000000
00000000
,
20000000
00300000
02000000
30000000
,
00020000
00000000
00000000
03000000
,
00002000
00030000
00000020
00003000
,
00000002
00000000
00000000
00000030
,
00000200
00000003
00002000
00000300
,
00020000
00000000
00000000
00003000
,
00200000
00030000
20000000
00300000
,
30010000
00100000
01000000
00010000
,
00001000
00000100
00000010
00010000
,
00001000
00100000
01000000
00010000
,
00001000
00000000
00000100
00000000
00000001
00000000
00001000
00000100
,
00000100
00000010
00001000
00010000
,
01000000
00100000
00001000
00010000
,
00000010
00000100
00001000
00010000
,
00100000
00000000
01000000
00000000
00010000
00000000
00100000
00100000
,
01000000
01000000
01000000
01000000
,
10000000
10000000
00010000
00010000
,
01000000
01000000
01000000
01000000
,
00002000
00003200
00000320
00002030
,
00003001
00000000
00000010
00000100
00000000
00000100
00001000
00000000
,
00000010
00000000
00010000
00001000
00000000
00001000
01000000
00000000
,
00010000
00000000
00100000
00100000
00000000
01000000
01000000
00000000
,
10000000
00000000
00100000
00000000
00010000
00000000
00001000
00010000
,
00010000
00000000
00000100
00000010
00000000
00000010
00000001
00000000
,
00000100
00000000
00000010
00010000
00000000
00010000
00001000
00000000
,
00100000
00000000
01000000
01000000
00000000
10000000
10000000
00000000
,
01000000
00010000
00001000
00010000
,
00000100
00000010
00000001
00000000
00000100
00000010
00010000
00000000
,
00001000
00100000
00010000
00000000
01000000
00100000
10000000
00000000
,
01000000
00010000
00001000
00000000
00010000
00000010
00000100
00000000
,
00000001
00000010
00000100
00010000
00001000
00010000
00001000
00000000
,
01000000
00010000
00100000
00000000
01000000
10000000
00100000
00000000
,
01000000
00001000
00010000
00000000
00001000
00010000
00000100
00000000
,
00000010
00000001
00000100
00000000
00000010
00001000
00000100
00000000
,
00001001
00000000
10010000
00000000
,
10000000
00000000
00100000
01000000
00010000
00000000
00000000
00000000
,
00100000
00001000
00000000
00010000
00000000
00000010
00000000
00000100
,
00000001
00000000
00000010
00000100
00001000
00000000
00000000
00000000
,
00000010
00000000
00000000
00010000
00000000
00001000
00100000
00000000
,
00010000
00000000
01000000
00100000
10000000
00000000
00000000
00000000
,
01000000
00010000
00000000
00001000
00000000
00010000
00000000
00000000
,
00000010
00000000
00000100
00000001
00000010
00000000
00000000
00000000
,
00000100
00000000
00000000
00010000
00000000
00001000
00100000
00000000
,
01000000
01000000
01000000
01000000
,
10000000
10000000
00010000
00010000
,
01000000
01000000
01000000
01000000
,
00002000
00003020
00000032
00000203
,
00000310
00000000
00001000
00000100
00000000
00000100
00010000
00000100
,
00010000
00000000
00001000
01000000
00000000
01000000
00010000
01000000
,
00010000
00000000
10000000
10000000
00000000
00010000
00010000
01000000
,
00020000
00230000
00302000
00023000
,
00030010
00000000
00000100
00000001
00000000
00000001
00001000
00000001
,
00001000
00000000
00000100
00010000
00000000
00010000
00001000
00010000
,
00001000
00000000
01000000
01000000
00000000
00100000
00100000
10000000
,
00200000
02300000
03002000
00023000
,
00030100
00000020
00000001
00000000
00000130
00020000
00001000
00000000
,
00030010
00020000
00001000
00000000
00031000
02000000
00010000
00000000
,
03100000
20000000
00010000
00000000
31000000
00200000
00010000
00000000
,
00301000
00000100
00000010
00001000
,
00000001
00000020
00000100
00000000
00000031
00002000
00000010
00000000
,
00003100
00020000
00001000
00000000
00031000
00200000
01000000
00000000
,
00310000
20000000
00100000
00000000
31000000
00200000
00010000
00000000
,
00301000
00000010
00000100
00001000
,
00000002
00000010
00000100
00001000
,
00020003
00001000
00000100
00000010
,
00030002
00000010
00000100
00001003
,
00000110
00000000
02200000
00000000
,
03300000
00000000
00000000
00000000
;

//---------------dance-double - D. Bernardone----------------
#NOTES:
     dance-double:
     D. Bernardone:
     Challenge:
     10:
     0.586,0.501,0.419,0.287,0.070,438.000,54.000,37.000,0.000,0.000,0.000:
00000000
00000000
00000000
00000000
,
00000000
00000000
00000000
00000000
,
00000000
00000000
00000000
00000000
,
00000000
00000000
00000000
00000000
,
20000000
00000000
00000000
00000000
,
00020000
30000000
00002000
00030000
,
00000002
00000000
00000000
00003000
,
00002000
00000003
00020000
00003000
,
10030000
00000000
00100000
01000000
00000000
00000000
00001000
00000000
00000100
00000000
00000010
00001000
00000000
00000000
01000000
00000000
,
00100000
00000000
00000010
00001000
00000000
00000000
00000100
00000000
00010000
00000000
00100000
01000000
00000000
00000000
00001000
00000000
,
00010000
00000000
00000100
00000010
00000000
00000000
00000001
00000000
00000100
00000000
00001000
00010000
00000000
00000000
01000000
00000000
,
00100000
00000000
00010000
10000000
00000000
00000000
00100000
00000000
01000000
00000000
00001000
00010000
00000000
00000000
00000001
00000000
,
00000100
00000000
00000010
00001000
00000000
00000000
00100000
00000000
01000000
00000000
00000100
00001000
00000000
00000000
00000010
00000000
,
00010000
00000000
01000000
00100000
00000000
00000000
00001000
00000000
00000100
00000000
00000010
00010000
00000000
00000000
00001000
00000000
,
00100000
00000000
01000000
10000000
00000000
00000000
00100000
00000000
01000000
00000000
00000100
00001000
00000000
00000000
00000100
00000000
,
00000010
00000000
00001000
00010000
00000000
00000000
01000000
00000000
00100000
00000000
00000010
00001000
00000000
00000000
00000001
00000000
,
00000101
00001010
00000101
00001010
,
01010000
10100000
01010000
10100000
,
01001000
00010010
01001000
00010010
,
00000101
00000000
00010010
00000000
01001000
00000000
10010000
00001000
,
01001000
11000000
01001000
11000000
,
00110000
00010010
00110000
00010010
,
00010100
00000101
00010100
00000101
,
00011000
00000000
01100000
00000000
00011000
00000000
00001001
00001000
,
00000002
00001000
00010000
00001000
,
02000003
00010000
03000200
00001000
,
00200300
00000010
00001000
00010000
,
02300000
23000000
30002000
00003020
,
00000031
01000000
00010000
01000000
00000000
00000001
00100000
00010000
,
01000000
00000001
00000010
00000100
00000000
10000000
00000100
00010000
,
00001000
00000000
00011000
00011000
00000000
00010000
00000001
00001000
,
00000002
00000000
02000003
00000000
03002000
00000000
10003000
10010000
,
10000000
00000010
00010000
00000100
00000000
10000000
00000010
00000100
,
00000001
00010000
00000100
10000000
00000000
00100000
01000000
00000100
,
00010000
00000000
00011000
00011000
00000000
00001000
10000000
00010000
,
20000000
00000000
30000020
00000000
00002030
00000000
00003001
00000101
,
00000100
00000010
00100000
01000000
10000000
00000010
00000100
00000001
,
00000000
00001000
00000100
01000000
00100000
10000000
00000100
00000010
,
00000000
00000001
01000000
00010000
00100000
00000001
01000000
00001000
,
00000000
10000000
01000000
00010000
00001000
00010000
01000000
11000000
,
10000000
00001000
00000010
00000100
00010000
00100000
10000000
00010000
,
01000000
00000001
00000010
00000001
01000000
00001000
00010000
00000001
,
00100000
01000000
10000000
00000100
00010000
00000010
01000000
00100000
,
10000000
00000000
00000000
00000000
00000000
00000000
00000000
00000100
10000000
00000000
00000000
00000000
00000000
00000000
00000000
00000000
,
00100000
01000000
00001000
00000100
00000001
00000100
00001000
01000000
,
10000000
01000000
00001000
00000010
00000001
00000100
00000010
00010000
,
00100000
10000000
00100000
00010000
00000010
00000001
00000010
00010000
,
00011000
00000000
00000000
11000000
00000000
00101000
00011000
00000000
,
00000001
00000010
00000100
00010000
00100000
10000000
00100000
00000100
,
00000001
00000100
00000010
00010000
01000000
00010000
00000010
00000001
,
00000010
00000100
00001000
01000000
00100000
10000000
01000000
00100000
,
00101000
00000000
00000000
00001001
00000000
00010100
00011000
00000000
,
20000000
00100000
00010000
00001000
,
30000020
00000100
02000030
00010000
,
03000200
00010000
00001000
00000310
,
00000002
00020003
02030000
23000000
,
30010000
01000000
00000001
00000010
00000000
00000001
01000000
00001000
,
00100000
00000100
01000000
00100000
00000000
10000000
00000010
00010000
,
00000100
00000000
00000110
00000110
00000000
00000001
01000000
00100000
,
20000000
00000000
30002000
00000000
00003020
00000000
00000031
00000101
,
00001000
00000100
10000000
00100000
00000000
10000000
00000100
00010000
,
00000010
01000000
00100000
10000000
00000000
00000100
00000010
00000001
,
01000000
00000000
01100000
01100000
00000000
00001000
00100000
01000000
,
20000000
30002000
00003200
00000302
,
00001003
00000010
10000000
00010000
10000000
00000010
01000000
00010000
,
00100000
00000001
00001000
00000001
00100000
00001000
00100000
00010000
,
10000000
00000100
00000010
00000100
10000000
00000100
00000010
00000100
,
01000000
00000001
01000000
00001000
01000000
00000001
00001000
00001010
,
00000001
00100000
01000000
10000000
00100000
01000000
00000001
00000010
,
00000100
10000000
00100000
01000000
00000100
00000010
00000001
00001000
,
00000001
01000000
00100000
10000000
00010000
10000000
00000100
00000010
,
00000001
00010000
01000000
00010000
00000001
00010000
00100000
10000000
,
00010000
00010000
01000000
00000100
00001000
00001000
00000010
00100000
,
00010000
00010000
01000000
00000010
00010000
00010000
00000100
00100000
,
01000000
00010000
00001000
00000100
00000010
00010000
00000100
00000010
,
00001001
00000000
00000000
00000000
00000000
00000000
00000000
02000000
00000002
00000000
00000000
00000000
00000000
00000000
00000000
00000000
,
03000003
00000000
00000000
00000000
;
