#TITLE:Space War III;
#SUBTITLE:;
#ARTIST:Diclonius Kid;
#TITLETRANSLIT:;
#SUBTITLETRANSLIT:;
#ARTISTTRANSLIT:;
#GENRE:Electronic Score;
#CREDIT:Sync by Hellrazor;
#BANNER:Space War III-bn.png;
#BACKGROUND:Space War III-bg.png;
#LYRICSPATH:;
#CDTITLE:;
#MUSIC:Space War III.ogg;
#OFFSET:-0.0137;
#SAMPLESTART:31.301;
#SAMPLELENGTH:12.000;
#SELECTABLE:YES;
#DISPLAYBPM:200.000:100.000;
#BPMS:0=199.875,96=99.9375,111.875=199.875,208=99.9375,226=199.875;
#STOPS:;
#BGCHANGES:0.000=Space War III-bg.png=1.000=0=0=1=====,
16.000=In The Groove Rebirth/207_JB_HD.mpg=1.000=0=0=1=====,
24.000=In The Groove Rebirth/257_JB_HD.mpg=1.000=0=0=1=====,
32.000=In The Groove Rebirth/1135_JumpBack.mpg=1.000=0=0=1=====,
48.000=In The Groove Rebirth/896_JumpBack.mpg=1.000=0=0=1=====,
64.000=In The Groove Rebirth/1151_JumpBack.mpg=1.000=0=0=1=====,
80.000=Space War III-bg.png=1.000=0=0=1=====,
81.000=Space War III-bg.png=1.000=0=0=1====1^0^0^1=,
82.000=Space War III-bg.png=1.000=0=0=1=====,
83.000=Space War III-bg.png=1.000=0=0=1====0^1^0^1=,
84.000=Space War III-bg.png=1.000=0=0=1=====,
85.000=Space War III-bg.png=1.000=0=0=1====0^0^1^1=,
86.000=Space War III-bg.png=1.000=0=0=1=====,
87.000=Space War III-bg.png=1.000=0=0=1====1^0^0^1=,
88.000=Space War III-bg.png=1.000=0=0=1=====,
89.000=Space War III-bg.png=1.000=0=0=1====0^1^0^1=,
90.000=Space War III-bg.png=1.000=0=0=1====0^0^1^1=,
91.000=Space War III-bg.png=1.000=0=0=1====0^1^0^1=,
92.000=Space War III-bg.png=1.000=0=0=1====1^0^0^1=,
92.500=Space War III-bg.png=1.000=0=0=1====0^1^0^1=,
93.000=Space War III-bg.png=1.000=0=0=1====0^0^1^1=,
93.500=Space War III-bg.png=1.000=0=0=1====1^0^0^1=,
94.000=Space War III-bg.png=1.000=0=0=1====0^1^0^1=,
94.500=Space War III-bg.png=1.000=0=0=1====0^0^1^1=,
95.000=Space War III-bg.png=1.000=0=0=1=====,
95.250=Space War III-bg.png=1.000=0=0=1====1^0^0^1=,
95.500=Space War III-bg.png=1.000=0=0=1====0^1^0^1=,
95.750=Space War III-bg.png=1.000=0=0=1====0^0^1^1=,
96.000=In The Groove Rebirth/821_JumpBack.mpg=1.000=0=0=1=====,
104.000=In The Groove Rebirth/408_JB_HD.mpg=1.000=1=0=1===CrossFade==,
112.000=In The Groove Rebirth/890_JumpBack.mpg=1.000=0=0=1=====,
128.000=In The Groove Rebirth/1135_JumpBack.mpg=1.000=0=0=1=====,
144.000=In The Groove Rebirth/896_JumpBack.mpg=1.000=0=0=1=====,
176.000=In The Groove Rebirth/881_JumpBack.mpg=1.000=0=0=1=====,
208.000=In The Groove Rebirth/415_JB_HD.mpg=1.000=1=0=1===CrossFade==,
216.000=In The Groove Rebirth/1151_JumpBack.mpg=1.000=1=0=1===CrossFade==,
224.000=Space War III-bg.png=1.000=0=0=1=====,
226.000=In The Groove Rebirth/207_JB_HD.mpg=1.000=0=0=1=====,
242.000=In The Groove Rebirth/257_JB_HD.mpg=1.000=0=0=1=====,
258.000=In The Groove Rebirth/881_JumpBack.mpg=1.000=0=0=1=====,
264.000=Space War III-bg.png=1.000=0=0=1====0^1^0^1=,
264.500=Space War III-bg.png=1.000=0=0=1====0^0^1^1=,
265.000=Space War III-bg.png=1.000=0=0=1=====,
266.000=In The Groove Rebirth/821_JumpBack.mpg=1.000=0=0=1=====,
274.000=In The Groove Rebirth/415_JB_HD.mpg=1.000=0=0=1=====,
280.000=Space War III-bg.png=1.000=0=0=1====0^1^0^1=,
280.500=Space War III-bg.png=1.000=0=0=1====1^0^0^1=,
281.000=Space War III-bg.png=1.000=0=0=1=====,
282.000=In The Groove Rebirth/890_JumpBack.mpg=1.000=0=0=1=====,
290.000=In The Groove Rebirth/408_JB_HD.mpg=1.000=0=0=1=====,
291.000=In The Groove Rebirth/408_JB_HD.mpg=1.000=0=0=1=SongBgWithMovieViz====,
292.000=In The Groove Rebirth/408_JB_HD.mpg=1.000=0=0=1=====,
293.000=In The Groove Rebirth/408_JB_HD.mpg=1.000=0=0=1=SongBgWithMovieViz====,
294.000=In The Groove Rebirth/408_JB_HD.mpg=1.000=0=0=1=====,
295.000=In The Groove Rebirth/408_JB_HD.mpg=1.000=0=0=1=SongBgWithMovieViz====,
296.000=In The Groove Rebirth/408_JB_HD.mpg=1.000=0=0=1=====,
297.000=In The Groove Rebirth/408_JB_HD.mpg=1.000=0=0=1=SongBgWithMovieViz====,
298.000=In The Groove Rebirth/1151_JumpBack.mpg=1.000=0=0=1=====,
299.000=In The Groove Rebirth/1151_JumpBack.mpg=1.000=0=0=1=SongBgWithMovieViz====,
300.000=In The Groove Rebirth/1151_JumpBack.mpg=1.000=0=0=1=====,
301.000=In The Groove Rebirth/1151_JumpBack.mpg=1.000=0=0=1=SongBgWithMovieViz====,
302.000=In The Groove Rebirth/1151_JumpBack.mpg=1.000=0=0=1=====,
303.000=In The Groove Rebirth/1151_JumpBack.mpg=1.000=0=0=1=SongBgWithMovieViz====,
304.000=In The Groove Rebirth/1151_JumpBack.mpg=1.000=0=0=1=====,
305.000=In The Groove Rebirth/1151_JumpBack.mpg=1.000=0=0=1=SongBgWithMovieViz====,
306.000=In The Groove Rebirth/207_JB_HD.mpg=1.600=0=0=1=====,
314.000=In The Groove Rebirth/881_JumpBack.mpg=2.000=0=0=1=====,
318.000=Space War III-bg.png=1.000=0=0=1====1^0^0^1=,
319.500=Space War III-bg.png=1.000=0=0=1====0^0^1^1=,
321.000=Space War III-bg.png=1.000=0=0=1=====,
99999=-nosongbg-=1.000=0=0=0 // don't automatically add -songbackground-
;
#BGCHANGES2:32.000=white flash=2.000=0=0=1=====,
40.000=white flash=2.000=0=0=1=====,
48.000=white flash=2.000=0=0=1=====,
56.000=white flash=2.000=0=0=1=====,
64.000=yellow flash=2.000=0=0=1=====,
72.000=yellow flash=2.000=0=0=1=====,
225.250=flash=2.000=0=0=1====1^0^0^1=,
234.000=white flash=2.000=0=0=1=====,
242.000=white flash=2.000=0=0=1=====,
250.000=white flash=2.000=0=0=1=====,
258.000=yellow flash=2.000=0=0=1=====,
266.000=yellow flash=2.000=0=0=1=====,
274.000=white flash=2.000=0=0=1=====,
282.000=yellow flash=2.000=0=0=1=====,
;
#KEYSOUNDS:;

//---------------dance-single - Brendino----------------
#NOTES:
     dance-single:
     Brendino:
     Challenge:
     11:
     0.983,0.000,0.495,0.748,0.402:
0000
0000
0000
0000
,
0000
0000
0000
0000
,
0000
0000
0000
0000
,
0000
0000
0000
0000
,
1000
0001
1000
0000
0100
0000
0000
0010
0000
0000
0001
1000
0001
0000
0000
0100
,
0010
0100
0010
0000
1000
0000
0000
0100
0000
0000
0010
0001
0010
0000
0000
0100
,
1000
0100
1000
0000
0001
0000
0000
0100
0000
0000
0010
1000
0010
0000
0000
1000
,
0001
1000
0001
0000
0010
0000
0000
0100
0000
0000
1000
0100
0010
0001
1000
0010
,
0100
0001
1000
0100
0010
0100
1000
0001
,
0100
0010
1000
0100
0010
0001
0100
0100
,
0101
0100
0010
1000
0001
1000
0100
0010
,
0001
0000
0100
0000
0010
0000
1000
0000
0001
0000
0000
0010
0100
0000
0100
0000
,
1100
0000
0001
0000
0100
0000
0010
1000
0010
0100
0010
0000
0100
0000
0001
1000
,
0001
0000
1000
0000
0100
0000
0010
0100
0010
0001
0010
0000
0001
0000
0001
0000
,
1001
0000
0100
0000
0010
0000
1000
0001
0010
0100
1000
0000
0010
0000
0100
0001
,
0100
0000
0010
0000
1000
0000
0000
0001
1000
0000
1000
0000
0100
0000
0100
0000
,
0110
0010
0001
1000
0001
0100
0010
1000
,
0001
1000
0100
0010
0001
0100
0010
0010
,
0101
0010
1000
0100
1000
0001
0100
0010
,
1000
0000
0010
0000
0100
0000
0001
0000
1000
0000
0000
0100
0010
0000
0010
0000
,
0011
00MM
0200
0300
1010
M0M0
0200
0300
,
1001
M00M
0020
0030
0110
0MM0
0002
0003
,
0011
0100
1100
1000
1001
0100
0101
0010
,
0110
0000
1010
0000
1010
0000
1001
0000
1001
0000
0011
0000
0001
0010
0001
0010
,
0100
0000
1000
0000
0001
0000
0000
0001
0100
0000
0100
0000
0010
1000
0100
0010
,
0001
0000
0001
0100
0001
0000
0001
1000
0001
0000
0010
0000
0100
1000
0010
0100
,
0010
0000
0010
0000
1000
0000
0000
1000
0100
0000
0010
0000
0010
0001
0100
0001
,
1000
0000
1000
0001
1000
0000
1000
0100
1000
0000
0001
0000
0100
0010
1000
0001
,
1000
0100
0010
0001
0010
0100
1000
0001
,
0100
0010
0100
0001
1000
0001
0010
0010
,
0010
0100
1000
0001
0100
0010
1000
0010
,
0100
0000
0001
0000
1000
0000
0001
0000
0010
0000
0000
0000
0100
0000
1000
0100
,
1000
0001
0100
0010
1000
0010
0100
0001
,
1000
0100
0010
0001
1000
1000
0001
0001
,
0001
0100
0010
1000
0100
1000
0001
0100
,
0010
0000
0000
0000
1000
0000
0000
0000
0100
0000
0010
0000
0100
0010
0100
0010
,
0002
0000
2003
0000
3010
0200
0302
0203
,
0320
0000
0000
0000
1000
0000
0000
0130
0001
0000
0200
0000
0320
0000
2030
0000
,
3200
0000
0000
0020
0030
0002
0003
2000
,
0000
0000
3300
0000
0010
0000
0000
0100
0001
0000
0200
0000
0320
0000
0000
0000
,
2030
0000
3200
0000
0300
0020
0032
0023
,
0230
0000
0000
0000
1300
0000
0000
0001
0100
0000
0200
0000
0320
0000
2030
0000
,
3002
0000
2003
0000
3000
0020
0030
0100
,
0000
0000
0001
0000
0000
0000
2000
0000
3000
0000
0001
0000
1000
0010
0100
0010
,
0200
0000
0302
0000
0003
2000
3200
0320
,
0032
0000
0000
0000
0103
0000
0000
0100
0010
0000
2000
0000
3002
0000
0023
0000
,
0230
0000
2300
0000
3000
0002
0003
0200
,
0000
0000
0000
0000
0310
0000
0000
1000
0001
0000
2000
0000
3010
0000
0100
0001
,
2000
3000
0200
0320
0000
0032
2003
3020
,
0230
0320
0000
0001
0030
0020
2030
3200
,
0320
0030
0002
0203
0300
0002
0203
0320
,
0030
0000
0000
0000
0000
0000
0000
0000
2000
0000
0000
0000
0000
0000
0000
0000
3200
0000
0000
0000
0000
0000
0000
0000
0320
0000
0000
0000
0000
0000
0000
0000
0030
0000
0000
0000
0000
0000
0000
0000
0002
0000
0000
0000
0000
0000
0000
0000
0203
0000
0000
0000
0000
0000
0000
0000
0320
0000
0000
0000
0000
0000
0000
0030
,
1001
0000
1000
0000
0010
0000
0000
0100
0001
0000
1000
0000
1000
0100
0010
0001
,
0100
0000
0100
0010
0100
0000
0100
1000
0100
0000
0010
0000
0010
1000
0001
0010
,
0100
0000
0001
0000
0100
0000
0000
0100
1000
0000
0010
0000
0010
0001
0010
0100
,
0010
0000
0010
1000
0100
0000
0010
0001
1000
0000
0010
0000
0010
0100
0001
1000
,
1001
0000
1100
0000
0000
1101
0000
0000
0101
0000
0100
0000
0010
0000
1000
0000
,
0100
0010
0100
1000
0001
0100
0010
1000
,
0001
0010
0001
0010
1100
0001
0100
0010
,
1000
0001
0010
0100
1000
0001
1000
0001
,
0010
0000
0100
0010
0100
0000
0010
0000
1001
0000
0100
0000
0010
0000
1000
0000
,
0010
0100
0001
1000
0100
0010
0001
0100
,
0001
1000
0001
1000
0011
0010
0100
1000
,
0001
0000
0100
0000
0010
0000
1000
0000
0001
0000
0010
0000
0001
0000
0010
0100
,
1000
0000
0100
0000
1000
0000
0100
0000
0110
0000
0010
0000
0001
0000
1000
0001
,
0100
0010
0100
0000
0010
0000
1000
0000
1000
0000
0001
0000
0010
0000
0100
0000
,
1000
0000
0001
0000
1000
0000
0001
0000
0101
0000
0100
0000
0010
0000
1000
0010
,
0100
0001
0100
0010
1000
0000
1000
0000
0001
0000
0010
0000
0001
0000
0010
0000
,
1000
0000
0001
0000
1000
0000
0001
0000
0110
0000
0100
0000
1000
0000
0001
0010
,
0100
1000
0001
0000
1000
0000
1000
0000
1000
0000
0010
0000
0100
0000
0001
0000
,
1000
0000
0010
0000
1000
0000
0010
0000
1001
0000
1000
0000
0100
0000
0010
0001
,
0010
0100
1000
0000
0001
0000
1000
0000
0100
0000
0100
0000
0100
0000
1000
0000
,
0010
1000
0001
1000
0100
1000
0001
0000
1001
0000
M00M
0000
0200
0000
0300
0000
,
1010
M0M0
0002
0003
1100
MM00
0020
0030
,
1001
M00M
0200
0300
1010
M0M0
0002
0003
,
1100
MM00
0020
0030
0101
0M0M
2000
3000
,
0011
00MM
0200
0300
1010
0100
1001
0001
,
1100
0010
0011
0001
0110
1000
1001
0100
,
1010
0001
1001
0100
1100
0110
0110
0011
,
1001
0000
1010
0000
1000
0010
1000
0010
0200
0000
0300
0000
0M00
0000
0200
0000
,
0300
0M00
0200
0300
0000
0000
0000
0000
;

//---------------dance-double - D. Bernardone----------------
#NOTES:
     dance-double:
     D. Bernardone:
     Easy:
     5:
     0.336,0.000,0.299,0.159,0.005:
00000000
00000000
00000000
00000000
,
00000000
00000000
00000000
00000000
,
00000000
00000000
00000000
00000000
,
00000000
00000000
00000000
00000000
,
10000000
01000000
00100000
00100000
,
00010000
01000000
00001000
00001000
,
00100000
00010000
01000000
01000000
,
00001000
00001000
00010000
00020000
,
00030400
00000000
00000000
00000000
,
00000000
00000000
00000000
00000000
,
00004300
00000000
00000000
00000000
,
00000000
00000000
00000000
00000000
,
00003001
00000100
00000010
00000010
,
00010000
00001000
01000000
01000000
,
00010000
00100000
01000000
01000000
,
10000000
00010000
01000000
01000000
,
00004000
00000000
00000000
00000000
,
00000000
00000000
00000000
00000000
,
00043000
00000000
00000000
00000000
,
00000000
00000000
00000000
00000000
,
00030100
00000000
00000110
00000000
,
00001001
00000000
00000110
00000000
,
00001001
00001001
00000110
00000110
,
00001000
00000100
00010000
00001000
,
00100000
00010000
01000000
10000000
,
01000000
00010000
00100000
00001000
,
00010000
00000010
00001000
00000100
,
00000001
00000100
00001000
00000010
,
00040000
00000000
00000000
00000000
,
00034000
00000000
00000000
00000000
,
00403000
00000000
00000000
00000000
,
00340000
00000000
00000000
00000000
,
04030000
00000000
00000000
00000000
,
03400000
00000000
00000000
00000000
,
40300000
00000000
00000000
00000000
,
30040000
00000000
00000000
00000000
,
01030000
01000000
00000000
00001000
,
00001000
00001000
00000000
00010000
,
00020000
00000000
00030200
00000000
,
00002300
00000000
00003000
00000001
,
00000001
00000000
00000000
00000100
,
00000100
00000100
00000000
00000010
,
00000020
00000000
00020030
00000000
,
00031000
00001000
00001000
01000000
,
01000000
01000000
00000000
00010000
,
00010000
00010000
00000000
10000000
,
20000000
00000000
32000000
00000000
,
23000000
00000000
30000000
00010000
,
00010000
00000000
10010000
00000000
,
01000000
00000000
01001000
00000000
,
00001000
00000000
00010000
00000100
,
00001000
00000010
00010000
00000100
,
00001000
00000001
00000100
00001000
,
00010000
01000000
10000000
00010000
,
00100000
01000000
10000000
00100000
,
00010000
00001000
00000010
00000001
,
00000100
00000000
00000100
00000000
00000000
00000110
00000000
00000000
00004000
00000000
00000000
00000000
00000000
00000000
00000000
00000000
,
00000000
00000000
00000000
00000000
,
00003100
00000100
00040100
00000000
,
00000000
00000000
00031000
01000000
,
00010000
00100000
04000000
00000000
,
00000000
00000000
00000000
00000000
,
13000000
00010000
10040000
00000000
,
00000000
00000000
01030000
00001000
,
00100000
00010000
10000000
01000000
,
00100000
00100000
00010000
01000000
,
00001000
00002000
00013000
00000100
,
00001000
00001000
00000020
00000230
,
00000302
00000023
00000130
00010000
,
00001000
00001000
01000000
00010000
,
00200000
02300000
13000000
01000000
,
00100000
00100000
01100000
01100000
,
10010000
10010000
01010000
00000000
,
01001000
00000000
00011000
00000000
,
00010100
00000000
00001100
00000000
,
00001001
00000000
00000011
00000000
,
00000110
00000000
00001001
00001001
,
00000110
00000110
00010010
00010010
,
00001100
00001100
00000100
00010000
,
00001000
00000000
00100000
00000000
00020000
00000000
00000000
00030000
,
00000000
10000000
00000000
00000000
;

//---------------dance-single - D. Bernardone----------------
#NOTES:
     dance-single:
     D. Bernardone:
     Beginner:
     1:
     0.109,0.000,0.019,0.000,0.000:
0000
0000
0000
0000
,
0000
0000
0000
0000
,
0000
0000
0000
0000
,
0000
0000
0000
0000
,
1000
0000
0000
0000
,
0001
0000
0000
0000
,
0100
0000
0000
0000
,
0010
0000
0000
0000
,
1000
0000
0000
0000
,
0000
0000
0000
0000
,
0100
0000
0000
0000
,
0000
0000
0000
0000
,
0010
0000
0000
0000
,
0000
0000
0000
0000
,
0001
0000
0000
0000
,
0000
0000
0000
0000
,
0010
0000
0000
0000
,
0000
0000
0000
0000
,
0100
0000
0000
0000
,
0000
0000
0000
0000
,
1000
0000
1000
0000
,
1000
0000
1000
0000
,
1000
0000
0000
0000
,
0001
0000
0000
0000
,
1001
0000
1000
0000
,
0100
0000
0010
0000
,
0001
0000
0100
0000
,
0010
0000
1000
0000
,
0001
0000
0000
0000
,
1000
0000
0000
0000
,
0010
0000
0000
0000
,
0100
0000
0000
0000
,
0001
0000
0000
0000
,
0010
0000
0000
0000
,
0100
0000
0000
0000
,
0010
0000
0000
0000
,
0001
0000
0000
0000
,
0001
0000
0000
0000
,
1000
0000
1000
0000
,
0010
0000
0000
0000
,
0100
0000
0000
0000
,
0100
0000
0000
0000
,
0001
0000
0001
0000
,
1000
0000
0000
0000
,
0100
0000
0000
0000
,
0100
0000
0000
0000
,
0010
0000
0010
0000
,
0001
0000
0000
0000
,
1000
0000
0000
0000
,
1000
0000
0000
0000
,
0010
0000
0010
0000
,
0100
0000
0000
0000
,
0001
0000
1000
0000
,
0001
0000
0010
0000
,
0100
0000
0010
0000
,
0001
0000
1000
0000
,
0010
0000
0100
0000
,
0000
0000
0000
0000
,
0000
0000
0001
0000
,
0000
0000
0000
0000
,
0000
0000
1000
0000
,
0000
0000
0000
0000
,
0000
0000
0100
0000
,
0000
0000
0000
0000
,
0000
0000
0010
0000
,
0000
0000
0000
0000
,
0000
0000
0001
0000
,
0000
0000
0000
0000
,
0000
0000
1000
0000
,
0000
0000
0000
0000
,
0000
0000
0010
0000
,
0000
0000
0000
0000
,
0000
0000
0100
0000
,
0100
0000
0100
0000
,
0100
0000
0100
0000
,
0100
0000
0100
0000
,
0100
0000
0100
0000
,
0000
0000
0000
0000
,
0000
0000
0010
0000
,
0000
0000
0110
0000
;

//---------------dance-single - D. Bernardone----------------
#NOTES:
     dance-single:
     D. Bernardone:
     Easy:
     4:
     0.354,0.000,0.047,0.308,0.005: // measure 1
0000
0000
0000
0000
,  // measure 2
0000
0000
0000
0000
,  // measure 3
0000
0000
0000
0000
,  // measure 4
0000
0000
0000
0000
,  // measure 5
1000
0000
0100
0000
,  // measure 6
1000
0000
0001
0000
,  // measure 7
0010
0000
0001
0000
,  // measure 8
0100
0000
0010
0000
,  // measure 9
1000
0100
1000
0000
,  // measure 10
0001
0100
0001
0001
,  // measure 11
1000
0010
1000
0000
,  // measure 12
0001
0010
0001
0001
,  // measure 13
1000
0001
1000
0000
,  // measure 14
0001
1000
0001
0001
,  // measure 15
0100
0010
0100
0000
,  // measure 16
0010
0100
0010
0010
,  // measure 17
1000
0100
1000
0000
,  // measure 18
0001
0010
0001
0001
,  // measure 19
1000
0010
1000
0000
,  // measure 20
0001
0100
0001
0001
,  // measure 21
1000
0000
0100
0000
,  // measure 22
0010
0000
0001
0000
,  // measure 23
0010
0100
1000
0010
,  // measure 24
0100
0001
0100
0010
,  // measure 25
2000
0000
3002
0000
,  // measure 26
0023
0000
0230
0000
,  // measure 27
2300
0000
3002
0000
,  // measure 28
0203
0000
0320
0000
,  // measure 29
1030
1000
0100
0000
,  // measure 30
0001
0001
0100
0000
,  // measure 31
1000
1000
0010
0000
,  // measure 32
0001
0001
0010
0000
,  // measure 33
1000
1000
0001
0000
,  // measure 34
0010
0010
0100
0000
,  // measure 35
1000
1000
0001
0000
,  // measure 36
0100
0100
0010
0000
,  // measure 37
2000
3100
0000
0010
,  // measure 38
0002
0000
0003
0100
,  // measure 39
0020
0030
1000
0001
,  // measure 40
2000
3000
0000
0010
,  // measure 41
0200
0301
0000
1000
,  // measure 42
0020
0000
0030
0100
,  // measure 43
0002
0003
1000
0010
,  // measure 44
1000
1000
1000
0001
,  // measure 45
0020
0130
0000
1000
,  // measure 46
0002
0000
0003
0100
,  // measure 47
0020
0030
1000
0100
,  // measure 48
2000
0000
3000
0001
,  // measure 49
0200
0310
2000
3100
,  // measure 50
1000
0010
1000
0001
,  // measure 51
0020
0030
0001
0100
,  // measure 52
0110
1000
1001
0010
,  // measure 53
0210
0000
0302
0000
,  // measure 54
0023
0000
0230
0000
,  // measure 55
2300
0000
3002
0000
,  // measure 56
0203
0000
0320
0000
,  // measure 57
1030
0000
1000
0000
0000
1001
0000
0000
0001
0000
0000
0000
0100
0000
0000
0000
,  // measure 58
0010
0000
1000
0100
,  // measure 59
1000
1000
0001
0000
,  // measure 60
0010
0100
1000
0000
,  // measure 61
0001
0100
0001
0001
,  // measure 62
0010
0000
0100
1000
,  // measure 63
0001
0001
0100
0010
,  // measure 64
0100
0000
0001
1000
,  // measure 65
1000
0010
0100
0000
,  // measure 66
0001
1000
0001
0000
,  // measure 67
0001
0020
0130
1000
,  // measure 68
0001
0001
0100
0010
,  // measure 69
0100
0100
0001
0000
,  // measure 70
1000
0100
0010
0000
,  // measure 71
0001
0001
1000
0001
,  // measure 72
0100
0000
0010
1000
,  // measure 73
0100
0010
0001
0000
,  // measure 74
1000
0000
0010
0000
,  // measure 75
0100
0000
0001
0000
,  // measure 76
0010
0000
0100
0000
,  // measure 77
1000
0000
0001
0100
,  // measure 78
0010
1000
0010
0100
,  // measure 79
0001
1000
0100
0010
,  // measure 80
0001
0100
0220
0000
,  // measure 81
0330
0000
0000
0000
;

//---------------dance-single - D. Bernardone----------------
#NOTES:
     dance-single:
     D. Bernardone:
     Medium:
     7:
     0.561,0.000,0.383,0.262,0.005:
0000
0000
0000
0000
,
0000
0000
0000
0000
,
0000
0000
0000
0000
,
0000
0000
0000
0000
,
1000
0001
1000
0000
0010
0000
0100
0000
,
0001
0010
0001
0000
1000
0000
0100
0000
,
1000
0010
1000
0000
0001
0000
0010
0000
,
0100
1000
0100
0000
1000
0000
0020
0000
,
0130
0001
0010
1000
,
0010
0001
0100
0010
,
1010
1000
0100
0001
,
0100
1000
0010
0100
,
0101
0001
0100
1000
,
0100
0001
0010
0100
,
1100
1000
0010
0001
,
0010
1000
0100
0010
,
0011
0001
0100
0001
,
0010
0100
1000
0001
,
1001
1000
0100
1000
,
0010
0100
0001
1000
,
1001
0000
0110
0000
,
1001
0000
0110
0000
,
1001
1001
0110
0110
,
0001
1000
0001
1000
0001
1000
0200
0000
,
0320
0000
0031
0100
0020
0000
1030
0100
,
0020
0000
0031
1000
0002
0000
0013
0100
,
2000
0000
3010
0100
0001
0000
1001
0000
,
0120
0000
1030
0100
0010
0100
1000
0001
,
1000
0010
0001
0010
,
0100
0001
1000
0100
,
0001
0100
0010
0001
,
1000
0010
0100
0001
,
0010
0100
1000
0010
,
0100
0001
0010
0100
,
0010
0001
1000
0010
,
0100
0001
0010
0100
,
2000
0000
3001
0000
0100
0001
0100
0001
,
0200
0000
0310
0000
1000
0001
1000
0001
,
2000
3010
0100
0001
,
2000
0000
0000
0000
3100
0010
0001
1000
,
0001
0000
0100
0000
0010
1000
0010
1000
,
0020
0000
0130
0000
0001
1000
0001
1000
,
0002
0013
0100
1000
,
0001
0000
0100
0000
0010
1000
0100
0010
,
0002
0000
0103
0000
0010
1000
0010
1000
,
0020
0000
0130
0000
0001
1000
0001
1000
,
0002
0013
0100
1000
,
0020
0000
0130
0001
1000
0001
0010
0000
,
0200
0000
1300
0000
0001
0100
0001
0100
,
0002
0000
0013
0000
0100
1000
0100
1000
,
0200
0310
0001
1000
,
0100
0000
0010
0001
0100
0000
0010
1000
,
0200
0000
0310
0001
2000
0000
3010
0100
,
0002
0000
0013
0100
2000
0000
3010
0100
,
0002
0000
0013
0100
1000
0000
1100
0000
,
0012
0000
0103
0010
1000
0100
0010
0001
,
1000
0000
0010
0000
0000
0101
0000
0000
0001
0000
0000
0000
0010
0000
0000
0000
,
0100
1000
0010
0100
,
0001
1000
0001
0000
1001
0000
0001
0000
,
0010
0100
0010
0001
,
1000
0010
1000
0000
1010
0000
0010
0000
,
0100
0001
0010
0100
,
1000
0001
1000
0000
1001
0000
0001
0000
,
0100
0010
0100
0001
,
1000
0100
1000
0000
1100
0000
0100
0000
,
0010
0001
0100
0001
,
0010
0001
0010
0000
0011
0000
0001
0000
,
1000
0100
0010
0001
,
0100
0001
0100
0000
0101
0000
0001
0000
,
0010
0100
1000
0010
,
0100
0010
0100
0000
0110
0000
0010
0000
,
1000
0001
1000
0010
,
0100
0010
0100
0000
0110
0000
0000
0000
,
1001
0000
0011
0000
,
1100
0000
1010
0000
,
0101
0000
1001
0000
,
0110
0000
1001
1001
,
0110
0110
1010
1010
,
0101
0000
0101
0000
0001
1000
0001
1000
,
0001
1000
0020
0000
0130
0000
0000
0001
,
0000
0100
0000
0000
;

//---------------dance-single - D. Bernardone----------------
#NOTES:
     dance-single:
     D. Bernardone:
     Hard:
     9:
     0.796,0.000,0.327,0.178,0.262:
0000
0000
0000
0000
,
0000
0000
0000
0000
,
0000
0000
0000
0000
,
0000
0000
0000
0000
,
1000
0000
0001
0000
0010
0000
0000
0010
0100
0000
1000
0000
0001
0000
0000
0000
,
0100
0000
0010
0000
1000
0000
0000
1000
0001
0000
0010
0000
0100
0000
0000
0000
,
1000
0000
0010
0000
0100
0000
0000
0100
0001
0000
0010
0000
0100
0000
0000
0000
,
1000
0000
0010
0000
0100
0000
0000
0100
0001
0000
0010
0000
0100
1000
0100
1000
,
0100
0010
0001
1000
0100
0010
0001
0100
,
0010
1000
0001
0100
0010
1000
0001
0000
,
1001
0000
0010
0100
1000
0001
0010
0100
,
1000
0010
0100
0001
1000
0010
0100
0000
,
1002
0000
0000
0000
0013
0000
0000
0010
0100
0000
1000
0000
0001
0000
0000
0000
,
0100
0000
0010
0000
1000
0000
0000
1000
0001
0000
0010
0000
0100
0000
0000
0000
,
0010
0000
0001
0000
1000
0000
0000
1000
0100
0000
0010
0000
0001
0000
0000
0000
,
0100
0000
0010
0000
1000
0000
0000
1000
0001
0000
0010
0000
0100
0000
0000
0000
,
1100
0000
0001
1000
0001
0100
0001
0100
,
0001
1000
0100
1000
0100
1000
0001
0000
,
1001
0000
0010
0001
0010
0100
0010
0100
,
1000
0100
1000
0100
0010
0001
0010
0000
,
1001
0100
1001
0010
,
0110
1000
0110
0001
,
0110
1001
0110
1001
,
0001
0000
0010
0000
0100
0000
1000
0000
0100
0000
0010
0000
0001
1000
0001
1000
,
0002
0000
0000
0000
0103
0000
0010
1000
0001
1000
0100
0000
0010
0001
1000
0001
,
0010
0000
0100
1000
0001
0000
0100
0001
1000
0100
0010
0000
0001
0100
0010
1000
,
0200
0000
0000
0000
0310
0000
0001
1000
0100
1000
0001
0000
0101
0000
0000
0000
,
1010
0000
1000
0001
0010
0000
0100
1000
0001
0010
0100
0000
1000
0010
0100
0001
,
1000
0100
1000
0100
1000
0100
1000
0100
,
1000
0001
1000
0001
1000
0001
1000
0001
,
1000
0010
0100
0010
0100
0010
0100
0010
,
1000
0010
1000
0010
1000
0010
1000
0010
,
1000
0001
0010
0001
0010
0001
0010
0001
,
0100
0001
0100
0001
0100
0001
0100
0001
,
1000
0100
1000
0100
1000
0100
1000
0100
,
1000
0001
0010
0001
0010
0001
0010
0001
,
2000
0000
3010
0000
0100
0001
1000
0100
,
0010
0001
0002
0000
0003
1000
0100
0100
,
0020
0000
0031
0100
0000
0010
0000
2000
,
0000
0000
0000
0000
0000
3001
0010
0100
,
2000
0000
3010
0000
0100
0001
1000
0100
,
0010
0001
0002
0000
0003
1000
0010
0010
,
0200
0000
0301
0010
0000
0100
0000
1000
,
0000
1001
0000
1001
0000
0001
0100
0010
,
2000
0000
3100
0000
1000
0010
0100
0001
,
0010
0100
0200
0000
0300
1000
0001
0100
,
0002
0000
0013
0100
0000
1000
0000
0020
,
0000
0000
0000
0000
0000
0130
0001
1000
,
0200
0000
0310
0001
0100
0010
1000
0100
,
0010
0010
0001
0200
0000
0310
1000
1000
,
0002
0000
0013
0100
0000
1000
0001
0100
,
0000
0001
1000
0100
0000
1000
0001
0010
,
0200
0000
0000
0000
1300
0000
0010
0100
0001
0100
0010
0000
1000
0001
1000
0001
,
0010
0000
0100
1000
0010
0000
1000
0001
0100
0001
0010
0000
0100
1000
0001
0100
,
0020
0000
0000
0000
1030
0000
0100
1000
0001
0100
0001
0000
0011
0000
0000
0000
,
1100
0000
0100
0010
0001
0000
0100
0010
1000
0100
0010
0000
0001
0100
0010
1000
,
0001
0000
0001
0000
0000
0110
0000
0000
1000
0000
0100
0000
0010
0000
0100
0000
,
1000
0100
0001
0100
1000
0100
0010
0100
,
1000
0001
1000
0001
1000
0010
0100
0010
,
1000
0010
0001
0010
0100
0001
0010
0100
,
1000
0010
0100
0010
1000
0001
0100
0001
,
1000
0001
0010
0001
1000
0001
0100
0001
,
0010
0100
0010
0001
0100
0010
1000
0010
,
0100
0010
1000
0010
1000
0001
0010
0100
,
1000
0000
0010
0000
0100
0000
0010
0000
1000
0000
0001
0000
0010
0000
0000
0010
,
0100
0000
1000
0000
0001
0000
0000
0000
0100
0000
0010
0000
1000
0000
0000
1000
,
0001
0000
0100
0000
0001
1000
0001
1000
0001
0000
0010
0000
0100
0000
0000
0100
,
1000
0001
0100
0000
0010
1000
0100
0010
,
0001
0000
0100
0000
0010
0000
1000
0000
0100
0000
1000
0000
0001
0000
0000
0001
,
0010
0000
0100
0000
1000
0000
0000
1000
0010
0000
0100
0000
0001
0000
0000
0000
,
1000
0000
0010
0000
0100
0000
0001
0000
0010
0000
0100
0000
1000
0000
0000
1000
,
0010
0100
0010
0000
1000
1000
0001
0001
,
0040
0400
0000
0000
0000
0000
0000
0000
0330
0000
0000
0000
1000
0000
0000
0000
,
0110
0001
1001
0010
,
1001
0100
0101
0010
,
0101
1000
1010
0100
,
1010
0001
0011
0011
,
1100
1100
0110
1001
,
0110
0000
1001
0000
0001
0100
0010
1000
,
0010
0000
0100
0000
0001
1000
0001
1000
0001
0000
0000
0000
0000
0000
0110
0000
,
0000
1000
0000
0000
;

//---------------dance-double - D. Bernardone----------------
#NOTES:
     dance-double:
     D. Bernardone:
     Medium:
     7:
     0.447,0.000,0.477,0.150,0.005:
00000000
00000000
00000000
00000000
,
00000000
00000000
00000000
00000000
,
00000000
00000000
00000000
00000000
,
00000000
00000000
00000000
00000000
,
10000000
00000000
00010000
00000000
00100000
00001000
00100000
00000000
,
00010000
00000000
01000000
00000000
00001000
00010000
00001000
00000000
,
00010000
00000000
00000100
00000000
00001000
00000010
00001000
00000000
,
00000100
00000000
00000000
00000000
00000000
00000000
00000000
00000000
00000000
00000000
00000000
00000000
00000000
00000000
00000000
00000000
00010000
00000000
00000000
00000000
00000000
00000000
00000000
00000000
00000000
00000000
00000000
00000000
00000000
00000000
00000000
00000000
00001000
00000000
00000000
00000000
00000000
00000000
00000000
00000000
00010000
00000000
00000000
00000000
00000000
00000000
00000000
00000000
00002000
00000000
00000000
00000000
00000000
00000000
00000000
00000000
00000000
00000000
00000000
00000000
00000000
00000000
00000000
00003000
,
00044000
00000000
00000000
00000000
,
00000000
00000000
00000000
00033000
,
04004000
00000000
00000000
00000000
,
00000000
00000000
00000000
03003000
,
01000000
00000000
00010000
00000000
00100000
01000000
00100000
00000000
,
00010000
00000000
01000000
00000000
00001000
00010000
00001000
00000000
,
00010000
00000000
00000100
00000000
00001000
00000010
00001000
00000000
,
00000001
00000000
00000010
00000000
00000100
00001000
00000100
00000000
,
00040400
00000000
00000000
00000000
,
00000000
00000000
00000000
00030300
,
00044000
00000000
00000000
00000000
,
00000000
00000000
00000000
00033000
,
00101000
00000000
00110000
00000000
,
01100000
00000000
10010000
00000000
,
01010000
01010000
10100000
10100000
,
10000000
01000000
00010000
00001000
,
00020000
00000000
00031000
00010000
00000100
00001000
00000100
00000000
,
00000020
00000000
00000031
00000100
00000010
00010000
00001000
00000000
,
02000000
00000000
03010000
00100000
01000000
10000000
01000000
00000000
,
00200000
00000000
00310000
01000000
00001000
00010000
00001000
00000000
,
00044000
00000000
00000000
00033000
,
00040040
00000000
00000000
00030030
,
00004040
00000000
00000000
00003030
,
00000440
00000000
00000000
00000330
,
00004004
00000000
00000000
00003003
,
00004400
00000000
00000000
00003300
,
00040400
00000000
00000000
00030300
,
00044000
00000000
00000000
00033000
,
00001000
00000000
01000000
00000000
00010000
10000000
00010000
00100000
,
01000000
00000000
01000000
00000000
10000000
00010000
10000000
00000000
,
10010000
00010000
01000000
00001000
,
00020000
00000000
00030000
00000100
,
00001000
00000000
00000010
00000000
00000100
00000001
00001000
00000001
,
00000010
00000000
00000010
00000000
00000100
00001000
00000100
00000000
,
00001100
00000100
00010000
00001000
,
00010000
00011000
00011000
00001000
,
01000000
00000000
00010000
00000000
00100000
01000000
00100000
00010000
,
10000000
00000000
10000000
00000000
01000000
00100000
01000000
00000000
,
01100000
00100000
00001000
00010000
,
00002000
00000000
00003000
00010000
,
00000100
00000000
00001000
00000010
00000100
00000010
00001000
00000001
,
00001000
00000000
00001000
00000000
00000100
00001000
00000100
00000000
,
00001100
00001000
00000010
00010010
,
00001000
00011000
01000000
01001000
,
00020000
00000000
00130000
01000000
10000000
00100000
01000000
00000000
,
00020000
00000000
00130000
00001000
00010000
00001000
00010000
00000000
,
00000200
00000000
00001300
00000010
00000100
00000001
00001000
00000000
,
00000200
00000000
00010300
00001000
00100000
00010000
01000000
00000000
,
00010000
00000000
00010000
00000000
00000000
10100000
00000000
00000000
44000000
00000000
00000000
00000000
00000000
00000000
00000000
00000000
,
00000000
00000000
00000000
33000000
,
10000000
00010000
40040000
00000000
,
00000000
30030000
01000000
00001000
,
00010000
00000100
00004400
00000000
,
00000000
00000000
00000000
00003300
,
00001000
00000001
00004004
00000000
,
00000000
00003003
00001000
00000010
,
00010000
00001000
00100000
00010000
,
01000000
00100000
01000000
00000000
00010000
00000000
10000000
00000000
,
01000000
00100000
02000000
00000000
13000000
00000000
00010000
00000000
,
01000000
00001000
01000000
00000000
00002000
00000000
00023000
00000000
,
00030200
00002300
00003010
00000100
,
00000001
00001000
00000001
00000000
00001000
00000000
00000010
00000000
,
00010000
00001000
00010000
00001000
00010000
00000000
00001000
00000000
,
01000000
00010000
01000000
00000000
00100000
00000000
10000000
00000000
,
01000000
00100000
00010000
10000000
10010000
00000000
00000000
00000000
,
01010000
00000000
00101000
00000000
,
00011000
00000000
00010100
00000000
,
00001010
00000000
00000101
00000000
,
00000011
00000000
00001100
00010010
,
00011000
01001000
00110000
01010000
,
10100000
01100000
10000000
01000000
,
00010000
00000000
00001000
00000000
00011000
00000000
00000000
00010000
,
00000000
00000100
00000000
00000000
;

//---------------dance-double - D. Bernardone----------------
#NOTES:
     dance-double:
     D. Bernardone:
     Hard:
     9:
     0.713,0.000,0.262,0.308,0.173:
00000000
00000000
00000000
00000000
,
00000000
00000000
00000000
00000000
,
00000000
00000000
00000000
00000000
,
00000000
00000000
00000000
00000000
,
10000000
00010000
00100000
00000000
00001000
00000000
00010100
00000000
,
00001000
00000001
00000100
00000000
00000010
00000000
00011000
00000000
,
00001000
00100000
00010000
00000000
10000000
00000000
01100000
00000000
,
10000000
01000000
00100000
00000000
00001000
00000000
00012000
00000000
,
00013000
00000400
00010000
00000000
00010000
00000000
00010000
00000000
,
00010000
00000000
00010000
00000000
00010000
00000000
00010000
00000300
,
00001000
00000040
00001000
00000000
00001000
00000000
00001000
00000000
,
00001000
00000000
00001000
00000000
00001000
00000000
00001000
00000030
,
00000100
00000001
00001000
00000000
00000010
00000000
00011000
00000000
,
00001000
01000000
00010000
00000000
00100000
00000000
11000000
01000000
,
00100000
00001000
00010000
00000000
00000100
00000000
00001010
00000000
,
00000001
00000010
00000100
00000000
00010000
00000000
00101000
00001000
,
01000000
00040000
01000000
00000000
01000000
00000000
01000000
00000000
,
01000000
00000000
01000000
00000000
01000000
00000000
01000000
00030000
,
10000000
00400000
10000000
00000000
10000000
00000000
10000000
00000000
,
10000000
00000000
10000000
00000000
10000000
00000000
10000000
00300000
,
10020000
01030000
01002000
00013000
,
00010200
00001300
00001020
00000130
,
00000002
00001003
00000200
00010300
00002000
01003000
00020000
00130000
,
01000000
10000000
00100000
00010000
00001000
00000010
00000001
00001000
,
00000002
00000000
00000000
00000000
00000103
00000000
00000010
00010000
00001000
00100000
00010000
00000000
01000000
00100000
10000000
01000000
,
00100000
00000000
00010000
01000000
00001000
00000000
00010000
00000100
00001000
00000010
00000100
00000000
00000001
00001000
00000001
00000010
,
00000200
00000000
00000000
00000000
00001300
00000000
00000010
00010000
00001000
01000000
00010000
00000000
00100000
01000000
10000000
00010000
,
01000000
00000000
00001000
00010000
00000100
00000000
00001000
00000010
00000100
00000001
00001000
00000000
00000010
00010000
00001000
00100000
,
00010000
04000000
00010000
00000000
00010000
00000000
00010000
03000000
,
00001000
00040000
00001000
00000000
00001000
00000000
00001000
00030000
,
00000010
00004000
00000010
00000000
00000010
00000000
00000010
00000000
,
00000100
00000000
00000100
00000000
00000100
00003000
00000100
00010000
,
00001000
00040000
00001000
00000000
00001000
00000000
00001000
00030000
,
00001000
00400000
00010000
00000000
00010000
00000000
00010000
00300000
,
00001000
04000000
00001000
00000000
00001000
00000000
00001000
03000000
,
00100000
40000000
00100000
00000000
00100000
00000000
00100000
30000000
,
00020000
00000000
01030000
00000000
00001000
00010000
00001000
00100000
,
00001000
00010000
00001000
00000000
00010000
00000100
00010000
00001000
,
00010000
00000000
00000100
00000010
00000000
00000001
00000000
00000200
,
00000000
00000000
00000000
00000000
00000300
00000010
00010000
00001000
,
00010000
00000100
00010000
00000000
00001000
00010000
00001000
01000000
,
00001000
00010000
00001000
00000000
00100000
00010000
10000000
01000000
,
00100000
00000000
00001000
00010000
00000000
00000100
00000000
00000010
,
00000000
00000011
00000000
00000101
00000000
00000001
00000010
00000100
,
00010000
00001000
00010000
00000000
00001000
00100000
00001000
00010000
,
00001000
00100000
00001000
00000000
01000000
00010000
00100000
01000000
,
10000000
00000000
00010000
01000000
00000000
00001000
00000000
00000200
,
00000000
00000000
00000000
00000000
00000300
00000001
00000010
00000100
,
00001000
00000000
00000010
00010000
00010000
00001000
01000000
00010000
,
00100000
01000000
10000000
00000000
00010000
01000000
00001000
00010000
,
00001000
00000000
00010000
00000010
00000000
00001000
00000001
00000100
,
00000000
00001000
00010000
01000000
00000000
00010000
00001000
00000100
,
00000002
00000000
00000000
00000000
00010003
00000000
00001000
00010000
00000100
00001000
00000100
00000000
00000010
00000001
00000100
00000001
,
00001000
00000000
00000100
00010000
00001000
00000000
01000000
00010000
00100000
01000000
10000000
00000000
00010000
01000000
00001000
01000000
,
00200000
00000000
00000000
00000000
10300000
00000000
01000000
00100000
00010000
01000000
00001000
00000000
00010000
00000100
00001000
00000010
,
00000100
00000000
00000001
00000010
00000100
00000000
00001000
00000010
00010000
00001000
00010000
00000000
00001000
01000000
00010000
01000000
,
00100000
00000000
00100000
00000000
00000000
01001000
00000000
00000000
00001000
00000000
00040000
00000000
00001000
00000000
00000000
00000000
,
00001000
00000000
00001000
00000000
00001000
00000000
00001000
00030000
,
00000100
00001000
00000010
00000100
00000001
00004000
00000001
00000000
,
00000001
00000000
00000001
00003000
00000001
00000100
00000010
00010000
,
00001000
00100000
01000000
10000000
00010000
00400000
00010000
00000000
,
00010000
00000000
00010000
00000000
00010000
00000000
00010000
00300000
,
00001000
00010000
00000100
00001000
00000010
00000400
00000010
00000000
,
00000010
00000000
00000010
00000300
00000001
00000100
00000010
00010000
,
00001000
00100000
01000000
10000000
00010000
01000000
00001000
00000000
,
00010000
00000000
00001010
00000000
00000001
00000010
00000100
00000000
,
00010000
00000000
00201000
00000000
01300000
10000000
00010000
00000000
,
01000000
00000000
00011000
00000000
00001000
00010000
00000100
00001000
,
00000010
00010000
00000100
00000010
00000001
00000100
00000010
00000000
,
00010000
00000000
01001000
00000000
01000000
00100000
10000000
00000000
,
01000000
00100000
00010000
00100000
01000000
10000000
00010000
00000000
,
01000000
00000000
00011000
00000000
00010000
00000100
00001000
00000010
,
00000001
00000010
00001000
00000100
00010200
00000000
00001300
00000000
,
00002010
00003100
00020100
00031000
,
02001000
03100000
20100000
30010000
,
00210000
01300000
21000000
30100000
,
02100000
00000000
03010000
00000000
00200000
00301000
00020000
00030100
,
00002000
00003010
00000200
00000301
00002000
00003100
00020000
00031000
,
00200000
00310000
02000000
03100000
10000000
01000000
00010000
00001000
,
00000100
00000001
00000010
00000100
00000010
00000000
00000000
00001000
,
00000000
00100000
00000000
00000000
;

//---------------dance-double - D. Bernardone----------------
#NOTES:
     dance-double:
     D. Bernardone:
     Challenge:
     11:
     0.764,0.000,0.392,0.579,0.178:
00000000
00000000
00000000
00000000
,
00000000
00000000
00000000
00000000
,
00000000
00000000
00000000
00000000
,
00000000
00000000
00000000
00000000
,
10000000
00000000
01000000
00000000
00100000
00000000
00010000
01000000
00010000
00000000
00100000
00000000
00001000
00000000
00010000
00001000
,
00010000
00000000
00000100
00000000
00001000
00000000
00000010
00000100
00000010
00000000
00001000
00000000
00000001
00000000
00000010
00000100
,
00000010
00000000
00000001
00000000
00000100
00000000
00000010
00001000
00000010
00000000
00010000
00000000
00001000
00000000
01000000
00010000
,
01000000
00000000
00100000
00000000
10000000
00000000
01000000
00100000
01000000
00000000
10000000
00010000
10000000
00010000
01000000
00010000
,
01000000
00004000
00100000
00000000
00010000
00000000
00100000
00000000
,
01000000
00000000
10000000
00000000
01000000
00000000
00100000
00003000
,
00010100
00000400
00000010
00000000
00001000
00000000
00010000
00000000
,
01000000
00000000
00010000
00000000
00001000
00000000
00000010
00000300
,
00001001
00000000
00001000
00000000
00000010
00000000
00001000
00000100
00001000
00000000
00000010
00000000
00010000
00000000
00001000
01000000
,
00001000
00000000
00100000
00000000
01000000
00000000
10000000
00010000
10000000
00000000
00100000
00000000
01000000
00000000
01001000
00000000
,
00011000
00000000
00010000
00000000
00000010
00000000
00001000
00000100
00001000
00000000
00000001
00000000
00000010
00000000
00000100
00001000
,
00000100
00000000
00010000
00000000
00001000
00000000
01000000
00100000
01000000
00000000
00010000
00000000
00100000
00000000
01100000
00000000
,
11000000
40000000
01000000
00000000
00100000
00000000
00010000
00000000
,
00001000
00000000
00010000
00000000
00100000
00000000
01000000
30000000
,
00010000
04000000
00100000
00000000
00010000
00000000
00001000
00000000
,
00000100
00000000
00001000
00000000
00010000
00000000
00100000
03000000
,
20100000
30001000
02001000
03000100
,
00020100
00030001
00010020
00100030
,
00021000
00030000
01002000
00003000
02010000
03000000
00120000
00030000
,
02200000
00000000
03300000
00000000
22000000
00000000
33000000
00000000
20020000
00000000
30030000
00000000
00010000
01000000
00001000
00010000
,
00002000
00010000
02003000
00001000
,
03000020
00001000
00020030
00001000
,
00030002
00000100
00020003
00000010
,
00032000
00100000
02003000
00001000
,
03010000
00400000
00001000
00000000
00000010
00000000
00001000
00300000
,
00010000
04000000
00001000
00000000
00000100
00000000
00001000
03000000
,
00001000
00040000
00000010
00000000
00000001
00000000
00000010
00030000
,
00001000
00000000
00000040
00000000
00000001
00000000
00000000
00000000
00000100
00000000
00000030
00000000
00000001
00000000
00001000
00000010
,
00001000
00000400
00010000
00000000
01000000
00000000
00010000
00000300
,
00001000
00000004
00000100
00000000
00010000
00000000
00000100
00000003
,
00000010
00004000
00010000
00000000
00000100
00000000
00010000
00003000
,
01000000
00040000
00100000
00000000
10000000
00000000
00100000
00030000
,
02000000
00000000
03001000
00000000
00010000
00000100
00000010
00000001
,
00000100
00001000
00020000
00000000
00000000
01030000
10000000
00100000
,
02000000
00000000
00010000
00001000
00000000
00000200
03000300
00021000
,
00000000
00000000
00000000
00000000
00030000
00000100
00001000
00000010
,
00000200
00000000
00000301
00000000
00000100
00001000
00010000
01000000
,
00100000
00010000
10000000
00200000
00000000
01300000
00001000
00010000
,
00000200
00000000
00000010
00001000
00000000
00020000
00030300
00010001
,
00000000
00010010
00000000
00010100
00000000
00010000
00001000
01000000
,
00200000
00000000
10300000
00000000
01000000
00010000
00001000
00000100
,
00000010
00001000
00000001
00000020
00000000
00000130
00010000
00001000
,
02000000
00000000
00010000
00001000
00000000
00000200
03000300
00012000
,
00000000
00000000
00000000
00000000
00003000
01000000
00010000
01000000
,
00200000
00000000
10300000
01000000
00100000
00100000
00100000
00010000
,
01000000
00001000
00010000
00000100
00000000
00010000
00001000
01000000
,
02000000
00000000
00100000
00010000
00000000
03001000
10000000
00100000
,
00000000
10000000
00001000
01000000
00000000
00001000
00010000
00000001
,
00000200
00001000
00000320
00001000
,
02000030
00100000
03002000
10000000
,
02003000
00010000
03000020
00000100
,
00020030
00000001
00030200
00001000
,
01000300
00000000
01001000
00000000
00000000
01011000
00000000
00000000
00001000
00000000
00040000
00000000
01000000
00000000
00000000
00000000
,
00001000
00000000
00100000
00000000
00001000
00000000
01000000
00030000
,
00001000
00100000
00010000
01000000
01001000
00004000
00000100
00000000
,
00010000
00000000
00000010
00003000
00010000
00000100
00000001
00000100
,
00010000
00001000
01000000
10000000
01000000
00004000
00010000
00000000
,
00100000
00000000
10000000
00000000
00100000
00000000
00010000
00003000
,
00100000
00010000
01000000
00001000
00011000
00040000
00000100
00000000
,
00000001
00000000
00000100
00030000
00001000
00100000
10000000
00100000
,
00001000
00000000
00010000
00000000
00000010
00000000
00000001
00000000
00000010
00000000
00010000
00000000
00001000
00000000
01000000
00010000
,
01000000
00000000
00100000
00000000
10000000
00000000
01000000
00100000
01000000
00000000
00010000
00000000
00001000
00000000
00010000
00000000
,
00000100
00000000
00001000
00000010
00001000
00000001
00001000
00000001
00000100
00000000
00000010
00000000
00001000
00000000
00000100
00010000
,
00000100
00000000
00010000
00000000
00001000
00000000
01000000
00010000
01000000
00000000
00100000
00000000
10000000
00000000
01000000
00000000
,
00010000
00000000
00001000
00000000
00000010
00000000
00000001
00000100
00000001
00000000
00000010
00000000
00001000
00000000
00010000
00001000
,
00010000
00000000
00000100
00000000
00010000
00000000
00001000
01000000
00001000
00000000
00100000
00000000
01000000
00000000
10000000
00010000
,
10000000
00000000
01000000
00000000
00010000
00000000
00001000
00000000
00000100
00000000
00000010
00000000
00001000
00000000
00000001
00000010
,
00000001
00000000
00000100
00000000
00001000
00000000
00010000
00001000
00010000
00000000
00001000
00000000
01000000
00000000
00100000
00000000
,
10000000
00010000
00100000
00010000
00100000
00001000
00010000
00000000
00012000
00000000
00000000
00000000
10003000
00000000
00000000
00000000
,
02100000
03000100
00021000
00030001
,
00000120
00100030
20010000
30001000
,
02100000
03000010
00001002
00010003
,
00000120
00000000
01000030
00000000
02010000
03000000
00120000
00030000
,
00201000
00300000
00021000
00030000
00020100
00030000
00001200
00000300
,
00002010
00003000
00000120
00000030
00000001
00001000
00000010
00010000
,
00000001
00000000
00000100
00000000
00000010
00010000
00000010
00010000
00001000
00000000
00000000
00000000
00000000
00000000
01000000
00000000
,
00000000
00000001
00000000
00000000
;
