#TITLE:Space Space Shooter;
#SUBTITLE:;
#ARTIST:Kick+Punch;
#TITLETRANSLIT:;
#SUBTITLETRANSLIT:;
#ARTISTTRANSLIT:;
#GENRE:Happy Hardcore;
#CREDIT:Sync by HellRazor;
#BANNER:Space Space Shooter-bn.png;
#BACKGROUND:Space Space Shooter-bg.png;
#LYRICSPATH:;
#CDTITLE:;
#MUSIC:Space Space Shooter.ogg;
#OFFSET:0.000;
#SAMPLESTART:32.000;
#SAMPLELENGTH:12.000;
#SELECTABLE:YES;
#BPMS:0.000=172.000;
#STOPS:188.000=1.0465
;
#BGCHANGES:0.000=Space Space Shooter-bg.png=1.000=0=0=1=====,
32.000=In The Groove Rebirth/1148_JumpBack.mpg=1.000=0=0=1=====,
48.000=In The Groove Rebirth/1164_JumpBack.mpg=1.000=0=0=1=====,
64.000=In The Groove Rebirth/309_JB_HD.mpg=1.000=0=0=1=====,
80.000=In The Groove Rebirth/210_JB_HD.mpg=1.000=0=0=1=====,
92.000=Space Space Shooter-bg.png=1.000=0=0=1=====,
96.000=In The Groove Rebirth/218_JB_HD.mpg=1.000=0=0=1=====,
112.000=In The Groove Rebirth/219_JB_HD.mpg=1.000=0=0=1===SlideRight==,
128.000=In The Groove Rebirth/1125_JumpBack.mpg=1.000=0=0=1=====,
144.000=In The Groove Rebirth/265_JB_HD.mpg=1.000=0=0=1===SlideLeft==,
156.000=Space Space Shooter-bg.png=1.000=0=0=1====0^0^1^1=,
157.000=Space Space Shooter-bg.png=1.000=0=0=1====0^1^0^1=,
158.000=Space Space Shooter-bg.png=1.000=0=0=1====1^0^0^1=,
159.000=Space Space Shooter-bg.png=1.000=0=0=1=====,
160.000=In The Groove Rebirth/309_JB_HD.mpg=1.000=0=0=1=====,
176.000=In The Groove Rebirth/1148_JumpBack.mpg=1.000=0=0=1===SlideUp==,
188.000=Space Space Shooter-bg.png=1.000=1=0=1===CrossFade==,
189.000=In The Groove Rebirth/219_JB_HD.mpg=1.000=0=0=1=====,
205.000=In The Groove Rebirth/1164_JumpBack.mpg=1.000=0=0=1===SlideDown==,
217.000=Space Space Shooter-bg.png=1.000=0=0=1=====,
221.000=In The Groove Rebirth/1125_JumpBack.mpg=1.000=0=0=1=====,
237.000=In The Groove Rebirth/265_JB_HD.mpg=1.000=0=0=1===SlideRight==,
253.000=In The Groove Rebirth/218_JB_HD.mpg=1.000=0=0=1=====,
269.000=In The Groove Rebirth/419_JB_HD.mpg=1.000=0=0=1===SlideDown==,
281.000=In The Groove Rebirth/419_JB_HD.mpg=1.000=1=0=1=SongBgWithMovieViz==CrossFade==,
285.000=In The Groove Rebirth/1164_JumpBack.mpg=1.000=0=0=1=====,
301.000=In The Groove Rebirth/219_JB_HD.mpg=1.000=1=0=1===CrossFade==,
317.000=In The Groove Rebirth/309_JB_HD.mpg=1.000=1=0=1=SongBgWithMovieViz==CrossFade==,
332.000=Space Space Shooter-bg.png=1.000=1=0=1===CrossFade==,
99999=-nosongbg-=1.000=0=0=0 // don't automatically add -songbackground-
;
#BGCHANGES2:92.000=yellow flash=1.000=0=0=1=====,
189.000=white flash=1.000=0=0=1=====,
217.000=yellow flash=1.000=0=0=1=====,
;
#KEYSOUNDS:;

//---------------dance-single - D. Runberg----------------
#NOTES:
     dance-single:
     D. Runberg:
     Challenge:
     11:
     0.856,0.000,0.177,0.353,0.585:
0000
0000
0000
0000
,
0000
0000
0000
0000
,
0000
0000
0000
0000
,
0000
0000
0000
0000
,
0000
0000
0000
0000
,
0000
0000
0000
0000
,
0000
0000
0000
0000
,
0000
0000
0000
0000
0000
0000
0000
1000
,
1000
0100
0010
0001
0100
0001
000M
0010
,
0001
0100
0001
0010
0100
0M00
1000
0100
,
1000
0010
0100
0001
0100
0010
0100
0010
,
1000
0000
0100
0000
0020
0000
0030
0000
0011
0000
0001
0100
0010
0000
0100
0000
,
0010
0010
0100
0001
0001
0010
0000
0100
,
0010
0000
0001
0000
2000
0000
0000
3000
1010
0000
0000
0000
0010
0000
0100
0000
,
0020
0000
2030
0000
3001
0010
0100
1000
,
1001
0000
0001
0000
1000
0000
0010
0000
0110
0000
0100
0001
0010
0000
0011
0000
,
0110
0100
1000
0010
0001
0010
1000
0100
,
0001
0100
1000
0100
0010
0001
0100
0010
,
2000
0001
0001
3001
0000
0010
0100
0010
,
0002
0000
1000
0000
1000
0000
1003
0000
0000
0000
0001
0100
0010
0000
1000
0000
,
1100
0100
0001
0100
1000
0010
0001
0010
,
1000
0100
0010
0001
2000
0000
3010
0100
,
0210
00M0
M301
0000
210M
0002
0000
3003
,
0001
0000
0000
0000
0100
0000
0010
0000
1000
0000
0100
0000
0020
0000
0000
0000
0000
0000
0002
0000
0000
0003
0030
0000
,
0001
1000
0001
0000
100M
0010
1000
0000
M001
0010
0001
0000
020M
0000
0000
0000
,
0310
1000
0010
1000
0010
1000
0000
0010
,
1000
0100
0010
0001
0001
0100
0010
0100
,
0100
0000
0001
0000
0010
0000
0100
0000
1000
0010
0100
0000
0100
0000
0001
0000
,
0010
0001
0010
0000
00M1
0100
0001
0000
100M
0010
1000
0000
M200
0000
0000
0000
,
0310
0001
0010
0001
0010
0001
0000
1000
,
0001
0100
0010
0100
0001
0001
0010
0100
,
1100
0000
MM00
0000
1001
0000
M000
0000
0001
0100
0001
0100
0010
1000
0001
0000
,
1000
0100
0010
0001
0010
0100
1000
0000
0100
0000
0010
0001
0000
0001
0100
0000
,
0001
0100
0010
1000
0100
1000
0010
0100
0002
0000
0000
0000
0000
0000
0003
0000
,
1000
0100
1000
0010
0100
0001
0010
0000
0100
0000
1000
0001
0000
0001
0100
0000
,
0010
1000
0100
0010
0001
1000
0010
1000
0200
0000
0000
0000
0000
0000
0300
0000
,
1000
0100
1000
0010
0100
0001
1000
0000
0010
0000
0100
0001
0000
0001
0010
0000
,
0100
1000
0010
0100
0001
0010
0100
1000
0020
0000
0000
0000
0000
0000
0030
0000
,
0100
0001
0010
0100
0010
0001
1000
0000
0010
0000
0100
0001
0000
0001
1000
0000
,
22M0
0000
0000
3300
022M
0000
0000
0330
M022
0000
0000
0033
2M02
0000
0000
3003
,
1000
0100
1000
0100
0010
0001
0010
0001
,
1000
0000
0001
0000
1000
0000
0010
0000
0100
0000
0010
1000
0100
0000
0100
0000
,
0010
0001
0010
0100
1000
0001
1000
0001
,
0100
0001
1000
0010
0100
0010
1000
0001
,
0010
0100
1000
0100
0010
0001
1000
0100
,
0010
0100
1000
0010
0100
0001
1000
0001
,
0010
0100
1000
0010
0100
0010
1000
1000
,
M020
0030
0100
0001
0100
0010
0100
1000
,
0100
0010
0100
0001
0010
1000
0010
0001
,
0010
0100
2000
0010
0010
3010
0000
0100
,
0010
0100
0002
1000
1000
1003
0000
0100
,
0010
0100
0010
0001
1000
0001
0100
0010
,
0100
0001
2000
0000
3001
0010
0100
0M00
,
1000
0100
0120
0000
0031
0000
1002
0010
,
0000
0000
0000
0000
0000
0000
0003
0000
0000
0000
0000
0000
2000
0000
0000
0000
0000
0000
0000
0000
3100
0000
0000
0000
0010
0000
0000
0000
0001
0000
0000
0000
1000
0000
0000
0000
0010
0000
0000
0100
0000
0000
0001
0000
0000
0100
0000
0000
,
0001
1000
0100
0000
1000
0100
0010
0000
00M1
0100
0010
0000
10M0
0100
0010
0000
,
0002
0000
1003
1000
0001
0001
0100
0100
,
0000
0010
0100
0100
0001
0010
0010
0100
,
1000
0000
0010
0000
0010
0000
0100
0000
0001
0000
0010
0000
0100
1000
0010
0000
,
0010
0000
0100
0000
0001
0100
0010
0000
10M0
0100
0010
0000
00M1
0100
0010
0000
,
2M00
0000
3010
0010
1000
1000
0100
0100
,
0000
1000
0100
0010
0001
0100
0010
0010
,
1000
0000
0100
0000
1000
0000
0010
0000
0100
0000
0001
0000
0010
0001
0010
0000
,
0100
0000
1001
0000
1000
0100
1000
0010
0100
0001
0100
0000
0010
0000
0100
0001
,
0000
0001
0010
0000
0100
0010
0001
0100
0010
1000
0100
0010
0002
0000
0000
0000
,
0000
0000
0000
0000
0013
0100
1000
0010
0100
0010
1000
0000
0010
0000
0100
0001
,
0000
0001
0010
0000
0100
0010
0100
1000
0010
0100
0010
1000
0002
0000
0000
0000
,
0000
0000
0000
0000
0013
0100
0010
0001
0100
0010
1000
0000
0010
0000
0100
0010
,
0000
0010
1000
0000
0010
0100
0001
1000
0010
0100
0010
1000
0200
0000
0000
0000
,
0000
0000
0000
0000
0310
0001
0010
0100
1000
0001
0100
0000
0010
0000
0100
0001
,
0000
0001
1000
0000
0100
0000
0100
0000
1000
0000
1000
0000
0001
0000
0001
0100
,
0001
0000
0010
0000
0100
1000
0100
0010
0100
1000
0100
0000
1000
0000
0001
0100
,
0000
0100
0010
0000
0100
0010
1000
0010
0100
0001
0010
0100
1000
0000
0001
0000
,
1000
0000
0001
0000
0100
0001
0010
0001
0100
0001
1000
0000
0001
0000
0010
0100
,
0000
0100
1000
0000
0100
0010
0001
1000
0001
0100
0010
1000
0100
0000
0010
0000
,
0001
0000
1000
0000
0010
0100
0010
0100
0001
0100
0001
0000
1000
0000
0001
1000
,
0000
1000
0001
0000
0010
0100
0010
0100
1000
0100
1000
0010
0200
0000
0000
0000
,
0000
0000
0000
0000
0301
0010
0001
0010
0001
1000
0001
0000
0100
0000
0001
0100
,
0000
0100
0001
0000
1000
0100
0010
0001
0010
0001
1000
0001
1000
0010
0100
0001
,
0010
0000
0000
0100
0000
0000
1000
0000
0000
0010
0000
0000
0200
0000
0000
0000
0000
0000
0000
0000
0000
0000
0000
0000
0010
0000
0000
0000
0000
0000
0000
0000
0000
0000
0000
0000
0001
0000
0000
0000
0000
0000
0000
0000
0300
0000
0000
0000
,
0101
0M0M
2001
0000
0100
0000
0010
0000
,
0001
3000
1M1M
0000
0010
0000
0100
0000
,
0001
0000
0000
2000
0000
3100
0010
0001
1000
0020
0000
0000
,
0130
0M00
0000
0000
0000
0000
0000
0000
;

//---------------dance-double - M. Simmons----------------
#NOTES:
     dance-double:
     M. Simmons:
     Challenge:
     11:
     0.862,0.000,0.622,0.193,0.513:
00000000
00000000
00000000
00000000
,
00000000
00000000
00000000
00000000
,
00000000
00000000
00000000
00000000
,
00000000
00000000
00000000
00000000
,
00000000
00000000
00000000
00000000
,
00000000
00000000
00000000
00000000
,
00000000
00000000
00000000
00000000
,
11000000
00000000
00110000
00000000
00001100
00000000
00000011
00000001
,
00000001
00000100
00000010
00010000
00000100
00002000
00000000
00003100
,
00010000
00001000
01000000
00100000
01010000
00000000
00000000
00010000
,
00010000
00100000
01000000
00100000
00001000
00010000
00000010
00000100
,
00000001
00000000
00001000
00000000
00000100
00000000
00000000
00000000
00020000
00000000
00030010
00010000
00000010
00000000
00010000
00000000
,
00010000
00001000
01000000
00100000
01000000
00020000
00000000
10030000
,
01000000
10000000
00100000
00000000
10100000
00000000
00000000
00000000
,
00110000
00000000
00001100
00000000
00001010
00000010
00000100
00000010
,
00010000
00000000
00000100
00000000
00010000
00000000
00001000
00000000
00100000
00000000
00010000
00100000
00001000
00000000
00010000
00000000
,
00010000
00000100
00000010
00001000
00010000
00001000
01000000
00100000
,
10000000
00010000
01000000
00001000
00100000
01000000
00100000
00001000
,
00010000
00010000
00000100
00000100
00000000
00010000
00010010
00000010
,
00000100
00000100
00000001
00000001
00000000
00001000
00001100
00000100
,
00010000
00001000
01000000
10000000
01000000
00010000
01000000
00100000
,
10000000
01000000
00100000
00001000
00010000
00000010
00000100
00000001
,
00000101
00000000
00001010
00000000
01010000
00010000
00000000
10100000
,
20000000
00000000
30010000
00100000
00010000
01000000
00001000
00000000
00000000
00011000
00000000
00000000
,
00100000
00001000
00100000
00000000
00000100
00010000
00000100
00000000
01000000
00001000
01000000
00000000
02001000
00000000
00000000
00000000
,
03000100
00100000
00001000
01000000
00000010
00010000
00000000
00000100
,
00001000
00000001
00000100
00000010
00000200
00000000
00000301
00000010
,
00001000
00000000
00010000
00000000
00100000
00000000
01000000
00000000
00010000
10000000
00010000
00000000
00100000
00000000
00001000
00000000
,
00100000
00001000
01000000
00000000
00000100
00010000
00000010
00000000
00010000
00000100
00001000
00000000
00020100
00000000
00000000
00000000
,
00030100
00100000
00000010
00010000
00001000
00000100
00000000
00000010
,
00010000
00000100
00010000
00001000
01000000
00100000
20000000
00000000
,
30010000
00000000
00100000
00000000
00010000
00000000
00100000
00000000
00010000
10000000
00010000
10000000
00010000
10000000
00010000
10000000
,
00010000
01000000
00001000
01000000
00010000
00100000
00001000
00000000
00011000
00000000
00010000
00000100
00000000
00000100
00000010
00000100
,
00010000
00000010
00000100
00000010
00001000
00000000
00000001
00000000
00000011
00000000
00000000
00000000
00011000
00000000
00000000
00000000
,
10000000
01000000
10000000
00010000
10000000
00000000
00110000
00000000
00010000
00000000
01000000
00100000
00000000
00100000
10000000
00010000
,
01000000
00001000
01000000
00010000
00100000
01000000
10000000
00000000
10010000
00000000
00000000
00000000
00011000
00000000
00000000
00000000
,
00010000
00000100
00000010
00000001
00001000
00000010
00001000
00000000
00001001
00000000
00000001
00000010
00000000
00000010
00000001
00000100
,
00000001
00001000
00000100
00000010
00000100
00010000
00000010
00000000
00010100
00000000
00000000
00000000
00011000
00000000
00000000
00000000
,
00100000
00001000
00100000
00010000
10000000
00100000
01000000
00000000
10100000
00000000
00010000
01000000
00000000
01000000
00010000
10000000
,
01000000
00000000
00110000
00000000
00001100
00000000
00000011
00000001
,
00001000
00000010
00001000
00000100
00010000
00000000
00001100
00000100
,
00100000
00000000
00001000
00000000
01000000
00000000
00010000
00000000
10000000
00000000
00010000
00100000
00010000
00000000
00100000
00000000
,
00001000
00010000
00010000
00000000
00010010
00000010
00000100
00000001
,
00001000
00001000
00000100
00000100
00000010
00000000
00000011
00000000
,
00000010
00000100
00001000
00000100
00000010
00000001
00001000
00000010
,
00010000
00000100
01000000
00100000
00000000
00000000
01010000
00000000
,
00010000
10000000
00001000
00100000
01000000
00010000
00001000
00010000
,
00000020
00000000
00000130
00000010
00010000
00000100
00010000
00001000
,
01000000
00100000
10000000
00010000
00100000
01000000
00100000
00001000
,
01000000
00001000
00010000
00010000
00000010
00000010
00000000
00000100
,
00000110
00000100
00000001
00000001
00001000
00001000
00000000
00000100
,
00001100
00000100
00010000
00001000
01000000
00100000
10000000
00010000
,
00100000
01000000
00100000
00001000
00010000
00001000
01000000
10000000
,
01000000
00010000
00110000
00000000
00011000
00000000
00001100
00000100
,
00000000
00000000
00000000
00000110
00000000
00000000
00000020
00000000
00000000
00000000
00000031
00000000
00001000
00000000
00000001
00000000
00000100
00000000
00000010
00000000
00000000
00000000
00000000
00000000
,
00010010
00000000
00000000
00000000
00000010
00010000
00000010
00000000
00100000
00001000
00100000
00000000
00000100
00010000
00000100
00000000
,
00201000
00000000
00301000
00100000
00000010
01000000
00001000
00000100
,
00000000
00000010
00010000
00000100
00001000
00000001
00000200
00000000
,
00000301
00000000
00001000
00000000
00000100
00000000
00010000
00000000
00000010
00000000
00010000
00000000
00001000
01000000
00001000
00000000
,
01001000
00000000
00000000
00000000
01000000
00010000
01000000
00000000
00000100
00001000
00000100
00000000
00100000
00010000
00100000
00000000
,
00001020
00000000
00001030
00000010
00010000
00000100
01000000
00200000
,
00000000
01300000
00001000
00010000
00000100
00100000
00010000
01000000
,
00002000
00000000
00000000
00000000
01003000
00000000
00100000
00000000
10000000
00000000
00010000
00000000
00100000
01000000
00100000
01000000
,
00100000
00000000
00010000
00000000
01000000
00001000
00010000
00000100
00010000
00001000
00010000
00000000
00010100
00000000
00000100
00000010
,
00000000
00000010
00000001
00000000
00001000
00000010
00000100
00000001
00000100
00000010
00010000
00001000
00010000
00000000
00000000
00000000
,
10010000
00000000
00000000
00000000
00010000
01000000
00010000
10000000
01000000
00100000
00001000
00000000
00011000
00000000
00010000
00000010
,
00000000
00000010
00000100
00000000
00000001
00000010
00000100
00001000
00000010
00000100
00000001
00000000
00002010
00000000
00000000
00000000
,
00000010
00000000
00000000
00000000
00003010
00010000
00000100
00010000
00001000
01000000
00001000
00000000
01100000
00000000
00100000
10000000
,
00000000
10000000
01000000
00000000
00100000
00010000
00100000
01000000
10000000
00010000
01000000
00000000
02001000
00000000
00000000
00000000
,
00100000
00000000
00000000
00000000
03001000
00010000
00001000
00010000
00000010
00000100
00000001
00000000
00001001
00000000
00000001
00010000
,
00000000
00010000
00000100
00000000
00011000
00000000
00000000
00000000
00100010
00000000
00000000
00000000
01000100
00000000
00000000
00000000
,
01000010
00000000
00000000
00000000
00001000
00010000
00000100
01000000
00100000
01000000
00010000
00000000
01010000
00000000
00010000
01000000
,
00000000
01000000
00100000
00000000
10000000
01000000
10000000
00010000
00100000
01000000
10000000
00000000
20010000
00000000
00000000
00000000
,
00100000
00000000
00000000
00000000
30010000
00100000
01000000
00100000
00001000
00010000
00000100
00000000
00010100
00000000
00010000
00000100
,
00000000
00000100
00000010
00000000
00000001
00001000
00000010
00000100
00000001
00000100
00000010
00000000
00002100
00000000
00000000
00000000
,
00000000
00000000
00000000
00000000
00003100
00010000
00000010
00001000
00000100
00010000
00001000
00000000
01001000
00000000
00001000
00100000
,
00000000
00100000
01000000
00000000
00100000
00010000
10000000
00010000
01000000
00100000
01000000
00000000
02010000
00000000
00000000
00000000
,
00000000
00000000
00000000
00000000
03100000
10000000
00010000
01000000
00001000
00100000
00001000
00000000
00110000
00000000
00100000
00001000
,
00000000
00001000
00000100
00000000
00000101
00000000
00000000
00000000
00001010
00000000
00000000
00000000
01010000
00000000
00000000
00000000
,
10100000
20010000
01000000
30100000
,
01010000
00210000
00001000
00010000
,
00301000
00021000
00000100
00030010
,
00000110
00000000
00000000
00001001
00000000
00000001
00000010
00000100
00010000
00000010
00000000
00000000
,
00010010
00000000
00000000
00000000
;

//---------------dance-double - M. Simmons----------------
#NOTES:
     dance-double:
     M. Simmons:
     Hard:
     9:
     0.667,0.000,0.572,0.286,0.269:
00000000
00000000
00000000
00000000
,
00000000
00000000
00000000
00000000
,
00000000
00000000
00000000
00000000
,
00000000
00000000
00000000
00000000
,
00000000
00000000
00000000
00000000
,
00000000
00000000
00000000
00000000
,
00000000
00000000
00000000
00000000
,
00000000
00000000
00000000
00000000
00000000
00000000
00000000
00001000
,
00010000
00000100
00010000
00001000
01000000
00100000
00000000
01000000
,
00010000
10000000
01000000
10000000
10010000
00000000
00000000
00000000
,
00020000
00230000
00320000
02030000
,
03001000
01000000
00001000
00000000
00011000
00000000
00000000
00000000
,
00010000
00000100
00010000
00000010
00000100
00000010
00000000
00001000
,
00000001
00000010
00000001
00000000
00001001
00000000
00000000
00000000
,
00000002
00000000
00000203
00000000
00002300
00000000
00013000
00000100
,
00010000
00000010
00010000
00012000
00000000
00000000
00000000
00000000
,
02003000
00000000
03200000
00000000
20300000
00000000
30010000
00100000
,
00000000
01000000
00000000
00100000
00000000
00002000
00000000
00000000
,
01003000
00010000
01000000
00100000
00000000
00100000
01100000
00000000
,
01000000
00000000
00001000
00000000
01000000
00000000
00010000
00000000
00000000
00000000
00100000
00000000
00101000
00000000
00000000
00001000
,
00020000
00000000
00030200
00000000
00000320
00000031
00000000
00001000
,
00000000
00000010
00000000
00000210
00000000
00000000
00000000
00000000
,
00000310
00000000
00010010
00000000
00000010
00010000
00000000
00011000
,
00001000
00000000
00100000
00010000
00100000
00001000
00100000
00000000
00000000
00101000
00000000
00000000
,
10001000
00000000
01100000
00000000
10001000
00001000
00101000
00000000
,
00100000
01000000
00100000
00001000
00100000
01000000
00000000
00100000
,
00001000
00010000
00000010
00000100
00000020
00000000
00001030
00000010
,
00000100
00000001
00001000
00000001
00000000
00001000
00000000
00000010
,
00000100
00000000
00000110
00000000
00001001
00000001
00000012
00000000
,
00000013
00000100
00000010
00000100
00001000
00000001
00000000
00000100
,
00000010
00010000
00000100
00010000
00001000
00100000
00001000
00000000
,
01000000
00100000
01000000
00200000
00000000
00000000
00000000
00000000
,
10300000
00010000
00000000
00100000
00000000
00010000
10000000
00000000
01000000
00000000
01000000
00000000
00100000
00000000
00100000
00000000
,
00001000
00100000
00000000
00001000
00000000
00010000
00000100
00000000
00010100
00000000
00000000
00000000
00011000
00000000
00000000
00000000
,
00010000
00000010
00000000
00000100
00000000
00000010
00001000
00000000
00000001
00000000
00000010
00000000
00000100
00000000
00001000
00000000
,
00000040
00001000
00000230
00000000
,
00000301
00000010
00000000
00000100
00000000
00010000
00000010
00000000
00010000
00000000
00000100
00000000
00010000
00000000
00001000
00000000
,
01000000
00100000
00000000
01000000
00000000
00010000
10000000
00000000
11000000
00000000
00000000
00000000
01100000
00000000
00000000
00000000
,
00100000
00010000
00000000
00100000
00000000
00001000
01000000
00000000
00001000
00000000
00010000
00000000
00000100
00000000
00010000
00000000
,
00011000
00100010
00011000
01000100
,
00001000
00010000
00001000
01000000
00100000
00000000
00000000
01000000
,
00001000
00010000
00000100
00000010
00000100
00000000
00000000
00000000
,
00000010
00000001
00002000
00000000
00003010
00000100
00000010
00010000
,
00000100
00010000
00000010
00010000
00011000
00000000
00000000
00000000
,
00000100
00000010
00000100
00010000
00001000
01000000
00100000
01000000
,
00010000
10000000
01000000
00100000
00000000
00000000
00000000
00010000
,
00100000
00001000
00100000
00010000
00100000
00001000
00010000
00000100
,
00000020
00000030
00000200
00000000
00002300
00000000
00003020
00000000
,
00010030
00000100
00000000
00010000
00000000
00001000
00000000
01001000
,
00000000
00000000
00100000
10000000
00100000
10000000
00000000
00010000
,
00000000
00110000
00100000
00001000
00100000
00001000
00000000
00100000
,
00000000
00110000
00020000
00000000
00230000
00000000
00302000
01003000
,
00000000
00011000
00000000
00010100
00000000
00011000
00000000
00000000
,
00000000
00000000
00010100
00000000
00010010
00000000
00001000
00000001
,
00000000
00000000
00000000
00001001
00000000
00000000
00000001
00000000
00000000
00000000
00000010
00000000
00000100
00000000
00001000
00000000
00000100
00000000
00000010
00000000
00000000
00000000
00000000
00000000
,
00000110
00000000
00011000
00000000
10001000
00000000
00011000
00010000
,
00010010
00000000
00000010
00010000
00000100
00010000
00000010
00010000
,
00000000
00001000
01000000
00100000
10000000
00010000
02000000
00000000
,
03010000
00100000
00010000
00100000
01000000
00100000
00110000
00000000
,
00101000
00000000
01001000
00000000
00010100
00000000
00101000
00001000
,
00011000
00000000
00000010
00001000
00000010
00001000
00000010
00001000
,
00000000
00000010
00001000
00000100
00010000
00001000
00100000
00010000
,
20000000
00000000
31000000
10000000
00010000
02000000
00000000
00000000
,
00000000
00000000
00000000
00000000
03100000
10000000
00000000
00010000
00000000
01000000
00010000
00000000
00100000
00000000
01000000
00000000
,
00100000
00000000
00001000
00000000
00010000
00000010
00000000
00000100
00000000
00000010
00001000
00000000
00001001
00000000
00000000
00000000
,
00000110
00000000
00000000
00000000
00000010
00010000
00000000
00000010
00000000
00000100
00000001
00000000
00001000
00000000
00000100
00000000
,
00000010
00000001
00004000
00000000
00000100
00000000
00003010
00000000
,
00001010
00000000
00000000
00000000
00000010
00010000
00000000
00001000
00000000
00100000
00010000
00000000
10000000
00000000
01000000
00000000
,
00100000
00000000
01000000
00000000
10000000
00010000
00000000
01000000
00000000
00100000
01000000
00000000
01010000
00000000
00000000
00000000
,
00110000
00000000
00000000
00000000
00010000
00100000
00000000
00001000
00000000
01000000
00001000
00000000
00010000
00000000
00001000
00000000
,
00010000
00000100
00010100
00000000
00011000
00000000
01001000
00000000
,
00011000
00000000
00000000
00000000
00001000
00010000
00000000
00000100
00000000
00000010
00000001
00000000
00001000
00000000
00000010
00000000
,
00000100
00000000
00000010
00000000
00010000
00000100
00000000
00010000
00000000
00001000
00010000
00000000
00012000
00000000
00000000
00000000
,
00100000
00000000
00000000
00000000
00013000
00001000
00000000
01000000
00000000
00100000
10000000
00000000
00010000
00000000
01000000
00000000
,
00010000
00100000
04000000
00000000
00100000
00000000
13000000
00000000
,
11000000
00000000
00000000
00000000
01000000
00100000
00000000
00001000
00000000
01000000
00001000
00000000
00010000
00000000
00000100
00000000
,
00010000
00000000
00001000
00000000
00010000
00000010
00000000
00000100
00000000
00000010
00001000
00000000
00002010
00000000
00000000
00000000
,
00000001
00000000
00000000
00000000
00003001
00000010
00000000
00000001
00000000
00001000
00000100
00000000
00010000
00000000
00000010
00000000
,
00000100
00000010
00010010
00000000
00010100
00000000
00011000
00000000
,
00101000
01001000
00100000
10000000
,
10010000
00110000
00100000
01000000
,
10000000
10010000
01000000
00001000
,
00010000
00000000
00000000
00010100
00000000
00010000
00000100
00010000
00001000
00010000
00000000
00000000
,
00020010
00030000
00000000
00000000
;

//---------------dance-double - M. Simmons----------------
#NOTES:
     dance-double:
     M. Simmons:
     Medium:
     6:
     0.449,0.000,0.370,0.236,0.000:
00000000
00000000
00000000
00000000
,
00000000
00000000
00000000
00000000
,
00000000
00000000
00000000
00000000
,
00000000
00000000
00000000
00000000
,
00000000
00000000
00000000
00000000
,
00000000
00000000
00000000
00000000
,
00000000
00000000
00000000
00000000
,
00000000
00000000
00000000
00000000
,
00001000
00000000
00010000
00000000
00000100
00010000
00000000
00000000
,
00000100
00000010
00000110
00000000
,
00000100
00001000
00000001
00001000
,
00000010
00010000
00000010
00000000
00010010
00000000
00000000
00000000
,
00001000
00000000
01000000
00000000
00100000
10000000
00000000
00000000
,
00010000
00100000
00110000
00000000
,
01100000
00000000
01100000
00000000
00100000
00010000
00100000
00010000
,
00200000
00001000
00010000
00301000
,
00001000
00000000
00010000
00000000
00000100
00000000
00000010
00000001
,
00000000
00001000
00000000
00000010
00000000
00000200
00000000
00000000
,
00000310
00000000
00000000
00010010
00000000
00000000
00001000
00000000
,
00011000
00000000
00000000
00101000
00000000
00000000
00001000
00000000
,
01000000
00000000
00100000
00000000
01000000
00010000
00000000
10000000
,
00000000
01000000
00000000
11000000
00000000
00000000
01100000
00000000
,
00100000
00000000
00100000
00000000
00001000
00100000
00000000
00101000
,
00002000
00023000
00032000
00023000
,
00030100
00000000
00000010
00000000
00000100
00001000
00000100
00000000
,
00000020
00000032
00000013
00000000
,
00000100
00010000
00001000
01000000
,
00100000
00000000
10000000
10010000
00000000
00000000
00000000
00000000
,
00010000
00000000
00100000
00000000
00010000
10000000
00020000
00000000
,
00130000
01000000
10000000
00000000
,
00100000
00000000
01000000
00000000
00001000
00010000
00001000
00000000
,
00020000
00000000
00000000
00030010
00000000
00000000
00010010
00000000
,
00000001
00000100
00001000
00010000
,
00000100
00000010
00000002
00000000
,
00000103
00000010
00001000
00000100
,
00010000
00001000
02000000
00000000
,
03100000
10000000
01000000
00010000
,
00001000
00000100
00000002
00000000
,
00000103
00000010
00010000
00001000
,
00011000
00011000
00011000
00011000
,
00001000
01000000
01100000
00000000
,
00100000
00000000
10000000
00010000
10000000
00000000
00000000
00000000
,
00020000
00230000
02300000
03200000
,
00301000
00010000
00001000
00010000
00001000
00000000
00000000
00000000
,
00010000
00000000
00000100
00000000
00000010
00000000
00000001
00001000
,
00000001
00000000
00001000
00000010
00000000
00000000
00000000
00000000
,
00010010
00010100
00011000
00011000
,
00012000
00013000
00001000
01000000
,
00100000
01000000
00000000
00010000
00000000
00100000
00000000
01000000
,
00000000
00000000
00100000
00000000
00000000
00101000
00000000
00000000
,
00001000
00000000
00011000
00000000
00000000
00010100
00000000
00000000
,
00000100
00000000
00000010
00000000
00000001
00000000
00001000
00000010
,
00000000
00000100
00000000
00000010
00000000
00010010
00000000
00000000
,
00000010
00000000
00010000
00000000
00000100
00000000
00010000
00001000
,
00000000
00101000
00002000
00000000
00023000
00000000
00032000
00000000
,
02003000
00000000
03100000
00000000
01000000
00000000
00010000
10000000
,
00010000
00100000
00100000
01000000
,
00000000
00100000
00001000
01000000
,
00001000
00000000
00010000
00000100
00010000
00000100
00000000
00000000
,
00010100
00000000
00000100
00000000
00000100
00000000
00000010
00000001
,
00000010
00000100
00000100
00010000
,
00000000
00001000
01000000
00100000
,
01000000
00000000
00001000
01000000
00001000
01000000
00000000
00000000
,
00000000
00001000
00010000
00001000
,
00100000
00000000
01000000
00000000
00100000
01000000
00100000
00000000
,
01100000
00100000
00001000
00010000
,
00000010
00000000
00010000
00000000
00000100
00010000
00000100
00000000
,
00010100
00000100
00000010
00000001
,
00001000
00000000
00000010
00000000
00000100
00000010
00000100
00000000
,
00000110
00000010
00010000
00000010
,
00000100
00000101
00000101
00000101
,
00000101
00000100
00001000
00010000
,
00001000
00000000
01000000
00000000
00100000
01000000
00100000
00000000
,
01100000
10000000
01000000
00010000
,
00001000
00000000
00010000
00000000
00000100
00010000
00000100
00000000
,
00010100
00001000
00010000
00000010
,
00000100
00000000
00001000
00000000
00010000
00000100
00010000
00000000
,
00011000
00001000
01000000
00100000
,
10000000
00020000
00230000
00320000
,
00230000
01300000
00100000
00001000
,
00101000
00101000
00001000
00010000
,
00000010
00000110
00000010
00001000
,
00000001
00002001
00003002
00001003
,
00001001
00000000
00000000
00000000
;

//---------------dance-double - M. Simmons----------------
#NOTES:
     dance-double:
     M. Simmons:
     Easy:
     3:
     0.297,0.000,0.126,0.244,0.000:
00000000
00000000
00000000
00000000
,
00000000
00000000
00000000
00000000
,
00000000
00000000
00000000
00000000
,
00000000
00000000
00000000
00000000
,
00000000
00000000
00000000
00000000
,
00000000
00000000
00000000
00000000
,
00000000
00000000
00000000
00000000
,
00000000
00000000
00000000
00000000
,
00010000
00000000
00100000
00000000
,
00010000
00000000
01010000
00000000
,
00001000
00010000
00001000
00010000
,
00000100
00000100
00000100
00000000
,
00001000
00000000
00000010
00000000
,
00000100
00000000
00000110
00000000
,
00000010
00001000
00000001
00001000
,
00002002
00000000
00000000
00003003
,
00000001
00000000
00000010
00000000
,
00000100
00000000
00010000
00000000
,
00002000
00000000
00000000
00013000
00000000
00000000
00000000
00000000
,
00002000
00000000
00000000
00103000
00000000
00000000
00000000
00000000
,
00010000
00000000
01000000
00000000
,
00100000
00000000
01000000
00000000
,
00010000
00010000
00100000
00100000
,
02100000
00000000
00000000
00000000
,
03100000
00010000
00100000
00001000
,
00010000
00010000
00010000
00000000
,
00001000
00010000
00000100
00000010
,
00000100
00000000
00001000
00000001
00000000
00000000
00000000
00000000
,
00000100
00000010
00001000
00000010
,
00010000
00010000
00010000
00000000
,
00000100
00010000
00001000
01000000
,
00100000
00000000
01000000
00100000
00000000
00000000
00000000
00000000
,
10000000
00000000
00010000
00000000
,
00100000
00000000
00110000
00000000
,
00100000
00000000
00001000
00000000
,
00010000
00000000
00001100
00000000
,
00001000
00000000
00000010
00000000
,
00000100
00000000
00000110
00000000
,
00000010
00000000
00001000
00000000
,
00000001
00000001
00000010
00000010
,
00000200
00000000
00020300
00000000
,
00032000
00000000
01003000
00000000
,
00200000
00000000
02300000
00000000
,
03002000
00000000
00013000
00000000
,
00020000
00000000
00032000
00000000
,
00023000
00000000
00030100
00000000
,
00000200
00000000
00000320
00000000
,
00000130
00001000
00000000
00000010
,
00000000
00000100
00000000
00000010
,
00000000
00000000
00020000
00000000
00000000
00031000
00000000
00000000
,
00000000
00000000
00020000
00000000
00000000
00031000
00000000
00000000
,
00000000
00001000
00000000
00100000
,
00000000
00001000
00000000
01000000
,
00000000
00100000
00000000
01000000
,
00000000
02100000
00100000
00100000
,
00000000
03010000
10000000
00010000
,
10000000
00010000
00010000
00010000
,
00000000
00100000
00000000
00001000
,
00000000
00010000
00000000
00000100
,
00000000
00000100
00000010
00000001
,
00001000
00000010
00000010
00000010
,
00000000
00000100
00000000
00000010
,
00000000
00020010
00000000
00000000
,
00000000
00031000
00010000
00001000
,
01000000
00100000
00000000
01100000
,
00000000
01000000
00010000
01000000
,
00010000
00100000
00000000
00110000
,
00000000
00100000
01000000
00100000
,
01000000
10000000
00000000
11000000
,
00000000
01000000
00100000
00010000
,
00100000
00002000
00203000
00302000
,
00203000
00301000
00010000
00000100
,
00010000
00000010
00000000
00010010
,
00000000
00000010
00000100
00000001
,
00000100
00000010
00000000
00000110
,
00000000
00000010
00001000
00000001
,
00001000
00000001
00000000
00001001
,
00000000
00000001
00000010
00000100
,
00001000
00000200
00020300
00030200
,
00020300
00031000
00010000
00001000
,
00100000
00100000
00010000
10000000
,
00100000
01000000
00010000
00100000
,
01000000
00200000
00010000
00010000
,
00300000
00000000
00000000
00000000
;

//---------------dance-single - D. Bernardone----------------
#NOTES:
     dance-single:
     D. Bernardone:
     Beginner:
     1:
     0.121,0.000,0.050,0.000,0.000:
0000
0000
0000
0000
,
0000
0000
0000
0000
,
0000
0000
0000
0000
,
0000
0000
0000
0000
,
0000
0000
0000
0000
,
0000
0000
0000
0000
,
0000
0000
0000
0000
,
0000
0000
0000
0000
,
0100
0000
0000
0000
,
1000
0000
1000
0000
,
0001
0000
0000
0000
,
0100
0000
0000
0000
,
0100
0000
0000
0000
,
0010
0000
0010
0000
,
1000
0000
0000
0000
,
0100
0000
0000
0000
,
0010
0000
0000
0000
,
0010
0000
0000
0000
,
0001
0000
0000
0000
,
0001
0000
0000
0000
,
1000
0000
0000
0000
,
1000
0000
0000
0000
,
0010
0000
0100
0000
,
0110
0000
0000
0000
,
0001
0000
0001
0000
,
0001
0000
0001
0000
,
1000
0000
0100
0000
,
0010
0000
0000
0000
,
0100
0000
0100
0000
,
0100
0000
0100
0000
,
1000
0000
0010
0000
,
0100
0000
0000
0000
,
0001
0000
0000
0000
,
0001
0000
0000
0000
,
0010
0000
0000
0000
,
0100
0000
0000
0000
,
1000
0000
0000
0000
,
1000
0000
0000
0000
,
0001
0000
0000
0000
,
0100
0000
0000
0000
,
0010
0000
0000
0000
,
0010
0000
0000
0000
,
0010
0000
0000
0000
,
0010
0000
0000
0000
,
1000
0000
0000
0000
,
1000
0000
0000
0000
,
1000
0000
0000
0000
,
0000
1000
0000
0000
,
0000
0001
0000
0000
,
0000
1000
0000
0000
,
0000
1000
0000
0000
,
0000
0010
0000
0000
,
0000
0100
0000
0000
,
0000
0001
0000
1000
,
0000
1001
0000
0000
,
0000
1000
0000
1000
,
0000
1000
0000
1000
,
0000
0010
0000
0100
,
0000
0001
0000
0000
,
0000
0010
0000
0010
,
0000
0010
0000
0010
,
0000
0100
0000
1000
,
0000
0001
0000
0000
,
0000
0100
0000
0000
,
0000
0100
0000
0000
,
0000
0010
0000
0000
,
0000
1000
0000
0000
,
0000
0100
0000
0000
,
0000
0100
0000
0000
,
0000
0010
0000
0000
,
0000
0100
0000
0000
,
0000
1000
0000
1000
,
0000
0100
0000
0100
,
0000
0010
0000
0001
,
0000
0100
0000
0010
,
0000
1000
0000
0000
,
0000
0001
0000
0000
,
0000
1000
0000
0000
,
0000
0010
0000
0000
,
0000
0110
0000
0000
,
0000
1001
0000
0000
,
0000
0110
0000
0000
,
0000
1001
0000
0000
;

//---------------dance-single - D. Bernardone----------------
#NOTES:
     dance-single:
     D. Bernardone:
     Easy:
     4:
     0.332,0.000,0.210,0.185,0.000:
0000
0000
0000
0000
,
0000
0000
0000
0000
,
0000
0000
0000
0000
,
0000
0000
0000
0000
,
1000
0000
0100
0000
,
1000
0001
1000
0000
,
0010
0000
0100
0000
,
0002
2003
3020
0230
,
0301
0001
0001
0000
,
0010
0100
1000
0000
,
0010
0100
0001
0001
,
0010
0100
0010
0000
,
0001
0100
1000
0000
,
0100
0010
1000
0000
,
0100
0010
0001
0010
,
0100
0000
0100
0000
,
1000
0001
0100
0010
,
1000
0001
0100
0010
,
1000
0000
0000
0000
,
1001
0000
0000
0000
,
0001
0010
0100
1000
,
0001
0010
0010
0000
,
0100
1000
0010
0100
,
0110
0110
0110
0001
,
1000
0100
1000
0100
,
0010
0010
0010
0000
,
0001
0100
0010
0100
,
0001
0010
0100
0000
,
1000
0010
1000
0010
,
0100
0100
0100
0000
,
0001
1000
0100
1000
,
0001
0100
0010
0000
,
2000
0100
0100
3100
,
0020
0100
0031
0000
,
2000
0010
0001
3001
,
1001
0110
1001
0000
,
0002
0010
0010
0013
,
0200
1000
0310
0000
,
0002
0100
1000
1003
,
0020
0230
0302
0023
,
0130
0000
0000
0000
,
1100
0000
0000
0000
,
0011
0000
0000
0000
,
0101
0000
0110
0000
,
1010
0000
0000
0000
,
0101
0000
0000
0000
,
0011
0000
1001
0000
,
0100
1000
0000
0001
,
0000
0100
0000
0100
,
0000
0010
1000
0100
,
0000
0010
0001
0100
,
0000
0010
0000
1000
,
0000
1000
0000
0000
,
0000
0100
1000
0010
,
1000
1001
1001
1001
,
0001
0010
0100
0010
,
0100
1000
0010
0100
,
0000
0001
0010
1000
,
0000
1000
0010
0100
,
0000
1000
0001
1000
,
0001
0100
0010
1000
,
0000
0100
0001
0100
,
0010
0001
0000
1000
,
0000
0010
0010
0100
,
0100
0001
1000
0001
,
0000
0010
0010
0100
,
0100
1000
0001
1000
,
0000
1000
1000
0100
,
0100
1000
0010
0100
,
0000
0001
0001
0010
,
0010
0200
2300
3020
,
0230
0301
0000
0000
,
1000
1001
0000
0000
,
0100
0110
0000
0000
,
0000
0001
1000
1001
,
0000
0010
0000
0000
,
0100
0001
0000
0000
,
0000
0010
0000
0000
,
0000
0200
2300
3002
,
0203
0310
0000
0000
,
1000
0100
0000
0000
,
0000
1001
0000
0000
,
0001
1001
0110
1001
,
0010
0000
0000
0000
;

//---------------dance-single - D. Bernardone----------------
#NOTES:
     dance-single:
     D. Bernardone:
     Medium:
     6:
     0.434,0.000,0.311,0.143,0.000: // measure 1
0000
0000
0000
0000
,  // measure 2
0000
0000
0000
0000
,  // measure 3
0000
0000
0000
0000
,  // measure 4
0000
0000
0000
0000
,  // measure 5
0001
1000
0001
0000
0100
0000
0100
0000
,  // measure 6
0010
1000
0010
0000
0100
0000
0000
0000
,  // measure 7
0001
1000
0010
0000
0100
0000
0001
0000
,  // measure 8
0020
0230
2300
3020
,  // measure 9
0130
0001
1000
0100
,  // measure 10
0110
0001
1000
0010
,  // measure 11
0110
0001
1000
0100
,  // measure 12
1001
0010
0001
0001
,  // measure 13
0101
0010
1000
0100
,  // measure 14
1100
0001
0100
0010
,  // measure 15
1010
0001
0010
0100
,  // measure 16
1000
0000
0010
0000
0100
0001
0010
0000
,  // measure 17
0100
0100
0100
0100
,  // measure 18
1000
1000
1000
1000
,  // measure 19
0101
0000
0M0M
0000
,  // measure 20
1100
0000
MM00
0000
,  // measure 21
0001
0001
0001
0001
,  // measure 22
0100
0100
0100
0000
,  // measure 23
0010
1000
0100
0010
,  // measure 24
0011
1100
0011
0110
,  // measure 25
1000
0001
1000
0001
,  // measure 26
0100
0010
0100
0010
0100
0010
0000
0010
,  // measure 27
1000
0100
1000
0001
,  // measure 28
1100
0000
0110
0000
,  // measure 29
0001
0100
0001
0100
,  // measure 30
0010
1000
0010
1000
0010
1000
0000
1000
,  // measure 31
0100
0010
0001
0100
,  // measure 32
0010
0000
0100
0000
0001
0010
0100
1000
,  // measure 33
0001
0100
1000
0100
,  // measure 34
0010
0010
0100
0000
0001
0000
0000
0000
,  // measure 35
0010
0100
1000
0010
,  // measure 36
0100
0001
0010
0100
1000
0000
0000
0000
,  // measure 37
0001
0000
0010
0000
1000
0000
0010
0010
,  // measure 38
0100
1000
0001
0000
,  // measure 39
0100
0010
1000
0100
,  // measure 40
2000
3002
0203
0320
,  // measure 41
1030
0100
0001
0000
,  // measure 42
0001
0010
1000
0000
,  // measure 43
1000
0100
0001
0001
,  // measure 44
0010
1000
0001
0000
,  // measure 45
1000
0010
0100
0100
,  // measure 46
0110
0001
1000
1000
,  // measure 47
1001
0010
0100
0010
,  // measure 48
0001
1000
0100
1000
,  // measure 49
0000
0010
0000
0100
0000
0010
0000
0100
,  // measure 50
0000
0000
0001
0000
0000
0101
0000
0000
,  // measure 51
0000
0000
1000
0000
0000
1100
0000
0000
,  // measure 52
0000
0001
0100
0001
,  // measure 53
0000
0010
0000
0100
0000
0010
0000
0000
,  // measure 54
0000
0100
1000
0010
,  // measure 55
0100
0101
1010
0101
,  // measure 56
1001
0001
0100
0010
,  // measure 57
0100
0000
0001
0100
0010
0100
0001
0100
,  // measure 58
0000
0001
0010
0100
,  // measure 59
1000
0100
0100
0010
,  // measure 60
0000
0001
1000
0010
,  // measure 61
1000
0000
0001
1000
0010
1000
0001
1000
,  // measure 62
0000
0010
0100
0001
,  // measure 63
0010
0100
1000
1001
,  // measure 64
1001
0000
0001
0100
0001
0000
0010
0000
,  // measure 65
0100
0000
0010
0001
1000
0000
0010
0000
,  // measure 66
0000
0100
0001
0010
,  // measure 67
0100
0000
0010
0001
1000
0000
0101
0000
,  // measure 68
0000
0000
0010
1000
0010
0000
0100
0000
,  // measure 69
0001
0000
0010
0100
1000
0000
0010
0000
,  // measure 70
0000
0100
0001
0010
,  // measure 71
0100
2000
3020
0230
,  // measure 72
0302
0000
1003
0100
1000
0000
1100
0000
,  // measure 73
0000
0000
0001
0100
0001
0000
0100
0000
,  // measure 74
0000
0000
0010
1000
0010
0000
1010
0000
,  // measure 75
0101
0000
0100
0010
0100
0000
1001
0000
,  // measure 76
0000
0001
0010
0100
,  // measure 77
0000
1000
0001
1000
,  // measure 78
0000
0010
0100
0001
,  // measure 79
1000
0200
0320
0032
,  // measure 80
0203
0310
0000
0000
,  // measure 81
1010
1010
0000
0000
,  // measure 82
0000
0101
0000
0000
,  // measure 83
0011
1001
0110
1001
,  // measure 84
1200
0300
0000
0000
;

//---------------dance-single - D. Bernardone----------------
#NOTES:
     dance-single:
     D. Bernardone:
     Hard:
     9:
     0.763,0.000,0.437,0.530,0.370:
0000
0000
0000
0000
,
0000
0000
0000
0000
,
0000
0000
0000
0000
,
0000
0000
0000
0000
,
1000
0000
0001
0000
0100
0000
0001
0000
0010
0000
0100
1000
0000
0100
1000
0000
,
0001
0000
0100
0000
0010
0000
0100
0000
2000
0000
0000
0000
0000
0000
0000
3000
,
0100
0000
0010
0000
1000
0000
0100
0000
0010
0000
0001
1000
0000
0001
1000
0000
,
0020
0230
0302
0023
,
0130
1000
0010
0000
0100
0001
0010
0000
,
1001
0001
0100
0000
0010
1000
0100
0000
,
1001
1000
0010
0000
0100
0001
1000
0000
,
1100
0000
0100
0000
0010
0000
0000
0000
0001
0000
0100
0010
0100
0000
0100
0000
,
1001
1000
0100
0010
0001
1000
0100
0010
,
0011
0001
0100
0010
1000
0001
0100
0010
,
1010
1000
0001
0100
0001
0010
0100
1000
,
0001
M000
0100
00M0
M001
0000
01M0
M000
0001
0000
1000
0100
1000
0000
1000
0000
,
1001
0001
0100
0010
,
1001
0001
0100
0010
,
1001
0100
0010
0000
0200
0000
0300
0000
,
1001
0000
0010
0000
0100
0000
0000
0000
0020
0000
0000
0000
0030
0000
0000
1000
,
0100
0010
0001
0100
,
0101
0001
1000
0100
,
1100
0010
0110
0100
,
2000
0000
3020
0230
0302
2003
3200
0000
0300
0022
0000
0033
,
0101
0000
1100
0000
0001
0100
0010
0000
,
1000
0000
1000
0000
0001
M000
0001
0000
0010
000M
0010
0000
0000
00M0
0001
0000
,
0100
0001
0010
0001
1000
0000
0010
0100
,
0210
0000
0000
0000
0301
0000
0000
0000
0020
0130
0010
0000
0100
0000
0000
0000
,
1010
0000
0011
0000
1000
0001
0100
0000
,
0010
0000
0010
0000
1000
00M0
1000
0000
0100
M000
0100
0000
0000
0M00
1000
0000
,
0001
0100
0001
0010
0100
0010
0001
0000
,
1000
0000
0100
0000
1000
0000
0100
0000
1000
0010
1000
0010
1000
0010
1000
0010
,
0100
0000
0001
1000
0000
0001
1000
0000
0100
0000
0010
0001
0000
0010
0001
0000
,
0100
0000
1000
0000
0100
0000
0010
0000
2000
0000
0000
0000
0000
0000
0000
3000
,
0100
0000
0001
0000
0100
0000
0010
0000
0001
0000
0100
0001
0000
1000
0010
0000
,
0100
0001
1000
0000
0100
0010
0100
0000
2002
0000
0000
0000
0000
0000
0000
3003
,
0001
0000
0100
0010
0000
0100
0010
0000
1000
0000
0001
0100
0000
0001
0100
0000
,
0010
0000
1000
0000
0100
0000
0001
0000
0200
0000
0000
0000
0000
0000
0000
0300
,
0010
0000
1000
0000
0010
0000
0100
0000
0001
0000
0100
1000
0000
0010
0100
0000
,
0002
0023
0230
2300
,
3010
0100
0001
0100
0010
0000
0000
0000
,
1100
0010
0001
0100
0010
0000
0000
0000
,
1001
0100
0010
1000
0100
0000
0010
0010
,
0011
0100
1100
0010
,
1001
0001
0100
0010
1000
0000
0100
0000
,
0110
0001
0100
0000
0010
0000
0000
0000
,
1000
0100
0010
0001
1000
0100
0010
0001
,
0100
0M00
0010
1000
0010
0100
0001
0010
,
0001
0100
0000
0010
1000
0100
1000
0001
,
0100
0000
0101
1000
0100
0000
0101
0000
,
0000
0000
1100
0001
0100
0000
1100
0000
,
0001
0000
0000
0100
0010
0000
1000
0000
0100
0000
1000
0000
0001
0000
0010
0000
,
0100
1000
0000
0010
0100
0001
1000
0100
,
0010
0011
0100
1010
,
0001
0000
0000
0000
0000
0000
2000
0000
0000
3000
0020
0000
0230
0000
0302
0000
0023
0000
0230
0000
0300
0000
0000
0000
,
2200
0000
0000
0000
3300
0000
0101
0000
0000
0000
0000
0000
1010
0000
0000
0000
0000
0000
1000
0000
0000
0001
0000
0000
,
0010
0000
0000
0000
0100
0000
0100
0000
0010
0M00
0010
0000
0001
00M0
0001
0000
,
0000
000M
0100
0000
0010
0000
1000
0000
0100
0000
1000
0000
0001
0000
0000
0000
,
0100
0000
0010
0000
0120
0000
0000
0000
1030
0000
0000
0000
0002
0013
0001
0000
,
0010
0000
0101
0000
1010
0000
0001
1000
,
0010
0000
0000
0000
0100
0000
0100
0000
0010
0M00
0010
0000
1000
00M0
1000
0000
,
0000
M000
0100
0000
0010
0000
0100
0000
1000
0000
0001
0000
0100
0000
0010
0000
,
0100
0000
0000
0000
0001
0000
0100
0000
0010
0000
1000
0001
0100
M000
0010
000M
,
0100
M000
0010
000M
1000
0000
0100
0010
0000
0010
0001
0000
0100
0000
0010
1000
,
0000
1000
0100
0000
0010
0001
0010
0001
0010
0000
0200
0000
2000
0000
0000
0000
,
0000
0000
0300
0000
3001
0100
0001
0100
0010
0000
1000
0000
0100
0000
1000
0001
,
0000
1000
0001
0000
0010
0100
1000
0100
1000
0001
0100
0000
1001
0000
0000
0000
,
1000
0000
0000
0010
0100
0000
0001
1000
0000
1000
0100
0000
0010
0000
0100
1000
,
0000
1000
0010
0000
0100
0001
0100
0001
0100
0000
0002
0000
2000
0000
0000
0000
,
0000
0000
0003
0000
3010
0100
0010
0100
0001
0000
1000
0000
0100
0000
0010
0001
,
0000
0010
0100
0000
2000
0000
0000
0000
3020
0000
0000
0000
0230
0000
0000
0000
,
0302
0000
0000
0000
1003
0000
0100
0000
0001
0000
0100
0000
0010
0000
0100
1000
,
0000
0001
0100
0000
0010
0000
0100
0000
0001
0000
1000
0000
0220
0000
0000
0000
,
0000
0000
0000
0330
0001
0000
0100
0000
1000
0000
0100
0000
0010
0000
1000
0100
,
1000
0100
1000
0000
0001
0100
0010
1000
0010
1000
0001
0000
2200
0000
0000
0000
,
0000
0000
0000
3300
0001
0000
0100
0000
0010
0000
0100
0000
0001
0000
0000
0000
,
1001
0000
0110
0000
1000
0100
2000
0000
,
0000
0000
0000
3000
0101
0000
0001
0000
1000
0000
0100
0000
0010
0000
0000
0000
,
0011
2100
3020
0230
,
0302
0023
0100
0130
,
1001
2001
0010
0100
,
3001
2010
0100
3010
,
0110
0000
0000
0201
0000
0302
0023
0230
2300
3200
0300
0000
,
0022
0000
0033
0000
0000
0000
0000
0000
0000
0000
0000
0000
;
