#TITLE:Sonic Vision;
#SUBTITLE:;
#ARTIST:Stryker vs. Nu-Prophet;
#TITLETRANSLIT:;
#SUBTITLETRANSLIT:;
#ARTISTTRANSLIT:;
#GENRE:Electro;
#CREDIT:;
#BANNER:Sonic Vision-bn.png;
#BACKGROUND:Sonic Vision-bg.png;
#LYRICSPATH:;
#CDTITLE:;
#MUSIC:Sonic Vision.ogg;
#OFFSET:-0.031;
#SAMPLESTART:55.960;
#SAMPLELENGTH:12.000;
#SELECTABLE:YES;
#DISPLAYBPM:90.000:180.000;
#BPMS:0.000=180.000,64.000=90.000,70.000=180.000,102.000=-45.000,103.500=180.000,207.000=90.000,223.000=180.000,253.500=-45.000,254.500=180.000;
#STOPS:109.500=0.825
;
#BGCHANGES:0.000=Sonic Vision-bg.png=1.000=0=0=1=====,
16.000=In The Groove Rebirth/201_JB_HD.mpg=1.000=1=0=1===CrossFade==,
32.000=In The Groove Rebirth/178_JB_HD.mpg=1.000=0=0=1=====,
48.000=In The Groove Rebirth/165_JB_HD.mpg=1.000=0=0=1=====,
57.500=In The Groove Rebirth/203_JB_HD.mpg=1.000=0=0=1=====,
59.000=In The Groove Rebirth/260_JB_HD.mpg=1.000=0=0=1=====,
60.500=In The Groove Rebirth/401_JB_HD.mpg=1.000=0=0=1=====,
62.000=In The Groove Rebirth/1161_JumpBack.mpg=1.000=0=0=1=====,
64.000=In The Groove Rebirth/1161_JumpBack.mpg=1.000=0=0=1=SongBgWithMovieViz====,
70.000=In The Groove Rebirth/791_JumpBack.mpg=1.000=0=0=1=====,
86.000=In The Groove Rebirth/401_JB_HD.mpg=1.000=0=0=1=====,
109.500=In The Groove Rebirth/401_JB_HD.mpg=0.000=0=0=1=====,
110.000=Sonic Vision-bg.png=1.000=0=0=1=====,
111.000=In The Groove Rebirth/260_JB_HD.mpg=1.000=0=0=1=====,
127.000=In The Groove Rebirth/201_JB_HD.mpg=1.000=0=0=1===FadeRight==,
143.000=In The Groove Rebirth/165_JB_HD.mpg=1.000=0=0=1=====,
159.000=In The Groove Rebirth/178_JB_HD.mpg=1.000=0=0=1=====,
175.000=In The Groove Rebirth/203_JB_HD.mpg=1.000=0=0=1=====,
191.000=In The Groove Rebirth/1161_JumpBack.mpg=1.000=0=0=1=====,
207.000=In The Groove Rebirth/178_JB_HD.mpg=0.400=1=0=1=Checkerboard2File2x2=Sonic Vision-bg.png=CrossFade==,
215.000=Sonic Vision-bg.png=0.400=0=0=1=Checkerboard2File2x2=In The Groove Rebirth/201_JB_HD.mpg===,
223.000=In The Groove Rebirth/791_JumpBack.mpg=1.000=0=0=1=====,
239.000=In The Groove Rebirth/873_JumpBack.mpg=1.000=0=0=1=====,
259.000=In The Groove Rebirth/873_JumpBack.mpg=0.000=0=0=1=====,
259.500=Sonic Vision-bg.png=1.000=0=0=1=====,
260.000=In The Groove Rebirth/306_JB_HD.mpg=1.000=0=0=1=====,
276.000=In The Groove Rebirth/401_JB_HD.mpg=1.000=0=0=1=====,
284.000=In The Groove Rebirth/1161_JumpBack.mpg=1.000=0=0=1=====,
285.500=In The Groove Rebirth/873_JumpBack.mpg=1.000=0=0=1=====,
287.000=In The Groove Rebirth/178_JB_HD.mpg=1.000=0=0=1=====,
288.500=In The Groove Rebirth/165_JB_HD.mpg=1.000=0=0=1=====,
290.000=In The Groove Rebirth/201_JB_HD.mpg=1.000=0=0=1=====,
291.500=In The Groove Rebirth/791_JumpBack.mpg=1.000=0=0=1=====,
293.000=In The Groove Rebirth/260_JB_HD.mpg=1.000=0=0=1=====,
294.500=In The Groove Rebirth/401_JB_HD.mpg=1.000=0=0=1=====,
296.000=In The Groove Rebirth/873_JumpBack.mpg=1.000=0=0=1=====,
297.500=Sonic Vision-bg.png=1.000=0=0=1====1^0^0^1=,
299.000=Sonic Vision-bg.png=1.000=0=0=1=====,
99999=-nosongbg-=1.000=0=0=0 // don't automatically add -songbackground-
;
#BGCHANGES2:64.000=white flash=1.000=0=0=1=====,
159.000=yellow flash=1.000=0=0=1=====,
215.000=white flash=1.000=0=0=1=====,
;
#KEYSOUNDS:;

//---------------dance-single - M. Simmons----------------
#NOTES:
     dance-single:
     M. Simmons:
     Easy:
     4:
     0.328,0.533,0.281,0.066,0.000:
0000
0000
0000
0000
,
0000
0000
0000
0000
,
0000
0000
0000
0000
,
0000
0000
0000
0000
,
0010
0100
0010
0100
,
0001
1000
0001
1000
,
0001
0010
0100
1000
,
0001
0010
0100
0000
,
1001
0100
0000
0010
,
1001
0100
0000
0001
,
0110
1000
0000
1000
,
0110
0001
0000
1000
,
1001
0001
0000
0100
,
0110
0010
0000
1000
,
0001
0000
0000
0100
0000
0000
0010
0000
,
0000
1000
0000
0000
0200
0000
0000
0000
,
0000
0000
0000
0000
,
0000
0000
0000
0000
0310
0000
0000
0001
,
0000
0000
1000
0000
0000
0010
0000
0000
,
0100
0000
0010
0000
1000
0000
0000
0001
,
0000
0000
1000
0000
0000
0001
0000
0000
,
0100
0000
0010
0000
1000
0000
0000
0100
,
0000
0000
0010
0000
0000
0001
0000
0000
,
1000
0000
0001
0000
1000
0000
0000
1001
,
0000
0000
0110
0000
0000
1001
0000
0000
,
0001
0000
0001
0000
0000
0000
0000
M000
,
0000
M000
0000
0000
0000
0000
0000
0000
,
0000
0000
0000
1000
,
1000
0100
0010
0001
,
1000
0001
0100
0010
,
0100
0010
0100
0001
,
1000
0100
1000
0001
,
0100
0010
1000
0001
,
1000
0100
0010
0001
,
1000
0001
0100
0001
,
1000
0100
0010
0110
,
0000
0000
0000
0000
0000
1001
0000
0000
,
0000
0000
0100
0110
,
0000
0000
0001
0001
,
1000
1000
0100
0110
,
0000
0000
0000
0000
0000
0000
0000
1001
,
0000
0000
0000
0010
,
0000
0010
0000
0100
,
0100
0100
0000
0010
,
1000
0001
0100
0001
,
1000
0100
0010
0100
,
0000
0000
0010
0100
,
0010
0100
0010
0001
,
1000
0001
0100
0010
,
1000
0001
0100
0001
,
1000
0100
0010
0100
,
1001
0110
1001
2000
,
3000
0100
0010
0002
0000
1003
0010
0200
,
0000
0310
0100
0020
0000
1030
0002
0000
,
0000
0000
0000
0000
,
0003
0000
1000
0001
1000
0001
0100
0000
,
0010
0000
0100
0110
,
0001
0000
1000
1001
,
0100
0000
0001
1001
,
0010
0000
0001
0110
,
0100
0000
1000
0001
,
1001
0000
0001
0100
,
0110
0000
0010
1000
,
1001
0000
0000
0M00
,
0000
0000
0000
0000
,
0100
0010
0000
1000
,
0001
0100
0000
0001
,
1000
0100
0000
0010
,
0001
0010
0000
0001
,
1000
0010
0000
0100
,
0010
0100
0000
0010
,
1001
0000
0000
0110
0000
0000
1001
0000
,
0000
0110
0000
0000
1001
0000
0000
0110
,
0000
0000
0010
0000
0000
1000
0000
0000
,
0001
0000
0000
0100
0000
0000
0002
0000
,
0000
0000
0000
0000
0000
0000
0000
0003
;

//---------------dance-single - M. Simmons----------------
#NOTES:
     dance-single:
     M. Simmons:
     Challenge:
     11:
     0.820,1.000,0.468,0.365,0.585:
0000
0000
0000
0000
,
0000
0000
0000
0000
,
0000
0000
0000
0000
,
0000
0000
0000
0000
,
1000
0000
0001
0100
0010
0000
0100
0010
,
1010
0000
1010
0000
0000
0000
0001
0000
0000
0000
0100
0010
0100
0000
0010
1000
,
0010
0100
0020
0000
0000
0130
0001
1000
,
0100
0001
0200
0000
0000
1300
0001
0100
,
0001
1000
0100
0000
0000
0010
0001
1000
,
0001
0100
0010
0000
0000
0100
0010
1000
,
0001
0100
0001
0000
0000
1000
0100
0010
,
0100
1000
0001
0000
0000
0100
0010
0100
,
0001
1000
0001
0100
0010
1000
0001
0100
0001
1000
0100
0010
0001
0010
0100
1000
,
0001
0100
0010
0100
0001
1000
0100
0010
0001
0010
0100
1000
0001
0100
0001
1000
,
0002
0000
0000
0200
0000
0000
0010
0000
,
0000
1303
0000
0000
2000
0000
0000
0000
,
0222
0000
0333
0000
,
0000
0000
0000
0000
3001
0000
0000
0011
,
0000
0000
1010
0000
0000
1001
0000
0000
,
0010
0100
0010
1000
0001
0100
0001
1000
0100
0000
0000
0000
0000
0000
0011
0000
,
0000
0000
1001
0000
0000
0110
0000
0000
,
0100
1000
0001
0100
0001
0010
0100
0010
0001
0000
0000
0000
0000
0000
1010
0000
,
0000
0000
1001
0000
0000
0110
0000
0000
,
0101
0000
1001
0000
1010
0000
0000
0001
,
0000
0000
0011
0000
0000
1000
0000
0000
,
0010
0000
0100
0000
0010
1000
0010
0000
0000
0000
0000
0000
0000
0000
MM0M
0000
,
0000
0000
0000
0000
,
0000
0000
0000
0000
0000
0000
MM1M
1000
,
0001
0100
0001
1000
0100
0010
0110
0110
,
0100
0000
1000
0000
0001
0000
0100
0000
0010
0100
0010
0000
1000
0000
0200
0000
,
0310
2000
3002
0103
0010
0001
0011
1010
,
0000
0000
1001
0000
0000
0000
0001
0100
0010
0000
0100
0010
1000
0000
0001
0000
,
1001
0110
0100
0010
1000
0001
0010
0110
,
0000
1100
1001
0000
0010
0100
1000
0001
,
0100
0000
0010
0000
1000
0000
0001
0000
1000
0000
0001
0000
0100
0010
0100
0001
,
1000
0100
0010
0001
0010
0100
1000
0001
0100
0010
0100
0001
2000
0000
3001
0000
,
0010
0001
0010
0000
0100
0000
1000
0000
0002
0000
0103
0000
0010
0100
0010
0000
,
2000
3001
0100
0010
0001
0020
2030
3200
,
0302
0103
1000
0001
0001
0001
0000
1000
,
0100
0010
1000
0000
0010
0100
0001
0000
0100
0010
0100
0000
1000
0000
0001
0000
,
0100
0020
0000
1030
0001
0100
0010
0200
,
1300
0000
0002
0000
0013
0000
2000
0000
3100
0010
0100
0010
0100
0000
0010
0000
,
0001
0000
0001
0000
1010
0000
0100
0000
0001
0000
0001
0000
1000
0100
1000
0000
,
0100
0000
0010
0000
0000
0000
0001
0010
0100
1000
0001
0010
0100
0000
1000
0000
,
0001
0100
0010
0001
0010
1000
0002
0203
,
1300
0000
0002
0000
0013
0000
2000
0000
3100
0000
0100
0000
0010
0001
0010
0000
,
0100
0010
0001
2000
3001
0200
0310
0002
,
0013
1000
0010
0000
1000
0000
0001
0000
0110
0000
0110
0000
0001
0000
1000
0000
,
0100
0001
0100
1000
0001
0100
0020
0230
,
0302
0000
2003
0000
3100
0000
0100
0000
0010
0001
0010
0001
1000
0000
1001
0000
,
0100
0100
1001
1001
0100
0100
0002
0000
,
0203
0000
0000
0000
2300
0000
0000
0000
3020
0000
0000
0000
0130
1000
0100
0000
,
0000
1000
0001
0100
0010
0100
0001
0000
0000
1000
0001
0010
1000
0010
0001
0000
,
0000
1000
0100
1000
0001
0100
0010
0000
0000
0100
1000
0100
0001
0100
0010
0000
,
0000
0100
0010
1000
0001
0100
0001
0000
0000
1000
0100
0010
0001
0010
0100
0000
,
0000
0000
1000
0000
0001
0000
0100
0000
0001
0000
1000
0000
0100
0000
0000
0010
0000
0000
1000
0000
0010
0000
0010
0000
0100
0000
0000
0000
1000
0000
0001
0000
,
1000
0000
0000
0010
0000
0000
0010
0000
0100
0000
0001
0000
1000
0000
0010
0100
,
0010
0000
0000
0100
0000
0000
0100
0000
0010
0000
1000
0000
0100
0000
0010
0001
,
0010
0000
0000
0010
0000
0000
0010
0000
0100
0000
1000
0000
0001
0000
0100
0010
,
0100
0000
0000
0001
0000
0000
0001
0000
1000
0000
0100
0000
0010
0000
0100
1000
,
0001
0000
0000
0100
0000
0000
0100
0000
0010
0000
1000
0000
0010
0000
0100
0010
,
0100
0000
0000
0010
0000
0000
0010
0000
1000
0000
0001
0000
0100
0000
0001
1000
,
0100
0000
0000
0010
0000
0000
0001
0000
1000
0000
0001
0000
0100
0000
0010
1000
,
0100
0000
0000
1000
0000
0000
0000
0000
MMMM
0000
MMMM
0000
MMM0
0000
MMMM
0000
,
0000
0000
0000
0000
,
MMM1
0000
1000
0000
0100
0000
0010
0001
0010
0000
0100
0000
0010
0000
0110
0000
,
1001
0000
0001
0100
0010
0000
1000
0000
0010
0000
0100
0000
1010
0000
0110
0000
,
0010
0000
1000
0001
0100
0000
0010
0000
1000
0000
0001
0000
0101
0000
1001
0000
,
1000
0000
0100
0010
0001
0000
1000
0000
0100
0000
0010
0000
0011
0000
1100
0000
,
0100
1000
0001
0100
0010
0100
0001
1000
0100
0010
0001
0010
0100
1000
0001
0100
,
0010
0100
0001
1000
0100
1000
0001
0100
0010
0100
0001
1000
0100
1000
0001
0100
,
0010
0000
M000
0000
00M0
0000
11MM
0000
0000
0M00
0000
M000
0011
0000
0M00
M000
,
00M0
0000
1M01
0000
0000
000M
0000
M000
0110
0000
000M
0M00
00M0
0000
1100
000M
,
0000
0000
M000
0000
0M11
0000
M000
0000
00M0
0000
0101
M000
0000
0000
000M
0M00
,
1010
0000
0000
M000
0000
0000
11MM
0000
M000
000M
0000
0000
0220
0000
0000
0000
,
0000
0000
0000
0000
0000
0000
0000
0330
;

//---------------dance-single - M. Simmons----------------
#NOTES:
     dance-single:
     M. Simmons:
     Beginner:
     1:
     0.100,0.175,0.056,0.019,0.000:
0000
0000
0000
0000
,
0000
0000
0000
0000
,
0000
0000
0000
0000
,
0000
0000
0000
0000
,
1001
0000
0000
0000
,
0010
0000
0000
0000
,
0100
0100
0000
0000
,
0010
0000
0000
0000
,
1000
0000
0000
0000
,
0001
0001
0000
0000
,
0100
0000
0000
0000
,
0010
0010
0000
0000
,
1000
0000
0000
0000
,
0100
0100
0000
0000
,
0020
0000
0000
0000
,
0000
0000
0000
0000
,
0030
0000
0000
0000
,
0000
0000
0100
0000
,
0000
0000
0000
0000
,
0000
0000
1000
0000
,
0000
0000
0000
0000
,
0000
0000
0001
0000
,
0000
0000
0000
0000
,
0000
0000
0100
0000
,
0000
0000
0000
0000
,
0000
0000
0000
0000
,
0000
0000
0000
0000
,
0000
0000
0000
0010
,
0000
0000
0000
1000
,
0000
0000
0000
0001
,
0000
0000
0000
0100
,
0000
0000
0000
0001
,
0000
0000
0000
1000
,
0000
0000
0000
0100
,
0000
0000
0000
0010
,
0000
0000
0000
1001
,
0000
0000
0000
0001
,
0000
0000
0000
0100
,
0000
0000
0000
0010
,
0000
0000
0000
0100
,
0000
0000
0000
0001
,
0000
0000
0000
1000
,
0000
0000
0000
0100
,
0000
0000
0000
0110
,
0000
0000
0000
0001
,
0000
0000
0000
1000
,
0000
0000
0000
0010
,
0000
0000
0000
0100
,
0000
0000
0000
0010
,
0000
0000
0000
1000
,
0000
0000
0000
0001
,
0000
0000
0000
1001
,
0000
0000
0000
0000
,
0000
0000
0000
0200
,
0000
0000
0000
0300
,
0000
0000
0000
0010
,
0000
0000
0000
1000
,
0000
0000
0000
0001
,
0000
0000
0000
0100
,
0000
0000
0000
0001
,
0000
0000
0000
1000
,
0000
0000
0000
0100
,
0000
0000
0000
0010
,
0000
0000
0000
0000
,
0000
0000
0000
0000
,
0100
0000
0000
0000
,
1000
0000
0000
0000
,
0001
0000
0000
0000
,
0100
0000
0000
0000
,
0010
0000
1000
0000
,
0001
0000
1000
0000
,
1001
0000
0000
0001
,
0000
0000
1000
0000
,
0000
0001
0000
0000
,
1000
0000
0000
1001
;

//---------------dance-single - M. Simmons----------------
#NOTES:
     dance-single:
     M. Simmons:
     Medium:
     6:
     0.381,0.426,0.215,0.037,0.000:
0000
0000
0000
0000
,
0000
0000
0000
0000
,
0000
0000
0000
0000
,
0000
0000
0000
0000
,
1000
0100
0010
0000
0001
0000
0000
0000
,
0100
0100
0000
0010
0000
0000
0000
0000
,
1000
0001
1000
0000
0000
0000
0010
0000
,
0100
0010
0100
0000
0000
0000
0001
0000
,
1000
0100
0010
0001
,
0100
1000
0100
0001
,
1000
0100
0010
0100
,
1000
0001
0100
0010
,
1000
0001
1000
0000
0100
0010
0100
0000
,
1000
0010
1000
0000
0001
0100
0001
0000
,
1001
0000
0000
1001
0000
0000
1001
0000
,
0000
1001
0000
0000
2002
0000
0000
0000
,
0100
0000
0000
0000
,
0000
0000
0000
0000
3003
0000
0000
0010
,
0000
0000
0100
0000
0000
0001
0000
0000
,
1000
0000
1000
0000
0100
0000
0000
0010
,
0000
0000
0001
0000
0000
1000
0000
0000
,
0010
0000
0010
0000
0100
0000
0000
0001
,
0000
0000
0100
0000
0000
0010
0000
0000
,
1000
0000
1000
0000
0100
0000
0000
0010
,
0000
0000
0001
0000
0000
0001
0000
0000
,
1000
0000
1000
0000
0000
0000
0000
00M0
,
0000
0000
0000
0000
,
0000
0000
0000
0010
,
1000
0000
0001
0000
0100
0000
0001
0001
,
0000
1000
0000
0100
0010
0000
0100
0000
,
1000
0000
0001
0000
0100
0000
0010
0100
,
0000
0010
0000
1000
1000
0000
0001
0000
,
1000
0100
0010
0001
,
0010
0100
1000
0010
,
1000
0010
0000
1000
0010
0000
1000
0001
,
0000
1000
0000
0001
1000
0000
0010
0000
,
0100
0010
1000
0001
,
0100
0001
1000
0100
,
0010
0000
0001
0000
0010
0100
0000
1000
,
0000
0100
0000
0010
0001
0000
1001
0000
,
0100
0010
1000
0001
,
1000
0000
0100
0000
0010
0000
0001
0001
,
0000
0000
0100
0100
0000
0000
0000
0010
,
1000
0010
0000
0000
0000
0000
0100
0000
,
0001
1000
0001
0100
,
0010
0000
1000
0000
0100
0000
0010
0001
,
0000
0000
0000
0100
0010
0100
0000
0010
,
0000
0010
0000
0000
0000
0000
1000
0000
,
0001
1000
0100
1000
,
0001
0100
0010
1001
,
0000
1001
0000
0110
,
1001
0011
1100
0001
,
0000
0100
0010
1000
0000
0001
1000
0100
,
0000
0010
0100
1000
0000
0001
0100
0001
,
0000
1000
0100
0010
0000
0100
1000
0001
,
0000
0100
0010
0100
0000
0001
1000
0000
,
0100
0010
0100
1000
,
0001
0100
0010
0100
,
0001
1000
0100
1000
,
0001
0100
0001
1000
,
0100
1000
0001
0100
,
0010
0100
0010
1000
,
0001
0100
0001
1000
,
0100
0010
0000
0000
0000
0000
00M0
0000
,
0000
0000
0000
0000
,
0010
0001
1000
0001
,
0100
0010
0100
0001
,
1000
0100
0010
0100
,
1000
0001
0100
0010
,
0100
0000
0001
0001
0000
0000
1000
0000
,
0100
0000
0010
0010
0000
0000
0010
0000
,
0110
0000
0000
1001
0000
0000
0110
0000
,
0000
1001
0000
0000
0011
0000
0000
1100
,
0000
0000
1010
0000
0000
0101
0000
0000
,
1100
0000
0000
0101
0000
0000
2002
0000
,
0000
0000
0000
0000
0000
0000
0000
3003
;

//---------------dance-single - M. Simmons----------------
#NOTES:
     dance-single:
     M. Simmons:
     Hard:
     8:
     0.579,0.639,0.187,0.140,0.122:
0000
0000
0000
0000
,
0000
0000
0000
0000
,
0000
0000
0000
0000
,
0000
0000
0000
0000
,
0001
0100
0000
0010
1000
0001
0100
0000
,
0001
1000
0100
0010
0000
0100
1000
0001
,
0100
0100
0100
0000
0000
0010
1000
0001
,
1000
0000
1000
0000
1000
0000
0000
0000
0000
0000
0100
0000
0010
0000
0001
0010
,
0001
1000
0001
0000
0000
0100
0010
1000
,
0001
0010
1000
0000
0000
0010
0001
1000
,
0001
0100
0010
0000
0000
0100
0010
0001
,
0010
1000
0001
0000
0000
0100
0010
0100
,
0001
1000
0100
0000
0000
0010
0001
1000
,
0001
0100
0010
0000
0000
0100
0010
0100
,
0002
0000
0000
1000
0000
0000
0100
0000
,
0000
0010
0000
0000
0200
0000
0000
0000
,
2020
3030
0000
0000
,
0000
0000
0303
0000
0010
0000
0000
1000
,
0000
0000
0100
0000
0000
0010
0000
0000
,
0100
1000
0100
1000
0001
0000
0000
0100
,
0000
0000
0010
0000
0000
0001
0000
0000
,
0010
1000
0010
1000
0100
0000
0000
0010
,
0000
0000
0100
0000
0000
1000
0000
0000
,
0002
0000
0100
0000
0013
0000
0000
0100
,
0000
0000
0010
0000
0000
0001
0000
0000
,
1000
0000
0010
0000
0000
0000
0000
M0MM
,
0000
0000
0000
0000
,
0000
0000
0000
0000
0000
0000
0100
0010
,
1000
0001
0100
0001
1000
0100
0010
0100
,
1000
0001
0100
0001
1000
0100
1000
0001
,
0000
0100
0010
0000
0000
0200
0302
2003
,
0000
3001
0000
0010
0100
0010
0100
1000
,
0001
0100
0001
1000
0100
0010
0001
0010
,
0100
1000
0001
0100
0001
0010
0001
0000
,
1000
0001
0000
0000
0110
0000
0010
0100
,
0000
0001
4000
0000
0000
0000
3100
0010
,
0001
0010
0100
0010
0010
0010
0001
1000
,
0002
0000
0000
0103
0010
0100
0100
0100
,
0100
0010
1000
0001
0100
0100
0000
0001
,
1000
0100
1000
0000
0000
0000
0001
0000
0000
0000
0000
0000
0110
0000
0000
0000
,
1000
0100
0000
0010
0001
0010
0100
1000
,
0001
0000
0100
0000
0000
0000
0010
0000
0100
0010
0100
0010
0100
0000
0100
0000
,
0000
0000
0001
0000
0001
0000
0001
0000
0000
0000
1000
0000
1000
0001
1000
0000
,
1000
1000
0000
0100
0010
0100
0010
0001
,
1000
0001
0100
0010
0100
0001
1000
0100
,
0010
0100
1000
0001
0100
0001
0010
0100
,
0010
0001
1000
0100
0010
0001
0000
1000
,
0000
0001
0000
1000
0100
0010
0001
0010
,
0100
0001
0100
1000
0001
0100
0010
0010
,
0010
0010
0000
4000
0000
0000
3001
0001
,
0000
0100
0110
0100
0000
0010
2000
0000
,
3002
0000
0203
0000
0320
0000
1030
1001
,
0000
0010
0110
0100
0000
0001
1001
0100
,
0000
0000
0010
0000
0110
0000
1000
0000
0000
0000
0001
0000
1000
0100
0010
0000
,
0000
0000
0001
0000
0100
0010
1000
0000
0000
0000
0010
0000
0100
0001
1000
0000
,
0000
0000
0000
0000
0100
0000
0000
0000
0010
0000
0100
0000
0010
0000
0000
0001
0000
0000
1000
0000
0001
0000
1000
0000
0001
0000
0000
0000
1000
0000
0000
0000
,
0010
0000
0000
0100
0000
0000
0100
0000
0010
0000
0000
0000
1000
0000
0001
0000
,
1000
0000
0000
0100
0000
0000
0010
0000
0001
0000
0000
0000
1000
0000
0100
0000
,
0010
0000
0000
0100
0000
0000
0010
0000
0001
0000
0000
0000
0100
0000
0010
0000
,
0100
0000
0000
0001
0000
0000
0100
0000
0010
0000
0000
0000
1000
0000
0001
0000
,
1000
0000
0000
0100
0000
0000
1000
0000
0001
0000
1000
0000
0010
0000
0100
0000
,
0010
0000
0000
1000
0000
0000
0001
0000
0100
0000
0001
0000
1000
0000
0100
0000
,
0010
0000
0000
0100
0000
0000
0010
0000
0001
0000
1000
0000
0001
0000
1000
0000
,
0010
0000
0000
0100
0000
0000
0000
0000
0000
0000
0000
0000
M00M
0000
0000
0000
,
0000
0000
0000
0000
,
1001
0000
0001
0000
0100
0000
0000
0010
0000
0000
0010
0000
0100
0000
0010
0000
,
1000
0000
0001
0000
0100
0000
0000
0001
0000
0000
1000
0000
0100
0000
1000
0000
,
0010
0000
0100
0000
0010
0000
0000
0100
0000
0000
0001
0000
1000
0000
0100
0000
,
0010
0000
0001
0000
1000
0000
0000
0001
0000
0000
0100
0000
0010
0000
1000
0000
,
0100
0000
0010
0000
1000
0000
0000
0010
0000
0000
0001
0000
1000
0000
0001
0000
,
0100
0000
0010
0000
0001
0000
0000
0010
0000
0000
1000
0000
0001
0000
1000
0000
,
1001
0000
0000
1100
1000
0000
0011
0001
,
0000
1001
0100
0000
0110
0001
0000
1100
,
0001
0000
0101
1000
0000
0110
0001
0000
,
1010
0100
0000
0011
1000
0000
1020
0200
,
0000
0000
0000
0000
0000
0000
0000
0330
;

//---------------dance-double - M. Simmons----------------
#NOTES:
     dance-double:
     M. Simmons:
     Easy:
     4:
     0.330,0.426,0.094,0.103,0.000:
00000000
00000000
00000000
00000000
,
00000000
00000000
00000000
00000000
,
00000000
00000000
00000000
00000000
,
00000000
00000000
00000000
00000000
,
00010000
00000000
00001000
00000000
,
01000000
01000000
00010000
10000000
,
01000000
00000000
00100000
00000000
,
00011000
00011000
00000000
00011000
,
00011000
00010000
00000000
00000100
,
00000010
00000001
00000000
00001000
,
00000010
00000100
00000000
00001000
,
00010000
01000000
00000000
00100000
,
00010000
00100000
00000000
01000000
,
10000000
00010000
00000000
01000000
,
00200000
00000000
00000000
01000000
00000000
00000000
10000000
00000000
,
00000000
01000000
00000000
00000000
00010000
00000000
00000000
00000000
,
00000000
00000000
00000000
00000000
,
00000000
00000000
00000000
00000000
10300000
00000000
00000000
00010000
,
00000000
00000000
00100000
00000000
00000000
00001000
00000000
00000000
,
00010000
00000000
00010000
00000000
00000100
00000000
00000000
00000010
,
00000000
00000000
00000001
00000000
00000000
00001000
00000000
00000000
,
00000010
00000000
00000010
00000000
00000100
00000000
00000000
00000010
,
00000000
00000000
00010000
00000000
00000000
00001000
00000000
00000000
,
00100000
00000000
00100000
00000000
00010000
00000000
00000000
10000000
,
00000000
00000000
00010000
00000000
00000000
01000000
00000000
00000000
,
00100000
00000000
00100000
00000000
00000000
00000000
00000000
M0000000
,
00000000
00000000
00000000
00000000
,
00000000
00000000
00000000
10000000
,
01000000
00100000
00010000
00100000
,
00001000
00010000
00000100
00001000
,
00000010
00000100
00000010
00001000
,
00000001
00000100
00000001
00001000
,
00000100
00010000
00001000
01000000
,
00100000
01000000
00010000
10000000
,
01000000
00100000
00010000
00100000
,
00001000
00010000
00000100
00001000
,
00000001
00000100
00000010
00000100
,
00000001
00001000
00000100
00001000
,
00000001
00000100
00000010
00010000
,
00001000
00100000
00010000
10000000
,
00010000
01000000
00100000
10000000
,
00010000
00000000
01000000
00000000
00010000
00000000
00100000
00010000
,
00000000
00000000
00100000
00010000
00000000
00000000
00000000
10000000
,
00010000
10000000
00000000
00000000
00000000
00000000
00100000
00000000
,
01000000
00100000
10000000
00010000
,
00100000
00001000
00010000
00000100
,
00001000
00000010
00000100
00000010
,
00001000
00000100
00010000
00001000
,
00100000
00010000
01000000
00001000
,
00010000
00000100
00000010
00001001
,
00000000
00001001
00000000
00000110
,
00001100
00011000
00110000
02000000
,
00000000
03100000
00020000
00000000
00000000
10000000
02030000
00000000
,
00000000
03010000
00002000
00000000
00000000
00013000
00000200
00000000
,
00000000
00000310
00000002
00000000
00000000
00000103
00000020
00000000
,
00000000
00000130
00000002
00000000
00000000
00000013
00000100
00000000
,
00001000
00000000
00001000
00000100
,
00010000
00000000
01000000
10000000
,
00010000
00000000
01000000
00100000
,
01000000
00000000
00001000
00010000
,
00000100
00000000
00001000
00000010
,
00000100
00000000
00000010
00010000
,
00001000
00000000
00100000
00010000
,
10000000
00100000
00000000
00000000
00000000
00000000
0M000000
00000000
,
00000000
00000000
00000000
00000000
,
01000000
00010000
00100000
00001000
,
00010000
00000100
00001000
00000010
,
00000100
00000010
00001000
00000001
,
00000100
00000001
00001000
00000100
,
00010000
00001000
00100000
00010000
,
10000000
00100000
01000000
00100000
,
20000000
00000000
00000000
01000000
00000000
00000000
00100000
00000000
,
00000000
00010000
00000000
00000000
01000000
00000000
00000000
00100000
,
00000000
00000000
01000000
00000000
00000000
00010000
00000000
00000000
,
00100000
00000000
00000000
01000000
00000000
00000000
00200000
00000000
,
00000000
00000000
00000000
00000000
00000000
00000000
00000000
30300000
;

//---------------dance-double - M. Simmons----------------
#NOTES:
     dance-double:
     M. Simmons:
     Challenge:
     9:
     0.596,0.852,0.168,0.103,0.206:
00000000
00000000
00000000
00000000
,
00000000
00000000
00000000
00000000
,
00000000
00110000
00000000
00000000
00001100
00000000
00000000
00000000
,
00000010
00001000
00000000
00001001
00000000
00000100
00000000
00000100
,
00000000
00010000
00000000
00000000
00011000
00000000
00000000
00000000
,
10000000
00010000
00000000
01000000
00000000
00000000
00000000
00000000
,
00010000
00100000
00001000
00000000
00000000
00010000
00000100
00001000
,
00000001
00000100
00000010
00000000
00000000
00001000
00000100
00010000
,
00001000
00100000
01000000
00000000
00000000
10000000
00010000
00100000
,
00001000
00010000
00000010
00000000
00000000
00000010
00000001
00000010
,
00001000
00000100
00010000
00000000
00000000
00001000
01000000
00100000
,
00010000
00100000
10000000
00000000
00000000
01000000
00010000
00001000
,
00010000
00000100
00000010
00000000
00000000
00000001
00001000
00000010
,
00010000
00001000
01000000
00000000
00000000
00100000
01000000
00001000
,
00010000
00000000
00000000
01001000
00000000
00000000
00010100
00000000
,
00000000
00101000
00000000
00000000
00020020
00000000
00000000
00000000
,
00100000
00000000
00000000
00000000
,
00000000
00000000
00030030
00000000
00000100
00000000
00000000
01000000
,
00000000
00000000
00100000
00000000
00000000
01000000
00000000
00000000
,
00010000
00000000
10000000
00000000
01000000
00000000
00000000
00010000
,
00000000
00000000
00000100
00000000
00000000
00000010
00000000
00000000
,
00000001
00000000
00001000
00000000
00000001
00000000
00000000
00000100
,
00000000
00000000
00000010
00000000
00000000
00010000
00000000
00000000
,
00001000
00000000
01000000
00000000
00001000
00000000
00000000
10000000
,
00000000
00000000
01000000
00000000
00000000
00100000
00000000
00000000
,
01000000
00000000
10000000
00000000
00000000
00000000
00000000
MMM0MMMM
,
00000000
00000000
00000000
00000000
,
00000000
00000000
00000000
00000000
00000000
00000000
00010000
01000000
,
00001000
00010000
00000100
00001000
00000010
00000100
00000010
00000010
,
00000000
00001000
00000000
00000100
00010000
00001000
01000000
00100000
,
01000000
00010000
10000000
00000000
00000000
01000000
00100000
00100000
,
00000000
00000000
00001000
00000000
00000000
00000000
00010000
00000000
00000100
00001000
00000001
00000100
00000001
00000000
00001000
00000000
,
00000010
00000100
00000010
00010000
00001000
01000000
00100000
02000000
,
00000000
00000000
03010000
00000000
10000000
00000000
00000000
00000000
00010000
00000000
00100000
00001000
00100000
00000000
00000000
00000000
,
00001000
00001000
00000000
00000000
00020000
00000000
00030100
00000010
,
00000000
00000110
00000000
00000001
00000100
00000010
00001100
00010000
,
00001000
00100000
00010000
10000000
00010000
01000000
00100000
10000000
,
00010000
00100000
00001000
00010000
00000100
00001000
00000010
00000100
,
00000010
00000001
00000010
00001000
00000200
00020300
00000000
00031000
,
00010000
00000100
00001000
00000000
00000000
00000000
00000011
00000000
00000000
00000000
00000000
00000000
00000001
00000000
00001000
00000000
,
00000100
00010000
01000000
10000000
00010000
01000000
00100000
00010000
,
00001000
00000000
00010000
00000000
00000100
00000000
00000010
00000000
00000100
00001000
00000001
00000100
00001000
00000000
00010000
00000000
,
00000000
00000000
01000000
00000000
10000000
00000000
00010000
00000000
00000000
00000000
01000000
00000000
00100000
01000000
00010000
00000000
,
01000000
00000000
00002000
00000000
00000000
00000000
00040000
00000000
00000000
00000000
00000000
00033000
00000100
00000000
00000010
00000000
,
00000000
00000001
00001000
00000010
00000000
00000100
00001000
00010000
,
00001000
00000000
00100000
00000000
00010000
00000000
10000000
00000000
01000000
00000000
00100000
00000000
01000000
00100000
01000000
00000000
,
00000000
10000000
00010000
01000000
00000000
01010000
00000000
01001000
,
00000000
00101000
00000000
00011000
00010000
00010000
00001000
00010000
,
00000100
00000010
00000001
00000001
00001000
00000010
00000100
00000100
,
00000010
00000000
00000010
00000000
00000000
00000000
00010000
00001000
00100000
00010000
10000000
00010000
20000000
00000000
00100000
00000000
,
30000000
01000000
00020000
10000000
00030000
10000000
01000000
00000000
,
00110000
00000000
00000000
00000000
00011000
00000000
00000000
00000000
00001100
00000000
00000000
00000000
00000001
00000100
00000010
00000000
,
00000000
00000100
00000010
00001000
00000100
00010000
00001000
00000000
00000000
01000000
00100000
10000000
00010000
01000000
00001000
00000000
,
00000000
00010000
00000100
00001000
00000001
00000100
00000010
00000000
00000000
00000010
00001000
00000100
00010000
00001000
10000000
00000000
,
00000000
00010000
01000000
00100000
00010000
00001000
00010000
00000000
00000000
00000100
00000010
00000001
00001000
00000001
00000100
00000000
,
00000000
00000000
00001000
00000000
00010000
00000000
00001000
00000000
00100000
00000000
00100000
00000000
00100000
00000000
00000000
01000000
00000000
00000000
01000000
00000000
01000000
00000000
01000000
00000000
10000000
00000000
00000000
00000000
00010000
00000000
00000000
00000000
,
01000000
00000000
00000000
01000000
00000000
00000000
00001000
00000000
00010000
00000000
00000010
00000000
00000100
00000000
00001000
00000000
,
00010000
00000000
00000000
00010000
00000000
00000000
00001000
00000000
00000100
00000000
00000010
00000000
00001000
00000000
00000001
00000000
,
00000010
00000000
00000000
00000010
00000000
00000000
00000001
00000000
00001000
00000000
00000100
00000000
00010000
00000000
01000000
00000000
,
10000000
00000000
00000000
10000000
00000000
00000000
00010000
00000000
01000000
00000000
00100000
00000000
00010000
00000000
00001000
00000000
,
00010000
00000000
00000000
00010000
00000000
00000000
00000100
00000000
00001000
00000000
00000001
00000000
00000100
00000000
00001000
00000000
,
00010000
00000000
00000000
00010000
00000000
00000000
00001000
00000000
00100000
00000000
01000000
00000000
00100000
00000000
00010000
00000000
,
10000000
00000000
00000000
10000000
00000000
00000000
00010000
00000000
01000000
00000000
00100000
00000000
00010000
00000000
00100000
00000000
,
10000000
00000000
00000000
10000000
00000000
00000000
00000000
00000000
00000000
00000000
00000000
00000000
MMMM0MMM
00000000
00000000
00000000
,
00000000
00000000
00000000
00000000
,
00001000
00010000
00000100
00001000
00000010
00000100
00000010
00001000
,
00000001
00000100
00000001
00000100
00001000
00010000
01000000
10000000
,
00010000
01000000
00100000
10000000
01000000
00010000
00001000
00010000
,
00000100
00000010
00000001
00001000
00000010
00010000
00001000
10000000
,
01000000
10000000
00010000
01000000
00001000
00100000
10000000
00100000
,
00001000
00010000
00000100
00000001
00000100
00010000
00001000
01000000
,
10000000
00000000
00000000
01000000
00000000
00000000
00000100
00000000
,
00000000
00000001
00000000
00000000
00000100
00000000
00000000
01000000
,
00000000
00000000
10000000
00000000
00000000
01000000
00000000
00000000
,
00001000
00000000
00000000
20000000
00000000
00000000
00002000
00000000
,
00000000
00000000
00000000
00000000
00000000
00000000
00000000
30003000
;

//---------------dance-double - M. Simmons----------------
#NOTES:
     dance-double:
     M. Simmons:
     Hard:
     8:
     0.457,0.639,0.047,0.066,0.047:
00000000
00000000
00000000
00000000
,
00000000
00000000
00000000
00000000
,
00000000
00000000
00000000
00000000
,
00000000
00000000
00000000
00000000
,
10000000
00010000
01000000
00100000
01000000
00000000
00000000
00001000
,
00010000
00010000
00000000
00000100
00000000
00000010
00000100
00000010
,
00000001
00001000
00000010
00000000
00000000
00000100
00000010
00001000
,
00000001
00000100
00000001
00000000
00000000
00001000
00000100
00010000
,
00001000
01000000
00100000
00000000
00000000
10000000
00010000
01000000
,
00010000
10000000
01000000
00000000
00000000
00100000
00010000
00100000
,
00001000
00010000
00000100
00000000
00000000
00001000
00000010
00000100
,
00000010
00001000
00000001
00000000
00000000
00000100
00000001
00000100
,
00001000
00010000
00001000
00000000
00000000
00100000
00010000
10000000
,
00010000
01000000
00100000
00000000
00000000
01000000
00100000
10000000
,
00010000
00000000
00000000
00100000
00000000
00000000
00001000
00000000
,
00000000
00010000
00000000
00000000
00000200
00000000
00000000
00000000
,
00012000
00000000
00000000
00000000
,
00000000
00000000
00003300
00000000
00000100
00000000
00000000
00010000
,
00000000
00000000
00001000
00000000
00000000
01000000
00000000
00000000
,
00100000
00000000
10000000
00000000
00010000
00000000
00000000
01000000
,
00000000
00000000
00001000
00000000
00000000
00010000
00000000
00000000
,
00000100
00000000
00001000
00000000
00000010
00000000
00000000
00000100
,
00000000
00000000
00000010
00000000
00000000
00001000
00000000
00000000
,
00000100
00000000
00010000
00000000
00001000
00000000
00000000
01000000
,
00000000
00000000
00100000
00000000
00000000
10000000
00000000
00000000
,
00010000
00000000
00010000
00000000
00000000
00000000
00000000
M0000000
,
00000000
00000000
00000000
00000000
,
00000000
00000000
00000000
10000000
,
01000000
00000000
10000000
00000000
00010000
00000000
01000000
00001000
,
00010000
00000100
00001000
00000010
00000100
00000010
00001000
00000000
,
00000001
00000000
00000100
00000000
00000001
00000000
00001000
00000100
,
00000000
00010000
00000000
01000000
10000000
00010000
01000000
00000000
,
00100000
00000000
01000000
00000000
00001000
00000000
00010000
00000100
,
00001000
00000010
00000100
00000010
00001000
00000001
00000100
00000000
,
00000001
00000000
00001000
00000000
00000100
00000000
00010000
00001000
,
00000000
00100000
00000000
00040000
00000000
00000000
10030000
00010000
,
00000000
00000000
00000000
01000000
00010000
01000000
00000000
00000000
,
00002000
00000000
00003000
00000000
00000000
00010000
00001000
00010000
,
00000200
00000000
00000000
00000310
00000001
00001000
00000000
00000001
,
00001000
00000010
00001000
00000000
00000000
00000000
00000100
00000000
00000000
00000000
00000000
00000000
00010000
00000000
00001000
00000000
,
00000000
02000000
00000000
03100000
00000000
00000000
00000000
01000000
,
00010000
00000000
00100000
00000000
00000000
00000000
00000000
00000000
00001000
00010000
00001000
00010000
00001000
00000000
00010000
00000000
,
00000000
00000000
00000100
00000010
00000000
00000000
00000000
00000001
,
00001000
00000001
00004000
00000000
00000000
00000000
00003010
00000100
,
00000000
00000000
00000010
00001000
00000000
00000000
00000100
00010000
,
00000000
01000000
00000000
10000000
00000000
00010000
01000000
00010000
,
00000000
00000000
00000000
10000000
01000000
00010000
00000000
00001000
,
00000000
00010000
00000000
00000100
00000010
00000100
00001000
00000001
,
00000000
00000000
00000100
00000010
00000000
00000000
00010000
00001000
,
00010000
00001000
00000000
01000000
01000000
01000000
00100000
10000000
,
00000000
00000000
00010000
01000000
00000000
00000000
00110000
00000000
,
01010000
00000000
00110000
00000000
01010000
00000000
00010000
10000000
,
00000000
01000000
00100000
00010000
00000000
10000000
01000000
00010000
,
00000000
00000000
00001000
00000000
00010000
00000000
00000100
00000000
00000000
00000000
00000010
00000000
00000001
00000100
00000010
00000000
,
00000000
00000000
00001000
00000000
00000100
00010000
00001000
00000000
00000000
00000000
01000000
00000000
00100000
00010000
00100000
00000000
,
00000000
00000000
00000000
00000000
10000000
00000000
00000000
00000000
01000000
00000000
00100000
00000000
01000000
00000000
00000000
00010000
00000000
00000000
01000000
00000000
00100000
00000000
01000000
00000000
00100000
00000000
00000000
00000000
00001000
00000000
00000000
00000000
,
00010000
00000000
00000000
00000100
00001000
00000010
00000100
00000010
,
00000001
00000000
00000000
00000010
00001000
00000100
00010000
00001000
,
00100000
00000000
00000000
00010000
10000000
00010000
01000000
00100000
,
01000000
00000000
00000000
00010000
10000000
01000000
00100000
00010000
,
00100000
00000000
00000000
00001000
00010000
00000100
00001000
00000010
,
00000100
00000000
00000000
00000010
00000001
00000010
00001000
00000001
,
00000100
00000000
00000000
00000001
00001000
00000100
00000010
00001000
,
00010000
00000000
00000000
MMMM0MMM
,
00000000
00000000
00000000
00000000
,
00001000
00010000
00000100
00000000
00000000
00000010
00000001
00001000
,
00000010
00000100
00001000
00000000
00000000
00010000
01000000
10000000
,
00010000
01000000
00100000
00000000
00000000
00010000
00001000
00010000
,
01000000
10000000
00010000
00000000
00000000
01000000
00100000
01000000
,
00001000
00010000
00000100
00000000
00000000
00000010
00000001
00001000
,
00000001
00000100
00000010
00000000
00000000
00000001
00000010
00001000
,
00000001
00000000
00000000
00000100
00000000
00000000
00000010
00000000
,
00000000
00010000
00000000
00000000
00001000
00000000
00000000
01000000
,
00000000
00000000
00010000
00000000
00000000
10000000
00000000
00000000
,
01000000
00000000
00000000
00020000
00000000
00000000
00002000
00000000
,
00000000
00000000
00000000
00000000
00000000
00000000
00000000
00033000
;

//---------------dance-double - M. Simmons----------------
#NOTES:
     dance-double:
     M. Simmons:
     Medium:
     5:
     0.364,0.426,0.140,0.047,0.000:
00000000
00000000
00000000
00000000
,
00000000
00000000
00000000
00000000
,
00000000
00000000
00000000
00000000
,
00000000
00000000
00000000
00000000
,
10000000
01000000
00100000
00001000
,
00010000
00001000
00000000
00010000
00000000
00000000
00000000
00000000
,
00000100
00000100
00000000
00000000
,
00000010
00000010
00000000
00000000
,
00000001
00001000
00000010
00000100
,
00000001
00001000
00000100
00000000
00010000
00000000
00001000
00000000
,
01000000
00100000
01000000
00000000
00010000
00000000
10000000
00000000
,
01000000
00100000
01000000
00000000
00100000
00000000
00001000
00000000
,
00010000
00000100
00010000
00000000
00000100
00000000
00000010
00000000
,
00000001
00001000
00000001
00000000
00000100
00000000
00000010
00000000
,
00002000
00000000
00000000
00000100
00000000
00000000
00010000
00000000
,
00000000
00000100
00000000
00000000
00010000
00000000
00000000
00000000
,
00000200
00000000
00000000
00000000
,
00000000
00000000
00003300
00000000
00010000
00000000
00000000
00010000
,
00000000
00000000
01000000
00000000
00000000
01000000
00000000
00000000
,
10000000
00000000
00010000
00000000
10000000
00000000
00000000
10000000
,
00000000
00000000
00010000
00000000
00000000
00010000
00000000
00000000
,
00100000
00000000
00001000
00000000
00100000
00000000
00000000
00100000
,
00000000
00000000
00001000
00000000
00000000
00001000
00000000
00000000
,
00010000
00000000
00000100
00000000
00000010
00000000
00000000
00000010
,
00000000
00000000
00000001
00000000
00000000
00000001
00000000
00000000
,
00001000
00000000
00001000
00000000
00000000
00000000
00000000
0000000M
,
00000000
00000000
00000000
00000000
,
00000000
00000000
00000000
00000001
,
00000100
00000010
00001000
00000100
,
00010000
00001000
01000000
00100000
,
01000000
00000000
00010000
00000000
10000000
00000000
01000000
00100000
,
00000000
00010000
00000000
00100000
00000000
00010000
00100000
00000000
,
00001000
00010000
00000100
00001000
,
00000001
00000100
00000010
00000100
,
00000010
00000100
00000000
00000010
00000100
00000000
00000010
00000100
,
00000000
00000020
00000000
00000000
00000000
00000000
00001030
00000000
,
00000100
00010000
00001000
01000000
,
00100000
01000000
00010000
10000000
,
01000000
00000000
00100000
00000000
00010000
00100000
00000000
00010000
,
00000000
00100000
00000000
00001000
00000000
00010000
00001000
00000000
,
00010000
00000100
00001000
00000001
,
00000100
00000000
00000010
00000000
00000100
00000000
00000001
00001000
,
00000000
00000000
00000001
00001000
00000000
00000000
00000001
00000100
,
00000010
00000100
00000000
00000000
00000000
00000000
00000010
00000000
,
00010000
00001000
01000000
00100000
,
10000000
00000000
01000000
00000000
00100000
00000000
00010000
00100000
,
00000000
00000000
00001000
00010000
,
00000100
00000000
00001000
00000000
00000001
00000100
00000001
00000000
,
00000100
00000010
00001000
00000100
,
00010000
00000000
00001000
00000000
01000000
00000000
00100000
10000000
,
00000000
00000000
00010000
10000000
00000000
00000000
10010000
00000000
,
01100000
00000000
10010000
00000000
01100000
00000000
10000000
00010000
,
00000000
00100000
00001000
00010000
00000000
00000100
00001000
00000001
,
00000000
00000100
00000010
00000100
00000000
00000010
00001000
00000001
,
00000000
00000100
00000001
00001000
00000000
00000100
00010000
00001000
,
00000000
01000000
00010000
10000000
00000000
01000000
00100000
00000000
,
00010000
00000000
10000000
00010000
,
01000000
00000000
00001000
00010000
,
00000100
00000000
00000010
00000001
,
00001000
00000000
00000010
00000001
,
00000010
00000000
00001000
00000100
,
00010000
00000000
01000000
10000000
,
00010000
00000000
01000000
00100000
,
01000000
00010000
00000000
00000000
00000000
00000000
M0MMMMMM
00000000
,
00000000
00000000
00000000
00000000
,
01000000
00010000
00100000
00000000
00000000
00000000
00001000
00000000
,
00010000
00000100
00001000
00000000
00000000
00000000
00000010
00000000
,
00000100
00000010
00001000
00000000
00000000
00000000
00000001
00000000
,
00000100
00001000
00010000
00000000
00000000
00000000
00001000
00000000
,
00100000
01000000
00010000
00000000
00000000
00000000
00001000
00000000
,
00010000
00000100
00000010
00000000
00000000
00000000
00000001
00000000
,
00001010
00000000
00000000
00000101
00000000
00000000
00001010
00000000
,
00000000
00000101
00000000
00000000
00000011
00000000
00000000
00001100
,
00000000
00000000
00000011
00000000
00000000
00001100
00000000
00000000
,
00011000
00000000
00000000
00110000
00000000
00000000
00022000
00000000
,
00000000
00000000
00000100
00000000
00000000
00000000
00000000
00033000
;
