#TITLE:Skyline;
#SUBTITLE:;
#ARTIST:Nyth-Pinank;
#TITLETRANSLIT:;
#SUBTITLETRANSLIT:;
#ARTISTTRANSLIT:;
#GENRE:Dance;
#CREDIT:Sync by HellRazoR;
#BANNER:Skyline-bn.png;
#BACKGROUND:Skyline-bg.png;
#LYRICSPATH:;
#CDTITLE:;
#MUSIC:Skyline.ogg;
#OFFSET:-0.178;
#SAMPLESTART:49.480;
#SAMPLELENGTH:11.600;
#SELECTABLE:YES;
#DISPLAYBPM:165.000;
#BPMS:0=165,28=247.5,31=330,35=408.4,43=330,45=247,47=165;
#STOPS:;
#BGCHANGES:0.000=Skyline-bg.png=1.000=0=0=1=====,
49.000=In The Groove Rebirth/1139_JumpBack.mpg=1.000=0=0=1=====,
81.000=In The Groove Rebirth/902_JumpBack.mpg=1.000=0=0=1=====,
100.000=In The Groove Rebirth/900_JumpBack.mpg=1.000=0=0=1=====,
102.000=In The Groove Rebirth/520_JB_HD.mpg=1.000=0=0=1=====,
104.000=In The Groove Rebirth/253_JB_HD.mpg=1.000=0=0=1=====,
106.000=In The Groove Rebirth/411_JB_HD.mpg=1.000=0=0=1=====,
108.000=In The Groove Rebirth/824_JumpBack.mpg=1.000=0=0=1=====,
109.000=In The Groove Rebirth/1139_JumpBack.mpg=1.000=0=0=1=====,
110.000=In The Groove Rebirth/411_JB_HD.mpg=1.000=0=0=1=====,
111.000=Skyline-bg.png=0.500=0=0=1=====,
114.000=In The Groove Rebirth/900_JumpBack.mpg=1.000=1=0=1===CrossFade==,
145.000=In The Groove Rebirth/520_JB_HD.mpg=1.000=0=0=1=====,
177.000=In The Groove Rebirth/411_JB_HD.mpg=1.000=0=0=1=====,
209.000=In The Groove Rebirth/902_JumpBack.mpg=1.000=0=0=1=====,
241.000=In The Groove Rebirth/1139_JumpBack.mpg=1.000=0=0=1=====,
260.000=In The Groove Rebirth/253_JB_HD.mpg=1.000=0=0=1=====,
262.000=In The Groove Rebirth/824_JumpBack.mpg=1.000=0=0=1=====,
264.000=In The Groove Rebirth/411_JB_HD.mpg=1.000=0=0=1=====,
266.000=In The Groove Rebirth/520_JB_HD.mpg=1.000=0=0=1=====,
268.000=In The Groove Rebirth/900_JumpBack.mpg=1.000=0=0=1=====,
269.000=In The Groove Rebirth/902_JumpBack.mpg=1.000=0=0=1=====,
270.000=In The Groove Rebirth/1139_JumpBack.mpg=1.000=0=0=1=====,
271.000=Skyline-bg.png=1.000=0=0=1=====,
273.000=In The Groove Rebirth/824_JumpBack.mpg=1.000=0=0=1=====,
305.000=In The Groove Rebirth/253_JB_HD.mpg=1.000=0=0=1=====,
325.000=In The Groove Rebirth/411_JB_HD.mpg=1.000=0=0=1=====,
327.000=In The Groove Rebirth/520_JB_HD.mpg=1.000=0=0=1=====,
329.000=In The Groove Rebirth/824_JumpBack.mpg=1.000=0=0=1=====,
331.000=In The Groove Rebirth/900_JumpBack.mpg=1.000=0=0=1=====,
333.000=In The Groove Rebirth/902_JumpBack.mpg=1.000=0=0=1=====,
334.000=In The Groove Rebirth/1139_JumpBack.mpg=1.000=0=0=1=====,
335.000=In The Groove Rebirth/253_JB_HD.mpg=1.000=0=0=1=====,
336.000=Skyline-bg.png=1.000=1=0=1===CrossFade==,
99999=-nosongbg-=1.000=0=0=0 // don't automatically add -songbackground-
;
#BGCHANGES2:49.000=white flash=1.000=0=0=1=====,
81.000=white flash=1.000=0=0=1=====,
241.000=white flash=1.000=0=0=1=====,
;
#KEYSOUNDS:;

//---------------dance-single - D. Bernardone----------------
#NOTES:
     dance-single:
     D. Bernardone:
     Challenge:
     9:
     0.561,0.000,0.393,0.562,0.140:
0000
0000
0000
0000
,
0000
0000
0000
0000
,
0000
0000
0000
0000
,
0000
0000
0000
0000
,
0000
0000
0000
0000
,
0000
0000
0000
0000
,
0000
0000
0000
2002
,
0000
0000
0000
0000
,
0000
0000
0000
3003
,
0000
00M0
0M00
00M0
,
M00M
00M0
0M00
MMMM
,
0MMM
0000
0000
0000
00MM
0000
0000
0000
000M
0000
0000
0000
1000
0001
0000
1000
,
0001
0000
0000
0000
0200
0000
0000
0000
0310
1000
0010
0000
0100
0000
0000
0000
,
0001
0000
2000
0000
0000
0000
3000
0000
0100
0010
0100
0000
1000
0000
0000
0000
,
0001
0000
0000
0000
2000
0000
0000
0000
3010
0100
0010
0000
0200
0000
0000
0000
,
0000
0002
0000
0000
1000
0000
0010
0000
,
1303
0000
0000
0000
0002
0000
0000
0000
1003
0100
1000
0000
0010
0000
0000
0000
,
0100
0000
0002
0000
0000
0000
0003
0000
0010
0100
0010
0000
0100
0000
0000
0000
,
1000
0000
0000
0000
0100
0000
0000
0000
0010
0001
0010
0000
0002
0000
0000
0000
,
0000
2000
0000
0000
0100
0000
0010
0000
,
3103
0000
0000
0000
2000
0000
0000
0000
3100
0010
0001
0000
1000
0000
0000
0000
,
0001
0000
0200
0000
0000
0000
0300
0000
0010
1000
0001
0000
0100
0000
0000
0000
,
0001
0000
0000
0000
0200
0000
0000
0000
0310
1000
0001
0000
2000
0000
0000
0000
,
0000
0200
0000
0000
0010
0000
0001
0000
,
3310
0000
0000
0000
0200
0000
0000
0000
1300
0010
0100
0000
0001
0000
0000
0000
,
1001
0000
1001
0000
,
1001
0000
1001
0000
,
1001
0000
0000
0000
1001
0000
0000
0000
1001
0000
0000
0001
1000
0001
1000
0000
,
0000
0000
0000
0000
000M
0000
0M00
0000
00M0
000M
M000
0000
000M
0000
0000
0000
,
M000
0000
0000
0000
1001
0000
0000
0000
1000
0100
1000
0000
0100
0000
M000
0000
,
0100
0000
0000
0000
0110
0000
0000
0000
0010
0001
0010
0000
0001
0000
00M0
0000
,
0001
0000
0000
0000
0101
0000
0000
0000
0100
0010
1000
0000
0010
0000
M000
0000
,
0010
0000
0000
0000
1010
0000
0000
0000
1000
0001
0100
0000
0001
0000
0M00
0000
,
0001
0000
0000
0000
0011
0000
0000
0000
0001
0100
0001
0000
0100
0000
000M
0000
,
0100
0000
0000
0000
0110
0000
0000
0000
0010
1000
0100
0000
1000
0000
0M00
0000
,
1000
0000
0000
0000
1001
0000
0000
0000
0001
0100
0001
0000
0100
0000
000M
0000
,
0100
0000
1001
0000
0001
0100
0010
0000
,
2000
0200
0000
0010
3300
0200
2000
0000
,
0010
3300
1000
0000
0010
0100
0001
0000
,
0010
0100
0000
01M0
1000
0000
0002
0000
,
0103
0000
0010
0000
1000
0100
0010
0000
,
0002
0200
0000
0010
0303
0200
0002
0000
,
0010
0303
0001
0000
1000
0100
0010
0000
,
0001
1000
0000
0001
M100
0000
0020
0000
,
1030
0000
0100
0000
0010
0001
1000
0000
,
0002
0200
0000
1000
0303
0200
0002
0000
,
1000
0303
0001
0000
0010
0100
1000
0000
,
0100
0110
0000
0110
0001
0000
0200
0000
,
0310
0000
1000
0000
0100
0010
0001
0000
,
2000
0200
0000
0001
3300
0200
2000
0000
,
0001
3300
1000
0000
0010
0100
0001
0000
,
1000
1001
0000
1001
0010
0000
0002
0000
,
1003
0000
0000
0000
0020
0000
0000
0000
0130
0001
0010
0000
0002
0000
0000
0000
,
1003
0000
0200
0000
0000
0000
0310
0000
0001
0010
0100
0000
0010
0000
0000
0000
,
0001
0000
0000
0000
0200
0000
0000
0000
0310
1000
0001
0000
0200
0000
0000
0000
,
0001
0002
0000
1000
1000
0000
0010
0000
,
1303
0000
0000
0000
0002
0000
0000
0000
0013
0100
1000
0000
0100
0000
0000
0000
,
1000
0000
0020
0000
0000
0000
0130
0000
0001
0100
0010
0000
0100
0000
0000
0000
,
0001
0000
0000
0000
0020
0000
0000
0000
0130
1000
0010
0000
2000
0000
0000
0000
,
0001
0002
0000
0010
0010
0000
0100
0000
,
3013
0000
0000
0000
0002
0000
0000
0000
0013
0100
0001
0000
0100
0000
0000
0000
,
1000
0000
0020
0000
0000
0000
1030
0000
0001
0010
1000
0000
0010
0000
0000
0000
,
0001
0000
0000
0000
0200
0000
0000
0000
0310
1000
0001
0000
2000
0000
0000
0000
,
0100
0200
0000
0001
0001
0000
0010
0000
,
3301
0000
0000
0000
0210
0000
0000
0000
0310
0001
0100
0000
0010
0000
0000
0000
,
0110
0000
0110
0000
,
0110
0000
0110
0000
,
0110
0000
0000
0000
0110
0000
0000
0000
0110
0000
0100
0000
0010
0100
0010
0000
,
0000
0000
1000
0000
0100
1000
0001
0000
,
0200
0020
0000
1000
0330
0020
0200
0000
,
1000
0330
0001
0000
0010
0100
1000
0000
,
0001
0100
0000
0001
1M00
0000
0200
0000
,
0310
0000
0001
0000
0100
0010
1000
0000
,
0200
0020
0000
0001
0330
0020
0200
0000
,
0001
0330
0100
0000
1000
0001
0100
0000
,
0010
1000
0000
0010
M100
0000
0002
0000
,
1003
0000
1001
0000
11M0
0010
M101
0000
,
2000
0002
0000
3113
0000
0002
2000
0000
,
3113
0000
0011
0000
01M1
0010
110M
0000
,
1000
1010
0000
1010
0001
0000
0021
0000
,
0130
0000
1100
0000
10M1
0010
101M
0000
,
1000
0001
0101
0000
0000
0000
0101
0000
,
0000
0101
0000
0101
,
0000
0000
0000
0000
0101
0000
0000
0000
0101
0000
0000
0000
0101
0000
0000
0100
,
0001
0000
0000
0M00
0002
0000
0000
0000
0000
0000
0000
0000
0000
0000
0000
0000
,
0000
0000
0000
0000
,
0000
0003
0000
0000
;

//---------------dance-single - D. Bernardone----------------
#NOTES:
     dance-single:
     D. Bernardone:
     Beginner:
     1:
     0.131,0.000,0.136,0.000,0.000:
0000
0000
0000
0000
,
0000
0000
0000
0000
,
0000
0000
0000
0000
,
0000
0000
0000
0000
,
0000
0000
0000
0000
,
0000
0000
0000
0000
,
0000
0000
0000
0000
,
0000
0000
0000
0000
,
0000
0000
0000
0000
,
0000
0000
0000
0000
,
0000
0000
0000
0000
,
0000
0000
0000
0000
,
0000
1000
0000
0000
,
0000
0001
0000
0000
,
0000
0100
0000
0000
,
0000
0010
0000
0010
,
0000
1000
0000
0000
,
0000
0001
0000
0000
,
0000
0010
0000
0000
,
0000
0001
0000
0100
,
0000
0100
0000
0000
,
0000
0010
0000
0000
,
0000
0100
0000
0000
,
0000
0001
0000
1000
,
0000
1000
0000
0000
,
1001
0000
1001
0000
,
1001
0000
1001
0000
,
1001
1001
1001
1001
,
0000
0000
0000
0000
,
0000
1000
0000
0000
,
0000
1000
0000
0000
,
0000
0100
0000
0000
,
0000
0100
0000
0000
,
0000
0100
0000
0000
,
0000
0010
0000
0000
,
0000
0010
0000
0000
,
0000
0001
0000
0000
,
0000
0010
0000
0010
,
0000
0000
0000
0000
,
0000
0100
0000
0100
,
0000
0000
0000
0000
,
0000
1000
0000
1000
,
0000
0000
0000
0000
,
0000
0100
0000
0100
,
0000
0000
0000
0000
,
0000
0010
0000
0010
,
0000
0000
0000
0000
,
0000
0001
0000
0001
,
0000
0000
0000
0000
,
0000
0100
0000
0100
,
0000
0000
0000
0000
,
0000
0010
0000
0010
,
0000
1000
0000
0100
,
0000
1000
0000
0100
,
0000
0010
0000
0001
,
0000
0100
0000
0010
,
0000
1000
0000
0001
,
0000
1000
0000
0001
,
0000
0010
0000
0100
,
0000
1000
0000
0010
,
0000
0100
0000
0001
,
0000
0100
0000
0001
,
0000
1000
0000
0100
,
0000
0010
0000
0100
,
0000
0110
0000
0000
,
0110
0000
0110
0000
,
0110
0000
0110
0000
,
0110
0110
0110
0110
,
0000
0001
0000
0000
,
0000
0000
0000
0000
,
0000
0100
0000
0000
,
0000
0010
0000
0000
,
0000
1000
0000
0000
,
0000
0000
0000
0000
,
0000
0100
0000
0000
,
0000
0010
0000
0000
,
0000
0001
0000
0000
,
0000
0001
0000
0000
,
0000
0001
0000
0000
,
0000
0001
0000
0100
,
0000
0010
0000
0000
,
0000
0010
0000
0000
,
0000
0010
0000
0000
,
0000
0010
0000
0000
,
0000
0100
0000
0000
;

//---------------dance-single - D. Bernardone----------------
#NOTES:
     dance-single:
     D. Bernardone:
     Easy:
     4:
     0.276,0.000,0.193,0.064,0.000:
0000
0000
0000
0000
,
0000
0000
0000
0000
,
0000
0000
0000
0000
,
0000
0000
0000
0000
,
0000
0000
0000
0000
,
0000
0000
0000
0000
,
0000
0000
0000
0000
,
0000
0000
0000
0000
,
0000
0000
0000
0000
,
0000
0000
0000
0000
,
0000
0000
0000
0000
,
0000
0000
0000
1000
,
0000
0001
0100
0001
,
0000
0010
0010
0100
,
1000
0001
0001
0001
,
0000
0100
0000
0010
,
0000
1000
0100
1000
,
0000
0001
0100
0010
,
0010
1000
0001
0001
,
0001
0000
0100
0000
,
0001
0010
0100
0010
,
0000
0100
1000
0001
,
0100
0100
0010
1000
,
1000
1000
0000
0001
,
0000
0010
0100
0010
,
1001
0000
1001
0000
,
1001
0000
1001
0000
,
1001
1001
1001
0110
,
0000
0000
0000
0000
,
0000
1000
0000
0100
,
0100
0010
0000
0001
,
0001
0100
0000
0010
,
0010
0100
0000
0001
,
0001
0010
0000
0100
,
0100
1000
0000
0010
,
0010
0100
0000
0001
,
0001
2000
0000
0100
,
0000
0001
0000
0100
,
0000
0001
0000
0100
,
0000
0010
0010
0010
,
0010
3002
0000
0100
,
0000
1000
0000
0100
,
0000
1000
0000
0100
,
0000
0010
0010
0010
,
0010
2003
0000
0010
,
0000
0001
0000
0010
,
0000
0001
0000
0010
,
0000
0100
0100
0100
,
0100
3002
0000
0010
,
0000
1000
0000
0010
,
0000
1000
0000
0010
,
0000
0100
0100
0100
,
0100
1003
0100
1000
,
0010
0010
0100
0001
,
1000
0100
0100
0100
,
0020
0001
0100
0001
,
0130
1000
0001
1000
,
0010
0010
0100
0001
,
1000
0100
0100
0100
,
2000
0010
0001
0010
,
3001
0100
0010
0100
,
0001
0001
1000
0100
,
0010
0001
0001
0001
,
0200
0001
0010
0001
,
0310
0110
0000
0000
,
0110
0000
0110
0000
,
0110
0000
0110
0000
,
0110
0110
0110
1001
,
0000
1000
0000
1000
,
0000
0100
0100
0100
,
0000
0010
0000
0010
,
0000
0001
1000
0001
,
0000
0100
0000
0100
,
0000
0010
0010
0010
,
0000
1000
0000
1000
,
0000
0001
0010
0001
,
0000
0100
0000
0010
,
0000
1000
1000
1000
,
0000
0100
0000
1000
,
0000
0010
0100
0010
,
0000
0100
0000
0001
,
0000
0101
0000
0101
,
0000
0101
0000
0101
,
0000
0101
0101
0101
,
0001
0002
0000
0000
,
0000
0003
0000
0000
;

//---------------dance-single - D. Bernardone----------------
#NOTES:
     dance-single:
     D. Bernardone:
     Medium:
     5:
     0.406,0.000,0.433,0.169,0.000: // measure 1
0000
0000
0000
0000
,  // measure 2
0000
0000
0000
0000
,  // measure 3
0000
0000
0000
0000
,  // measure 4
0000
0000
0000
0000
,  // measure 5
0000
0000
0000
0000
,  // measure 6
0000
0000
0000
0000
,  // measure 7
0000
0000
0000
0000
,  // measure 8
0000
0000
0000
0000
,  // measure 9
0000
0000
0000
0000
,  // measure 10
0000
0000
0000
0000
,  // measure 11
0000
0000
0000
0000
,  // measure 12
0000
0000
0000
1000
,  // measure 13
0001
0000
0100
0000
0010
1000
0010
0000
,  // measure 14
0000
0000
0100
0000
0001
1000
0001
0000
,  // measure 15
0000
0000
0010
0000
0100
1000
0100
0000
,  // measure 16
0000
0020
0000
0031
,  // measure 17
0000
0000
1000
0000
0010
0100
0010
0000
,  // measure 18
0000
0000
0100
0000
0001
0010
0001
0000
,  // measure 19
0000
0000
1000
0000
0100
0010
0100
0000
,  // measure 20
0000
2000
0000
3001
,  // measure 21
0000
0000
0100
0000
0001
1000
0001
0000
,  // measure 22
0000
0000
0010
0000
0001
0100
0001
0000
,  // measure 23
0000
0000
1000
0000
0010
0100
0010
0000
,  // measure 24
0000
2000
0000
3100
,  // measure 25
0000
0000
0010
0000
0001
0100
0001
0000
,  // measure 26
1001
0000
1001
0000
,  // measure 27
1001
0000
1001
0000
,  // measure 28
1001
0000
1001
0000
1001
1000
0001
0000
,  // measure 29
0000
0000
0000
0000
,  // measure 30
0000
1000
0100
0001
,  // measure 31
0100
1000
0010
0001
,  // measure 32
0010
0100
0001
0010
,  // measure 33
0001
0010
0001
0100
,  // measure 34
0010
1000
0001
0010
,  // measure 35
0100
1000
0001
0100
,  // measure 36
1000
0100
0010
1000
,  // measure 37
0100
0020
0001
0130
,  // measure 38
1000
0001
0001
0100
,  // measure 39
0110
2000
0100
3001
,  // measure 40
0100
0110
0110
1001
,  // measure 41
1001
2000
0010
3001
,  // measure 42
0010
0100
0100
1000
,  // measure 43
1001
0002
0100
1003
,  // measure 44
0100
0110
0110
1001
,  // measure 45
1001
0002
0010
1003
,  // measure 46
0100
0010
0010
0001
,  // measure 47
1001
0020
0100
1030
,  // measure 48
0001
0110
0110
1001
,  // measure 49
1001
2000
0010
3100
,  // measure 50
0010
0001
0001
0100
,  // measure 51
0110
0002
0010
0103
,  // measure 52
0100
0110
0110
1001
,  // measure 53
1001
0000
1000
0000
0001
0100
0001
0000
,  // measure 54
0010
0000
0100
0000
1000
0001
1000
0000
,  // measure 55
0010
0000
0100
0000
0001
1000
0001
0000
,  // measure 56
0010
0200
1000
1300
,  // measure 57
0000
0000
0001
0000
0100
0010
0100
0000
,  // measure 58
0001
0000
1000
0000
0100
1000
0100
0000
,  // measure 59
0010
0000
0001
0000
1000
0100
1000
0000
,  // measure 60
0010
0200
0001
0301
,  // measure 61
0000
0000
1000
0000
0001
0100
0001
0000
,  // measure 62
0010
0000
0100
0000
1000
0010
1000
0000
,  // measure 63
0001
0000
1000
0000
0001
0100
0001
0000
,  // measure 64
0100
0020
1000
1030
,  // measure 65
0000
0110
0100
0100
,  // measure 66
0110
0000
0110
0000
,  // measure 67
0110
0000
0110
0000
,  // measure 68
0110
0000
0110
0000
0110
0100
0010
0000
,  // measure 69
0000
1000
0001
0100
,  // measure 70
0001
0010
0010
0100
,  // measure 71
1000
0002
0203
0320
,  // measure 72
1030
1100
0101
1100
,  // measure 73
1001
0001
0100
0010
,  // measure 74
1000
0100
0100
0010
,  // measure 75
0001
0200
0320
2030
,  // measure 76
3001
0011
1010
0011
,  // measure 77
1001
0000
1000
0000
0100
0100
0100
0000
,  // measure 78
0010
0001
0100
0010
,  // measure 79
0010
0000
1000
0000
0001
0001
0001
0000
,  // measure 80
0010
0110
1001
0110
,  // measure 81
1100
0000
1000
0000
0001
0001
0001
0000
,  // measure 82
0100
0101
0000
0101
,  // measure 83
0000
0101
0000
0101
,  // measure 84
0000
0101
0101
0101
,  // measure 85
1000
0020
0000
0000
,  // measure 86
0000
0030
0000
0000
;

//---------------dance-single - D. Bernardone----------------
#NOTES:
     dance-single:
     D. Bernardone:
     Hard:
     6:
     0.435,0.000,0.466,0.024,0.008:
0000
0000
0000
0000
,
0000
0000
0000
0000
,
0000
0000
0000
0000
,
0000
0000
0000
0000
,
0000
0000
0000
0000
,
0000
0000
0000
0000
,
0000
0000
0000
2002
,
0000
0000
0000
0000
,
0000
0000
0000
3003
,
0000
0000
0000
0000
,
0000
0000
0000
0000
,
0000
0000
0000
0000
0000
0000
1000
0001
,
0001
0000
0100
0000
0001
0010
0100
0000
,
1000
0000
0001
0000
0001
0101
0100
0000
,
0010
0000
1000
0000
0100
0010
0001
0000
,
1000
0110
0100
0110
,
0100
0000
0001
0000
0010
0100
1000
0000
,
0010
0000
0100
0000
0001
1001
0001
0000
,
0010
0100
0010
0001
,
1000
1100
1000
1100
,
1000
0000
0010
0000
0100
0001
1000
0000
,
0100
0000
1000
0000
0001
0011
0001
0000
,
0100
0010
1000
0001
,
0100
1010
1000
1010
,
1000
0000
0001
0000
1000
0010
0100
0000
,
1001
0000
1001
0000
,
1001
0000
1001
0000
,
1001
0000
0000
0000
1001
0000
0000
0000
1001
0000
1000
0000
0001
1000
0000
0000
,
0000
0000
0000
0000
,
0000
0000
0001
0000
0010
0010
0100
0000
,
1000
0000
0001
0000
0100
0100
0010
0000
,
1000
0000
0001
0000
0010
0010
0100
0000
,
1000
0000
0001
0000
0100
0100
0010
0000
,
1000
0000
0100
0000
1000
1000
0001
0000
,
0100
0000
0010
0000
1000
1000
0100
0000
,
0010
0000
0001
0000
0100
0100
0001
0000
,
0010
0000
0100
1000
0000
0001
0000
0100
,
0000
0001
0000
1000
0000
0100
0000
0010
,
0000
0001
0000
1000
0000
0010
0000
0100
,
0000
0001
0000
1000
0000
0100
0000
1000
,
0000
0010
0000
0100
0000
0001
0000
1000
,
0000
0100
0000
0010
0000
0100
0000
0010
,
0000
0001
0000
1000
0000
0010
0000
0100
,
0000
0010
0000
0100
0000
0001
0000
1000
,
0000
0001
0000
0010
0100
0010
0000
0001
,
0000
1000
0000
0010
0100
0010
0000
0100
,
0000
0001
0000
1000
0100
1000
0000
0010
,
0000
0100
0000
0001
0010
0001
0000
1000
,
0000
0100
0000
1000
0001
1000
0000
0010
,
0000
0100
0000
0001
1000
0001
0000
0010
,
0000
0100
0000
1000
0010
1000
0000
0001
,
0000
0010
0000
0100
1000
0100
0000
1000
,
0000
0001
0100
0000
0010
1000
0100
0000
,
0010
0000
0001
0000
1000
0100
0001
0000
,
0010
0100
0001
1000
,
0100
0011
0101
1010
,
1001
0000
1000
0000
0100
1000
0010
0000
,
0100
0000
0001
0000
0010
0001
0100
0000
,
0010
0000
1000
0000
0001
0010
1000
0000
,
0010
1010
1100
0011
,
1001
0000
0001
0000
0100
0001
0010
0000
,
0001
0000
1000
0000
0010
1000
0100
0000
,
1000
0000
0001
0000
1000
0010
0001
0000
,
0100
0011
0101
1010
,
1001
0000
0110
0000
0010
0001
0100
0000
,
0110
0000
0110
0000
,
0110
0000
0110
0000
,
0110
0000
0000
0000
0110
0000
0000
0000
0110
0000
0100
0000
0010
0100
0000
0000
,
0000
0000
0001
0000
1000
0100
1000
0000
,
0000
0010
0100
0001
,
0010
0000
0100
0000
1000
0001
1000
0000
,
0000
0110
0101
0011
,
1100
0000
1000
0000
0001
0100
0001
0000
,
0000
0010
0100
1000
,
0001
0000
0100
0000
0010
1000
0010
0000
,
0000
0110
0101
0011
,
1100
0000
1000
0000
0001
0100
0001
0000
,
0010
0100
0000
0100
1000
0010
0100
0000
,
1001
0000
0001
0000
1000
1010
0010
0000
,
0100
1100
0011
0101
,
1001
0000
1000
0000
0010
1000
0100
0000
,
0001
0101
0000
0101
,
0000
0101
0000
0101
,
0000
0000
0101
0000
0101
0000
0101
0001
,
1000
0200
0000
0000
,
0000
0000
0000
0000
,
0000
0300
0000
0000
;

//---------------dance-double - R. Uchima----------------
#NOTES:
     dance-double:
     R. Uchima:
     Easy:
     3:
     0.276,0.000,0.241,0.080,0.000:
00000000
00000000
00000000
00000000
,
00000000
00000000
00000000
00000000
,
00000000
00000000
00000000
00000000
,
00000000
00000000
00000000
00000000
,
00000000
00000000
00000000
00000000
,
00000000
00000000
00000000
00000000
,
00000000
00000000
00000000
00000000
,
00000000
00000000
00000000
00000000
,
00000000
00000000
00000000
00000000
,
00000000
00000000
00000000
00000000
,
00000000
00000000
00000000
00000000
,
00000000
00000000
00000000
00000000
,
00000000
10000000
00000000
00100000
,
00000000
01000000
00000000
00001000
,
00000000
00010000
00000000
00000100
,
00000000
00000010
00000001
00000100
,
00000000
00000110
00000000
00000010
,
00000000
00010000
00000000
00001000
,
00000000
01000000
00000000
00010000
,
00000000
00100000
00001000
01000000
,
00000000
00011000
00000000
00000100
,
00000000
00010000
00000000
00001000
,
00000000
00000010
00000000
00000001
,
00000000
00000100
00000010
00010000
,
00000000
00001000
01000000
00010000
,
10010000
00000000
01100000
00000000
,
01001000
00000000
00011000
00000000
,
00010100
00001001
00000110
00001001
,
00000000
00000002
00000000
00000000
,
00000000
00002003
00000000
00000000
,
00000000
00003200
00000000
00000000
,
00000000
00020300
00000000
00000000
,
00000000
00032000
00000000
00100000
,
00000000
02003000
00000000
00010000
,
00000000
03200000
00000000
01000000
,
00000000
20300000
00000000
00010000
,
00000000
30010000
10000000
00010000
,
00000000
00100000
00001000
00010000
,
00000000
00000100
00010000
00000010
,
00000000
00001000
00000001
00000100
,
00000000
00000010
00010000
00001000
,
00000000
00010000
00001000
01000000
,
00000000
00010000
01000000
00100000
,
00000000
10000000
00010000
00100000
,
00000000
00100000
00001000
00010000
,
00000000
00001000
00010000
00000100
,
00000000
00001000
00000001
00000100
,
00000000
00000010
00001000
00000100
,
00000000
00000100
00010000
00001000
,
00000000
01000000
00010000
10000000
,
00000000
10000000
00100000
01000000
,
00010000
00100000
00001000
00010000
,
00000100
00001000
00000010
00010000
,
00000000
00000100
00001000
00000001
,
00000000
00000001
00001000
00000100
,
00000000
00010000
00001000
01000000
,
00000000
01100000
01000000
00100000
,
00000000
10000000
00010000
01000000
,
00000000
00001000
00100000
00001000
,
00000000
00010000
00000010
00001000
,
00000000
00001010
00001000
00000001
,
00000000
00000001
00000100
00000010
,
00000000
00000010
00010000
00001000
,
00000000
00010000
00001000
01000000
,
00000000
10010000
10000000
01000000
,
01100000
00000000
00110000
00000000
,
00101000
00000000
00011000
00000000
,
00010100
00011000
00101000
00011000
,
00000000
00001000
01000000
00010000
,
00100000
00010000
10000000
01000000
,
00100000
00010000
01000000
00001000
,
00010000
00000100
00001000
00000010
,
00000000
00001001
00000001
00000100
,
00000010
00001000
00000100
00010000
,
00000100
00010000
00001000
00100000
,
00010000
01000000
00100000
10000000
,
00000000
00010000
01000000
00010000
,
00000000
00100000
00001000
00100000
,
00000000
00001000
00010000
00001000
,
00000000
00010000
00000100
00010000
,
00000000
00000100
00001000
00000001
,
00001000
00001010
00000000
00001100
,
00000000
00010100
00000000
00011000
,
00000000
00101000
00110000
10010000
,
00000000
22000000
00000000
00000000
,
00000000
00000000
00000000
33000000
;

//---------------dance-double - R. Uchima----------------
#NOTES:
     dance-double:
     R. Uchima:
     Challenge:
     10:
     0.651,0.000,0.401,0.538,0.357:
00000000
00000000
00000000
00000000
,
00000000
00000000
00000000
00000000
,
00000000
00000000
00000000
00000000
,
00000000
00000000
00000000
00000000
,
00000000
00000000
00000000
00000000
,
00000000
00000000
00000000
00000000
,
00000000
00000000
00000000
00000000
,
M0000000
0M000000
00M00000
000M0000
0000M000
00000M00
000000M0
0000000M
000000M0
00000M00
0000M000
000M0000
,
00M00000
0M000000
M0000000
0M000000
00M00000
000M0000
0000M000
00000M00
000000M0
00000M00
0000M000
000M0000
,
00M00000
0M000000
00M00000
000M0000
0000M000
00000M00
0000M000
000M0000
00M00000
000M0000
0000M000
000M0000
,
0000M000
00000M00
0000M000
000M0000
00M00000
000M0000
0000M000
00000M00
000000M0
00000M00
0000M000
000M0000
,
00M00000
00000000
0M000000
00000000
00M00000
00000000
000M0000
00000000
0000M000
00000000
000M0000
00000000
00M00000
00000000
00000000
00000000
00000000
00000000
10000000
01000000
10000000
00000000
01000000
10000000
,
01000000
00000000
00000000
00000000
00200000
00000000
00000000
00000000
00301000
00010000
00001000
00000000
02000000
00000000
0000M000
00000000
,
00000000
00000000
00000000
00000000
03000200
00000000
00000000
00000000
00010300
00001000
00010000
00000000
00000020
00000000
00000000
00000000
,
000M0000
00000000
00000000
00000000
00020030
00000000
00000000
00000000
00031000
01000000
00001000
00000000
20000000
00000000
00000000
00000000
,
0000M000
00000000
00000000
00000000
30002000
00000000
00000000
00000000
00013000
00000100
00010000
00000000
00000002
00000000
00000000
00000000
,
000M0000
00000000
00000000
00000003
00010100
00000000
00000000
00000000
00000100
00010000
00000100
00000000
00200000
00000000
00000000
00000000
,
00001M00
00000000
00000000
00000000
00302000
00000000
00000000
00000000
01003000
00010000
01000000
00000000
00020000
00000000
00000000
00000000
,
0M100000
00000000
00000000
00000000
20030000
00000000
00000000
00000000
30100000
01000000
00100000
00000000
02000000
00000000
00000000
00000000
,
00M10000
00000000
00000000
00000000
03020000
00000000
00000000
00000000
00130000
00001000
00100000
00000000
00000020
00000000
00000000
00000000
,
00M01000
00000000
00000000
00000030
00000102
00000000
00000000
00000000
00001003
00000001
00000100
00000000
00000020
00000000
00000000
00000000
,
0001M000
00000000
00010000
00000000
00020030
00000000
00000000
00000000
00030100
00010000
00001000
00000000
02000000
00000000
00000000
00000000
,
0010M000
00000000
00100000
00000000
03200000
00000000
00000000
00000000
10300000
00010000
00100000
00000000
00002000
00000000
00000000
00000000
,
01M00000
00000000
01000000
00000000
02003000
00000000
00000000
00000000
03001000
00010000
00000100
00000000
00000020
00000000
00000000
00000000
,
00000M01
00000000
00000001
00000000
00000032
00000000
00000000
00000000
00000103
00000010
00001000
00000000
00002200
00000000
00000000
00000000
,
00000001
00000000
00000000
00003300
00020200
00000000
00000000
00000000
00000010
00000000
00000000
00030300
00022000
00000000
00000000
00000000
,
00100000
00000000
00000000
00033000
02002000
00000000
00000000
00000000
10000000
00000000
00000000
03003000
00022000
00000000
00000000
00000000
,
00000100
00000000
00000000
00000000
01000000
00000000
00000000
00000000
00000010
00000000
00000000
00100000
00000010
00000000
00000000
00000000
,
00033000
00000000
00011000
00000000
00010000
00000100
00001000
00000000
,
00001100
00000000
00000000
00000000
00000100
00000000
00000000
00000000
00000010
00000001
00001000
00000000
00000001
00000000
00000000
00000000
,
00010001
00000000
00000000
00000000
00010000
00000000
00000000
00000000
00000010
00010000
00001000
00000000
00010000
00000000
00000000
00000000
,
10001000
00000000
00000000
00000000
00010000
00000000
00000000
00000000
10000000
01000000
00100000
00000000
00001000
00000000
00000000
00000000
,
00011000
00000000
00000000
00000000
00000100
00000000
00000000
00000000
00010000
00000100
00010000
00000000
00000010
00000000
00000000
00000000
,
01000010
00000000
00000000
00000000
01000000
00000000
00000000
00000000
00000010
00010000
00001000
00000000
00100000
00000000
00000000
00000000
,
00100100
00000000
00000000
00000000
00000100
00000000
00000000
00000000
00010000
00001000
00100000
00000000
01000000
00000000
00000000
00000000
,
11000000
00000000
00000000
00000000
10000000
00000000
00000000
00000000
00100000
01000000
00010000
00000000
01000000
00000000
00000000
00000000
,
01001000
00000000
00001000
00000000
00010000
00001000
00100000
00000000
,
01000000
10000000
00000000
00100000
00000000
01000000
00001000
00000000
,
00100000
00000000
00000100
00000000
00001000
00000010
00000100
00000000
,
00000001
00000010
00000000
00001000
00010000
00000000
01000000
00000000
,
10000000
00000000
00100000
00000000
01000000
00001000
00010000
00000000
,
00000010
00100000
00000000
00000010
00000000
00000100
00000001
00000000
,
00000010
00000000
00000100
00000000
00001000
00000010
00000100
00000000
,
00001000
00010000
00000000
00100000
10000000
00000000
00010000
00000000
,
00001000
00000000
00000001
00000000
00000100
00001000
00010000
00000000
,
00001000
00100000
00000000
10000000
00000000
00100000
00010000
00000000
,
10000000
00000000
01000000
00000000
00010000
00001000
00000010
00000000
,
00000001
00000100
00000000
00001000
00010000
00000000
00100000
00000000
,
10000000
00000000
01000000
00000000
00010000
00001000
00100000
00000000
,
01000000
00010000
00000000
00000100
00000000
00000010
00000001
00000000
,
00000100
00000000
00010000
00000000
01000000
00010000
00100000
00000000
,
01000000
10000000
00000000
01000000
00010000
00000000
00001000
00000000
,
00000010
00000000
00000000
00000000
00000012
00000000
00000000
00000000
00000103
00000010
00001000
00000000
00000010
00000000
00010000
00000000
,
00001000
00000000
00100000
00000000
00210000
00000000
00000000
00000000
01300000
10000000
01000000
00000000
00010000
00000000
00001000
00000000
,
00000010
00000000
00000001
00000000
00000201
00000000
00000000
00000000
00000301
00000100
00000010
00000000
00010000
00000000
00001000
00000000
,
01000000
00000000
00010000
00000000
01020000
00000000
00000000
00000000
10030000
01000000
00100000
00000000
00010000
00000000
01000000
00000000
,
00001000
00000000
00010000
00000000
00000200
00000000
000M0000
00000000
00001300
00000100
00001000
00000000
00000100
00000000
00000010
00000000
,
00001000
00000000
00010000
00000000
00200000
00000000
000M0000
00000000
01300000
00010000
00100000
00000000
01000000
00000000
10000000
00000000
,
00100000
00000000
00010000
00000000
00002000
00000000
000M0000
00000000
00103000
00001000
00100000
00000000
00001000
00000000
00010000
00000000
,
00000100
00000000
00000010
00000000
00002000
00000000
000000M0
00000000
00013000
00001000
00010000
00000000
00000100
00000000
00000010
00000000
,
00000001
00000000
00000100
00000000
00000210
00000000
00000310
00000000
00010000
00001000
00010000
00000000
00001000
00000000
00100000
00000000
,
01000000
00000000
10000000
00000000
20100000
00000000
30010000
00000000
10000000
00010000
00100000
00000000
00001000
00000000
00010000
00000000
,
00000010
00000000
00000100
00000000
00000201
00000000
00000301
00000000
00000010
00000100
00001000
00000000
00000100
00000000
00010000
00000000
,
00000010
00000000
00010000
00000000
00021000
00000000
00030100
00000000
00100000
00001000
00100000
00000000
00001000
00000000
01000000
00000000
,
00010000
00000000
00100000
00000000
01200000
00000000
00310000
00000000
00100000
01000000
10000000
00000000
22000000
00000000
00000000
00000000
,
00100000
00000000
00000000
33000000
02200000
00000000
00000000
00000000
00010000
00000000
00000000
03300000
00202000
00000000
00000000
00000000
,
00000010
00000000
00000000
00303000
02002000
00000000
00000000
00000000
00010000
00000000
00000000
03003000
02000200
00000000
00000000
00000000
,
00100000
00000000
00000000
00000000
00001000
00000000
00000000
00000000
00010000
00000000
00000000
00000010
00100000
00000000
00000000
00000000
,
03000300
00000000
01000000
00000000
00001000
00100000
00010000
00000000
,
10000000
10010000
00000000
01001000
00000000
00010100
00001000
00000000
,
00001001
00000000
00010010
00000000
00010000
00001000
01000000
00000000
,
00001000
00011000
00000000
00010000
00010100
00000000
00000110
00000000
,
00000011
00000000
00010001
00000000
00000010
00010000
00001000
00000000
,
01000000
01010000
00000000
10100000
00000000
01001000
00010000
00000000
,
01010000
00000000
00101000
00000000
00100000
00001000
01000000
00000000
,
00010000
00000000
00000000
00000000
10000000
01000000
10000000
01000000
00100000
00010000
00100000
00010000
01000000
00001000
01000000
00001000
,
00010000
00000010
00010000
00000010
00001000
00000000
00000001
00000000
00010000
00000100
00010000
00000000
00001000
00000000
01000000
00000000
,
00100000
00000000
10000000
00000000
01000000
00000000
00100000
00000000
00010000
00100000
00001000
00000000
00010000
00000000
00001000
00000000
,
00000100
00000000
00000010
00000000
00001000
00000000
00000100
00000000
00000010
00000001
00001000
00000000
00000010
00000000
00010000
00000000
,
00001000
00000000
01000000
00000000
00100000
00000000
10000000
00000000
01000000
00100000
00010000
00000000
10000000
00000000
01000000
00000000
,
00010000
00000000
00001000
00000000
00000010
00000000
00000100
00000000
00001000
00000010
00000100
00000000
00000001
00000000
00001000
00000000
,
00002200
00000000
00000000
00000000
00000010
00000000
00000000
00003300
00020200
00000000
00000000
00000000
00001000
00000000
00000000
00030300
,
02002000
00000000
00000000
00000000
00100000
00000000
00000000
03003000
00022000
00000000
00000000
00000000
00000010
00000000
00000000
00033000
,
02000200
00000000
00000000
00000000
10000000
00000000
00000000
00000000
00001000
00000000
00000000
00000000
00100000
00000000
00000000
00000010
,
00010000
00000001
00000000
00000000
,
00000000
03000300
00000000
00000000
;

//---------------dance-double - R. Uchima & D. Bernardone----------------
#NOTES:
     dance-double:
     R. Uchima & D. Bernardone:
     Hard:
     7:
     0.466,0.000,0.273,0.104,0.008:
00000000
00000000
00000000
00000000
,
00000000
00000000
00000000
00000000
,
00000000
00000000
00000000
00000000
,
00000000
00000000
00000000
00000000
,
00000000
00000000
00000000
00000000
,
00000000
00000000
00000000
00000000
,
00000000
00000000
00000000
00000000
,
00000000
00000000
00000000
00000000
,
00000000
00000000
00000000
00000000
,
00000000
00000000
00000000
00000000
,
00000000
00000000
00000000
00000000
,
00000000
00000000
00000000
00000000
,
00000000
00000000
00010000
00000000
00001000
00100000
00020000
00000000
,
01000000
00000000
00130000
00000000
00001000
00010000
00002000
00000000
,
00010000
00000000
01003000
00000000
00010000
10000000
00200000
00000000
,
10000000
00000000
01300000
00000000
00001000
01000000
00002000
00000000
,
00100000
00003000
00010010
00000000
00000010
00010000
00002000
00000000
,
00010000
00000000
00103000
00000000
00001000
00010000
00000020
00000000
,
00000100
00000000
00010030
00000000
00000100
00010000
00000200
00000000
,
00010000
00000000
01000300
00000000
01000000
00001000
00020000
00000000
,
00000100
00030000
00011000
00000000
10000000
00010000
20000000
00000000
,
00001000
00000000
30100000
00000000
01000000
00010000
00200000
00000000
,
00001000
00000000
00300010
00000000
00010000
00000010
00002000
00000000
,
00000100
00000000
00003001
00000000
00010000
00000010
00000200
00000000
,
00001000
00000000
00000301
00000000
00000100
00000010
00000100
00000000
,
00000101
00000000
00010100
00000000
,
01010000
00000000
10100000
00000000
,
10010000
00000000
00000000
00000000
00110000
00000000
00000000
00000000
00101000
00000000
00000000
00100000
00001000
00000000
00000000
00000000
,
00000000
00100000
00001000
00010000
,
00000100
00000000
00001000
00000000
00000010
00001000
00000100
00000000
,
00001100
00000000
00000100
00000000
00010000
00001000
01000000
00000000
,
01010000
00000000
00010000
00000000
00100000
01000000
10000000
00000000
,
11000000
00000000
01000000
00000000
00100000
00010000
01000000
00000000
,
01001000
00000000
00001000
00000000
00100000
00001000
00010000
00000000
,
00010100
00000000
00000100
00000000
00001000
00000001
00000100
00000000
,
00000110
00000000
00000010
00000000
00010000
00000010
00001000
00000000
,
00001001
00000000
00000001
00000000
00010000
00000010
00010000
00000000
,
00010000
00000100
00000000
00000100
00000000
00000100
01000000
00000000
,
00010000
00000000
10000000
00000000
00010000
01000000
00001000
00000000
,
00001000
00100000
00000000
00100000
00000010
00000000
00010000
00000000
,
00000100
00000000
00001000
00000000
00000010
00001000
00000001
00000000
,
00000001
00010000
00000000
00010000
00000000
00010000
00001000
00000000
,
01000000
00000000
00100000
00000000
01000000
00010000
10000000
00000000
,
10000000
00001000
00000000
00001000
00010000
00000000
00000100
00000000
,
00000010
00000000
00000001
00000000
00001000
00000100
00010000
00000000
,
00010000
00000010
00000000
00000010
00000000
00000010
01000000
00000000
,
00001000
00000000
00100000
00000000
00010000
01000000
00100000
00000000
,
10000000
00001000
00000000
00001000
01000000
00000000
00010000
00000000
,
00100000
00000000
01000000
00000000
10000000
00100000
01000000
00000000
,
00010000
00100000
00000000
00100000
00000000
00100000
00000100
00000000
,
00001000
00000000
00000010
00000000
00000100
00000001
00000010
00000000
,
00000100
00010000
00000000
00000001
00001000
00000000
00000010
00000000
,
00010000
00000000
00001000
00000000
01000000
00010000
00100000
00000000
,
00010000
10000000
00000000
00100000
01000000
00001000
00010000
00000000
,
01000000
00000000
00100000
00000000
01000000
10000000
00010000
00000000
,
00100000
01000000
00000000
10000000
00010000
00000000
01010000
00000000
,
01001000
00000000
00001000
00000000
00010000
00000010
00000100
00000000
,
00000010
00001000
00000000
00000100
00010000
00001000
00100000
00000000
,
01000000
00000000
00100000
00000000
00010000
01000000
00100000
00000000
,
01000000
00001000
00000000
00010000
00000100
00000000
00001100
00000000
,
00001001
00000000
00000001
00000000
00000100
00000010
00001000
00000000
,
00000100
00000010
00000000
00000010
00001000
00000010
00000001
00000000
,
00000100
00000000
00000010
00000000
00000100
00000001
00001000
00000000
,
00000001
00000010
00000000
00001000
00010000
00000000
00100000
00000000
,
01000000
00000000
00010000
00000000
00100000
00001000
00010000
00000000
,
00010100
00001000
00001100
00010000
,
00011000
00100000
00110000
01000000
,
01100000
00000000
00000000
00000000
10100000
00000000
00000000
00000000
11000000
00000000
00000000
01000000
00100000
00000000
00000000
00000000
,
00000000
00000000
00100000
00000000
00100000
00001000
01000000
00000000
,
01000000
00000100
00000000
00000100
00000000
00000100
00001000
00000000
,
00000010
00000000
00001000
00000000
00001000
00000100
00010000
00000000
,
00000010
00100000
00000000
00100000
00001000
00000000
01000000
00000000
,
00010000
00000000
10100000
00000000
00100000
01000000
00010000
00000000
,
10000000
00001000
00000000
00010000
00000000
00010000
00000001
00000000
,
00000100
00000000
00000010
00000000
00010000
00000010
00001000
00000000
,
00000001
00000100
00000000
00000010
00010000
00000000
01001000
00000000
,
01010000
00000000
10000000
00000000
01000000
00100000
00010000
00000000
,
00100000
01000000
10000000
01000000
00010000
01000000
00100000
00000000
,
00011000
00000000
00001000
00000000
01000000
00100000
01000000
00000000
,
00100000
00010000
00000000
00010000
00001000
00000000
00010000
00000000
,
00010100
00000000
00000010
00000000
00000001
00000100
00001000
00000000
,
00000100
00000010
00000000
00000100
00000001
00000100
00001000
00000000
,
00010000
00000000
00011000
00000000
01000000
00010000
01001000
00000000
,
00010000
10000000
00000000
01000000
00100000
00001000
01000000
01000000
,
00100000
00100000
20000000
00000000
00000000
00000000
00000000
00000000
,
00000000
00000000
00000000
30000000
;

//---------------dance-double - R. Uchima----------------
#NOTES:
     dance-double:
     R. Uchima:
     Medium:
     6:
     0.431,0.000,0.241,0.088,0.000:
00000000
00000000
00000000
00000000
,
00000000
00000000
00000000
00000000
,
00000000
00000000
00000000
00000000
,
00000000
00000000
00000000
00000000
,
00000000
00000000
00000000
00000000
,
00000000
00000000
00000000
00000000
,
00000000
00000000
00000000
00000000
,
00000000
00000000
00000000
00000000
,
00000000
00000000
00000000
00000000
,
00000000
00000000
00000000
00000000
,
00000000
00000000
00000000
00000000
,
00000000
00000000
00000000
00000000
,
00000000
00000000
10000000
00000000
00010000
01000000
00001000
00000000
,
00100000
00000000
00001000
00000000
00010000
00000100
00001000
00000000
,
00000001
00000000
00000010
00000000
00000100
00010000
00000100
00000000
,
00010000
00000000
00001000
00000000
01000000
00010000
00100000
00000000
,
00010000
00000000
10010000
00000000
10000000
00100000
01000000
00000000
,
00010000
00000000
00100000
00000000
00001000
00010000
00000100
00000000
,
00001000
00000000
00000010
00000000
00000100
00000001
00001000
00000000
,
00000010
00000000
00001000
00000000
00000010
00010000
00000100
00000000
,
00010000
00000000
01001000
00000000
01000000
00010000
10000000
01000000
,
00100000
00000000
00010000
00000000
00100000
00001000
00010000
00001000
,
01000000
00000000
00001000
00000000
00100000
00001000
00010000
00000100
,
00001000
00000000
00000010
00000000
00001000
00000100
00001000
00000001
,
00001000
00000000
00000010
00000000
00010000
00001000
00010000
00000000
,
00011000
00000000
00101000
00000000
,
10010000
00000000
01001000
00000000
,
00010100
00001100
00001001
00010010
,
00000000
00000020
00000000
00000000
,
00100000
00200030
00000000
00000000
,
00001000
00302000
00000000
00000000
,
10000000
20003000
00000000
00000000
,
00100000
30200000
10000000
00010000
,
01000000
02300000
00100000
00010000
,
00001000
03000200
01000000
00010000
,
00001000
00000320
00000001
00001000
,
00000001
00000000
00000031
00000000
00000001
00000100
00000010
00000000
,
00000010
00010000
00000000
00001000
00000000
00010000
00001000
00000000
,
01000000
00000000
00100000
00000000
10000000
00100000
10000000
00000000
,
10000000
01000000
00000000
01000000
00100000
00000000
00010000
00000000
,
01000000
00000000
00001000
00000000
00010000
00000100
00001000
00000000
,
00000010
00000100
00000000
00000010
00000000
00000100
00000001
00000000
,
00000010
00000000
00000100
00000000
00010000
00001000
00010000
00000000
,
00001000
01000000
00000000
01000000
00010000
00000000
00100000
00000000
,
00010000
00000000
01000000
00000000
00100000
10000000
00010000
00000000
,
01000000
00001000
00000000
00010000
00000000
00001000
00100000
00000000
,
00001000
00000000
00010000
00000000
00000100
00010000
00001000
00000000
,
00010000
00000010
00000000
00000010
00001000
00000000
00000001
00000000
,
00000100
00000000
00000010
00000000
00010000
00000100
00001000
00000000
,
00000010
00010000
00000000
00000100
00000000
00010000
00002000
00003000
,
01000000
00000000
00100000
00000000
10000000
00010000
10000000
00000000
,
10000000
00010000
00000000
00010000
00100000
00000000
00001000
00000000
,
00010000
00000000
00000100
00000000
00001000
00000010
00000100
00000000
,
00000001
00000000
00000100
00000000
00000010
00001000
00000100
00000000
,
00010000
00000000
00001000
00000000
01000000
00010000
10000000
00000000
,
00100000
00000000
01000000
00000000
00001000
00100000
00010000
00000000
,
10000000
00000000
01001000
00000000
01000000
00001000
00010000
00000000
,
00000100
00000000
00010000
00000000
00000010
00010000
00001000
00000000
,
01000000
00000000
00010000
00000000
00100000
00010000
10000000
00000000
,
00010000
00000000
01000000
00000000
00001000
00010000
00000100
00000000
,
00001000
00000000
00001001
00000000
00000010
00001000
00001000
00000000
,
00000100
00000000
00010000
00000000
00001000
00100000
00100000
00000000
,
00010000
00000000
01000000
00000000
00100000
10000000
10000000
00000000
,
01000000
00000000
00100000
00000000
00001000
00010000
00010000
00000000
,
00000100
00000000
00010100
00000000
00001000
00001000
00001000
00000000
,
00001010
00000010
00010010
00010000
,
00011000
00001000
01001000
01000000
,
01100000
10100000
01010000
00101000
,
00000000
00000000
00000010
00000000
00001000
00000001
00000100
00000000
,
00000010
00000010
00000000
00001000
00000000
00000100
00000100
00000000
,
00010000
00000000
00000100
00000000
00010000
00001000
00010000
00000000
,
00001000
00001000
00000000
01000000
01000000
00000000
00010000
00000000
,
01000000
00000000
00101000
00000000
00001000
00010000
00000100
00000000
,
00010000
00010000
00000000
00000010
00000000
00001000
00001000
00000000
,
00000001
00000000
00001000
00000000
00000100
00010000
00001000
00000000
,
00100000
00100000
00000000
00001000
00001000
00000000
01000000
00000000
,
00010000
00000000
00100000
00000000
01000000
10000000
01000000
00000000
,
10000000
00000000
01000000
00000000
00100000
00001000
00100000
00000000
,
00001000
00000000
00010000
00000000
00000100
00010000
00000010
00000000
,
00001000
00000000
00000001
00000000
00000100
00000010
00001000
00000000
,
00000100
00000000
00010000
00001000
01000000
00001000
00010000
00001000
,
00100000
00101000
00001000
01001000
,
01000000
01100000
00100000
10100000
,
10000000
10010000
00011000
00001001
,
00000000
00000220
00000000
00000000
,
00000000
00000000
00000000
00000330
;
