#TITLE:Shooting Star;
#SUBTITLE:;
#ARTIST:Coconut;
#TITLETRANSLIT:;
#SUBTITLETRANSLIT:;
#ARTISTTRANSLIT:;
#GENRE:Bubblegum Dance;
#CREDIT:Sync by HellRazoR;
#BANNER:Shooting Star-bn.png;
#BACKGROUND:Shooting Star-bg.png;
#LYRICSPATH:;
#CDTITLE:;
#MUSIC:Shooting Star.ogg;
#OFFSET:-0.202;
#SAMPLESTART:70.501;
#SAMPLELENGTH:12.000;
#SELECTABLE:YES;
#DISPLAYBPM:134.000:67.000;
#BPMS:0.000=134.000,125.000=67.000,141.000=134.000;
#STOPS:;
#BGCHANGES:0.000=Shooting Star-bg.png=1.000=0=0=1=====,
21.500=In The Groove Rebirth/1124_JumpBack.mpg=1.000=1=0=1===CrossFade==,
37.000=In The Groove Rebirth/900_JumpBack.mpg=1.000=0=0=1===FadeRight==,
53.000=In The Groove Rebirth/824_JumpBack.mpg=1.000=0=0=1===FadeRight==,
75.000=Shooting Star-bg.png=1.000=1=0=1===CrossFade==,
77.000=In The Groove Rebirth/218_JB_HD.mpg=1.000=0=0=1===SlideRight==,
93.000=In The Groove Rebirth/419_JB_HD.mpg=1.000=0=0=1===SlideLeft==,
109.000=In The Groove Rebirth/320_JB_HD.mpg=1.000=1=0=1===CrossFade==,
125.000=In The Groove Rebirth/503_JB_HD.mpg=1.000=1=0=1===CrossFade==,
133.000=In The Groove Rebirth/514_JB_HD.mpg=1.000=0=0=1=====,
141.000=In The Groove Rebirth/218_JB_HD.mpg=1.000=0=0=1=====,
157.000=In The Groove Rebirth/1124_JumpBack.mpg=1.000=0=0=1===SlideDown==,
173.000=In The Groove Rebirth/419_JB_HD.mpg=1.000=0=0=1=====,
189.000=In The Groove Rebirth/900_JumpBack.mpg=1.000=0=0=1===SlideUp==,
204.500=Shooting Star-bg.png=1.000=0=0=1=====,
99999=-nosongbg-=1.000=0=0=0 // don't automatically add -songbackground-
;
#BGCHANGES2:73.000=white flash=1.000=0=0=1=====,
133.000=white flash=1.000=0=0=1=====,
141.000=white flash=1.000=0=0=1=====,
173.000=white flash=1.000=0=0=1=====,
204.500=white flash=1.000=0=0=1=====,
;
#KEYSOUNDS:;

//---------------dance-single - W. Hodge----------------
#NOTES:
     dance-single:
     W. Hodge:
     Challenge:
     9:
     0.735,1.000,0.107,0.953,0.530:
0000
0000
0000
0000
,
0000
0000
0000
0000
0001
0000
0100
0000
001M
0000
1000
0000
0100
0000
0000
0010
,
0M00
0000
0001
0000
0100
0000
0010
0100
M000
0010
0100
0000
0001
0000
0010
0000
,
010M
0000
1000
0000
0000
0000
0010
0000
M100
0000
0001
0000
0010
0000
0000
0100
,
M000
0000
0010
0000
0001
0000
0100
0001
00M0
0100
0001
0000
1000
0000
0010
0000
,
1M00
0000
0100
0000
0000
0000
1000
0000
010M
0000
0010
0000
0001
0000
0000
0100
,
M000
0000
0010
0000
1000
0000
0001
1000
0M00
0001
1000
0000
0001
0000
1000
0000
,
010M
0000
0010
0000
0000
0000
0001
0000
M010
0000
0100
0000
1000
0000
0000
0010
,
0M00
0000
0000
0000
1000
0000
0000
0000
0001
0000
0000
0000
1000
0000
0001
0000
00M0
0000
1000
0000
0002
0003
0200
0300
0002
0003
0000
0000
1000
0000
0100
0000
,
100M
0100
2000
0000
301M
0100
0002
0000
,
10M3
0000
0100
0000
0000
0000
0010
0000
M001
0000
0100
0000
0010
1000
0000
0001
,
M100
0000
0010
0000
1000
0000
0100
0000
001M
0000
0001
0000
0200
0000
0000
0320
,
M000
0000
2030
0000
0000
3000
0010
0000
010M
0000
0010
0000
0200
0000
0000
0302
,
M000
0023
0230
0000
13M0
0010
0200
0000
,
M301
0000
0010
0000
0000
0000
0100
0000
100M
0000
0100
0000
0010
0001
0000
1000
,
010M
0000
0020
0000
0000
0030
0001
0000
0M10
0000
0001
0000
0200
0000
0000
0320
,
000M
0000
2030
0000
0000
3000
0001
0000
10M0
0000
0100
0000
0020
0000
0000
0032
,
M000
0000
0023
0000
0000
0030
0100
0000
100M
0000
0010
0000
0100
0000
0000
0001
,
00M0
0000
0000
0000
1000
0000
0000
0000
0001
0000
0000
0000
1000
0000
0001
0000
0M00
0000
0010
0000
0002
0003
2000
3000
0002
0003
0000
0000
0010
0000
0000
0000
,
010M
0000
1000
0000
0010
0000
0100
0000
M010
0000
0100
0000
0001
0000
1000
0001
,
1M00
0000
0010
0000
0100
0000
0001
1000
00M1
0000
1000
0010
1000
0000
0010
0100
,
001M
1000
0001
0000
0100
0000
0010
2000
0M00
0000
3002
0000
0000
0003
1000
0100
,
10M0
0000
0100
0010
0100
0000
0010
0001
M010
0000
0001
0010
0001
0000
1000
0000
,
0M01
0000
1000
0000
0020
0000
0000
0030
M100
0000
0002
0000
0003
0000
0020
0000
,
0M30
0000
0200
0000
0000
0300
1000
0001
10M0
0000
0001
0100
0001
0000
0100
0010
,
M100
0001
1000
0001
2000
0000
0000
0000
310M
0000
0020
0000
0000
0000
0031
0000
,
0M11
0010
000M
0100
1100
1000
0M00
0010
,
0110
0000
0200
0000
00M1
0000
0000
0000
0010
0000
0000
0000
M301
0000
1000
0010
,
1000
0000
0001
0100
00M1
0000
1000
0000
1001
0000
0001
0000
M000
0000
0001
0000
,
1001
0000
2000
0000
000M
3010
1000
0010
1000
0010
1000
0000
001M
0100
0010
0000
,
0100
0001
0100
0000
M001
0010
0001
0010
0001
0010
0001
0000
M010
0100
0010
0000
,
0100
0000
1000
0000
0100
0000
0000
0000
200M
3000
0100
0000
0000
0000
0200
0320
0032
0003
0010
0000
0000
0000
0020
0230
2300
3000
0010
0000
0100
0000
0000
0000
,
0010
0000
0000
1000
0000
0000
0001
0000
0020
0030
0001
0000
0000
0000
0002
0023
0230
0300
0010
0000
0000
0000
0020
0230
2300
0000
3010
0000
0000
0000
1000
0000
,
0000
0000
0010
0000
0100
0000
0010
0000
2000
3000
0100
0000
0010
0000
0002
0023
0230
0300
0010
0000
0100
0000
0020
0230
2300
3000
0001
0000
1000
0000
0000
0000
,
0001
0000
0000
0010
0200
0300
0020
0030
0002
0003
0100
0000
0010
0000
0200
0320
2030
3000
0100
0000
0010
0000
0002
0203
0320
0030
1000
0001
1000
0001
1000
0000
,
0100
0010
0001
0100
M002
0000
0000
0000
0103
0000
0010
0000
2M00
0000
0000
0000
,
3001
0000
0010
0000
100M
0000
0010
0000
0001
0000
0100
0000
001M
1000
0000
0001
,
0100
0000
0010
0000
100M
0000
0100
0000
0010
0000
0001
0000
M200
0000
0000
0320
,
0000
0000
2030
0000
3M01
0000
0010
0000
1000
0000
0010
0000
020M
0000
0000
2300
,
0000
3200
M320
0000
0031
0100
002M
0000
,
1030
0000
0100
0000
00M1
0000
0100
0000
1000
0000
0100
0000
M010
0001
0000
1000
,
0100
0000
0020
0000
M000
0030
0001
0000
0010
0000
0001
0000
02M0
0000
0000
0320
,
0000
0000
2030
0000
0M00
3000
0001
0000
1000
0000
0100
0000
M020
0000
0000
0032
,
0000
0023
023M
0000
1300
0100
M020
0000
,
0031
0000
0100
0000
M010
0000
0100
0000
0101
0000
0001
0000
0M10
0001
0000
0001
,
0010
0000
0100
0000
10M0
0000
0001
0000
0101
0000
0100
0000
M020
0000
0000
0230
,
0000
0000
0302
0000
10M3
0000
0100
0000
1100
0000
1000
0000
020M
0000
0000
0320
,
0000
0032
M203
0000
0301
0010
020M
0000
,
1300
0000
0100
0000
M010
0000
0001
0000
1001
0000
1000
0000
001M
0100
0000
0100
,
0010
0000
2000
0000
000M
3000
0100
0000
0110
0000
0010
0000
0M02
0000
0000
0023
,
0000
0000
0230
0000
000M
0300
1000
0000
2002
3003
0001
0000
10M0
0100
2000
0000
,
0200
0010
0000
00M0
0000
0000
0000
0000
,
3300
0000
0000
0000
;

//---------------dance-double - M. Simmons----------------
#NOTES:
     dance-double:
     M. Simmons:
     Challenge:
     9:
     0.692,0.950,0.603,0.302,0.691:
00000000
00000000
00000000
00000000
,
00000000
00000000
00000000
00000000
,
00000000
00000000
00000000
00000000
,
00000000
00000000
00000000
00000000
00000000
00000000
00001000
00000000
01000000
00000000
0010M000
00000000
00020000
00000000
00000000
00002000
,
00030000
00000000
01M03000
00000000
00010000
00000000
00100000
01000000
00000000
01000000
M0100000
00000000
00010000
00000000
10000000
00000000
,
10010000
0000M000
01100000
00000000
00000000
00000000
01000000
00000000
00100000
00000000
0M010000
00000000
00002000
00M00000
00000000
00023000
,
00000000
00000000
00030010
00000000
00000100
00000000
000010M0
00000100
00000000
00000001
00000100
00000000
00000010
00000000
0000100M
00000000
,
00000100
00000000
00000010
00000000
00000000
00000000
00000001
00000000
0000M010
00000000
00000100
00000000
00002000
00000000
00000000
0000302M
,
00000000
00000000
00000130
00000000
00000110
00000000
00000010
00001000
00000M00
00001000
00000010
00000000
00000100
00000000
00000100
0000M000
,
00000010
00000000
00000010
00000000
00000101
00M0M000
00000000
00000000
00011000
00000000
00000000
00000000
10100000
00000000
00000000
00000000
,
00000000
0M000000
00000000
00000000
00000000
00000000
00010000
00000000
00100000
00000000
01000000
00000000
2000M000
00000000
00000000
00000000
,
30010000
00000000
00110000
0M000000
00000000
00000000
00100000
00000000
010M0000
00000000
00100000
00000000
00000020
00000M00
00000000
00000230
,
00000000
00000000
00000310
00000000
00000000
0M000000
00100000
00000000
01000000
00000000
00100000
00000000
00001000
00000000
00000000
00011000
,
00000M00
00000000
00100010
00000000
00011000
00000000
00000000
00M00000
01000100
00000000
00000000
00000000
01000010
00000000
00000000
00000000
,
00000000
00000000
00000000
00000000
00000000
00000000
0000M001
00000000
00000010
00000000
00000100
00000000
00000002
00000000
000000M0
00000203
,
00000000
00000000
00010300
00000000
00000000
00000000
00001000
00M00000
01000000
00000000
00100000
00000M00
01010000
00000000
M0000000
00110000
,
00000000
00000000
01001000
00000000
00000000
00M00000
00001000
00000000
00100000
M0000000
00010000
00000000
01010000
00000000
00000000
10100000
,
0000M000
00000000
01010000
00000000
00000000
00000000
0M010000
00000000
00100000
00000000
01000000
00000000
00010000
00000000
00001000
00010000
,
00000000
00010000
00000100
00000000
00000010
000M0000
00000100
00001000
00000000
00001000
00000100
00000000
00000110
00000000
00000110
00000000
,
00001001
00000000
00001001
00000000
00000M02
00000000
00000023
00000000
00002030
00000000
00023000
00000000
00130000
00000000
01000000
00100000
,
01000000
00100000
01000000
001M0000
10000000
00000000
01000000
00000000
00100000
00000000
01000000
00000000
10000000
00010000
01000000
00010000
,
01000000
00001000
00010000
00M01000
00010000
00000000
00000010
00000100
00000000
00000000
00000001
00000000
00000000
00000000
00000110
00000100
,
00001000
00000100
00000000
000100M0
00000100
00000000
00010000
00000000
00001000
00000000
00100000
000M0000
01000000
00000000
00010000
00000000
,
00001000
00000100
00000002
000M0000
00002003
00020000
00003000
10030000
,
00000000
00000000
01000000
00100000
00010M00
00100000
01000000
00100000
0001M000
00000000
00100000
00000000
00001000
00000000
01000000
00000000
,
00000100
00001000
00000100
00M10000
00002000
00000000
00000000
00000000
00103000
00000000
00000020
00000000
00000000
00000000
000M0130
00000000
,
00000001
00000000
00000100
00000010
00010000
00000010
00001000
00000100
00000010
00000000
0000M001
00000000
00000100
00000000
00000010
00000000
,
00010010
00000000
00010010
00000000
00011000
00000000
000000M0
00001000
01000000
00000000
00001000
00000000
00010000
00000000
00000100
0001M000
,
00000100
00000010
00000100
00010000
00002000
00000000
00020000
00000000
00003000
00000000
00230000
00000000
00000000
00000000
02300000
00000000
,
00000000
00000000
03100000
00000000
10000000
00010000
00100000
00010000
10000000
00010000
00100000
00010000
10000000
00010000
00100000
00010000
,
10000000
01000000
10000000
00010000
10000000
01000000
10000000
00010000
10000000
01000000
10000000
00010000
01000000
00001000
00010000
00001000
,
01000000
00000000
00001000
00000000
00010000
00000000
00001000
00000000
01000000
00000000
00001000
00000000
00000000
00000000
00001000
00010000
00000100
00000000
00000010
00000000
00000000
00000000
00000001
00000100
00000010
00000000
00001000
00000000
00000000
00000000
00000100
00000000
,
00010000
00000000
00001000
01000000
00100000
00000000
00100000
00000000
01000000
00000000
00010000
00000000
00000000
00000000
00100000
01000000
10000000
00000000
00100000
00000000
00000000
00000000
01000000
00010000
00100000
00000000
00001000
00000000
00010000
00000000
00000010
00000000
,
00000100
00000000
00000010
00000100
00000001
00000000
00000010
00000000
00001000
00000000
00000010
00000000
00000110
00000000
00000010
00000001
00001000
00000000
00000010
00000000
00001010
00000000
00000010
00000100
00000010
00000000
00010000
00000000
00001000
00000000
00010000
00000000
,
00010100
00000000
00000100
00000000
00010000
00000000
00100000
00000000
01000000
00000000
00001000
00000000
00011000
00000000
00001000
00100000
00010000
00000000
01000000
00000000
00110000
00000000
00100000
01000000
10000000
00000000
00010000
00000000
01010000
00000000
00100000
00000000
,
10000000
10000000
00010000
00010000
11000000
00000000
00000000
00000000
00011000
00000000
00000000
00000000
00000011
00000000
00000000
00000000
,
00000001
00000000
00000100
00000000
0000M010
00000000
00010000
00000000
00000100
00000000
00001000
00000000
00020000
00000000
00000000
00200000
,
00030000
00000000
01300000
0000M000
00000000
00000000
00100000
00000000
00001000
00000000
00010000
00M00000
01000000
00000000
00000000
00110000
,
00000000
00000000
00101000
00000000
00000000
00000000
00000100
00000000
00000010
00000000
00000001
00000000
00001001
00000000
000M0000
00000110
,
00000000
00001000
00000101
00000000
00011000
00000000
10100000
00000000
,
10000000
00000000
01000000
00000000
10000000
00000000
00010000
00000000
M1000000
00000000
00100000
00000000
00020000
00000000
00000000
00032000
,
00000000
00000000
00003100
00000000
00000000
00000000
00000010
00000000
00001M00
00000000
00000001
00000000
00000011
00000000
00000000
00000110
,
00000000
00000000
00001001
00000000
000000M0
00000000
00000100
00000000
00010000
00000000
00001000
000M0000
01001000
00000000
00000000
00110000
,
00000000
00000000
00010000
00000000
11000000
00000000
00000000
00000000
00011000
00000000
00000000
00000000
00000011
00000000
00000000
00000001
,
00000100
00000000
00000010
00001000
00000010
00000M00
00010000
00000000
00000100
00000000
00010000
00000000
00011000
00000000
00001000
01000000
,
00000000
00010000
00100000
0M000000
00000000
00000000
01000000
00000000
10000000
00000000
00100000
00000000
01100000
00000000
00000000
01010000
,
00000000
00000000
00110000
M0000000
00000000
00000000
00010000
00000000
10000000
00000000
01000000
00000000
20000000
00000000
00000000
30200000
,
00000000
00000000
01300000
M0000000
01010000
00000000
00000000
00000000
00011000
00000000
00000000
00000000
00001010
00000000
00000000
00000001
,
00000010
00000000
00000100
000010M0
00000100
00000000
00010000
00000000
00000M10
00000000
00001000
00000000
00010100
00000000
00000000
00001010
,
00000000
00000000
0001100M
00000000
00000000
00000000
00001000
01000000
000M1000
00000000
00100000
00000000
01000000
00000000
00000000
10100000
,
00000000
00000000
01001000
00000000
00001000
00000000
00M10000
00000000
00000100
00000000
01000000
00001000
00010000
00001000
01000000
00100000
,
00010000
00001000
00020000
00000000
00000000
00000000
0MM3M000
00000000
00000000
00000000
00000000
00000000
00000000
00000000
00000000
00000000
;

//---------------dance-double - M. Simmons----------------
#NOTES:
     dance-double:
     M. Simmons:
     Hard:
     8:
     0.513,0.726,0.428,0.409,0.277:
00000000
00000000
00000000
00000000
,
00000000
00000000
00000000
00000000
,
00000000
00000000
00000000
00000000
,
00000000
00000000
00000000
00000000
,
00000000
00000000
00000000
00000000
,
00000000
00000000
00000000
00000000
00000000
00000000
00000100
00000000
00001000
00000000
00000100
00000000
00002000
00000000
00000000
00003020
,
00000000
00000000
00010030
00000000
00000100
00000000
00010000
00001000
00000000
00001000
00010000
00000000
00001000
00000000
00001000
00000000
,
01000000
00000000
01000000
00000000
00000000
00000000
00100000
00000000
01000000
00000000
00001000
00000000
00200000
00000000
00000000
02300000
,
00000000
00000000
13000000
00000000
00010000
00000000
01000000
00010000
00000000
00010000
01000000
00000000
00100000
00000000
00100000
00000000
,
10000000
10000000
10010000
00000000
01100000
00000000
10010000
00000000
,
00100000
00000000
00000000
00000000
00100000
00000000
00001000
00000000
00100000
00000000
00001000
00000000
00020000
00000000
00000000
00032000
,
00000000
00000000
00013000
00000000
00000000
00000000
00000100
00000000
00000100
00000000
00001000
00000000
00000010
00000000
00000000
00000100
,
00000000
00000000
00000110
00000000
00000000
00000000
00000001
00000000
00000001
00000000
00000010
00000000
00000100
00000000
00000000
00001000
,
00000000
00000001
00001001
00000000
00000110
00000000
00001001
00000000
,
00000100
00000000
00000000
00000000
00000100
00000000
00000001
00000000
00001000
00000000
00000100
00000000
00000020
00000000
00000000
00000032
,
00000000
00000000
00001003
00000000
00000000
00000000
00000100
00000000
00000100
00000000
00010000
00000000
00001000
00000000
00000000
01000000
,
00000000
00000000
01001000
00000000
00000000
00000000
00001000
00000000
00001000
00000000
00100000
00000000
02000000
00000000
00000000
03200000
,
00000000
00000000
00310000
00000000
00000000
00000000
10000000
00000000
00100000
00000000
01000000
00000000
00200000
00000000
00000000
20300000
,
00000000
00000000
30010000
00000000
00100000
00000000
01000000
00100000
00000000
00100000
01000000
00000000
10000000
00000000
10000000
00000000
,
00010000
00010000
01000000
00001000
00100000
01000000
00200000
00000000
,
00300000
00100000
01000000
01000000
,
10000000
00000000
00000000
00000000
00010000
00000000
01000000
00001000
00000000
00000000
00200000
00000000
00000000
00000000
00301000
00000000
,
00000000
00010000
00010000
00000100
,
00000100
00000010
00000100
00000000
00001000
00000010
00000000
00002010
,
00003000
00000102
00000003
00000000
00000010
00000000
00000010
00000000
,
00000010
00000000
00000100
00000000
00020000
00030010
00000000
00000000
,
00010010
00000000
00001100
00000200
00000000
00020300
00000000
00230000
,
00000000
01300000
00010000
00000000
10000000
00000000
01000000
00000000
,
00100000
00000000
01000000
20000000
00000000
30020000
00000000
00032000
,
00000000
00003200
00000000
00000300
00000110
00000000
00000110
00000000
,
00001001
00001001
00001010
00001010
,
00010100
00000000
00000000
00000000
00000100
00010000
00000000
00002000
00013000
00100000
00000000
02000000
03100000
10000000
00000000
00000000
,
00010000
00000000
00000000
00010000
00000000
00000000
00100000
00000000
01000000
00000000
00100000
00000000
00000000
00000000
00020000
00000000
01030000
00000000
00001000
00000000
00000000
00000000
00020000
00000000
00031000
00000000
00000100
00000000
00000000
00000000
00000010
00000000
,
00001000
00000000
00000000
00000001
00000010
00000000
00000100
00000000
00000010
00000000
00000001
00000000
00000000
00000000
00002000
00000000
00003010
00000000
00000100
00000000
00000000
00000000
00000020
00000000
00010030
00000000
00000100
00000000
00000000
00000000
00001000
00000000
,
00000100
00010000
00000010
00010000
00000100
00001000
00000000
00000002
00010003
00001000
00000000
00002000
10003000
00010000
00000000
00100000
,
01000000
01100000
10010000
00000000
00101000
00000000
01010000
00000000
,
00010000
00000000
00000000
00000000
00100000
00000000
00001000
00000000
00010000
00000000
00000100
00000000
00000020
00000000
00000000
00000230
,
00000000
00000000
00001300
00000000
00000000
00000000
00000001
00000000
00000001
00000000
00000100
00000000
00001000
00000000
00000000
00010000
,
00000000
00000000
00100000
00000000
00000000
00000000
10000000
00000000
10000000
00000000
01000000
00000000
00010000
00000000
00000000
00001000
,
00000000
00000100
00000110
00000000
00001001
00000000
00000110
00000000
,
00000010
00000000
00000000
00000000
00010000
00000000
00000010
00000000
00000100
00000000
00000010
00000000
00020000
00000000
00000000
00030200
,
00000000
00000000
00010300
00000000
00000000
00000000
00001000
00000000
00001000
00000000
01000000
00000000
00100000
00000000
00000000
00010000
,
00000000
00000000
00001000
00000000
00000000
00000000
00010000
00000000
00010000
00000000
00000100
00000000
00000010
00000000
00000000
00001000
,
00000000
00010000
00011000
00000000
00110000
00000000
01100000
00000000
,
10000000
00000000
00000000
00000000
00010000
00000000
01000000
00000000
00100000
00000000
00010000
00000000
00002000
00000000
00000000
00023000
,
00000000
00000000
00030100
00000000
00000000
00000000
00000010
00000000
00000001
00000000
00001000
00000000
00001010
00000000
00000000
00000110
,
00000000
00000000
00001001
00000000
00000000
00000000
00000001
00000000
00000001
00000000
00000010
00000000
00000110
00000000
00000000
00001100
,
00000000
00010100
00011000
00000000
00001100
00000000
00000110
00000000
,
00000001
00000000
00000000
00000000
00000100
00000000
00000010
00000000
00010000
00000000
00001000
00000000
00200000
00000000
00000000
02300000
,
00000000
00000000
03100000
00000000
00000000
00000000
00001000
00000000
00001000
00000000
01000000
00000000
01100000
00000000
00000000
01010000
,
00000000
00000000
10100000
00000000
00000000
00000000
10000000
00000000
10000000
00000000
01000000
00000000
11000000
00000000
00000000
01100000
,
00000000
00220000
00000000
00000000
00330000
00000000
00000000
00000000
;

//---------------dance-double - M. Simmons----------------
#NOTES:
     dance-double:
     M. Simmons:
     Medium:
     5:
     0.353,0.476,0.136,0.428,0.029:
00000000
00000000
00000000
00000000
,
00000000
00000000
00000000
00000000
,
00000000
00000000
00000000
00000000
,
00000000
00000000
00000000
00000000
,
00000000
00000000
00000000
00000000
,
00000000
00000000
00000000
00000010
00001000
00000010
00002000
00000000
,
00000000
00003100
00010000
00000000
00100000
00000000
01000000
00000000
,
00001000
00000000
00000000
00010000
00001000
00010000
00002000
00000000
,
00000000
01003000
00100000
00000000
01100000
00000000
10010000
00000000
,
01100000
00200000
20300000
31000000
,
00000000
00000000
00000000
00100000
00010000
00100000
00001000
00000000
,
00000000
00011000
00000000
00020000
00000000
00000000
00030020
00000000
,
00000030
00010000
00000000
00000200
00000000
00000000
00020300
00000000
,
00000000
00030010
00000200
00000000
00000320
00000000
00000032
00000000
,
00000013
00000000
00000000
00001000
00000010
00010000
00000010
00000000
,
00000000
00010010
00000000
00000000
00001000
00000000
00200000
00000000
,
00000000
01300000
00000000
00000000
20000000
00000000
30200000
00000000
,
00000000
01300000
00000000
00000000
00010000
00000000
00100000
00000000
,
00001000
00011000
00011000
00011000
,
00000000
00000000
00100000
00001000
00100000
00001000
00100000
00000000
,
00000000
01000000
00000000
00100000
,
00000000
00000000
00000000
00000000
00001000
00000000
00010000
00000100
00000000
00000000
00000020
00000000
00000000
00000000
00000100
00000000
,
00000030
00000000
00000000
00001000
,
00001000
00000010
00002000
00000000
00003020
00002030
00000000
00003200
,
00000000
00010300
00000000
00000000
00000000
00000000
00010000
00000000
,
00010000
00000000
00001000
00000000
01000000
00001000
00000000
00000000
,
00100000
00000000
01000000
10000000
00000000
10000000
00000000
10010000
,
00000000
10010000
00000000
00000000
00000000
00000000
00010000
00000000
,
00100000
00000000
01000000
00100000
00000000
00001000
00000000
00101000
,
00000000
00101000
00000000
00010000
00000000
00000100
00000000
00010000
,
00000000
00000010
00000000
00000100
00000000
00000010
00000000
00010000
,
00000000
00000100
00000020
00000000
00000230
00000000
00010300
00000000
,
00001000
00010000
00002000
00000000
02003000
00000000
03200000
00000000
,
00300000
10000000
00010000
10000000
00010000
00000000
01000000
00000000
00010000
00000000
00100000
00000000
00001000
00000000
01000000
00000000
,
00001000
00010000
00001000
00000000
00010000
00000000
00000010
00000000
00000100
00000000
00000001
00000000
00001000
00000000
00000100
00000000
,
00000010
00000100
00000010
00000100
00000020
00000000
00000000
00000000
00000032
00000000
00000000
00000000
00000203
00000000
00000000
00000000
,
00000300
00000000
00000010
00010000
00000010
00001000
00000020
00000000
,
00000000
00000130
00000000
00000010
00000010
00000000
00010000
00000000
,
00000000
00010010
00000000
00001000
00001000
00000000
00100000
00000000
,
00000000
01100000
02000000
00000000
23000000
00000000
30100000
00000000
,
00000000
00000000
01000000
00010000
01000000
00100000
02000000
00000000
,
00000000
03001000
00000000
00010000
00000100
00000000
00000020
00000000
,
00000000
00000130
00000000
00000010
00000001
00000000
00002000
00000000
,
00000000
00003100
00020000
00000000
00230000
00000000
01300000
00000000
,
00000000
00000000
00010000
00100000
01000000
00100000
00020000
00000000
,
00000000
00130000
00000000
00001000
00010000
00001000
02000000
00000000
,
00000000
03001000
00000000
00010000
00000100
00010000
00000200
00000000
,
00000000
00001300
00000200
00000000
00000320
00000000
00000031
00000000
,
00000000
00000000
00000000
00000100
00000010
00000100
00000020
00000000
,
00000000
00001030
00000000
00000000
00000100
00000000
00020000
00000000
,
00000000
00031000
00000000
00000000
00001000
00000000
02000000
00000000
,
00000000
03200000
00000000
00000000
00300000
00000000
00000000
00000000
;

//---------------dance-double - M. Simmons----------------
#NOTES:
     dance-double:
     M. Simmons:
     Easy:
     3:
     0.258,0.300,0.185,0.165,0.000:
00000000
00000000
00000000
00000000
,
00000000
00000000
00000000
00000000
,
00000000
00000000
00000000
00000000
,
00000000
00000000
00000000
00000000
,
00000000
00000000
00000000
00000000
,
00000000
00000000
00000000
00001000
00010000
00000000
00000100
00000000
,
00010000
00000000
00001000
00000000
01000000
00000000
00001000
00001000
,
00001000
00000000
00100000
01000000
,
00100000
00002000
00000000
00010000
,
00013000
00010000
00010000
00010000
,
00000100
00000010
00000001
00001000
,
00000000
00001010
00000000
00000000
00000010
00000000
00000010
00000000
,
00000000
00000110
00000000
00000000
00000100
00000000
00000100
00000000
,
00000000
00000101
00000001
00000000
00001000
00000000
00000100
00000000
,
00010000
00001000
00100000
01000000
,
00000000
01100000
00000000
00000000
00100000
00000000
00010000
00000000
,
00000000
10010000
00000000
00000000
10000000
00000000
00100000
00000000
,
00000000
10100000
00000000
00000000
00100000
00000000
01000000
00000000
,
00010000
00200000
00000000
00001000
,
00001000
00301000
01000000
01001000
,
00000000
00001000
00000000
00010000
,
00000000
00000100
00000010
00000100
,
00001000
00000001
00000000
00000100
,
00000000
00000010
00010000
00000010
,
00000100
00000001
00000000
00001000
,
00000000
00000000
00000002
00000000
00000000
00000013
00000000
00000000
,
00000000
00000000
00000000
00000100
00000000
00010000
00000000
00000100
,
00000000
00010000
00000000
00000000
00000000
00000000
00000000
00000000
,
00000000
00000000
00000000
00001000
00000000
01000000
00000000
00001000
,
00000000
00100000
00000000
00000000
01000000
00000000
01000000
00000000
,
00100000
00100000
00010000
00010000
,
10000000
20000000
30020000
00230000
,
00000000
00302000
00023000
00030020
,
00000000
00000230
00000302
00002003
,
00000000
00003200
00020300
00030020
,
00000000
00000130
00000010
00001000
,
00000100
00010000
00001000
00100000
,
00000000
00101000
00000000
00000000
00001000
00000000
01000000
00000000
,
00000000
01001000
00000000
00000000
00001000
00000000
01000000
00000000
,
00000000
01100000
00100000
00000000
00100000
00000000
10000000
00000000
,
00000000
00010000
00100000
00001000
,
00000000
00101000
00000000
00000000
00001000
00000000
00010000
00000000
,
00000000
00010100
00000000
00000000
00000100
00000000
00000100
00000000
,
00000000
00000110
00000010
00000000
00000001
00000000
00000010
00000000
,
00000100
00001000
00000010
00001000
,
00000000
00010010
00000000
00000000
00000010
00000000
00000100
00000000
,
00000000
00000101
00000000
00000000
00000001
00000000
00001000
00000000
,
00000000
00001001
00000001
00000000
00001000
00000000
00000001
00000000
,
00000100
00000010
00010000
00000100
,
00000000
00010100
00000000
00000000
00000100
00000000
00010000
00000000
,
00000000
00011000
00000000
00000000
00001000
00000000
00100000
00000000
,
00000000
00220000
00000000
00330000
00000000
00000000
00000000
00000000
;

//---------------dance-single - D. Bernardone----------------
#NOTES:
     dance-single:
     D. Bernardone:
     Hard:
     7:
     0.467,0.550,0.156,0.272,0.204:
0000
0000
0000
0000
,
0000
0000
0000
0000
,
0000
0000
0000
0000
,
0000
0000
0000
0000
,
0000
0000
0000
0000
,
0000
0000
0000
0000
0000
0000
1000
0000
0100
0000
0010
0000
0011
0000
0000
1001
,
0000
0000
0101
0000
0001
0000
1000
0100
0000
1000
0100
0000
0010
0000
0100
0000
,
1000
0000
0010
0000
0000
0000
0100
0000
0001
0000
0010
0000
0110
0000
0000
1100
,
0000
0000
1001
0000
2002
0000
0000
0000
0000
0000
0000
0000
3003
0000
0100
0010
,
0100
0100
0002
0000
0023
0000
0230
0000
,
1300
0010
0100
0000
0001
0010
0100
1000
,
0001
0000
0100
0000
0000
0000
0100
0000
0001
0000
0001
0000
1000
0000
0000
1000
,
0000
0000
1000
0000
0000
0000
0100
0000
0010
0000
0100
0000
1000
0000
0000
1000
,
0000
0001
0200
0000
0320
0000
2030
0000
,
3100
0010
0001
0000
0100
0010
1000
0100
,
1000
0000
0001
0000
0000
0000
0001
0000
1000
0000
0100
0000
0010
0000
0000
0010
,
0000
0000
0010
0000
0000
0000
0100
0000
1000
0000
0010
0000
0100
0000
0000
0100
,
0000
0000
0100
0000
0000
0000
0100
0000
0001
0000
0010
0000
0001
0000
0000
1000
,
0000
0100
2200
0000
0000
0000
3300
1000
,
0001
1000
0010
0000
0110
0000
1000
0100
,
0001
0100
1000
0000
0001
0100
1000
0100
,
0001
1000
1100
0001
,
0101
0000
0000
0000
0010
0000
0000
0010
1000
0000
0000
1000
0100
0000
0000
0100
,
0010
0000
0100
0000
0110
0000
1000
0010
,
0100
0010
1000
0000
0001
0010
1000
0010
,
0001
0000
0100
0000
0110
0000
0001
0100
,
0010
0100
1000
0000
0100
0001
0010
0001
,
1000
0010
1010
0001
,
0011
0000
0000
0001
0100
0000
0000
0100
0010
0000
0000
0010
1000
0000
0000
0000
,
1100
0000
0100
0010
0010
0010
0010
0010
,
0010
0010
0001
0001
0001
0001
0001
0001
,
0001
0000
1000
0000
0200
0000
0000
0000
0310
0000
0000
0000
0002
1000
1000
0000
,
0103
0000
0000
0100
0000
0000
0100
0000
0020
0000
0000
0000
0000
0000
0000
0000
1030
0000
0000
0000
0000
0000
0000
0000
0002
0000
1000
0000
0000
0000
1000
0000
,
0003
0100
0100
0100
0010
0000
0001
0000
0100
0000
1000
0000
0100
0010
0010
0000
,
1000
0000
0000
1000
0000
0000
1000
0000
0001
0000
0000
0000
0010
0000
0000
0000
1000
0000
0000
0000
0010
0000
0000
0000
0001
0000
1000
0100
0000
1000
0100
0000
,
0010
0001
0100
0010
2000
0000
0000
0000
3200
0000
0000
0000
0320
0000
0000
0000
,
0031
0000
0100
0000
1000
0000
0000
0000
0100
0000
0001
0000
0010
0000
0000
0010
,
0000
0000
0010
0000
0100
0000
0000
0000
1000
0000
0010
0000
0100
0000
0000
0100
,
0000
0000
0100
0000
0000
0000
0001
0000
0010
0000
0100
0000
0001
0000
0000
0100
,
0000
1000
0020
0000
0230
0000
0302
0000
,
1003
0000
0100
0000
0001
0000
0000
0000
0100
0000
0010
0000
0001
0000
0000
0001
,
0000
0000
0001
0000
1000
0000
0000
0000
0010
0000
0100
0000
0001
0000
0000
0001
,
0000
0000
0001
0000
0000
0000
0010
0000
0100
0000
1000
0000
0001
0000
0000
0001
,
0000
0100
0020
0000
2030
0000
3200
0000
,
0310
0001
0100
0000
1000
0100
0001
0000
,
0010
0000
0100
0000
1000
0000
0000
0000
0010
0000
0100
0000
0001
0000
0000
0001
,
0000
0000
0001
0000
0010
0000
0000
0000
0100
0000
1000
0000
0001
0000
0000
0001
,
0000
0100
0020
0000
2030
0000
3002
0000
,
0013
0100
1000
0000
0100
0001
0100
0000
,
1000
0000
0010
0000
0100
0000
0000
0000
0001
0000
0010
0000
0100
0000
0000
0100
,
0000
0000
0100
0000
1000
0000
0001
0000
1000
0000
0001
0000
0100
0010
0100
0000
,
0002
2003
0000
3000
0000
0000
0000
0000
;

//---------------dance-single - D. Bernardone----------------
#NOTES:
     dance-single:
     D. Bernardone:
     Medium:
     5:
     0.293,0.349,0.136,0.000,0.015:
0000
0000
0000
0000
,
0000
0000
0000
0000
,
0000
0000
0000
0000
,
0000
0000
0000
0000
,
0000
0000
0000
0000
,
0000
0000
0000
0000
0000
0000
1000
0000
0001
0000
0000
0000
0100
0000
0000
0100
,
0000
0100
0010
0000
1000
0000
0100
0000
,
0010
0000
0000
0000
0000
0000
0001
0000
0100
0000
0000
0000
0010
0000
0000
0010
,
0000
0010
1001
0000
0000
0000
0000
0000
,
0000
0001
1000
0001
,
1000
0100
0010
0100
,
1000
0001
0100
0010
,
1000
0000
0001
0010
0001
0000
1000
0100
,
1000
0010
0100
0010
,
0100
0001
0010
0100
,
0010
0001
1000
0010
,
0100
0000
0001
0100
0001
0000
1000
0010
,
1000
0000
0000
0000
0000
0000
0001
0000
0010
0000
0000
0000
0100
0000
0000
0100
,
0000
0100
1001
0000
0000
0000
0000
0000
,
0000
0001
1000
0100
,
0000
0010
0010
0010
,
0000
0001
1000
0010
,
0000
0100
0100
0100
,
0001
0001
1000
0100
,
0010
0001
0001
0001
,
1000
0010
0100
0010
,
1000
0001
0001
0001
,
0010
0100
1000
0010
,
0100
0100
0100
0001
,
1000
0000
0100
0010
0100
0010
0100
0010
,
0100
0010
0100
0010
0100
0010
0100
0010
,
0100
0010
0001
0000
1000
0000
0101
0000
,
0000
1000
0001
1100
,
1000
0001
1001
0000
0110
0000
1001
0000
,
1000
0100
1100
0000
0011
0000
1100
0000
,
0001
0100
0010
0000
1000
0000
0010
0000
,
0100
0001
1000
0000
0100
0000
0010
0000
,
0001
1000
0010
0100
,
0100
0100
0001
1000
,
1000
1000
0100
1000
,
0010
0100
0001
0000
0010
0000
0100
0000
,
1000
0001
0100
0010
,
0010
0010
1000
0001
,
0001
0001
0010
0001
,
1000
0010
0100
0000
0001
0000
1000
0000
,
0100
0010
0001
1000
,
1010
1000
0001
0100
,
0101
0100
0010
1000
,
0001
0010
0100
0000
1000
0000
0010
0000
,
0100
0010
1000
0001
,
0011
0001
1000
0100
,
1100
0100
0000
0000
;

//---------------dance-single - D. Bernardone----------------
#NOTES:
     dance-single:
     D. Bernardone:
     Easy:
     2:
     0.154,0.224,0.058,0.000,0.000:
0000
0000
0000
0000
,
0000
0000
0000
0000
,
0000
0000
0000
0000
,
0000
0000
0000
0000
,
0000
0000
0000
0000
,
0000
0000
1000
0000
,
0001
0000
0100
0000
,
0001
0000
0010
0000
,
0100
0110
0000
0000
,
0000
0001
0001
0001
,
0000
0000
1000
1000
,
0000
1000
0000
0010
,
0000
0010
0000
0100
,
0000
0100
0100
0100
,
0000
0000
0001
0001
,
0000
0001
0000
1000
,
0000
1000
0000
0100
,
0000
0100
0010
0000
,
0001
1001
0000
0000
,
0000
1000
0100
1000
,
0000
0000
0000
0000
,
0000
0001
0100
0001
,
0100
0000
0000
0000
,
0010
0010
0000
1000
,
0000
0100
0000
0000
,
0000
0010
0000
0001
,
0000
0000
1000
0010
,
0000
0100
0000
0000
,
0000
0000
0001
1000
,
0000
0100
0010
0100
,
0010
0100
0010
0100
,
0010
0001
0001
1001
,
0000
1000
1000
1001
,
0000
0010
0100
0110
,
0000
0100
0010
0110
,
0000
1000
1000
1000
,
0000
0000
0001
0001
,
0000
0001
0000
0010
,
0000
0010
0000
0100
,
0000
0100
0100
0100
,
0000
0000
1000
1000
,
0000
1000
0000
0010
,
0000
0010
0000
0100
,
0000
0100
0100
0100
,
0000
0000
0001
0001
,
0000
0010
0000
0100
,
0000
1000
0000
0010
,
0000
0100
0001
0001
,
0000
0000
1000
0100
,
0000
0100
0000
0010
,
0000
0001
0000
1000
,
0010
0010
0000
0000
;

//---------------dance-single - D. Bernardone----------------
#NOTES:
     dance-single:
     D. Bernardone:
     Beginner:
     1:
     0.096,0.125,0.039,0.000,0.000:
0000
0000
0000
0000
,
0000
0000
0000
0000
,
0000
0000
0000
0000
,
0000
0000
0000
0000
,
0000
0000
0000
0000
,
0000
0000
0000
1000
,
0000
0000
0000
0001
,
0000
0000
0000
0100
,
0000
0110
0000
0000
,
0000
1000
0000
0000
,
0000
0000
0000
0100
,
0000
0100
0000
0010
,
0000
0000
0000
0001
,
0000
1000
0000
0000
,
0000
0000
0010
0000
,
0000
0010
0000
1000
,
0000
0000
0000
0100
,
0000
0000
0000
0010
,
0000
1001
0000
0000
,
0000
1000
0000
0000
,
0000
0000
0000
0000
,
0000
0001
0000
0001
,
0000
0000
0000
0000
,
0000
0100
0000
0100
,
0000
0100
0000
0000
,
0000
0010
0000
0010
,
0000
0000
1000
0000
,
1000
0000
0000
0000
,
0000
0000
0001
0000
,
0001
0010
0000
0100
,
0000
0010
0000
0100
,
0000
1000
0000
0001
,
0000
0100
0000
0010
,
0000
1000
0000
1001
,
0000
0010
0000
0110
,
0000
1000
0000
0000
,
0000
0000
0000
0010
,
0000
0010
0000
0100
,
0000
0000
0000
0001
,
0000
1000
0000
0000
,
0000
0000
0000
0100
,
0000
0100
0000
1000
,
0000
0000
0000
0010
,
0000
0100
0000
0100
,
0000
0000
0000
0001
,
0000
1000
0000
0100
,
0000
0100
0000
0010
,
0000
0001
0000
0001
,
0000
0000
0000
1000
,
0000
0010
0000
0100
,
0000
0100
0000
0001
,
0000
1000
0000
0000
;
