#TITLE:Save the Last Dance for Me;
#SUBTITLE:;
#ARTIST:Missing Heart;
#TITLETRANSLIT:;
#SUBTITLETRANSLIT:;
#ARTISTTRANSLIT:;
#GENRE:Trance;
#CREDIT:Sync by HellRazor;
#BANNER:Save the Last Dance for Me-bn.png;
#BACKGROUND:Save the Last Dance for Me-bg.png;
#LYRICSPATH:;
#CDTITLE:;
#MUSIC:Save the Last Dance for Me.ogg;
#OFFSET:-0.384;
#SAMPLESTART:69.100;
#SAMPLELENGTH:12.000;
#SELECTABLE:YES;
#DISPLAYBPM:136.000;
#BPMS:0.000=136.000,63.000=139.050,64.000=136.000;
#STOPS:;
#BGCHANGES:0.000=Save the Last Dance for Me-bg.png=0.500=0=0=1=====,
32.000=In The Groove Rebirth/175_JB_HD.mpg=1.000=1=0=1===CrossFade==,
48.000=In The Groove Rebirth/165_JB_HD.mpg=1.000=1=0=1===CrossFade==,
64.000=In The Groove Rebirth/178_JB_HD.mpg=1.000=1=0=1===CrossFade==,
80.000=In The Groove Rebirth/419_JB_HD.mpg=1.000=0=0=1===FadeLeft==,
96.000=In The Groove Rebirth/503_JB_HD.mpg=1.000=0=0=1=====,
112.000=In The Groove Rebirth/875_JumpBack.mpg=1.000=0=0=1===FadeRight==,
128.000=In The Groove Rebirth/1133_JumpBack.mpg=1.000=0=0=1=====,
144.000=In The Groove Rebirth/1166_JumpBack.mpg=1.000=0=0=1===FadeUp==,
160.000=In The Groove Rebirth/307_JB_HD.mpg=1.000=0=0=1=====,
176.000=In The Groove Rebirth/272_JB_HD.mpg=1.000=0=0=1=====,
192.000=In The Groove Rebirth/161_JB_HD.mpg=1.000=0=0=1=====,
208.000=In The Groove Rebirth/165_JB_HD.mpg=1.000=0=0=1=====,
224.000=In The Groove Rebirth/419_JB_HD.mpg=1.000=0=0=1=====,
240.000=In The Groove Rebirth/503_JB_HD.mpg=1.000=0=0=1=====,
256.000=In The Groove Rebirth/178_JB_HD.mpg=1.000=1=0=1=SongBgWithMovieViz==CrossFade==,
287.000=Save the Last Dance for Me-bg.png=1.000=1=0=1===CrossFade==,
99999=-nosongbg-=1.000=0=0=0 // don't automatically add -songbackground-
;
#BGCHANGES2:128.000=white flash=1.000=0=0=1=====,
160.000=white flash=1.000=0=0=1=====,
224.000=flash=1.000=0=0=1====0.5^0.5^0.5^1=,
;
#KEYSOUNDS:;

//---------------dance-single - D. Bernardone----------------
#NOTES:
     dance-single:
     D. Bernardone:
     Challenge:
     9:
     0.499,0.681,0.084,0.236,0.164,416.000,11.000,31.000,2.000,0.000,0.000:
0000
0000
0000
0000
,
0000
0000
2000
0000
,
0002
0000
0000
0000
,
3003
0000
0200
0000
,
0020
0000
0000
0000
,
0330
0000
1002
0023
,
0200
0000
0000
0000
,
0030
0000
0300
0000
,
0010
0100
0010
0001
0000
1000
0000
0001
,
0000
0000
0100
0010
0000
1000
0000
0100
,
0010
0001
0010
0100
0000
1000
0000
0001
,
0100
0001
1000
0100
0000
0010
0000
0001
,
0100
0000
1000
0100
0000
0001
0000
0010
,
0100
0000
1000
0010
0000
0100
0000
0001
,
0000
1000
0100
0010
0000
0001
0000
1000
,
0000
0010
0100
0010
2000
0000
0200
0300
,
3100
0010
0001
0010
0100
1000
0010
0000
,
0100
0001
0010
0100
2000
0001
0001
0000
,
3010
0100
0001
0010
0100
0010
0001
0000
,
1000
0010
0100
0001
2000
0100
0100
0000
,
3010
0100
0001
0010
0001
1000
0100
0000
,
0010
0001
1000
1000
0020
0000
0230
0000
,
0301
0100
0010
0001
0010
1000
0100
0010
,
1000
0000
0010
0000
0001
0000
0100
0000
0010
0000
1000
0000
0001
0010
0001
1000
,
0001
1000
0010
1000
,
0100
0000
0000
0000
0010
0000
0000
0000
0001
0000
0100
0010
0100
0010
0100
0010
,
1000
0100
1000
0010
,
0100
0000
0000
0000
0001
0000
0000
0010
0100
0000
1000
0000
0001
0000
0100
0001
,
1000
0010
0100
0001
,
0010
0000
0000
0000
0001
0000
0100
0000
1000
0000
0100
0000
0001
0000
0000
0010
,
0100
0000
0000
1000
0010
0000
1000
0001
1000
0000
0010
0000
0010
0000
1000
0001
,
2000
0000
0000
0000
0000
0000
0000
0000
0010
0000
0000
0000
3100
0000
0010
0001
,
1000
0000
0100
0000
0010
0000
0000
0000
0001
0000
0010
0100
0010
0100
1000
0000
,
0001
0000
0100
0000
0010
0000
0000
0010
1000
0000
0100
0000
0100
0000
1000
0010
,
1000
0001
0100
0000
0001
0100
0010
0000
,
1000
0000
0100
0000
0010
0000
0000
0001
0100
0000
0010
0000
0010
0000
1000
0001
,
1000
0100
0010
0001
0000
0010
0100
1000
,
0010
0000
1001
1000
0100
0010
0100
1000
,
0010
0000
0100
0000
0010
0000
1000
0001
1000
0000
0010
0000
0010
0000
1000
0001
,
1000
0100
M001
0100
0010
0001
01M0
0001
,
1000
0010
0100
0020
0000
0031
0000
0010
,
0100
0001
1000
0200
0000
0310
0000
0100
,
0001
0100
0010
0002
0000
0103
0000
0010
,
1000
0010
0100
2000
0000
3001
0000
0010
,
1000
0001
0010
0200
0000
0301
0000
1000
,
0010
0100
1000
0002
0000
0103
0000
0010
,
1000
0100
0001
0200
0000
0310
0000
0001
,
1001
0000
0100
0000
0010
0000
0000
0000
1001
0000
0010
0000
0100
0000
0001
0010
,
0100
0000
1000
0001
0000
0010
1000
0000
,
0110
0000
1000
0010
0000
0100
0001
0010
,
0100
0000
1000
0010
0000
0001
1000
0000
,
1100
0000
0100
0010
0000
1000
0100
0010
,
0001
0000
0100
1000
0000
0100
0010
0000
,
1010
0000
1000
0001
0000
0100
0001
1000
,
0100
0000
0001
0000
0100
0000
0010
0100
1000
0000
0010
0000
0100
0000
0001
1000
,
0100
0000
0010
0000
0001
0000
0100
0010
2000
0000
0000
0000
3200
0000
0310
0001
,
0100
0000
0010
0000
0010
0000
1000
0000
0100
0000
0010
0000
0001
0000
0100
0010
,
1000
0000
0001
0010
0100
0000
1000
0000
0010
0000
0100
0000
0010
0000
1000
0100
,
0010
0000
0100
1000
0001
0000
0100
0000
0010
0000
0100
0000
0001
0000
1000
0010
,
0100
0000
0001
0000
1001
0000
0001
1000
0010
0000
0100
0000
0001
0000
0001
0000
,
0101
0000
1000
0000
0100
0000
0010
0000
0100
0000
1000
0001
0100
0000
0010
0000
,
0110
0000
0001
0010
0100
0000
1000
0000
0010
0000
0100
0001
1000
0000
0010
0000
,
1000
0100
1000
0100
1000
0000
0100
0000
0010
0001
0010
0001
0010
0000
0001
0000
,
1000
0010
1000
0010
1000
0000
0010
0000
0100
0001
0100
0010
0100
0000
0010
1000
,
0200
0000
0000
0000
,
0000
0300
0020
0000
,
0002
0000
0000
0000
,
0000
0033
0200
0000
,
2000
0000
0000
0000
,
0000
3300
1020
0230
,
0002
0000
0000
0000
,
0000
0000
0303
0000
;

//---------------dance-single - D. Bernardone----------------
#NOTES:
     dance-single:
     D. Bernardone:
     Beginner:
     1:
     0.095,0.133,0.046,0.000,0.000,81.000,6.000,0.000,0.000,0.000,0.000:
0000
0000
0000
0000
,
0000
0000
1000
0000
,
1000
0000
0000
0000
,
0000
0000
0001
0000
,
0001
0000
0000
0000
,
0000
0000
1001
0000
,
0000
0000
0000
0000
,
0000
0000
0000
0000
,
1000
0000
0000
0000
,
1000
0000
0000
0000
,
0001
0000
0000
0000
,
0001
0000
0000
0000
,
0010
0000
0000
0000
,
0010
0000
0000
0000
,
0100
0000
0000
0000
,
0100
0000
1000
0000
,
1000
0000
0000
0000
,
0001
0000
0100
0000
,
0010
0000
0000
0000
,
1000
0000
0100
0000
,
0010
0000
0000
0000
,
0001
0000
0110
0000
,
0000
0000
0000
0000
,
1000
0000
0001
0000
,
0100
0000
0000
0000
,
0000
0000
0000
0000
,
0010
0000
0000
0000
,
0000
0000
0000
0000
,
1000
0000
0000
0000
,
0000
0000
0000
0000
,
0100
0000
0000
0000
,
0010
0000
0001
0000
,
1000
0000
0000
0000
,
1000
0000
0000
0000
,
0010
0000
0000
0000
,
0100
0000
0000
0000
,
0100
0000
0000
0000
,
0001
0000
0000
0000
,
1000
0000
0100
0000
,
0010
0000
0010
0000
,
0010
0000
0000
0000
,
0001
0000
0000
0000
,
0100
0000
0000
0000
,
1000
0000
0000
0000
,
0100
0000
0000
0000
,
0001
0000
0000
0000
,
0010
0000
0000
0000
,
0100
0000
1000
0000
,
1000
0000
0000
0000
,
0010
0000
0000
0000
,
0001
0000
0000
0000
,
0010
0000
0000
0000
,
1000
0000
0000
0000
,
0100
0000
0000
0000
,
0010
0000
0000
0000
,
0001
0000
1001
0000
,
1000
0000
0010
0000
,
0100
0000
0010
0000
,
1000
0000
0100
0000
,
0010
0000
0000
0000
,
0001
0000
0100
0000
,
0010
0000
0100
0000
,
0001
0000
0010
0000
,
0100
0000
0110
0000
,
1000
0000
0000
0000
,
0000
0000
0001
0000
,
0001
0000
0000
0000
,
0000
0000
1000
0000
,
1000
0000
0000
0000
,
0000
0000
0110
0000
,
1001
0000
0000
0000
;

//---------------dance-single - D. Bernardone----------------
#NOTES:
     dance-single:
     D. Bernardone:
     Easy:
     3:
     0.186,0.273,0.053,0.198,0.000,138.000,7.000,26.000,0.000,0.000,0.000:
0000
0000
0000
0000
,
0000
0000
2000
0000
,
3100
0000
0000
0000
,
0000
0000
0020
0000
,
0130
0000
0000
0000
,
0000
0000
2000
3001
,
0220
0000
0000
0000
,
0000
0000
0330
0000
,
1000
0000
0000
0000
,
0100
0000
0000
0000
,
0010
0000
0000
0000
,
0001
0000
0000
0000
,
0100
0000
0010
0000
,
1000
0000
0100
0000
,
0010
0000
0001
0000
,
1000
0000
0020
0130
,
0001
1000
0100
1000
,
0001
0100
0020
0000
,
1030
0001
0100
0001
,
1000
0100
0020
0000
,
0031
1000
0010
0100
,
0001
1000
0020
0130
,
2002
0000
0000
0000
,
0000
0000
3003
0000
,
0001
0000
0000
0000
,
0010
0000
0000
0000
,
0100
0000
0000
0000
,
1000
0000
0000
0000
,
0010
0000
0000
0000
,
0100
0000
0001
0000
,
1000
0000
0100
0000
,
0020
0000
0230
0000
,
1300
0000
0001
0000
,
1000
0000
0100
0000
,
0010
0000
0001
0000
,
0010
0000
0100
0000
,
1000
0001
0010
0001
,
1000
0000
0010
0100
,
0001
1000
0100
0010
,
0002
1003
2000
3001
,
0001
0000
0010
0000
,
0100
0000
0010
0000
,
0001
0000
1000
0000
,
0010
0000
0000
0000
,
0100
0000
0001
0000
,
0010
0000
0100
0000
,
1000
0000
0010
0000
,
0100
0000
0001
0000
,
1001
0000
1000
0000
,
0100
0000
0010
0000
,
0001
0000
0100
0000
,
0010
0000
0100
0000
,
0001
0000
1000
0000
,
0001
0000
0010
0000
,
0100
1000
0100
1000
,
0001
0100
0001
1000
,
0120
0000
0100
0000
,
1030
0000
2000
0000
,
3001
0000
0010
0000
,
0100
0000
2000
0000
,
3001
0000
0100
0000
,
0001
0000
0010
0100
,
2001
0000
0100
0000
,
3001
0000
0100
0010
,
2002
0000
0000
0000
,
3003
0000
2000
0000
,
3100
0000
0000
0000
,
0000
0000
0020
0000
,
0031
0000
0000
0000
,
0000
0000
0200
0310
,
2002
0000
0000
0000
,
0000
0000
3003
0000
;

//---------------dance-single - D. Bernardone----------------
#NOTES:
     dance-single:
     D. Bernardone:
     Medium:
     5:
     0.310,0.327,0.000,0.313,0.000,244.000,0.000,41.000,0.000,0.000,0.000:
0000
0000
0000
0000
,
0000
0000
0020
0000
,
0230
0000
0000
0000
,
0300
0000
0002
0000
,
0203
0000
0000
0000
,
0300
0000
0020
2030
,
3200
0000
0000
0000
,
0000
0000
0300
0000
,
0010
0000
0000
0001
0000
0000
0100
0000
,
0100
0000
0000
0010
0000
0000
1000
0000
,
1000
0000
0000
0001
0000
0000
0010
0000
,
0010
0000
0000
0100
0000
0000
0010
0000
,
0010
0000
0001
1000
0000
0000
0100
0000
,
0010
0000
0001
0100
0000
0000
0010
0000
,
1000
0000
0100
1000
0000
0000
0001
0000
,
0100
0000
0010
1000
0002
0000
1000
0000
,
1003
0100
0010
0001
,
0100
0010
0200
0010
,
0302
1000
0100
1000
,
0103
0010
2000
0001
,
3200
0010
1000
0010
,
1300
0001
0200
0320
,
2030
0010
0100
0001
,
0010
0100
3001
1000
,
0001
0100
0001
0000
,
1000
0000
0000
0000
0001
0100
0100
0100
,
0001
1000
0100
0000
,
1000
0000
0000
0000
0001
0001
0001
0000
,
1000
0010
1000
0000
,
0100
0000
0000
0000
0010
0010
0010
0000
,
0001
0100
0010
0100
,
0002
0000
2003
0000
,
3001
0100
0010
1000
,
0010
0000
0100
0000
0001
1000
0100
0000
,
0010
0001
0100
0010
,
1000
0000
0100
0000
1000
0000
0010
0100
,
0001
0000
0010
0000
0100
0000
1000
0001
,
1000
0000
0010
0000
0100
0000
0001
1000
,
0001
0000
0010
0000
0100
0000
1000
0001
,
2000
0010
3200
0001
,
1300
0010
0100
0001
,
1000
0010
0100
0001
,
1000
0000
0100
0010
0000
0010
0001
0000
,
0100
0010
1000
0010
,
1000
0100
0010
0001
,
1000
0000
0100
1000
0000
1000
0001
0000
,
0100
0010
0100
0010
,
2000
0100
3020
0001
,
1030
0010
0100
0001
,
1000
0000
0010
0100
0000
0100
0001
0000
,
0010
0100
1000
0001
,
0010
0000
0100
1000
0000
1000
0010
0000
,
0100
0001
1000
0001
,
0100
0000
0010
1000
0000
1000
0100
0000
,
0010
0001
0001
0000
0100
0000
0010
0000
,
1000
0100
0100
0000
0020
0000
0032
0000
,
2003
0100
0001
0100
,
3001
0100
0020
1000
,
0230
0001
0010
0001
,
0310
1000
0200
0010
,
2300
0010
0001
0010
,
3001
0100
0020
2030
,
3002
0010
0100
1000
,
0013
0100
2000
3020
,
0230
0000
0000
0000
,
0300
0000
0002
0000
,
0023
0000
0000
0000
,
0030
0000
0002
0000
,
2003
0000
0000
0000
,
3000
0000
0020
0230
,
0302
0000
0000
0000
,
0000
0000
0003
0000
;

//---------------dance-single - D. Bernardone----------------
#NOTES:
     dance-single:
     D. Bernardone:
     Hard:
     7:
     0.405,0.382,0.061,0.259,0.000,330.000,8.000,34.000,0.000,0.000,0.000:
0000
0000
0000
0000
,
0000
0000
2000
0000
,
0200
0000
0000
0000
,
3300
0000
0020
0000
,
0200
0000
0000
0000
,
0330
0000
2000
3001
,
0202
0000
0000
0000
,
0000
0000
0303
0000
,
0001
0000
1000
0100
0000
0010
0100
0000
,
1000
0000
0001
0100
0000
0010
0100
0000
,
0001
0000
1000
0100
0000
1000
0010
0000
,
1000
0000
0001
0100
0000
0001
0010
0000
,
0100
1000
0001
0100
0000
0100
0010
1000
,
0010
0000
0100
0001
0000
0001
0100
0010
,
1000
0000
0100
0010
0000
0010
0100
1000
,
0001
0100
0001
0100
0020
0000
1000
0000
,
1030
0000
0001
0100
0001
0000
1000
0100
,
1000
0000
0001
0100
0001
1000
0100
0010
,
0001
0000
0001
0010
0001
0000
1000
0010
,
1000
0000
0001
0010
0001
1000
0010
0100
,
0001
0000
0010
0100
0010
0000
0001
1000
,
0001
0000
0100
0010
0100
0001
1000
0100
,
0010
0001
0100
0001
0010
0001
1000
0000
,
0100
1000
0010
1000
0100
1000
0001
0000
,
0101
0100
0010
1000
,
0100
0000
1000
0000
0010
0100
0001
0100
,
0010
1000
0001
1000
,
0001
0000
0010
0000
0100
1000
0001
0001
,
0100
0010
0100
0001
,
1000
0000
0100
0000
0010
0001
0100
0000
,
0010
1000
0100
0000
1000
0001
1000
1000
,
0020
0000
0230
0000
,
0301
1000
0100
1000
,
0001
0000
0100
0000
0010
1000
0100
1000
,
0001
0010
0100
0010
,
0001
0000
1000
0000
0010
1000
0100
1000
,
0001
1001
0100
0101
,
1000
1010
0100
0110
,
0001
1000
0100
0000
1000
0001
0100
0000
,
0001
0010
1000
0010
0001
0100
1000
0100
,
0002
0000
1003
0010
0000
0010
0100
0000
,
0002
0000
0013
0100
0000
0100
1000
0000
,
0002
0000
0103
0010
0000
0010
1000
0000
,
0100
0010
0001
1000
0000
1000
0001
0000
,
0200
0000
0310
1000
0000
1000
0001
0000
,
0020
0000
0130
1000
0000
1000
0010
0000
,
0200
0000
0301
1000
0000
1000
0100
0000
,
1000
0010
0001
0010
1000
0100
0001
0100
,
2000
0000
3010
0100
0000
0001
1000
0000
,
0200
0000
0310
0100
0000
1000
0001
0000
,
0200
0000
0310
1000
0000
0001
0100
0000
,
0010
1000
0001
0010
0000
0010
0100
0000
,
2000
0000
3001
0010
0000
0100
1000
0000
,
0020
0000
0130
0001
0000
1000
0010
0000
,
2000
0000
3100
0010
0000
0001
0100
0000
,
0010
1000
0100
0010
0002
0000
2003
0000
,
3100
0000
0010
0001
1000
0000
0010
0100
,
0001
0000
0010
0100
1000
0010
1000
0100
,
0010
0000
0001
0100
0010
0000
1000
0100
,
0010
0000
0001
0100
0001
0010
0100
1000
,
0001
0000
0100
0010
1000
0000
0100
0010
,
0001
0000
1000
0100
1000
0010
0100
0001
,
1000
1000
0100
0000
0010
0010
0001
0000
,
0100
0100
0010
0010
2000
0000
3001
0000
,
0022
0000
0000
0000
,
0033
0000
2000
0000
,
0020
0000
0000
0000
,
3030
0000
2000
0000
,
0002
0000
0000
0000
,
3003
0000
0002
1003
,
2200
0000
0000
0000
,
0000
0000
3300
0000
;

//---------------dance-double - D. Bernardone----------------
#NOTES:
     dance-double:
     D. Bernardone:
     Easy:
     3:
     0.185,0.195,0.000,0.152,0.000,150.000,0.000,20.000,0.000,0.000,0.000:
00000000
00000000
00000000
00000000
,
00000000
00000000
10000000
00000000
,
00020000
00000000
00000000
00000000
,
00030000
00000000
01000000
00000000
,
00002000
00000000
00000000
00000000
,
00003000
00000000
00010000
00000010
,
00000200
00000000
00000000
00000000
,
00000301
00000000
00000001
00000000
,
00001000
00000000
00000100
00000000
,
00010000
00010000
00000000
00001000
,
00010000
00000000
00001000
00000000
,
00100000
00000000
00000000
00010000
,
01000000
00000000
00100000
00000000
,
10000000
00000000
01000000
00010000
,
00001000
00020000
00000000
00030000
,
00000000
00000000
00000200
00000000
,
00000310
00000001
00001000
00000010
,
00000100
00000000
00002000
00000000
,
00013000
00001000
00100000
00010000
,
10000000
00000000
00200000
00000000
,
01300000
00001000
00010000
00001000
,
00000010
00000000
00000001
00001000
,
00000200
00000000
00000000
00000000
,
00000310
00000001
00001000
00000010
,
00000100
00000000
00000001
00000000
,
00001000
00000100
00001000
00000000
,
00000010
00000000
00010000
00000000
,
00001000
00010000
00001000
00000000
,
01000000
00000000
00010000
00000000
,
00100000
00000000
01000000
10000000
,
01000000
01000000
00000000
00000000
,
00200000
00000000
00302000
00000000
,
01003000
00010000
00100000
00000000
,
00001000
00010000
00000100
00000000
,
00001000
00000010
00000100
00000000
,
00000001
00001000
00000001
00000000
,
00000010
00000100
00001000
00000010
,
00010000
00000000
00001000
00001000
,
01000000
00010000
00000000
00000000
,
20000000
00000000
32000000
00000000
,
03100000
00000000
00010000
00000000
,
01000000
00000000
10000000
01000000
,
01000000
00000000
00001000
00000000
,
00010000
00000000
00000000
00000100
,
00000100
00000000
00001000
00000000
,
00000010
00000000
00000100
00000001
,
00001000
00000001
00000000
00000000
,
00000200
00000000
00000320
00000000
,
00001030
00000000
00000100
00000000
,
00000001
00000100
00000000
00010000
,
00001000
00000000
01000000
00000000
,
00010000
00000000
00000000
00100000
,
00001000
00000000
00010000
00000000
,
00000100
00000000
00010000
00001000
,
01000000
00020000
00000000
00030000
,
00000000
00000000
10000000
01000000
,
00100000
00000000
00000000
00010000
,
01000000
00000000
00001000
00000000
,
00010000
00000000
00000000
00000010
,
00001000
00000000
00000000
00000000
,
00000100
00000000
00000000
00000000
,
00010000
00000000
00001000
01000000
,
02000000
00000000
00000000
00000000
,
03000000
00000000
00100000
01000000
,
00020000
00000000
00000000
00000000
,
00030000
00000000
00100000
00000000
,
00002000
00000000
00000000
00000000
,
00003000
00000000
00010000
00000000
,
00000020
00000000
00000000
00000000
,
00000030
00000000
00000100
00000001
,
00002000
00000000
00000000
00000000
,
00000000
00000000
00000000
00000000
,
00000000
00000000
00000000
00000000
,
00003000
00000000
00000000
00000000
;

//---------------dance-double - D. Bernardone----------------
#NOTES:
     dance-double:
     D. Bernardone:
     Medium:
     4:
     0.242,0.273,0.000,0.244,0.000,190.000,0.000,32.000,0.000,0.000,0.000:
00000000
00000000
00000000
00000000
,
00000000
00000000
20000000
00000000
,
30020000
00000000
00000000
00000000
,
00030000
00000000
00200000
00000000
,
00302000
00000000
00000000
00000000
,
00003000
00000000
00020000
00030200
,
00000320
00000000
00000000
00000000
,
00000031
00000000
00001000
00000000
,
00000100
00000000
00000000
00000100
00000000
00000000
00010000
00000000
,
00001000
00001000
00000000
01000000
,
00010000
00000000
00000000
00100000
00000000
00000000
01000000
00000000
,
10000000
00000000
00000000
00100000
,
01000000
00000000
00000000
00001000
00000000
00000000
00010000
00000000
,
00000100
00001000
00001000
00000010
,
00000100
00000002
00000000
00000003
,
00000000
00000000
00000020
00000000
,
00000130
00001000
00000010
00010000
,
00001000
00100000
02000000
10000000
,
13000000
00010000
01000000
00001000
,
00010000
00000100
00000020
00000001
,
00000031
00000100
00001000
00000100
,
00000010
00010000
00002000
00203000
,
02300000
00000000
00000000
00000000
,
13000000
00000000
00010000
01000000
00000000
00010000
01000000
00000000
,
00100000
10000000
01000000
00010000
,
00001000
00010000
00001000
00000000
,
00000100
00000010
00001000
00000001
,
00000010
00000100
00001000
00000000
,
00000010
00000010
00010000
00001000
,
00100000
00000000
00010000
01000000
,
00100000
00100000
00000000
00000000
,
20000000
00000000
32000000
00000000
,
13000000
00100000
00010000
00001000
,
00010000
00001000
00010000
00000000
,
00000010
00000100
00000001
00001000
,
00000100
00000010
00000100
00000000
,
00010000
00001000
00001000
01000000
,
00100000
00000000
10000000
01000000
,
00010000
00001000
00000000
00000000
,
00020000
00000000
00030020
00000000
,
00000130
00000000
00000000
00000001
00000000
00000000
00001000
00000000
,
00000100
00000000
00000000
00010000
00000000
00000000
00001000
00000000
,
00001000
00000000
00000000
01000000
00000000
00000000
00010000
00000000
,
00010000
00000000
00000000
10000000
,
01000000
00000000
00000000
00100000
00000000
00000000
00001000
00000000
,
00010000
00000000
00000010
00000100
,
00000001
00001000
00000000
00000000
,
00000200
00000000
00000320
00000000
,
00000031
00000000
00000000
00001000
00000000
00000000
00000100
00000000
,
00010000
00001000
00000000
01000000
,
00010000
00000000
00000000
00100000
00000000
01000000
00000000
00000000
,
10000000
10000000
00000000
00100000
,
01000000
00000000
00000000
00001000
00000000
00000000
00010000
00000000
,
00000100
00000000
00000010
00000001
,
00000100
00000020
00000000
00000000
,
00000030
00000000
00001000
00000100
,
00000100
00010000
00001000
00010000
,
00010000
00001000
01000000
00010000
,
00010000
00100000
01000000
01000000
,
10000000
00010000
01000000
00001000
,
00010000
00000100
00000010
00000100
,
00000100
00000000
00000000
00001000
00000000
00000000
00000001
00000000
,
00000200
00000000
00000000
00000000
,
00000310
00001000
00000010
00000000
00020000
00000000
00032000
00000000
,
00203000
00000000
00000000
00000000
,
00300000
00000000
00020000
00000000
,
20030000
00000000
00000000
00000000
,
30000000
00000000
00020000
00000000
,
02030000
00000000
00000000
00000000
,
03000000
00000000
00002000
00023000
,
00030200
00000000
00000000
00000000
,
00000000
00000000
00000300
00000000
;

//---------------dance-double - D. Bernardone----------------
#NOTES:
     dance-double:
     D. Bernardone:
     Hard:
     6:
     0.336,0.460,0.152,0.412,0.000,235.000,20.000,54.000,0.000,0.000,0.000: // measure 1
00000000
00000000
00000000
00000000
,  // measure 2
00000000
00000000
00000002
00000000
,  // measure 3
00000023
00000000
00000000
00000000
,  // measure 4
00000030
00000000
00002000
00000000
,  // measure 5
00023000
00000000
00000000
00000000
,  // measure 6
00030000
00000000
00200000
20300000
,  // measure 7
32000000
00000000
00000000
00000000
,  // measure 8
03100000
00000000
00001000
00000000
,  // measure 9
00010000
00000000
00000000
00000010
00000000
00000000
00000100
00000001
,  // measure 10
00000000
00001100
00000000
00000000
00000000
00000000
00001000
00000010
,  // measure 11
00010000
00000000
00000000
00001000
00000000
00000000
00100000
00000000
,  // measure 12
00020000
00000000
00030000
00000000
00000000
00000000
01000000
00100000
,  // measure 13
10000000
00000000
00000000
11000000
00000000
00000000
02000000
00000000
,  // measure 14
03010000
00000000
00000000
00001000
00010000
00000100
00000000
00000010
,  // measure 15
00000000
00002002
00000000
00000000
00000000
00003003
00000000
00000000
,  // measure 16
00000001
00000010
00000001
00001000
00000200
00000000
00000000
00000000
,  // measure 17
00020300
00001000
00000010
00031000
,  // measure 18
00100000
00010000
00100000
01000000
20000000
00000000
00100000
00000000
,  // measure 19
30010000
01000000
00001000
00010000
00001000
00000000
00010000
00000000
,  // measure 20
00000100
00001000
00000001
00000100
00000020
00000000
00000100
00000000
,  // measure 21
00001030
00000100
00010000
00001000
00100000
00010000
00100000
00000000
,  // measure 22
00010000
01000000
00010000
10000000
02000000
00000000
03200000
00000000
,  // measure 23
00302000
00010000
01000000
00010000
,  // measure 24
00013000
00000000
00000100
00000000
00001000
00000010
00000001
00000010
,  // measure 25
00000100
00000100
00000001
00001000
00000000
00000100
00000000
00010000
,  // measure 26
00000000
00001000
00000000
01000000
00000000
00000000
00000000
00000000
,  // measure 27
00010000
01000000
00100000
10000000
00000000
01000000
00000000
00010000
,  // measure 28
00000000
00001000
00000000
00010000
00000000
00000000
00000000
00000000
,  // measure 29
00000100
00000010
00000001
00000100
00000000
00000010
00000000
00011000
,  // measure 30
00000000
00000000
00000000
00001000
00100000
00010000
00000000
01000000
,  // measure 31
00000000
00200000
00000000
00000000
00300000
00000000
00000000
00000000
,  // measure 32
20000000
00000000
32000000
00000000
,  // measure 33
03010000
01000000
00100000
00001000
00000000
00010000
00000000
00000010
,  // measure 34
00000000
00001000
00000000
00000100
00000000
00000000
00000000
00000000
,  // measure 35
00000010
00000001
00000100
00001000
00000000
00010000
00000000
00001000
,  // measure 36
00000000
00100000
00000000
01000000
00000000
00000000
00000000
00000000
,  // measure 37
10000000
00000000
00100000
01000000
00000000
00010000
00000000
00101000
,  // measure 38
00000000
00000000
00000000
00010000
00000100
00000010
00000000
00000001
,  // measure 39
00000000
00000200
00000000
00000000
00000300
00000000
00000000
00000000
,  // measure 40
00000020
00000000
00020030
00000000
,  // measure 41
00031000
00000000
00000000
00101000
00000000
00000000
01000000
00000000
,  // measure 42
01100000
00000000
00000000
10000000
00000000
00000000
01000000
00010000
,  // measure 43
00001000
00000000
00000000
00010000
00000000
00000000
00000010
00000000
,  // measure 44
00002020
00000000
00003030
00000000
00000000
00000000
00001000
00000001
,  // measure 45
00000010
00000000
00000000
00000110
00000000
00000000
00000100
00000000
,  // measure 46
00010100
00000000
00000000
00010000
00001000
01000000
00000000
00010000
,  // measure 47
00000000
00200000
00000000
00000000
00300000
00000000
00000000
00000000
,  // measure 48
02000000
00000000
23000000
00000000
,  // measure 49
30010000
00000000
00000000
01001000
00000000
00000000
00010000
00000100
,  // measure 50
00000000
00001010
00000000
00000000
00000000
00000000
00001000
00000001
,  // measure 51
00000010
00000000
00000000
00000100
00000000
00010000
00000000
00000000
,  // measure 52
00001000
01000000
00200000
00000000
00300000
00000000
10000000
01000000
,  // measure 53
01000000
00000000
00000000
00100000
00000000
00000000
00001000
00000000
,  // measure 54
00010010
00000000
00000000
00001000
00000001
00000010
00000000
00000100
,  // measure 55
00000000
00020000
00000000
00000000
00030000
00000000
00000000
00000000
,  // measure 56
00001000
00100000
00010000
00100000
02000000
00000000
23000000
00000000
,  // measure 57
30010000
00200000
00302000
00013000
,  // measure 58
00010100
00000000
00000000
00002020
00000000
00000000
00003030
00000000
,  // measure 59
00000100
00000002
00000023
00000130
,  // measure 60
00010100
00020000
00032000
00203000
,  // measure 61
00310000
02000000
03200000
10300000
,  // measure 62
10010000
00000000
00000000
00011000
00000000
00000000
00011000
00000000
,  // measure 63
00000010
00000100
00000010
00010000
00001000
00010000
00000100
00000010
,  // measure 64
00000001
00001000
00000010
00010000
00010200
00000000
00000320
00000000
,  // measure 65
00000032
00000000
00000000
00000000
,  // measure 66
00000003
00000000
00000200
00000000
,  // measure 67
00002300
00000000
00000000
00000000
,  // measure 68
00003000
00000000
00020000
00000000
,  // measure 69
02030000
00000000
00000000
00000000
,  // measure 70
03000000
00000000
20000000
30020000
,  // measure 71
00032000
00000000
00000000
00000000
,  // measure 72
00003000
00000000
00000000
00000000
;

//---------------dance-double - D. Bernardone----------------
#NOTES:
     dance-double:
     D. Bernardone:
     Challenge:
     9:
     0.519,0.518,0.099,0.236,0.232,433.000,13.000,31.000,0.000,0.000,0.000:
00000000
00000000
00000000
00000000
,
00000000
00000000
00200000
00300000
,
02002000
00000000
00000000
00000000
,
03003000
00000000
00000020
00000030
,
00020200
00000000
00000000
00000000
,
00030300
00000000
00000000
00000000
02002000
03003000
00020200
00030300
,
00200020
00000000
00300030
00000000
,
00001000
00000000
00000001
00000000
,
00000100
00000010
00010000
00001000
00000000
00100000
00000000
01000000
,
00010000
00001000
00000100
00000010
00000000
00001000
00000000
00000100
,
00000001
00000100
00010000
01000000
00000000
00100000
00000000
00010000
,
01000000
10000000
01000000
00001000
00000000
00000100
00000000
00000010
,
00010000
00001000
00100000
01000000
00000000
10000000
00000000
00010000
,
00100000
00001000
00000100
00000010
00000000
00010000
00000000
00001000
,
00000100
00000010
00010000
01000000
00000000
00100000
00000000
00010000
,
01000000
00000000
00100000
00000000
10000000
00000000
01000000
00000000
10000000
00010000
10000000
00010000
10000000
00010000
10000000
00010000
,
10000000
00000000
00000000
10000000
01000000
00000000
00000000
00000000
00010000
00000000
00000000
00010000
00001000
00000000
00000000
00000000
,
00000100
00000000
00000000
00000100
00000010
00000000
00000000
00000000
00001000
00000000
00000000
00001000
00000100
00000000
00000000
00000000
,
00000010
00000000
00000000
00000010
00000001
00000000
00000000
00000000
00000100
00000000
00000000
00000100
00001000
00000000
00000000
00000000
,
00010000
00000000
00000000
00010000
00100000
00000000
00000000
00000000
01000000
00000000
00000000
01000000
00010000
00000000
00000000
00000000
,
10000000
00000000
00000000
10000000
00100000
00000000
00000000
00000000
00010000
00000000
00000000
00010000
00001000
00000000
00000000
00000000
,
00000100
00000000
00000000
00000100
00000010
00000000
00000000
00000000
00010000
00000000
00000000
00010000
00000100
00000000
00000000
00000000
,
00000010
00000000
00000000
00000010
00001000
00000000
00000000
00000000
00010000
00000000
00000000
00010000
01000000
00000000
00000000
00000000
,
10000000
00000000
00000000
10000000
00010000
00000000
00000000
00000000
00100000
00000000
00000000
00100000
00001000
00010000
00001000
00010000
,
00000010
00000100
00000001
00000100
00000000
00000001
00000000
00001000
,
00000000
00000000
00000100
00000000
00000000
00000000
00000100
00000000
00000000
00000000
00010000
00001000
00010000
00001000
00010000
00001000
,
00100000
00010000
01000000
00100000
00000000
10000000
00000000
00010000
,
00000000
00000000
01000000
00000000
00000000
00000000
01000000
00000000
00000000
00000000
00010000
00100000
00010000
00000000
01000000
00001000
,
01000000
00010000
00100000
00001000
00000000
00000100
00000000
00001010
,
00000010
00001000
00000001
00000000
00000010
00001000
00010000
00000000
,
00001000
00010000
00100000
00000000
10000000
01000000
10000000
00010000
,
20000000
00000000
00000000
00000000
00000000
00000000
00000000
00000000
32000000
00000000
00000000
00000000
00000000
00000000
03100000
00001000
,
00010000
00000010
00000100
00000001
00001000
00000100
00000010
00001000
,
00010000
00000000
00001000
00000000
00000100
00000000
00000001
00000000
00001000
00000000
00000000
00001000
00000100
00000000
00000100
00010000
,
00001000
00100000
01000000
00010000
00001000
00010000
00100000
01000000
,
00001000
00000000
00010000
00000000
01000000
00000000
10000000
00000000
00010000
00000000
00000000
00010000
01000000
00000000
01000000
00001000
,
00010000
00000100
00000010
00000001
00000100
00000010
00010000
00001000
,
00100000
01000000
00010000
01000000
00100000
00001000
00010000
00000010
,
00000100
00000000
00001000
00000000
00000100
00000000
00000010
00000000
00010000
00000000
00000010
00000000
00000100
00000010
00000100
00000010
,
00010000
00100000
01000000
00001000
00000100
00000010
00010000
00100000
,
10000000
00010000
01000000
00001000
00010000
00010000
00100000
00001000
,
00010000
00000010
00000100
00000001
00000010
00000010
00010000
00001000
,
01000000
00100000
10000000
00010000
00100000
00100000
10000000
00010000
,
01000000
00001000
00010000
00000100
00001000
00001000
01000000
00100000
,
10000000
01000000
00010000
00001000
00010000
00010000
00100000
00001000
,
00010000
00000010
00000100
00000001
00001000
00001000
00100000
00010000
,
10000000
00100000
00010000
00001000
00010000
00010000
01001000
00000000
,
00001000
00000000
00000010
00000000
00000100
00000000
00010000
00000000
01000000
00000000
00100000
00000000
00001000
00000000
00000010
00000001
,
00000100
00000010
00001000
00000100
00001000
00001000
00100000
00010000
,
10000000
01000000
00100000
00010000
01000000
01000000
10000000
00100000
,
00010000
00001000
00010000
00000100
00001000
00001000
00010000
00000010
,
00000100
00000001
00000010
00000100
00001000
00001000
01000000
00100000
,
10000000
00010000
01000000
00010000
00100000
00100000
10000000
01000000
,
00010000
00001000
00000100
00000001
00000010
00000010
00001000
00000100
,
00010000
00001000
00100000
01000000
00100000
00100000
10000000
00010000
,
01000000
00000000
00001000
00000000
00010000
00000000
00000100
00000000
00000020
00000000
00000000
00000000
00000032
00000000
00000103
00000010
,
00001000
00000000
00000000
00001000
00000100
00000000
00000000
00000100
00000010
00000000
00000000
00000010
00001000
00000000
00000000
00001000
,
00010000
00000000
00000000
00010000
00100000
00000000
00000000
00100000
01000000
00000000
00000000
01000000
00001000
00000000
00000000
00001000
,
00010000
00000000
00000000
00010000
00000100
00000000
00000000
00000100
00000010
00000000
00000000
00000010
00000001
00000000
00000000
00000001
,
00000100
00000000
00000000
00000100
00001000
00000000
00000000
00001000
00010000
00000000
00000000
00010000
00001000
00000000
01000000
00000000
,
01001000
00000000
00000000
01000000
00010000
00000000
00000000
00010000
00100000
00000000
00000000
00100000
01000000
00000000
00000000
01000000
,
00010000
00000000
00000000
00010000
00001000
00000000
00000000
00001000
00000010
00000000
00000000
00000010
00000001
00000000
00000000
00000001
,
00001000
00000010
00000100
00001000
00010000
01000000
00100000
01000000
,
10000000
00000000
00010000
01000000
00001000
00000000
00100000
00000000
00002000
00000000
00000000
00000000
00023000
00000000
00031000
00100000
,
00020000
00000000
00000000
00000000
,
00030000
00000000
02000000
03000000
,
00202000
00000000
00000000
00000000
,
00303000
00000000
00000200
00000300
,
00020020
00000000
00000000
00000000
,
00030030
00000000
00000000
00000000
00202000
00303000
00020020
00030030
,
02000200
00000000
00000000
00000000
,
00000000
00000000
03000300
00000000
;
