#TITLE:Sail AwaY;
#SUBTITLE:;
#ARTIST:Draigun;
#TITLETRANSLIT:;
#SUBTITLETRANSLIT:;
#ARTISTTRANSLIT:;
#GENRE:Happy Hardcore;
#CREDIT:Sync by HellRazoR;
#BANNER:Sail AwaY-bn.png;
#BACKGROUND:Sail AwaY-bg.png;
#LYRICSPATH:;
#CDTITLE:;
#MUSIC:Sail AwaY.ogg;
#OFFSET:-0.0692;
#SAMPLESTART:80.920;
#SAMPLELENGTH:12.000;
#SELECTABLE:YES;
#DISPLAYBPM:169.000;
#BPMS:0.000=169.000;
#STOPS:;
#BGCHANGES:0.000=Sail AwaY-bg.png=1.000=0=0=1=====,
20.000=In The Groove Rebirth/411_JB_HD.mpg=1.000=0=0=1=====,
36.000=In The Groove Rebirth/253_JB_HD.mpg=1.000=0=0=1=====,
52.000=In The Groove Rebirth/800_JumpBack.mpg=1.000=0=0=1=====,
68.000=In The Groove Rebirth/902_JumpBack.mpg=1.000=0=0=1=====,
84.000=In The Groove Rebirth/1159_JumpBack.mpg=1.000=0=0=1=====,
100.000=In The Groove Rebirth/503_JB_HD.mpg=1.000=0=0=1=SongBgWithMovieViz====,
116.000=In The Groove Rebirth/406_JB_HD.mpg=1.000=1=0=1=SongBgWithMovieViz==CrossFade==,
132.000=In The Groove Rebirth/411_JB_HD.mpg=1.000=0=0=1=====,
148.000=In The Groove Rebirth/1159_JumpBack.mpg=1.000=0=0=1=====,
164.000=In The Groove Rebirth/800_JumpBack.mpg=1.000=0=0=1===SlideUp==,
180.000=In The Groove Rebirth/320_JB_HD.mpg=1.000=0=0=1=====,
196.000=In The Groove Rebirth/253_JB_HD.mpg=1.000=0=0=1=====,
212.000=In The Groove Rebirth/406_JB_HD.mpg=1.000=0=0=1=====,
228.000=In The Groove Rebirth/1124_JumpBack.mpg=0.400=1=0=1=Kaleidoscope2x2==CrossFade==,
244.000=In The Groove Rebirth/1159_JumpBack.mpg=0.400=0=0=1=Kaleidoscope2x2====,
260.000=In The Groove Rebirth/411_JB_HD.mpg=0.400=0=0=1=Checkerboard2File2x2=Sail AwaY-bg.png===,
276.000=Sail AwaY-bg.png=0.400=0=0=1=Checkerboard2File2x2=In The Groove Rebirth/320_JB_HD.mpg===,
292.000=In The Groove Rebirth/1139_JumpBack.mpg=1.000=0=0=1=====,
308.000=In The Groove Rebirth/253_JB_HD.mpg=1.000=0=0=1=====,
324.000=In The Groove Rebirth/902_JumpBack.mpg=1.000=0=0=1=====,
340.000=In The Groove Rebirth/411_JB_HD.mpg=1.000=0=0=1=====,
356.000=Sail AwaY-bg.png=1.000=1=0=1===CrossFade==,
99999=-nosongbg-=1.000=0=0=0 // don't automatically add -songbackground-
;
#BGCHANGES2:20.000=flash=1.000=0=0=1====0^1^1^1=,
68.000=white flash=1.000=0=0=1=====,
100.000=flash=1.000=0=0=1====0^1^1^1=,
130.000=white flash=1.000=0=0=1=====,
180.000=white flash=1.000=0=0=1=====,
276.000=flash=1.000=0=0=1====0^1^1^1=,
308.000=white flash=1.000=0=0=1=====,
340.000=white flash=1.000=0=0=1=====,
;
#KEYSOUNDS:;

//---------------dance-single - W. Hodge----------------
#NOTES:
     dance-single:
     W. Hodge:
     Challenge:
     12:
     1.000,1.000,0.190,0.324,1.000:
0000
0000
0000
0000
,
0000
0000
0000
0000
,
0000
0000
0000
0000
,
0000
0000
0000
0000
,
0000
0000
0000
0000
0000
0000
0000
1000
,
0011
0000
0100
0000
0M00
0000
0100
0000
0010
0000
0100
0010
0000
0100
0010
0000
,
1000
0000
0010
0000
00M0
0000
0010
0000
1000
0000
0010
1000
0000
0010
1000
0000
,
0001
0000
0100
0000
0M00
0000
0100
0000
0010
0000
0100
0010
0000
0100
0010
0000
,
1000
0000
0001
0000
000M
0000
0001
0000
1000
0000
0001
1000
0001
0010
0100
1000
,
0001
0000
0010
0000
01M0
0000
1000
0000
0001
0000
1000
0001
0000
1000
0001
0000
,
0100
0000
0010
0000
10M0
0000
0100
0000
0010
0000
0100
0010
0000
0100
0010
0000
,
0001
0000
1000
0000
M010
0000
1000
0000
0100
0000
1000
0100
0000
1000
0100
0000
,
0010
0000
0001
0000
010M
0000
0010
0000
1000
0000
0010
1000
0000
0010
1000
0000
,
0110
0000
0001
0000
100M
0000
0010
0000
0100
0000
0010
0100
0000
0010
0100
0000
,
0001
0000
0010
0000
01M0
0000
1000
0000
0001
0000
1000
0001
0000
1000
0001
0000
,
0010
0000
0100
0000
1M00
0000
0010
0000
0100
0000
0010
0100
0000
0010
0100
0000
,
0001
0000
1000
0000
M100
0000
0010
0000
0001
0010
0001
0100
0001
1000
0001
0010
,
0001
1000
0001
0000
0100
0010
0100
0000
0001
0010
0001
1000
0000
1000
0010
0000
,
0100
0001
0100
0000
0010
0100
0010
0000
1000
0010
1000
0001
0000
0001
1000
0000
,
0010
0100
0010
0000
0100
0010
0100
0000
0001
1000
0001
0100
0000
0100
0001
0000
,
0010
0001
0010
0000
0001
0100
0001
0000
0100
0010
0100
0001
0000
0001
0010
0000
,
0100
1000
0100
0000
0010
0100
0010
0000
0001
0100
0001
1000
0000
1000
0001
0000
,
0100
0010
0100
0000
0001
1000
0001
0000
0100
0010
0100
0001
0000
0001
0010
0000
,
0100
1000
0100
0000
0010
0001
0010
0000
0001
1000
0001
0100
0000
0100
0001
0000
,
1000
0100
0010
0001
0100
0010
0100
0001
0010
0100
1000
0010
0100
0010
1000
0100
,
0010
0001
0100
1000
0100
0001
1000
0001
,
0010
0000
1000
0000
0010
0000
0001
0000
0100
0000
1001
0000
0000
1001
0000
0000
,
1001
0100
0010
1000
0100
0001
0100
1000
,
0010
0100
0001
0010
0100
1000
0010
1001
,
0110
1000
0010
0001
0010
1000
0100
0001
,
0100
0000
1000
0000
0010
0000
0100
0000
0010
0000
1001
0000
0000
1001
0000
0000
,
1001
0100
0010
0001
0100
1000
0100
0010
,
1001
0000
0100
0000
0010
0000
0100
0000
1001
0000
0100
0000
0001
0010
0100
1000
,
0001
0010
0001
0010
0001
0010
0001
0010
0100
1000
0010
0100
0001
1000
0010
0100
,
0001
1000
0001
1000
0001
1000
0010
0100
0001
0010
0001
0010
0001
0010
0001
0010
,
0100
1000
0100
1000
0100
1000
0100
1000
0010
0100
0001
0010
0100
1000
0001
0100
,
0010
1000
0010
1000
0010
1000
0001
0010
0100
1000
0010
0100
0001
1000
0100
1000
,
0010
0100
0010
0100
0010
0100
0010
0100
0001
1000
0100
0010
0001
0010
0100
1000
,
0001
0100
0001
0100
0001
0100
0010
1000
0100
0010
0100
0010
0100
0010
0100
0010
,
0001
1000
0001
1000
0001
1000
0001
1000
0010
0100
0001
1000
0100
0010
0001
1000
,
0010
0100
0001
1000
0100
1000
0010
0100
0001
0010
0001
0100
0010
1000
0100
0010
,
0001
1000
0001
1000
0001
1000
0001
1000
0010
0100
0001
0010
0100
1000
0010
0100
,
0001
1000
0001
1000
0001
1000
0010
0100
0001
0010
0001
0010
0001
0010
0001
0010
,
0100
1000
0100
1000
0100
1000
0100
1000
0010
0100
0001
0010
0100
1000
0001
0100
,
0010
1000
0010
1000
0010
1000
0100
0010
0001
1000
0010
0100
0001
1000
0010
1000
,
0001
0100
0001
0100
0001
0100
0001
0100
0010
1000
0100
0010
0001
0010
0100
1000
,
0001
0010
0001
0010
0001
0010
0100
1000
0010
0100
0010
0100
0010
0100
0010
0100
,
0001
1000
0001
1000
0001
1000
0001
1000
0010
0100
0001
1000
0100
0010
0001
1000
,
0010
0100
0001
1000
0100
1000
0010
0100
0001
0010
0001
0100
0010
1000
0100
0010
,
0001
0000
1000
0000
M100
0000
0010
0000
0001
0000
0100
0010
0000
0100
0001
1000
,
0010
0000
1000
0000
M100
0000
0010
0000
0001
0000
0100
0010
0000
0100
0001
0010
,
0100
0000
1000
0000
M010
0000
1000
0000
0100
0000
0010
0001
0000
0100
0010
1000
,
0001
0000
1000
0000
M010
0000
1000
0000
0001
0000
1000
0010
0000
1000
0100
0010
,
0001
0000
0100
0000
0M10
0000
0100
0000
0001
0000
0010
0100
0000
1000
0010
1000
,
0100
0000
0010
0000
00M1
0000
0100
0000
0010
0000
0100
0001
0000
1000
0010
1000
,
0100
0000
0010
0000
00M1
0000
0100
0000
0010
0000
1000
0001
0000
1000
0100
1000
,
0001
0010
0100
1000
0010
1000
0001
0100
0010
0100
0001
0010
0100
0010
0001
1000
,
0020
0000
0000
0000
2030
00M0
3200
M320
,
0M00
0000
0000
0031
00M1
0010
010M
10M0
,
M120
0M00
0000
0000
0230
00M0
0302
0203
,
000M
0000
0000
0000
0000
0300
0M01
0010
0001
0000
0010
0001
0000
0010
0001
0000
,
0200
000M
0000
0000
0320
0M00
2030
32M0
,
M000
0000
0000
0310
0M10
0001
0100
0010
,
2M01
00MM
0000
0000
3002
M000
0203
032M
,
0M00
0000
0000
0000
0000
0000
1030
0100
0010
0000
M010
0100
1000
0000
0010
0000
,
M201
000M
0000
0000
0302
0M00
2003
320M
,
M010
00M0
0000
1300
1M00
0100
M010
0M01
,
0210
00M0
0000
0000
0302
0M00
0023
023M
,
10M0
0000
M000
0000
0000
0000
1300
0010
1M00
0000
0010
1000
0000
0010
1000
0000
,
01M2
0000
0M00
0000
0000
0000
0000
0000
0023
0000
000M
0000
0230
0000
23M0
3000
,
0210
M0M0
0000
0310
0M10
0100
0001
0010
,
120M
0000
M0M0
0000
0000
0000
0000
0300
0M12
0000
00M0
0000
0203
0000
M320
0000
,
1030
0100
0010
0001
0100
0010
1000
0001
0010
0100
1000
0010
0100
0001
1000
0001
,
0100
0000
0001
0000
001M
0000
0100
0000
1000
0000
0010
0100
0000
0010
1000
0001
,
0100
0000
0001
0000
001M
0000
0100
0000
1000
0000
0010
0100
0000
0010
1000
0100
,
0010
0000
0001
0000
010M
0000
0001
0000
0010
0000
0100
1000
0000
0010
0100
0001
,
1000
0000
0001
0000
010M
0000
0001
0000
1000
0000
0001
0100
0000
0001
0010
0100
,
1000
0000
0010
0000
01M0
0000
0010
0000
1000
0000
0100
0010
0000
0001
0100
0001
,
0010
0000
0100
0000
1M00
0000
0010
0000
0100
0000
0010
1000
0000
0001
0100
0001
,
0010
0000
0100
0000
1M00
0000
0010
0000
0100
0000
0001
1000
0000
0001
0010
0001
,
1000
0100
0010
0001
0100
0001
1000
0010
0100
0010
1000
0100
0010
0100
1000
0001
,
1000
0100
1000
0100
1000
0100
1000
0100
0010
0001
0100
0010
1000
0001
0100
0010
,
1000
0001
1000
0001
1000
0001
0100
0010
1000
0100
1000
0100
1000
0100
1000
0100
,
0010
0001
0010
0001
0010
0001
0010
0001
0100
0010
1000
0100
0010
0001
1000
0010
,
0100
0001
0100
0001
0100
0001
1000
0100
0010
0001
0100
0010
1000
0001
0010
0001
,
0100
0010
0100
0010
0100
0010
0100
0010
1000
0001
0010
0100
1000
0100
0010
0001
,
1000
0010
1000
0010
1000
0010
0100
0001
0010
0100
0010
0100
0010
0100
0010
0100
,
1000
0001
1000
0001
1000
0001
1000
0001
0100
0010
1000
0001
0010
0100
1000
0001
,
0100
0010
1000
0001
0010
0001
0100
0010
1000
0100
1000
0010
0100
0001
0010
0100
,
200M
00M0
0M00
000M
00M0
0M00
000M
00M0
,
0M00
000M
3000
MMMM
0000
0000
0000
0000
;

//---------------dance-single - D. Bernardone----------------
#NOTES:
     dance-single:
     D. Bernardone:
     Hard:
     9:
     0.864,0.910,0.181,0.276,0.333:
0000
0000
0000
0000
,
0000
0000
0000
0000
,
0000
0000
0000
0000
,
0000
0000
0000
0000
,
0000
0000
0000
0000
0000
0000
0000
0100
,
1001
0000
0000
0000
,
0000
0000
0000
0000
,
0000
0000
0000
0000
,
0000
0000
0000
0000
0000
0000
0000
0000
0000
0000
0000
0000
1000
0001
1000
0001
,
0010
0001
0100
1000
,
0100
0000
0010
0000
1000
0000
0100
0010
,
0001
0100
0010
0001
,
0010
0000
0100
0000
0001
0000
0010
0010
,
1100
0001
0010
0100
,
0010
0000
0001
0000
1000
0000
0010
0100
,
0001
0010
1000
0010
,
0100
0000
0000
0000
0010
0000
0000
0000
0001
0000
0000
0000
1000
0010
1000
0010
,
0100
0001
0010
0000
0010
0001
0100
0010
,
0100
0001
1000
0000
1000
0010
0100
0001
,
0100
0010
1000
0000
1000
0010
0100
0001
,
0010
0001
1000
0000
1000
0001
0100
0010
,
0101
0000
1000
0100
0010
0100
1000
0001
,
0100
0000
0010
1000
0100
1000
0001
0100
,
1000
0000
0100
0010
0100
0001
0010
0001
,
1000
0000
0010
0001
0010
0100
0010
0010
,
1000
0100
1000
0000
0001
0100
0001
0100
,
0010
1000
0100
0010
0100
1000
0001
1000
,
0010
0000
0100
0001
1000
0001
0100
0010
,
1000
0000
0100
0001
0100
0010
0100
1000
,
1000
0001
1000
0000
0001
0010
0001
0010
,
0100
1000
0010
0001
0010
0001
0010
0100
,
0001
0000
0001
0010
1000
0010
0001
1000
,
0001
0000
0000
0000
1000
0000
0010
0000
0100
0000
0000
0000
0100
0001
0100
0001
,
1000
0100
0001
0100
0010
0100
1000
0100
,
0010
0000
0001
0100
1000
0100
0010
1000
,
0100
0000
0010
0001
0100
0001
0010
0100
,
1000
0000
0010
0001
0010
0000
0100
0001
,
0001
0000
1000
0100
0010
0001
0010
1000
,
0010
0000
0001
0100
1000
0000
0100
0010
,
1000
0000
0100
0001
0100
1000
0010
0100
,
0101
0000
0000
0000
0001
0000
0010
0000
1100
0000
0000
0000
0001
1000
0001
1000
,
0010
0000
0100
0000
0001
0000
0010
0000
0001
1000
0001
0000
1000
0001
1000
0000
,
0010
0000
0100
0000
0001
0000
0010
0001
0010
0000
0100
0000
1000
0000
0010
0000
,
0200
0000
1300
0100
0001
0010
0100
0001
,
0200
0000
0310
0001
0100
0000
0010
1000
,
1000
0000
0010
0000
0100
0000
0001
0000
0010
0100
0010
0000
0100
0010
0100
0000
,
1000
0000
0001
0000
0100
0000
0010
1000
0001
0000
0010
0000
0100
0000
0010
0000
,
0002
0000
0103
0010
0100
0001
0010
0100
,
2000
0000
0000
0000
3001
0000
1000
0000
1100
0000
0000
0000
0001
0100
0001
0100
,
0010
0000
1000
0000
0100
0000
0000
0000
1000
0000
0001
0100
0000
0001
0100
0000
,
0010
0000
1000
0000
0001
0000
0000
0000
0010
0000
0100
1000
0000
1000
0001
0000
,
0100
0000
0010
0000
1000
0000
0000
0000
0100
0000
1000
0100
0000
1000
0100
0000
,
0010
0000
0001
0000
0100
0000
0001
0000
0010
0000
0100
1000
0001
0000
1000
0000
,
1001
0000
0000
0000
0001
0000
0010
0000
0100
0000
1000
0001
0000
1000
0001
0000
,
0100
0000
0010
0000
1000
0000
0100
0000
0010
0000
0001
0100
0000
0100
0010
0000
,
1000
0000
0100
0000
0010
0000
0001
0000
0100
0000
0001
0010
0000
0001
0010
0000
,
0100
0000
1000
0000
0010
0000
0100
0000
0001
0000
0010
0000
0001
1000
0001
0100
,
0002
0000
0000
0000
0020
0003
0230
0002
,
0000
0000
0300
0103
1000
1000
0010
0100
,
0201
0000
0000
0000
0020
0300
2030
0200
,
0000
0000
0000
0000
3000
0000
1300
0001
1000
0000
0001
0100
0000
0100
0001
0000
,
2001
0000
0000
0000
0200
3000
0320
2000
,
0000
0000
0030
3010
0001
0001
0100
0010
,
0120
0000
0000
0000
1000
0000
0001
0200
,
0000
0000
0000
0000
0030
0000
0310
1000
0010
0000
0100
0001
0100
0000
0001
0000
,
2001
0000
0000
0000
0010
0000
3100
1000
,
1002
0000
0000
0010
0013
0100
1000
0001
,
1002
0000
0000
0000
0100
0000
0013
0001
,
1002
0000
0000
0000
0000
0003
1000
0010
1000
0000
0100
1000
0000
1000
0100
0000
,
0120
0000
0000
0000
1000
0000
0031
0100
,
0120
0000
0000
1000
1030
0001
0010
0100
,
0220
0000
0330
0000
1002
0000
0103
0010
,
0120
0000
0000
0000
1030
0000
0100
0010
0001
0000
0010
0100
1000
0000
0001
0000
,
0100
0000
0010
0000
1000
0000
0100
0000
0010
0000
0100
1000
0000
0100
0010
0000
,
0001
0000
0100
0000
0001
0000
0010
0000
0100
0000
0010
0001
0000
0001
0100
0000
,
0010
0000
1000
0000
0100
0000
0010
0000
0100
0000
1000
0001
0000
1000
0001
0000
,
0100
0000
0010
0000
1000
0000
0100
0000
0010
0000
0001
0100
0001
0000
1000
0000
,
1000
0000
0010
0000
0100
0000
0001
0000
0010
0000
0001
1000
0000
1000
0001
0000
,
0010
0000
0100
0000
0010
0000
0001
0000
1000
0000
0100
1000
0000
1000
0010
0000
,
0100
0000
0001
0000
1000
0000
0001
0000
0100
0000
0010
1000
0000
1000
0001
0000
,
0010
0000
0100
0000
0010
0000
0001
0000
1000
0000
0010
0100
0010
0000
1000
0000
,
0001
0000
0100
0000
1000
0000
0100
0000
0001
1000
0001
0000
1000
0001
1000
0000
,
0100
0010
0001
0000
0100
0000
0010
0000
0001
0000
0010
0000
1000
0000
0100
0000
,
0100
0000
0010
0000
0001
0000
0100
0000
0001
1000
0001
0000
0100
0001
0100
0000
,
0010
1000
0100
0001
0100
1000
0010
0100
,
0100
0000
0001
0000
0010
0000
0100
0000
0010
0001
0010
0000
0100
0010
0100
0000
,
1000
0001
0010
0000
0001
0000
1000
0000
0100
1000
0100
0000
0010
0001
0010
0000
,
0100
0000
0010
0000
0001
0000
1000
0000
0001
0100
0001
0000
1000
0100
1000
0000
,
0010
0100
0001
0000
1000
0000
0010
0000
0001
0000
0010
0000
1000
0001
1000
0010
,
0200
0000
0000
0000
,
0000
0000
0000
0000
,
0300
0000
0000
0000
;

//---------------dance-single - W. Hodge----------------
#NOTES:
     dance-single:
     W. Hodge:
     Medium:
     7:
     0.619,0.602,0.000,0.419,0.010:
0000
0000
0000
0000
,
0000
0000
0000
0000
,
0000
0000
0000
0000
,
0000
0000
0000
0000
,
0000
0000
0000
0000
,
0001
0010
0000
0000
0100
0000
1000
0000
,
0010
0100
0000
0000
0001
0000
1000
0000
,
0100
1000
0000
0000
0010
0000
1000
0000
,
0001
0010
0000
0000
0100
0000
1000
0001
,
1000
0001
1000
0000
0100
0000
0010
0000
,
0001
0100
0001
0000
0010
0000
0100
0000
,
1000
0100
1000
0000
0010
0000
0100
0000
,
0001
1000
0001
0000
1000
0000
0001
0000
,
0100
0001
0100
0000
0010
0000
1000
0000
,
0001
0100
0001
0000
0100
0000
0010
0000
,
1000
0100
1000
0000
0100
0000
0010
0000
,
0100
0010
0100
0000
0010
0000
0001
0010
,
0001
0100
0001
0000
1000
0000
0100
0000
,
0010
0001
0010
0000
0001
0000
0100
0000
,
0010
0100
0010
0000
1000
0000
0001
0000
,
1000
0001
1000
0000
0001
0000
0100
0000
,
0001
0100
0001
0000
0010
0000
0100
0000
,
1000
0100
1000
0000
0010
0000
0100
0000
,
0001
1000
0001
0000
0100
0000
0001
0000
,
0010
0001
0010
0000
0001
1000
0001
1000
,
0001
0000
1000
0000
0001
0000
0100
0001
,
0100
0000
0000
0000
0001
0000
0000
0000
1000
0000
0100
0000
0000
1000
0000
0000
,
0100
0000
1000
0000
0010
0000
0100
0001
,
0100
0000
0001
0000
0010
0000
0100
1000
,
0100
0000
0010
0000
0001
0000
1000
0001
,
1000
0000
0000
0000
0010
0000
0000
0000
0100
0000
0001
0000
0000
0100
0000
0000
,
0001
0000
1000
0000
0100
0000
0010
0001
,
0010
0100
1000
0001
,
0100
0001
0100
0000
0001
0000
1000
0000
,
0100
1000
0100
0000
1000
0010
1000
0000
,
0010
0100
0010
0000
0100
0000
0001
0000
,
0010
0001
0010
0000
0100
0010
0100
0000
,
1000
0100
1000
0000
0010
0000
1000
0000
,
0001
1000
0001
0000
1000
0100
1000
0000
,
0100
0010
0100
0000
0010
0000
0001
0000
,
0100
0001
0100
0000
0001
1000
0001
1000
,
0001
0100
0001
0000
0010
0000
0100
0000
,
1000
0010
1000
0000
0010
0100
0010
0000
,
0100
0001
0100
0000
0001
0000
0010
0000
,
0100
0010
0100
0000
0010
0001
0010
0000
,
0001
1000
0001
0000
0100
0000
0010
0000
,
1000
0001
1000
0000
0010
0100
0010
0000
,
1000
0010
1000
0000
0001
0000
0100
0000
,
0010
1000
0010
0000
0100
0001
0100
0001
,
1000
0010
1000
0000
0100
0000
0010
0000
,
0001
0100
0001
0000
0010
0000
0100
0000
,
1000
0100
1000
0000
0010
0000
0100
0000
,
0001
1000
0001
0000
1000
0000
0001
0000
,
0100
0001
0100
0000
0010
0000
1000
0000
,
0001
0100
0001
0000
0100
0000
0010
0000
,
1000
0100
1000
0000
0100
0000
0010
0000
,
0100
0010
0100
0000
0010
0000
0001
0010
,
0002
0000
0023
0230
,
2300
0000
3002
0000
,
2003
0000
3020
0230
,
0302
0000
0023
0000
,
0230
0000
2300
3020
,
0230
0000
0302
0000
,
2003
0000
3200
2300
,
3020
0000
0230
0000
,
0302
0000
0023
0230
,
2300
0000
3020
0000
,
0230
0000
0302
2003
,
3002
0000
0023
0230
,
2300
0000
3020
0230
,
0302
0000
2003
3200
,
0320
0000
0230
2300
,
3002
0000
0203
0320
,
1030
0001
1000
0000
0100
0000
0010
0000
,
0001
0100
0001
0000
0010
0000
0100
0000
,
1000
0100
1000
0000
0010
0000
0100
0000
,
0001
1000
0001
0000
1000
0000
0001
0000
,
0100
0001
0100
0000
0010
0000
1000
0000
,
0001
0100
0001
0000
0100
0000
0010
0000
,
1000
0100
1000
0000
0100
0000
0010
0000
,
0100
0010
0100
0000
0010
0000
0001
0010
,
0001
0000
0010
0000
0100
1000
0100
1000
,
0010
0100
0010
0100
0001
0010
0001
0010
,
0001
0000
0100
0000
0010
1000
0010
1000
,
0001
0010
0001
0010
0100
1000
0100
1000
,
0100
0000
0010
0000
0001
0100
0001
0100
,
0010
1000
0010
1000
0100
0010
0100
0010
,
0100
0000
0010
0000
0001
1000
0001
1000
,
0010
0100
0010
0100
0001
0010
0001
0010
,
0002
0000
0000
0000
,
0000
0003
0000
0000
;

//---------------dance-single - W. Hodge----------------
#NOTES:
     dance-single:
     W. Hodge:
     Easy:
     4:
     0.347,0.344,0.000,0.276,0.000:
0000
0000
0000
0000
,
0000
0000
0000
0000
,
0000
0000
0000
0000
,
0000
0000
0000
0000
,
0000
0000
0000
0000
,
0001
0000
0010
0000
,
0100
0000
1000
0001
,
1000
0000
0010
0000
,
0100
0000
0010
0100
,
0001
0000
0100
0000
,
1000
0000
0010
0100
,
0010
0000
0100
0000
,
0001
0000
1000
0001
,
1000
0000
0001
0000
,
0010
0000
0100
1000
,
0100
0000
0010
0000
,
0001
0000
0100
0001
,
0100
0010
1000
0001
,
1000
0000
0001
0000
,
1000
0100
1000
0001
,
0100
0000
0001
0000
,
1000
0001
0010
0100
,
1000
0000
0001
0000
,
1000
0100
0010
0001
,
0100
0000
0010
1000
,
0001
0000
0000
1000
,
0001
0000
0000
1000
,
0100
0000
0010
0000
,
0001
0000
0000
0100
,
0001
0000
0010
0000
,
0100
0000
0000
1000
,
0001
0000
1000
0000
,
0010
0000
0100
0001
,
1000
0001
0010
0100
,
0010
0001
1000
0010
,
0100
0010
1000
0100
,
0010
0001
0010
0100
,
1000
0001
0100
0001
,
0010
0100
1000
0010
,
0100
0010
1000
0001
,
0100
0010
0100
0001
,
1000
0000
0001
1000
,
0100
0000
0010
0000
,
0001
0000
0100
0001
,
1000
0000
0001
0000
,
1000
0000
0010
0100
,
0001
0000
1000
0000
,
0100
0000
1000
0100
,
0010
0000
0001
0100
,
0001
0000
1000
0000
,
0001
0000
0100
0001
,
0100
0000
0001
0000
,
0010
0000
0100
1000
,
0100
0000
1000
0000
,
0010
0000
0100
0001
,
0100
0000
0010
0000
,
1000
0000
0100
0010
,
0200
0000
0000
0000
0000
0000
0000
2300
,
0000
0000
3002
0203
,
0320
0000
0000
0000
0000
0000
0000
2030
,
0000
0000
0000
3000
0002
0000
0000
0000
,
0203
0000
0000
0000
0000
0000
0000
0320
,
0000
0000
0000
0030
2000
0000
0000
3000
,
0002
0000
0000
0000
0000
0000
0003
0200
,
0000
0000
0320
2030
,
3200
0000
0000
0000
0000
0000
0000
0320
,
0000
0000
0000
0000
,
0032
0000
0000
0000
0000
0000
0000
0203
,
0000
0000
0320
2030
,
3200
0000
0000
0000
0000
0000
0000
2300
,
0000
0000
3020
0230
,
0302
0000
0000
0000
0000
0000
0000
2003
,
0000
0000
3002
2003
,
3001
0000
1000
0000
,
0001
0000
0100
0001
,
0010
0000
0100
0000
,
1000
0000
0010
0100
,
0001
0000
1000
0000
,
0001
0000
1000
0100
,
1000
0000
0100
0000
,
0010
0000
0001
0100
,
0001
1000
0100
0010
,
0100
1000
0001
0100
,
0010
0100
0001
0010
,
0100
1000
0100
0010
,
0001
1000
0010
1000
,
0100
0010
0001
0100
,
0010
0100
0001
1000
,
0010
0100
0010
1000
,
0002
0000
0000
0000
,
0000
0003
0000
0000
;

//---------------dance-single - W. Hodge----------------
#NOTES:
     dance-single:
     W. Hodge:
     Beginner:
     1:
     0.110,0.127,0.000,0.000,0.000:
0000
0000
0000
0000
,
0000
0000
0000
0000
,
0000
0000
0000
0000
,
0000
0000
0000
0000
,
0000
0000
0000
0000
,
0001
0000
0000
0000
,
0000
0000
0000
0000
,
1000
0000
0000
0000
,
0000
0000
0000
0000
,
0001
0000
0000
0000
,
0100
0000
0000
0000
,
0001
0000
0000
0000
,
0000
0000
0000
0000
,
0001
0000
0000
0000
,
0100
0000
0000
0000
,
0001
0000
0000
0000
,
0000
0000
0000
0000
,
0100
0000
0000
0000
,
0001
0000
0000
0000
,
0100
0000
0000
0000
,
0000
0000
0000
0000
,
0001
0000
0000
0000
,
0000
0000
0000
0000
,
0100
0000
0000
0000
,
0001
0000
1000
0000
,
0001
0000
0000
0000
,
0000
0000
0000
0000
,
0100
0000
0000
0000
,
0000
0000
0000
0000
,
0001
0000
0000
0000
,
0000
0000
0000
0000
,
0100
0000
0000
0000
,
0000
0000
0000
0000
,
0001
0000
0000
0000
,
1000
0000
0010
0000
,
1000
0000
0000
0000
,
0001
0000
1000
0000
,
0001
0000
0000
0000
,
0100
0000
0001
0000
,
0100
0000
0000
0000
,
0010
0000
1000
0000
,
0010
0000
0000
0000
,
1000
0000
0000
0000
,
0000
0000
0000
0000
,
0001
0000
0000
0000
,
0000
0000
0000
0000
,
1000
0000
0000
0000
,
0000
0000
0000
0000
,
1000
0000
0000
0000
,
0001
0000
0000
0000
,
0100
0000
0000
0000
,
0001
0000
0000
0000
,
0010
0000
0000
0000
,
0100
0000
0000
0000
,
1000
0000
0000
0000
,
0100
0000
0000
0000
,
0010
0000
0000
0000
,
0001
0000
0000
0000
,
0000
0000
0000
0000
,
1000
0000
0000
0000
,
0000
0000
0000
0000
,
0010
0000
0000
0000
,
0000
0000
0000
0000
,
0100
0000
0000
0000
,
0000
0000
0000
0000
,
0001
0000
0000
0000
,
1000
0000
0000
0000
,
0010
0000
0000
0000
,
0100
0000
0000
0000
,
0001
0000
0000
0000
,
1000
0000
0000
0000
,
0100
0000
0000
0000
,
0010
0000
0000
0000
,
0001
0000
0010
0000
,
0001
0000
0000
0000
,
0100
0000
0001
0000
,
0100
0000
0000
0000
,
0010
0000
0100
0000
,
0010
0000
0000
0000
,
1000
0000
0001
0000
,
1000
0000
0000
0000
,
0001
0000
0100
0000
,
0001
0000
0000
0000
,
1000
0000
0001
0000
,
1000
0000
0000
0000
,
0001
0000
0100
0000
,
0001
0000
0000
0000
,
0010
0000
0100
0000
,
0010
0000
0000
0000
,
0001
0000
0000
0000
;

//---------------dance-double - M. Simmons----------------
#NOTES:
     dance-double:
     M. Simmons:
     Challenge:
     12:
     1.000,1.000,0.352,0.229,0.762:
00000000
00000000
00000000
00000000
,
00000000
00000000
00000000
00000000
,
00000000
00000000
00000000
00000000
,
00000000
00000000
00000000
00000000
,
00000000
00000000
00000000
00000000
,
00001000
00000000
00010000
00000000
00000000
00000000
00001000
00000000
00010000
00000000
00000100
00000010
00000000
00000001
00000010
00000000
,
00000100
00000000
00010000
00000000
00000000
00000000
00010000
00000000
00001000
00000000
00100000
01000000
00000000
10000000
01000000
00000000
,
00100000
00000000
00001000
00000000
00000000
00000000
00001000
00000000
00010000
00000000
00000100
00001000
00000000
00000010
00001000
00000000
,
00000100
00000000
00010000
00000000
00000000
00000000
00010000
00000000
00001000
00000000
00100000
00010000
00000000
01000000
00010000
00000000
,
00100000
00000000
00001000
00000000
00010000
00000000
00000100
00000000
00001000
00000000
00000010
00000100
00000000
00000001
00000100
00000000
,
00000010
00000000
00000010
00000000
00001000
00000000
00000100
00000000
00010000
00000000
00001000
01000000
00000000
00100000
01000000
00000000
,
00010000
00000000
00010000
00000000
10000000
00000000
01000000
00000000
00100000
00000000
01000000
10000000
00000000
01000000
00010000
00000000
,
01000000
00000000
01000000
00000000
10000000
00000000
00100000
00000000
00010000
00000000
00001000
00000100
00000000
00000010
00000001
00000000
,
00000010
00000000
00000010
00000000
00001000
00000000
00000100
00000000
00010000
00000000
00000100
00001000
00000000
01000000
00010000
00000000
,
00000100
00000000
00000100
00000000
00010000
00000000
00001000
00000000
00100000
00000000
00001000
00000010
00000000
00001000
00100000
00000000
,
00010000
00000000
00010000
00000000
01000000
00000000
00100000
00000000
00010000
00000000
00001000
00000010
00000000
00001000
00100000
00000000
,
00001000
00000000
00001000
00000000
00010000
00000000
00000100
00000000
00000010
00000001
00000100
00000010
00000100
00000001
00001000
00000100
,
00000010
00000000
00000001
00000000
00000011
00000000
00001000
00000000
00001000
00000000
00000100
00010000
00000000
00001000
01000000
00000000
,
00100000
00000000
00100000
00000000
10000000
00000000
01000000
00000000
01000000
00000000
00100000
00001000
00000000
00010000
00000010
00000000
,
00000100
00000000
00000100
00000000
00000001
00000000
00001000
00000000
00001000
00000000
00000100
00010000
00000000
00001000
00000010
00000000
,
00000001
00000000
00000001
00000000
00001000
00000000
00000100
00000000
00000100
00000000
00010000
00001000
00000000
01000000
10000000
00000000
,
01000000
00000000
01000000
00000000
00010000
00000000
10000000
00000000
10000000
00000000
01000000
00010000
00000000
00001000
00000100
00000000
,
00000010
00000000
00000010
00000000
00010000
00000000
00001000
00000000
00001000
00000000
01000000
00010000
00000000
00100000
00001000
00000000
,
00010000
00000000
00010000
00000000
00000100
00000000
00001000
00000000
00001000
00000000
00000010
00010000
00000000
00001000
01000000
00000000
,
00001000
00010000
00000100
00001000
00000010
00010000
00001000
00100000
00010000
01000000
00100000
10000000
01000000
00100000
00010000
01000000
,
00200000
00000000
02000000
00000000
,
10010000
00000000
03300000
00000000
01100000
00000000
00000000
00000000
11000000
00000000
01000000
00000000
00000000
00001000
00000000
00000000
,
00000020
00000000
00002000
00000000
,
00010100
00003030
00000000
00000000
00010000
00000100
00000010
00001000
,
00020000
00000000
00002000
00000000
,
01100000
00000000
00033000
00000000
00011000
00000000
00000000
00000000
00010100
00000000
00001000
00000000
00000000
00000010
00000000
00000000
,
00020000
00000000
00002000
00000000
,
10100000
00000000
00000000
00000000
00033000
00000000
00000000
00000000
00000000
MMMM0000
00000000
00000000
00000000
00000000
00000000
00000000
10100000
00000000
00000000
00000000
00000000
00000000
00000000
00000000
10000000
00000000
01000000
00000000
00010000
00000000
01000000
00000000
,
00100000
00010000
00100000
00000000
00001000
00100000
00001000
00000000
00010000
00000100
00010000
00000000
00001000
00000100
00001000
00000000
,
00010000
00001000
00010000
00000000
00000100
00001000
00000100
00000000
00000010
00000100
00000010
00000000
00000001
00001000
00000001
00001000
,
00000001
00000100
00000001
00000000
00001000
00000010
00001000
00000000
00000100
00010000
00000100
00000000
00010000
00001000
00010000
00000000
,
01000000
00010000
01000000
00000000
10000000
01000000
10000000
00000000
00100000
10000000
00100000
00000000
01000000
00100000
01000000
00100000
,
01000000
00010000
01000000
00000000
00010000
00100000
00010000
00000000
00100000
00001000
00100000
00000000
00001000
00010000
00001000
00000000
,
00000100
00001000
00000100
00000000
00000010
00000100
00000010
00000000
00001000
00000001
00001000
00000000
00000100
00001000
00000100
00001000
,
00000100
00000010
00000100
00000000
00000010
00000100
00000010
00000000
00000100
00010000
00000100
00000000
00010000
00001000
00010000
00000000
,
00001000
01000000
00001000
00010000
00001000
00000100
00000010
00001000
00000001
00000010
00000100
00010000
00001000
01000000
00100000
10000000
,
00010000
10000000
10010000
01000000
00001000
00010000
00010100
00001000
,
00000010
00000000
00000100
00000000
00000011
00000000
00000100
00001000
00000010
00000000
00001000
00000000
00011000
00000000
00000000
00000000
,
01000000
10000000
10010000
01000000
00001000
00010000
00001100
00000001
,
00001000
00000000
00000010
00000000
00010010
00000000
00001000
00000000
01000000
00010000
00100000
00000000
01000000
10000000
00100000
00000000
,
10100000
10000000
00010000
00100000
00001000
00010000
00000100
00000010
,
00000001
00000000
00000100
00000000
00000010
00000000
00001000
00000100
00000010
00000000
00000001
00000000
00000011
00000000
00000000
00000000
,
00010000
01000000
00100000
10000000
00100000
00010000
00100000
00000010
,
00000110
00000001
00001000
00000100
00001100
00000000
00011000
00000000
,
00110000
00000000
00000000
00010000
01000000
00000000
00100000
00000000
01100000
00000000
00000000
01000000
00010000
00000000
00100000
00000000
,
00101000
00000000
00000000
00001000
00010000
00000000
00001000
00010000
00000100
00000000
00000100
00000010
00000000
00000010
00000001
00000000
,
00000101
00000000
00000000
00000001
00001000
00000000
00000100
00000000
00011000
00000000
00000000
00010000
01000000
00000000
10000000
00000000
,
10100000
00000000
00000000
10000000
00010000
00000000
00100000
00000000
00010000
00000000
00100000
00010000
00100000
00000000
00010000
00100000
,
00010000
00000000
00000000
00100000
00001000
00000000
00010000
00000000
00000100
00000000
00000000
00000010
00000001
00000000
00000100
00000000
,
00000010
00000000
00001000
00000000
00000200
00000000
00010300
00001000
00010000
00000000
00001000
00100000
00000000
00010000
01000000
00000000
,
00200000
00000000
00300000
00000000
10000000
00000000
00100000
00000000
01000000
00000000
00010000
00100000
00000000
01000000
00100000
00000000
,
00100000
00010000
01000000
00001000
00010000
00000100
00000010
00000001
00000100
00000010
00001000
00000100
00001000
00000010
00010000
00002000
,
02000000
00MM0000
00000000
00000000
00010000
00000000
00100000
00100000
,
00000000
03003000
00000000
00001000
00010000
00001000
00000100
00000020
,
00002000
000M0000
00000M00
00000000
00010000
00000000
00000001
00000001
,
00000000
00000000
00003030
00000000
00000000
00000000
00000010
00001000
00000010
00000000
00000100
00000001
00000000
00001000
00000100
00000000
,
00020200
00M00000
0000M000
00000000
00100000
00000000
00001000
00001000
,
00000000
00030300
00000000
00010000
00000100
00000001
00000100
00020000
,
00000020
M0000000
0000M000
00000000
00100000
00000000
00001000
00001000
,
00000000
00000000
00030030
00000000
00000000
00000000
00010000
00001000
00100000
00000000
00100000
00001000
00010000
00000000
00001000
01000000
,
00020000
00000000
00000000
00000000
00100000
00000000
01000000
01000000
,
00000000
00000000
00000000
10000000
01000000
00100000
01000000
10030000
,
00000200
00000000
00000000
00000000
00010000
00000000
00000010
00000010
,
00000000
00000000
00000300
00000000
00000000
00000000
00000100
00010000
00001000
00000000
00100000
00001000
00000000
00001000
00010000
00000000
,
00020000
00000000
00000000
00000000
00000100
00000000
00000010
00000010
,
00000000
00000000
00000000
00001000
00000100
00000010
00001000
00030001
,
00200000
00000000
00000000
00000000
00302000
00000000
00010000
00013000
,
00011000
00010100
00001010
00000101
,
00000001
00000010
00001000
00010000
00100000
10000000
01000000
00010000
,
01000000
00100000
00010000
01000000
00100000
10000000
00010000
10000000
,
00100000
00010000
00001000
00000010
00000001
00000100
00000010
00001000
,
00000001
00000010
00001000
00000010
00000100
00001000
00000010
00000001
,
00000010
00001000
00000100
00010000
01000000
10000000
00100000
00010000
,
00100000
01000000
00001000
00010000
00000100
00000010
00000001
00000100
,
00000010
00010000
00001000
00100000
01000000
10000000
00100000
01000000
,
00010000
10000000
01000000
10000000
00100000
01000000
00010000
00100000
00001000
00010000
00000100
00001000
00000010
00000100
00000001
00000010
,
00000100
00000000
00000100
00000000
00001100
00000000
00000010
00001000
00000100
00000000
00001000
00000000
00001100
00000000
00010000
00001000
,
00010000
00000000
00001000
00000000
01010000
00000000
01000000
00100000
01000000
00000000
00010000
00000000
10000000
00000000
01000000
00000000
,
01100000
00000000
10000000
00000000
00010000
00000000
01000000
00000000
00100000
01000000
00010000
00100000
00001000
00000100
00000010
00001000
,
00000100
00000000
00000010
00000000
00000001
00000000
00001000
00000000
00000100
00000010
00000001
00001000
00000010
00000100
00000001
00010000
,
00001000
00010000
00000100
00000010
00000001
00000100
00000010
00010000
,
00000100
00000000
00010000
00000000
00001000
00000000
01000000
00010000
01000000
00000000
00010000
00000000
10000000
00000000
01000000
00000000
,
00100000
10000000
00100000
00001000
00000100
00000010
00001000
00000100
,
00010000
00001000
00100000
00001000
00010000
00001000
01000000
00001000
00010000
00000100
00001000
00000010
00000100
00000001
00001000
00000100
,
00000002
00000000
00000000
00000000
00000000
00000000
MM000MM0
00000000
00000000
MM000MM0
00000000
00000000
00000000
00000000
00000000
00000000
,
00M0M000
00M0M000
000M0000
M00000M0
MM000MM0
0MM0MM00
00MMM000
000M0003
;

//---------------dance-double - M. Simmons----------------
#NOTES:
     dance-double:
     M. Simmons:
     Hard:
     9:
     0.833,0.736,0.124,0.219,0.081:
00000000
00000000
00000000
00000000
,
00000000
00000000
00000000
00000000
,
00000000
00000000
00000000
00000000
,
00000000
00000000
00000000
00000000
,
00000000
00000000
00000000
00000000
,
10000000
00000000
00000000
01000000
00100000
00010000
00001000
00000100
,
00000010
00000001
00000000
00000010
00000100
00001000
00010000
00100000
,
01000000
10000000
00000000
01000000
00100000
00010000
01000000
00100000
,
10000000
01000000
00000000
00010000
00001000
00000100
00000010
00001000
,
00000001
00000010
00000000
00000100
00010000
00001000
00100000
00010000
,
01000000
00100000
00000000
01000000
00010000
10000000
01000000
10000000
,
00100000
00010000
00000000
00001000
00000010
00000100
00001000
00000100
,
00000010
00000100
00000000
00000100
00001000
00000001
00010000
00001000
,
00000100
00000010
00000000
00010000
00001000
00100000
00010000
01000000
,
00100000
00010000
00000000
00100000
10000000
01000000
00010000
00001000
,
00000100
00000010
00000000
00001000
00000100
00010000
00000010
00000100
,
00001000
00000000
00000100
00000000
00000000
00000000
00000010
00000000
00010000
00000000
00001000
00000000
00010000
00001000
00010000
00001000
,
00010000
00001000
00000000
00001000
00100000
01000000
10000000
00010000
,
01000000
00200000
00000000
01300000
00100000
01000000
00001000
00000100
,
00000010
00002000
00000000
00003100
00001000
00000001
00000100
00000010
,
00010000
00002000
00000000
00013000
00001000
00010000
00000010
00000100
,
00000110
00020000
00000000
00031000
00010000
01000000
10000000
00100000
,
01000000
00020000
00000000
00130000
00010000
01000000
00001000
00010000
,
00000100
00002000
00000000
00003100
00001000
00000010
00000100
00000001
,
00000010
00002000
00000000
00013000
00001000
00000010
00000100
00010000
,
00001000
00000000
00100000
00000000
01000000
00000000
10000000
00100000
,
01000000
00000000
00000000
00000000
00001000
00000000
00000000
00000000
00010000
00000000
00000100
00000000
00000000
00000100
00000000
00000000
,
00000100
00000000
00010000
00000000
00000010
00000000
00000100
00000001
,
00001000
00000000
00000100
00000000
00010000
00000000
01000000
11000000
,
10100000
00000000
01000000
00000000
00001000
00000000
00010000
00000100
,
00001000
00000000
00000000
00000000
00000010
00000000
00000000
00000000
00000100
00000000
00000010
00000000
00000000
00000010
00000000
00000000
,
00000010
00000000
00010000
00000000
00001000
00000000
01000000
00010000
,
00100000
00000000
00000000
00000000
01000000
00000000
00000000
00000000
10000000
00000000
01000000
00000000
10000000
01000000
10000000
01000000
,
10000000
00000000
00010000
00000000
00000000
00010000
01000000
00000000
00010000
00000000
00100000
00000000
01000000
00000000
01000000
00000000
,
10000000
00000000
00010000
00000000
00000000
00000000
00100000
00001000
00010000
00000000
00000000
00000000
00010000
00000000
00000010
00000000
,
00000100
00000000
00000010
00000000
00000000
00001000
00000001
00000000
00001000
00000000
00000100
00000000
00010000
00000000
00001000
00000000
,
01000000
00000000
00010000
00000000
00000000
00100000
00001000
00000000
00000100
00000000
00000010
00000000
00001000
00000000
00000001
00000000
,
00000010
00000000
00001000
00000000
00000000
00010000
00100000
00000000
01000000
00000000
00010000
00000000
10000000
00000000
01000000
00000000
,
10000000
00000000
00100000
00000000
00000000
00000000
01000000
00010000
00100000
00000000
00000000
00000000
00001000
00000000
00010000
00000000
,
00000010
00000000
00000100
00000000
00000000
00000001
00000010
00000000
00000100
00000000
00010000
00000000
00001000
00000000
00100000
00000000
,
00001000
00000000
00010000
00000000
00001000
00000000
00100000
00000000
00010000
00000000
01000000
00000000
00010000
10000000
00010000
10000000
,
00010000
00000000
10010000
00000000
10000000
01000000
00100000
00000000
,
00001100
00000000
00000011
00000000
00000001
00000100
00001000
00000000
,
01010000
00000000
10100000
00000000
10000000
00100000
00010000
00000000
,
00001010
00000000
00000011
00000000
00000001
00001000
00000100
00000010
,
00001000
00010000
00001000
01000000
00100000
00000000
01000000
00001000
,
00010000
00000100
00000010
00000100
00010000
00001000
00001000
00001000
,
00010000
00000100
00001000
00000010
00000100
00000000
00000001
00010000
,
00000100
00010000
00001000
00010000
00001000
00100000
00010000
01000000
,
00100000
10000000
01000000
00010000
00002000
00000000
00013000
00000100
,
00000010
00000001
00000100
00000010
00020000
00000000
00031000
00100000
,
00010000
01000000
00100000
10000000
00020000
00000000
00130000
00001000
,
00010000
00000100
00000010
00000001
00000200
00000010
00000010
00000310
,
00000010
00001000
00000100
00010000
00002000
00000000
00103000
00010000
,
01000000
00100000
10000000
00010000
00200000
00000000
00301000
00000100
,
00000010
00001000
00000010
00000001
00000020
00000000
00010030
00000100
,
00000100
00000000
00010000
00000000
00000100
00000000
00001000
00000000
00001000
00000000
00000100
00000000
00001000
00000010
00001000
00000010
,
00002000
00000000
00000010
00000000
00003010
00000000
00001000
00000200
,
00010000
00000000
00010000
00010000
00010300
00000100
00010000
00000100
,
00020000
00000000
00001000
00000000
00031000
00000000
00100000
02000000
,
00100000
03100000
11000000
00110000
,
02001000
00000000
00001000
00000000
03001000
00000000
00010000
00000020
,
00000001
00000000
00000001
00000031
00000001
00000010
00010000
00000100
,
00020000
00000000
00001000
00000000
00031000
00000000
01000000
00200000
,
10000000
00000000
10000000
00000000
10300000
01000000
10000000
00010000
,
01000000
00001000
00000000
00010000
00000100
00001000
00000010
00000100
,
00001000
00010000
00000000
00010000
00001000
01000000
00010000
00100000
,
01000000
00100000
00000000
00100000
01000000
00100000
00001000
00000100
,
00001000
00010000
00000000
00000100
00000010
00001000
00000010
00000001
,
00000100
00000010
00000000
00010000
00000100
00001000
00000100
00000010
,
00001000
00010000
00000000
00010000
00000100
00001000
00000100
00010000
,
00001000
00010000
00000000
00001000
00010000
01000000
00100000
00010000
,
10000000
01000000
00100000
00010000
00001000
00000100
00000010
00000001
,
00000010
00000100
00010000
00001000
00100000
00100000
00010000
01000000
,
00100000
10000000
00010000
01000000
00100000
01000000
00100000
01000000
,
00100000
10000000
01000000
00100000
00010000
01000000
00001000
00010000
,
00001000
00100000
00001000
00010000
00000100
00000010
00000100
00000010
,
00000100
00001000
00000001
00000100
00000010
00001000
00000001
00000010
,
00001000
00010000
00100000
01000000
00100000
01000000
00100000
01000000
,
00100000
10000000
00010000
00100000
00001000
00000100
00000010
00001000
,
00000001
00001000
00000100
00010000
00001000
01000000
00100000
01000000
,
00010000
10000000
00000000
00001000
00010000
00000100
00001000
00000010
,
00000400
00000000
00000000
00000301
00000001
00001000
00000100
00010000
,
00004000
00000000
00000000
00013000
00001000
00001000
00100000
01000000
,
00040000
00000000
00000000
00031000
00001000
00000100
00000001
00001000
,
00000400
00000000
00000000
00001300
00000100
00010000
01000000
00100000
,
00400000
00000000
00000000
00301000
00001000
00000100
00000010
00001000
,
00000004
00000000
00000000
00001003
00000001
00000001
00001000
00000010
,
00000100
00000010
00010000
00000100
00000010
00001000
00000010
00000001
,
00000200
00000000
00000000
00000000
,
00000000
00000000
00000000
00000000
00000000
00000000
00000000
00000300
;

//---------------dance-double - D. Bernardone----------------
#NOTES:
     dance-double:
     D. Bernardone:
     Easy:
     4:
     0.433,0.471,0.276,0.162,0.000:
00000000
00000000
00000000
00000000
,
00000000
00000000
00000000
00000000
,
00000000
00000000
00000000
00000000
,
00000000
00000000
00000000
00000000
,
00000000
00000000
00000000
00000000
,
10010000
00000000
00000000
00000000
,
01000000
00000000
00000000
00001000
,
00010000
00000000
00000000
00000000
,
00000100
00000000
00000000
00000000
,
00001001
00000000
00000001
00000010
,
00000100
00000000
00001000
00000010
,
00010000
00000000
00001000
00010000
,
00001000
00000000
01000000
00010000
,
10010000
00000000
10000000
01000000
,
00100000
00000000
01000000
10000000
,
00010000
00000000
00100000
00001000
,
00010000
00000000
00001000
00010000
,
00011000
00000000
00001000
00001000
,
00010000
00000000
00000010
00000010
,
00000100
00000000
00000001
00000001
,
00001000
00000000
00000100
00000100
,
00000110
00000000
00000001
00000001
,
00000100
00000000
00001000
00001000
,
00010000
00000000
01000000
01000000
,
10000000
00000000
00100000
00100000
,
01100000
00000000
10000000
00000000
,
10000000
00000000
00010000
00010000
,
10010000
00000000
01000000
00001000
,
00010000
00000000
00001000
00010000
,
00011000
00000000
00010000
00000000
,
00010000
00000000
00000100
00000100
,
00000110
00000000
00000001
00001000
,
00001001
00000000
00000110
00000110
,
00001001
00001000
00000001
00000010
,
00000100
00001000
00000010
00000110
,
00000110
00000100
00000001
00001000
,
00000100
00010000
00001000
00010000
,
00011000
00001000
00100000
00010000
,
10000000
00100000
01000000
01100000
,
01100000
00010000
01000000
00010000
,
10010000
10000000
10010000
01000000
,
10000000
00100000
01000000
00001000
,
00010000
00001000
00010000
00000010
,
00001000
00000100
00010000
00000010
,
00000100
00000001
00000010
00000100
,
00000110
00001000
00000010
00010000
,
00001000
00100000
00010000
01000000
,
00100000
10000000
01000000
10000000
,
10010000
00100000
01100000
01000000
,
10010000
10000000
00010000
00100000
,
00001000
00010000
00000100
00001000
,
00000010
00000100
00000001
00001000
,
00000100
00000010
00000100
00010000
,
00011000
00001000
00100000
00010000
,
01000000
00010000
00100000
01000000
,
10000000
00010000
10000000
00100000
,
01100000
10000000
01100000
00010000
,
20010000
00000000
01000000
00000000
,
31000000
00000000
00100000
00100000
,
00020000
00000000
01000000
00000000
,
01030000
00000000
00001000
00001000
,
00200000
00000000
00010000
00000000
,
00310000
00000000
01000000
01000000
,
00002000
00000000
00010000
00000000
,
00013000
00000000
00000100
00000100
,
00002000
00000000
00000010
00000000
,
00003010
00000000
00000100
00000100
,
00000002
00000000
00000010
00000000
,
00000013
00000000
00000001
00000001
,
00000200
00000000
00000010
00000000
,
00000310
00000000
00001000
00001000
,
00000200
00000000
00010000
00000000
,
00010300
00000000
00001000
00001000
,
00011000
00010000
00001000
00100000
,
00020000
00000000
01000000
01000000
,
10030000
01000000
00100000
01000000
,
20000000
00000000
00010000
00010000
,
31000000
00100000
00010000
01000000
,
00002000
00000000
00100000
00100000
,
00013000
00000100
00001000
00000010
,
00000200
00000000
00000001
00000001
,
00000310
00001000
00000100
00010000
,
00002000
00100000
01000000
01000000
,
00103000
00010000
01000000
00100000
,
20000000
00010000
01000000
01000000
,
30010000
00100000
01000000
00100000
,
00002000
00010000
01000000
01000000
,
00013000
00000010
00000100
00000001
,
00002000
00000010
00000100
00000100
,
00003020
00000000
00000000
00000000
,
00000030
00000000
00000000
00000000
;

//---------------dance-double - D. Bernardone----------------
#NOTES:
     dance-double:
     D. Bernardone:
     Medium:
     8:
     0.694,0.690,0.133,0.219,0.048:
00000000
00000000
00000000
00000000
,
00000000
00000000
00000000
00000000
,
00000000
00000000
00000000
00000000
,
00000000
00000000
00000000
00000000
,
00000000
00000000
00000000
00000000
00000000
00000000
00000000
10000000
,
00010000
00000000
00000000
01000000
00001000
00000000
00010000
00000000
,
00001000
00000000
00000000
00010000
00000100
00000000
00001000
00000000
,
00000100
00000000
00000000
00001000
00000001
00000000
00000100
00000000
,
00000001
00000000
00000000
00000010
00000100
00000000
00001000
00000100
,
00010000
00000000
00000000
00001000
00010000
00000000
00001000
00000000
,
00010000
00001000
00000000
00001000
01000000
00000000
00010000
00000000
,
01000000
00100000
00000000
00100000
10000000
00000000
00010000
01000000
,
00010000
00100000
00000000
00100000
00001000
00000000
00010000
00001000
,
00010000
00000100
00000000
00000100
00001000
00000000
00000010
00000100
,
00000010
00001000
00000000
00001000
00000001
00000000
00000100
00000010
,
00000100
00000001
00000000
00000001
00001000
00000000
00000100
00010000
,
00000100
00001000
00000000
00001000
00000010
00000000
00010000
00000100
,
00010000
00001000
01000000
00000000
00010000
00000000
00100000
00000000
,
01000000
10000000
00010000
00000000
01000000
00000000
00001000
00000000
,
00010000
00000100
00001000
00000000
00000010
00000000
00000001
00000000
,
00000010
00001000
00000100
00000000
00000001
00000000
00000100
00000000
,
00001000
00000010
00010000
00000000
00001000
00000000
00100000
00000000
,
00010000
01000000
00100000
00000000
10000000
00000000
01000000
00000000
,
00100000
00010000
10000000
00000000
01000000
00000000
00010000
00000000
,
01000000
00100000
00010000
00000000
01000000
00000000
00001000
00000000
,
00010000
00000100
00001000
00000000
00001000
00000001
00001000
00000001
,
00000010
00000000
00000100
00000000
00000010
00000000
00000000
00000000
00000100
00000000
00010000
00000000
00000000
00001000
00000000
00000000
,
00010000
00000000
00001000
01000000
00001000
01000000
00001000
01000000
,
00010000
00000000
00100000
00000000
01000000
10000000
01000000
10000000
,
00010000
01000000
00010000
00000000
00100000
00001000
00010000
00001000
,
00010000
00000000
00000100
00000000
00001000
00000000
00000000
00000000
00000010
00000000
00000100
00000000
00000000
00000001
00000000
00000000
,
00001000
00000000
00000100
00010000
00000100
00010000
00000100
00010000
,
00001000
00010000
00001000
00000000
01000000
00000000
00010000
00100000
,
01000000
10000000
01000000
10000000
01000000
10000000
01000000
10000000
,
01000000
00010000
01000000
00010000
01000000
00010000
01000000
00010000
,
00001000
00010000
00001000
00010000
00001000
00010000
00001000
00010000
,
00001000
00000100
00001000
00000100
00001000
00000100
00001000
00000100
,
00000001
00000100
00000001
00000100
00000001
00000100
00000001
00000100
,
00000001
00000010
00000001
00000010
00000001
00000010
00000001
00000010
,
00001000
00000010
00001000
00000010
00001000
00000010
00001000
00000010
,
00001000
00010000
00001000
00010000
00001000
00010000
00001000
00010000
,
00100000
00010000
00100000
00010000
00100000
10000000
00100000
10000000
,
01000000
10000000
01000000
10000000
00010000
10000000
00010000
10000000
,
00010000
01000000
00010000
01000000
00001000
01000000
00001000
01000000
,
00001000
00100000
00010000
00100000
00010000
00100000
00010000
00100000
,
00001000
00100000
00001000
00100000
00001000
00010000
00001000
00010000
,
00001000
00010000
00000100
00010000
00000100
00001000
00000010
00001000
,
00000010
00001000
00000100
00001000
00000100
00001000
00000001
00001000
,
00000001
00000010
00000001
00000010
00000100
00000010
00000100
00000010
,
00000002
00000000
00000000
00000000
00000100
00000000
00000000
00000000
00001003
00000000
00000000
00001000
00000000
00000000
00000010
00000000
,
00020000
00000000
00000000
00000000
00000100
00000000
00000000
00000000
00031000
00000000
00000000
00001000
00000000
00000000
00100000
00000000
,
00020000
00000000
00000000
00000000
01000000
00000000
00000000
00000000
10030000
00000000
00000000
10000000
00000000
00000000
00100000
00000000
,
02000000
00000000
00000000
00000000
00010000
00000000
00000000
00000000
03100000
00000000
00000000
00100000
00000000
00000000
00100000
00000000
,
20000000
00000000
00000000
00000000
01000000
00000000
00000000
00000000
30010000
00000000
00000000
00010000
00000000
00000000
00010000
00000000
,
00200000
00000000
00000000
00000000
00010000
00000000
00000000
00000000
00301000
00000000
00000000
00001000
00000000
00000000
00001000
00000000
,
00020000
00000000
00000000
00000000
00000100
00000000
00000000
00000000
00030010
00000000
00000000
00000010
00000000
00000000
00000010
00000000
,
00002000
00000000
00000000
00000000
00000001
00000000
00000000
00000000
00003100
00000000
00000000
00000100
00000000
00000000
00000010
00000000
,
00000002
00000000
00000000
00000000
00000103
00000000
00000100
00000010
,
00000000
00000000
00000000
00001000
00000100
00000100
00010000
00001000
,
00012000
00000000
00000000
00000000
01003000
00000000
01000000
00100000
,
00000000
00000000
00000000
00200000
10300000
02000000
03100000
00010000
,
20010000
00000000
00000000
00000000
30010000
00000000
00010000
01000000
,
00000000
00000000
00000000
01000000
00010000
00010000
00100000
00001000
,
00021000
00000000
00000000
00000000
00030100
00000000
00000100
00001000
,
00000000
00000000
00000000
00002000
00003001
00000200
00000310
00001000
,
00002001
00000000
00003001
00001000
,
00012000
00000000
00013000
10000000
,
20010000
00000000
30100000
01000000
,
02100000
00000000
03001000
00010000
,
00021000
00000000
00030100
00000010
,
00000120
00000000
00000031
00000100
,
00000101
00000000
00011000
00000000
,
10100000
00000000
01100000
00000000
10010000
00000000
00010000
00100000
,
01000000
10000000
01000000
00010000
,
00001000
00000000
00010000
00000100
00001000
00000100
00001000
00000100
,
00001000
00000001
00000010
00001000
,
00010000
00000000
00001000
01000000
00010000
00100000
00010000
01000000
,
00010000
00100000
01000000
10000000
,
00010000
00000000
01000000
00001000
00010000
00001000
00010000
00001000
,
00010000
00000100
00001000
00000010
,
00000100
00000000
00000001
00000010
00000001
00000100
00000001
00000010
,
00000001
00001000
00000100
00010000
,
00001000
00000000
00100000
00010000
01000000
10000000
01000000
00010000
,
00100000
01000000
00010000
00001000
,
00000100
00000000
00000001
00001000
00000100
00000001
00000100
00001000
,
00000001
00000010
00000100
00010000
,
00001000
00000000
01000000
00010000
00100000
10000000
00100000
00010000
,
01000000
00100000
00010000
00001000
,
00000010
00000000
00000001
00001000
00000010
00000001
00000010
00001000
,
M0000002
0M000000
00M00000
000M0000
,
0000M000
00000M00
000000M3
00000000
;
