#TITLE:Safety Net;
#SUBTITLE:;
#ARTIST:Oscillator X;
#TITLETRANSLIT:;
#SUBTITLETRANSLIT:;
#ARTISTTRANSLIT:;
#GENRE:Happy Hardcore;
#CREDIT:Sync by HellRazoR;
#BANNER:Safety Net-bn.png;
#BACKGROUND:Safety Net-bg.png;
#LYRICSPATH:;
#CDTITLE:;
#MUSIC:Safety Net.ogg;
#OFFSET:0.650;
#SAMPLESTART:41.620;
#SAMPLELENGTH:13.800;
#SELECTABLE:YES;
#DISPLAYBPM:142.000;
#BPMS:0.000=142.000;
#STOPS:;
#BGCHANGES:0.000=Safety Net-bg.png=1.000=0=0=1=====,
16.000=In The Groove Rebirth/170_JB_HD.mpg=1.000=0=0=1===SlideLeft==,
32.500=In The Groove Rebirth/252_JB_HD.mpg=1.000=0=0=1===SlideRight==,
48.500=In The Groove Rebirth/519_JB_HD.mpg=1.000=0=0=1===SlideUp==,
64.500=In The Groove Rebirth/900_JumpBack.mpg=1.000=0=0=1===SlideDown==,
80.500=In The Groove Rebirth/218_JB_HD.mpg=1.000=0=0=1=====,
96.000=Safety Net-bg.png=1.000=1=0=1===CrossFade==,
100.000=In The Groove Rebirth/243_JB_HD.mpg=1.000=0=0=1=====,
116.500=In The Groove Rebirth/272_JB_HD.mpg=1.000=0=0=1=====,
132.000=In The Groove Rebirth/1159_JumpBack.mpg=1.000=0=0=1=SongBgWithMovieViz====,
148.000=In The Groove Rebirth/252_JB_HD.mpg=1.000=1=0=1=SongBgWithMovieViz==CrossFade==,
164.000=Safety Net-bg.png=1.000=0=0=1=====,
168.500=In The Groove Rebirth/218_JB_HD.mpg=1.000=0=0=1===SlideLeft==,
184.500=In The Groove Rebirth/170_JB_HD.mpg=1.000=0=0=1===SlideRight==,
200.000=In The Groove Rebirth/272_JB_HD.mpg=0.400=0=0=1=Checkerboard1File2x2====,
216.000=In The Groove Rebirth/519_JB_HD.mpg=0.600=0=0=1=Checkerboard1File2x2==SlideDown==,
232.000=In The Groove Rebirth/900_JumpBack.mpg=0.600=0=0=1=Checkerboard2x2=Safety Net-bg.png===,
248.000=Safety Net-bg.png=0.400=0=0=1=Checkerboard2x2=In The Groove Rebirth/252_JB_HD.mpg=FadeDown==,
264.000=Safety Net-bg.png=1.000=0=0=1=====,
99999=-nosongbg-=1.000=0=0=0 // don't automatically add -songbackground-
;
#BGCHANGES2:100.000=white flash=1.000=0=0=1=====,
132.000=white flash=1.000=0=0=1=====,
164.000=white flash=1.000=0=0=1=====,
232.000=white flash=1.000=0=0=1=====,
264.000=flash=1.000=0=0=1====0^0^1^1=,
;
#KEYSOUNDS:;

//---------------dance-single - R. Uchima----------------
#NOTES:
     dance-single:
     R. Uchima:
     Challenge:
     9:
     0.632,0.000,0.533,0.353,0.297:
0000
0000
0000
0000
,
0000
0000
0000
0000
,
0000
0000
0000
0000
,
4000
0004
0000
0000
0000
0000
0000
0000
0000
0000
0000
0000
0000
0000
0000
0000
0000
0000
0000
0000
0000
0000
0000
0000
0000
0000
0000
0000
3003
0000
0000
0000
,
0110
0010
1000
1010
0000
0011
0000
0101
,
0000
1100
0000
1010
0000
0011
0000
0101
,
0000
1200
0000
0000
0010
0010
0000
0320
,
0000
0000
0001
0000
0031
0000
002M
0000
0000
0000
1000
0000
1030
0000
1000
0010
,
1000
0010
0001
0101
0000
0011
0000
1010
,
0000
1100
0000
0101
0000
0021
0000
2000
,
0000
3030
0000
M0M0
0001
0100
0000
0020
,
0000
0100
0100
1000
1000
0100
0100
0001
,
0031
0010
1000
1001
0000
0110
0000
1001
,
0000
0110
0000
1100
0000
0011
0000
1100
,
0000
0021
0000
0000
0100
0100
0000
0230
,
0000
0000
1000
0000
1300
0000
M200
0000
0000
0000
0001
0000
0301
0000
0001
0100
,
0001
0100
1000
1010
0000
0110
0000
0101
,
0000
1001
0000
1010
0000
1200
0000
0002
,
0000
0303
0000
0M0M
1000
0010
0100
0200
,
0000
0010
0010
0001
0001
0010
0010
1000
,
1300
0100
0001
0010
1000
0010
0001
0100
,
M0MM
0100
0010
1000
0100
0001
0100
1000
,
0MMM
1000
0010
0001
0010
0100
0001
0010
,
MM0M
0010
1000
0010
0001
0000
1100
0000
,
1000
0001
1000
0001
0010
0100
0010
0100
1000
0001
1000
0001
0100
0010
0100
0010
,
1000
0000
0000
0000
1000
0000
0001
0000
0000
0000
0010
0000
0000
0001
0000
0000
,
0011
0000
0000
0110
0000
0000
1100
0000
1001
0000
0000
1010
0000
0000
0101
0000
,
0100
0000
0001
0000
0100
0000
0010
0100
0010
0000
1000
0000
0100
0000
0010
0000
,
0001
0000
1000
0000
0010
0000
0100
0010
0100
0000
0001
0000
0010
0000
0100
0000
,
1000
0000
0000
0000
0001
0000
0010
0000
0000
0000
0100
0000
0000
1000
0000
0000
,
1100
0000
0000
0110
0000
0000
0011
0000
1001
0000
0000
0101
0000
0000
1010
0000
,
0010
0000
1000
0000
0100
0000
1000
0001
1000
0000
0001
0000
0100
0000
0010
0000
,
0400
0040
0000
0000
0000
0000
0000
0000
0000
0000
0000
0000
0000
0000
0000
0000
0000
0000
0000
0000
0000
0000
0000
0000
0000
0000
0000
0000
0330
0000
0000
0000
,
1000
0100
0010
0000
0001
0000
0100
0010
1000
0100
1000
0000
0001
0000
0100
0000
,
0001
0010
0100
0000
1000
0000
0010
0100
0001
0010
0001
0000
1000
0000
0010
0000
,
0100
0001
0010
0000
0001
0000
0100
0001
0100
0010
0100
0000
0010
0000
1000
0000
,
0010
1000
0100
0000
1000
0000
0010
1000
0010
0100
0010
0000
0100
0000
0001
0000
,
0010
0100
1000
0000
0010
0000
0100
0001
0010
0001
0100
0000
0101
0000
1010
0000
,
0010
0100
0001
0000
0100
0000
0010
1000
0100
1000
0010
0000
1010
0000
0101
0000
,
0100
0001
0010
0000
0100
0000
1000
0100
1000
0010
1000
0000
1010
0000
1100
0000
,
0100
1000
0010
0000
0100
0000
0001
0010
0001
0100
0001
0000
0101
0000
0011
0000
,
0001
0010
0100
1000
0001
0010
0100
1000
0010
0100
0001
1000
0010
0100
0001
1000
,
0001
0000
1000
1010
0000
0110
0000
0202
,
0000
0000
M0M0
0010
M0M0
0000
M0M0
1000
,
M3M3
0000
0001
0101
0000
0110
0000
2002
,
0000
0000
0MM0
0100
0MM0
0000
0MM0
0010
,
3MM3
0000
0001
0011
0000
2200
0000
0010
,
00MM
0001
00MM
0010
00MM
0001
00MM
0010
,
33MM
0000
1000
1010
0000
0202
M0M0
1000
,
M040
0000
M000
0000
M000
0000
M000
0333
,
0200
0000
0000
0000
0000
0000
2000
0300
0M00
0000
0000
0000
0200
3000
M000
0000
,
0020
0300
0M00
0000
1000
0000
0000
0000
0100
0000
0000
0000
0001
0000
0000
0000
,
0002
0030
00M0
0000
0000
0000
0020
0003
000M
0000
0000
0000
2000
0030
00M0
0000
,
0200
3000
M000
0000
0001
0000
0000
0000
0020
0300
0M00
0000
1000
0000
0000
0000
,
0002
0030
00M0
0000
0000
0000
0200
0003
000M
0000
0000
0000
0020
0300
0M00
0000
,
2000
0030
02M0
3000
M000
0000
0020
0300
0M00
0000
0000
0000
0002
0030
00M0
0000
,
0200
0003
000M
0000
0000
0000
2000
0300
0M00
0000
0000
0000
0200
3000
M000
0000
,
0002
0300
0M00
0000
1000
0000
0000
0000
0020
0003
000M
0000
1000
0000
0000
0030
,
0011
0000
0001
0000
0100
0000
0010
0100
0010
0000
0100
0000
0010
0000
1000
0100
,
1000
0000
0001
0000
0010
0000
0100
0010
0100
0000
0010
0000
0001
0000
1000
0001
,
1000
0000
0010
0000
0100
0000
0001
0010
0100
0000
0010
0000
0100
0000
1000
0010
,
0100
0000
0001
0000
1000
0000
0100
0010
0001
0000
0100
0000
0001
0010
0100
1000
,
0010
0000
0100
0000
0010
0000
0010
1000
0001
0000
1000
0000
0100
0000
0100
1000
,
0001
0000
1000
0000
0100
0000
0100
0010
0100
0000
0010
0000
0001
0000
0001
0010
,
0100
0000
0010
0000
0100
0000
0100
1000
0100
0000
1000
0000
0010
0000
0010
0100
,
0004
0400
0000
0000
0000
0000
0000
0000
0000
0000
0000
0000
0000
0000
0000
0000
0000
0000
0000
0000
0000
0000
0000
0000
0000
0000
0000
0000
0303
0000
0000
0000
,
1010
0000
0000
0000
;

//---------------dance-single - M. Simmons----------------
#NOTES:
     dance-single:
     M. Simmons:
     Hard:
     7:
     0.565,0.000,0.284,0.422,0.052:
0000
0000
0000
0000
,
0000
0000
0000
0000
,
0000
0000
0000
0000
,
0000
0000
0000
0000
,
0000
0000
0000
0000
0001
0000
0020
0000
0000
0000
0200
0000
0000
0030
2000
0000
,
0000
0300
0002
0000
0000
3000
0200
0000
0000
0003
0020
0000
0000
0300
0200
0000
,
0000
0030
0002
0000
0000
0000
0300
0000
1003
0000
0100
0000
0001
0000
2000
0000
,
0000
0000
3010
0000
0010
0000
0000
0000
0001
0000
1000
0000
0010
0000
0100
0010
,
0100
0000
0000
0000
0010
0000
2000
0000
0000
0000
0200
0000
0000
3000
2000
0000
,
0000
0300
0020
0000
0000
3000
0002
0000
0000
0030
0020
0000
0000
0003
0000
0000
,
0100
0030
0000
0000
0100
0000
0000
0000
0001
0000
1000
0000
0100
0000
1000
0000
,
0000
0000
0010
0000
0010
0000
0100
0000
0001
0000
0001
0000
1000
0000
0100
0010
,
0100
0000
0000
0000
0010
0000
0200
0000
0000
0000
2000
0000
0000
0300
0020
0000
,
0000
3000
0002
0000
0000
0030
0020
0000
0000
0003
0200
0000
0000
0030
0002
0000
,
0000
0300
2000
0000
0000
0003
0000
0000
0001
3000
0010
0000
1000
0000
0010
0000
,
0000
0000
1000
0000
0001
0000
0000
0000
0100
0000
0100
0000
1000
0000
0010
0001
,
0010
0000
1000
0100
0000
0011
0000
1100
,
0000
1010
0000
0101
0000
2001
0010
0010
,
0000
0010
3010
0000
0100
1000
0001
0010
,
0000
0000
0001
0000
1000
0000
0000
0000
0100
0000
0001
0000
0010
0000
0001
1000
,
0001
0010
0010
0100
1000
1000
0001
1001
,
0000
0001
0001
0100
0010
0010
0100
0110
,
0000
0010
0010
1000
0100
0100
0010
0011
,
0000
0100
1000
0100
0010
0000
1001
0000
,
4004
0000
0000
3003
,
0001
0010
0100
0010
0001
1000
0010
0100
,
0001
0100
0010
0001
0010
1000
0100
0001
,
1000
0010
0001
0010
0100
0001
0100
1000
,
0010
0100
0010
0100
0001
0000
1000
1100
,
0000
0100
0010
0001
1000
0010
0001
0010
,
0100
0001
0100
0010
1000
0100
0001
1000
,
0010
0001
0010
0100
1000
0001
0100
0010
,
0001
0010
1000
0100
1000
0010
0010
0000
,
0110
0000
0000
0000
1001
0000
0000
0000
0001
0010
0001
0000
0010
0000
0010
0000
,
0110
0000
0000
0000
1001
0000
0000
0000
1000
0010
1000
0000
0100
0000
0100
0000
,
1100
0000
0000
0000
0011
0000
0000
0000
0010
0100
0010
0000
0100
0000
0100
0000
,
0110
0000
0000
0000
1001
0000
0000
0000
0001
0100
0001
0000
0001
0000
0001
0000
,
1000
0000
0001
0000
0100
0000
0010
0000
1000
0001
1000
0000
0100
0000
0100
0000
,
0010
0000
0001
0000
1000
0000
0010
0000
0100
0010
0100
0000
0001
0000
1000
0000
,
0100
0000
1000
0000
0100
0000
0010
0000
0001
0010
0001
0000
0010
0000
0001
0000
,
1000
0000
0010
0000
0100
0000
0001
0000
0100
0010
0100
0000
0010
0000
0010
0000
,
2000
0002
0000
0000
0010
0000
0010
3003
,
0001
0010
0100
0010
0001
1000
0010
0110
,
0000
0001
0100
0110
0000
0010
1000
1010
,
0000
0100
0001
1000
0100
0010
0001
1001
,
0000
0010
1000
0011
0000
0010
0100
1010
,
0000
0010
1000
0010
0100
0001
1000
0200
,
0000
0310
0000
0200
0000
0310
0000
0200
,
0000
0310
0100
1000
0001
0100
0010
1000
,
1001
0000
0001
0100
0010
0110
0100
0000
,
0002
0000
0010
0023
0000
0130
2000
0000
,
3002
0100
1000
0103
,
0020
0000
0130
0200
0000
0310
2000
0000
,
3200
1000
0010
0301
,
0200
0000
1300
0001
0000
0100
0010
0000
,
1010
1000
0000
1001
0000
0001
0001
0000
,
0010
0200
0000
2300
0000
3001
0100
0000
,
0020
0000
0130
0100
0000
0001
0002
0000
,
1003
0000
0001
0010
0100
1000
0200
0000
,
0310
0010
0000
0001
0000
1000
0010
0000
,
0100
0010
1000
0020
0000
0130
0002
0000
,
2003
0000
0100
0000
0010
0000
3100
0100
,
1000
0000
0001
0100
0010
1000
0002
0000
,
0013
0010
0000
0110
0000
0100
0100
0000
,
1000
0100
0010
0001
0000
1000
1001
0000
,
0001
0100
0010
1000
0000
0001
1001
0000
,
0220
0000
0000
0000
,
0330
0000
0000
0000
;

//---------------dance-single - M. Simmons----------------
#NOTES:
     dance-single:
     M. Simmons:
     Medium:
     5:
     0.382,0.000,0.284,0.181,0.017:
0000
0000
0000
0000
,
0000
0000
0000
0000
,
0000
0000
0000
0000
,
0000
0000
0000
0000
,
0000
0000
1000
0100
0000
0010
0000
0100
,
0000
1000
0000
0001
0000
0100
0000
0010
,
0000
0200
0000
0000
0310
0000
1000
0010
,
0000
0100
0010
0000
0100
0000
0100
0000
,
0101
0000
0001
1000
0000
0100
0000
0010
,
0000
0100
0000
1000
0000
0002
0000
0000
,
0000
0000
0000
0000
0103
0001
0000
1001
,
0000
1000
0100
0000
0010
0000
0010
0000
,
0001
0000
1000
0010
0000
0100
0000
0010
,
0000
1000
0000
0100
0000
0010
0000
0001
,
0000
2000
0000
0000
3100
1000
0000
0001
,
0000
1000
0001
0000
0010
0000
0010
0000
,
0110
0000
0100
0010
0000
0100
0000
1000
,
0000
0001
0000
0100
0000
0020
0000
0200
,
0000
0000
0330
0000
0010
0100
0010
0100
,
0000
0001
1000
0001
,
0000
0001
1000
0001
1000
0001
1000
0001
,
0000
0010
0100
0010
0100
0010
0100
0010
,
0000
1000
0100
1000
0100
1000
0100
1000
,
0000
0001
0010
0001
0010
0000
0011
0000
,
2002
0000
0000
3003
,
0001
0100
0010
0100
,
0001
0000
0000
0010
0000
0000
0100
0000
1000
0000
0000
0001
0000
0000
0100
0000
,
0000
0010
0010
0100
,
0001
0001
1000
1001
,
0000
0000
0001
0010
0000
0100
0000
1000
,
0010
0000
0000
0100
0000
0000
0010
0000
1000
0000
0000
0001
0000
0000
1000
0000
,
0000
0001
0001
0010
,
0100
0100
1000
1000
,
1001
0000
1000
0000
0001
0010
0001
0001
,
0000
0000
1000
0000
0100
1000
0100
0100
,
0000
0000
0010
0000
0100
0010
0100
0100
,
0000
0000
1000
0000
0001
0100
0001
0001
,
1000
0100
0010
0100
,
1000
0001
0100
0010
,
0100
0001
1000
0100
,
0010
0001
1000
0010
,
0220
0000
0000
0330
,
0000
0000
1000
0010
0000
0100
0000
0101
,
0000
0000
0000
1010
0000
0000
0000
0101
,
0000
0000
0001
0010
0000
0100
0000
1100
,
0000
0000
0000
0011
0000
0000
0000
1100
,
0000
0000
0010
0001
0000
0100
0000
0110
,
0000
0000
0000
1001
0000
0000
0000
0110
,
0000
0000
0010
0100
0000
0001
0000
1001
,
0000
0000
0000
0011
0000
0000
0000
1100
,
0200
0000
0310
0002
0000
0000
1003
0000
,
0020
0100
0100
0130
,
0200
0000
0310
2000
0000
0000
3001
0000
,
0110
0000
1001
0000
,
1001
0000
1000
0200
0000
0310
0001
0000
,
1000
1000
0000
0010
0000
0100
0010
0000
,
0110
0000
0000
1001
0000
0000
0011
0000
,
1100
0000
0110
0000
,
0001
1000
0001
2000
0000
3100
1000
0000
,
0200
0010
0010
0310
,
0010
0001
0010
0002
0000
1003
0010
0000
,
0101
1000
1010
0010
,
0100
0001
0100
0020
0000
0130
0010
0000
,
1000
0010
0000
1000
0000
0100
1000
0000
,
0001
0000
0010
0001
0000
1000
0010
0000
,
0110
0100
1001
0001
,
2002
0000
0000
0000
,
3003
0000
0000
0000
;

//---------------dance-single - M. Simmons----------------
#NOTES:
     dance-single:
     M. Simmons:
     Easy:
     3:
     0.285,0.000,0.163,0.284,0.000:
0000
0000
0000
0000
,
0000
0000
0000
0000
,
0000
0000
0000
0000
,
0000
0000
0000
0000
,
0000
0000
0000
1000
0000
0001
0000
0100
,
0000
0010
0000
0100
0000
0001
0000
1000
,
0000
0200
0000
0000
0310
0000
0000
0100
,
0000
0110
0010
0001
,
0010
0000
0000
0100
0000
1000
0000
0001
,
0000
0100
0000
0010
0000
2000
0000
0000
,
0000
3000
0000
0000
0001
0000
0000
1001
,
0000
0010
0100
0010
,
0100
0000
0000
0001
0000
1000
0000
0001
,
0000
0010
0000
0100
0000
1000
0000
0100
,
0000
0020
0000
0000
0031
0000
0000
1001
,
0000
2000
0000
3001
,
0010
0000
0000
0100
0000
1000
0000
0010
,
0000
0100
0000
0010
0000
2000
0000
0200
,
0000
0000
3300
0000
0010
0000
0000
0011
,
0000
1000
0010
0010
,
0100
0000
0010
0000
1000
0000
0000
1001
,
0000
0000
0001
0000
0010
0000
0000
0110
,
0000
0000
0100
0000
1000
0000
0000
1010
,
0000
0010
0010
0010
,
0200
0000
0000
0000
,
0310
1000
0001
0100
,
0001
1000
0100
0010
,
0001
0010
0100
1000
,
0001
0100
0010
0100
,
0010
1000
0001
0100
,
0001
1000
0100
0010
,
0100
1000
0100
0010
,
0001
1000
0010
0100
,
0010
0000
0000
0000
2002
0000
0000
3003
,
0000
0000
0000
0000
0220
0000
0000
0330
,
0000
0000
0000
0000
2002
0000
0000
3003
,
0000
0000
0000
0000
0220
0000
0000
0330
,
0000
0010
0000
0100
,
0000
0001
0000
1000
,
0000
0100
0000
0010
,
0000
0100
0000
1000
,
2001
0000
0000
0000
,
3001
0000
0100
0000
0010
0000
0000
0110
,
0000
0000
0000
0100
0000
0000
0000
0010
,
0000
0000
1000
0000
0001
0000
0000
1001
,
0000
0000
0000
0001
0000
0000
0000
1000
,
0000
0000
0010
0000
0100
0000
0000
1001
,
0000
0000
0000
0001
0000
0000
0000
1000
,
0000
0000
0001
0000
1000
0000
0000
0110
,
0000
0000
0000
0010
0000
0000
0000
0100
,
0020
0000
0000
0230
0000
0000
0301
0000
,
2000
0000
0000
0000
,
3200
0000
0000
0320
0000
0000
0130
0000
,
2000
0000
3020
0000
,
0230
0000
0000
0302
0000
0000
0013
0000
,
0100
0010
0000
0200
0000
0000
2300
0000
,
3002
0000
0000
0023
0000
0000
0031
0000
,
0200
0000
0320
0030
,
0110
0000
0000
0001
0000
0000
1000
0000
,
0100
0010
0100
0010
,
0100
0000
0000
1000
0000
0000
0001
0000
,
0100
0000
0110
0000
,
0001
0000
0000
0010
0000
0000
0100
0000
,
1000
0100
0000
0010
0000
0000
0100
0000
,
0100
0000
0000
0010
0000
0000
0001
0000
,
0100
0100
0010
0010
,
2002
0000
0000
0000
,
3003
0000
0000
0000
;

//---------------dance-single - M. Simmons----------------
#NOTES:
     dance-single:
     M. Simmons:
     Beginner:
     1:
     0.088,0.000,0.052,0.000,0.000: // measure 1
0000
0000
0000
0000
,  // measure 2
0000
0000
0000
0000
,  // measure 3
0000
0000
0000
0000
,  // measure 4
0000
0000
0000
0000
,  // measure 5
1000
0000
0000
0000
,  // measure 6
0100
0000
0000
0000
,  // measure 7
0010
0000
0000
0000
,  // measure 8
0100
0000
0000
0000
,  // measure 9
0000
0010
0000
0000
,  // measure 10
0001
0000
0000
0000
,  // measure 11
1000
0000
0000
0000
,  // measure 12
0010
0000
0000
0000
,  // measure 13
0000
0100
0000
0000
,  // measure 14
0001
0000
0000
0000
,  // measure 15
1000
0000
0000
0000
,  // measure 16
0010
0000
0000
0000
,  // measure 17
0000
1000
0000
0000
,  // measure 18
0100
0000
0000
0000
,  // measure 19
0010
0000
0000
0000
,  // measure 20
0001
0000
0000
0000
,  // measure 21
1000
0000
0000
0000
,  // measure 22
0010
0000
0000
0000
,  // measure 23
0100
0000
0000
0000
,  // measure 24
0001
0000
0000
0000
,  // measure 25
1001
0000
0000
0000
,  // measure 26
0001
0000
0000
0000
,  // measure 27
0010
0000
0000
0000
,  // measure 28
0100
0000
0000
0000
,  // measure 29
1000
0000
0000
0000
,  // measure 30
0100
0000
0000
0000
,  // measure 31
0010
0000
0000
0000
,  // measure 32
0001
0000
0000
0000
,  // measure 33
1000
0000
0000
0000
,  // measure 34
0110
0000
0000
0000
,  // measure 35
0000
0000
0000
0000
,  // measure 36
0001
0000
0000
0000
,  // measure 37
0000
0000
0000
0000
,  // measure 38
1000
0000
0000
0000
,  // measure 39
0100
0000
0000
0000
,  // measure 40
0010
0000
0000
0000
,  // measure 41
0100
0000
0000
0000
,  // measure 42
1001
0000
0000
0000
,  // measure 43
0001
0000
0000
0000
,  // measure 44
0100
0000
0000
0000
,  // measure 45
0001
0000
0000
0000
,  // measure 46
1000
0000
0000
0000
,  // measure 47
0100
0000
0000
0000
,  // measure 48
1000
0000
0000
0000
,  // measure 49
0010
0000
0000
0000
,  // measure 50
0100
0000
0010
0000
,  // measure 51
0110
0000
0000
0000
,  // measure 52
0010
0000
0000
0000
,  // measure 53
0100
0000
0000
0000
,  // measure 54
0001
0000
0100
0000
,  // measure 55
0100
0000
0000
0000
,  // measure 56
0010
0000
0000
0000
,  // measure 57
1000
0000
0000
0000
,  // measure 58
0001
0000
1000
0000
,  // measure 59
1001
0000
0000
0000
,  // measure 60
0100
0000
0000
0000
,  // measure 61
1000
0000
0000
0000
,  // measure 62
0100
0000
0100
0000
,  // measure 63
0010
0000
0000
0000
,  // measure 64
0001
0000
0000
0000
,  // measure 65
1000
0000
0000
0000
,  // measure 66
0010
0000
0100
0000
,  // measure 67
0110
0000
0000
0000
;

//---------------dance-double - M. Simmons----------------
#NOTES:
     dance-double:
     M. Simmons:
     Hard:
     8:
     0.573,0.000,0.353,0.155,0.185:
00000000
00000000
00000000
00000000
,
00000000
00000000
00000000
00000000
,
00000000
00000000
00000000
00000000
,
00000000
00000000
00000000
00000000
,
00001000
00000000
01000000
00000000
00100000
01000000
00000000
01000000
00010000
00000000
10000000
00000000
01000000
00100000
00000000
00100000
,
00001000
00000000
00010000
00000000
00000100
00001000
00000000
00001000
00000010
00000000
00000100
00000000
00000001
00001000
00000000
00001000
,
00000100
00000010
00000001
00000000
00001000
00000100
00010000
00000010
,
00000000
00000000
00010000
00000000
00010000
00000000
00000000
00000000
00002000
00000000
00010000
00000000
00013000
00000000
00001000
01000000
,
00001000
00000000
00100000
00000000
01000000
10000000
00000000
10000000
00010000
00000000
01000000
00000000
00100000
10000000
00000000
10000000
,
01000000
00000000
00100000
00000000
00010000
00100000
00000000
00100000
00001000
00000000
00010000
00000000
00000100
00010000
00000000
00010000
,
00000010
00000100
00000110
00000000
00000010
00010000
00000010
00010010
,
00000000
00000000
00001000
00000000
00001000
00000000
00000000
00000000
00000100
00000000
00010000
00000000
00001000
00000000
01000000
00100000
,
01000000
00000000
00100000
00000000
10000000
01000000
00000000
01000000
00010000
00000000
00001000
00000000
00000100
00000010
00000000
00000010
,
00000100
00000000
00000001
00000000
00001000
00000100
00000000
00000100
00010000
00000000
00001000
00000000
00100000
00001000
00000000
00001000
,
01000000
00100000
02000000
00000000
03010000
00100000
01000000
00020000
,
00000000
00000000
00031000
00000000
00001000
00000000
00000000
00000000
00000100
00000000
00000010
00000000
00010000
00000000
00000100
00010000
,
00000100
00000000
00010000
00000000
00001000
01000000
00000000
01000000
00100000
00000000
10000000
00000000
01000000
00010000
00000000
00010000
,
00001000
00000000
01000000
00000000
00100000
01000000
00000000
01000000
00001000
00000000
00010000
00000000
00000100
00010000
00000000
00010000
,
00000010
00000000
00010010
00000000
00000010
00000010
00000100
00000101
,
00000000
00000001
00000001
00001000
00000100
00000010
00000001
00001000
,
00000010
00010000
00010000
00000100
00010100
00001000
00100000
00110000
,
00000000
00010000
10000000
00100000
01100000
01000000
00001000
00101000
,
00000000
00001000
00010000
00000100
00010100
00001000
01000000
01100000
,
00000000
01000000
00100000
01000000
00002000
00000000
00013000
00000000
,
00200020
00000000
00000000
00300030
,
00000100
00010000
00001000
01000000
10000000
01000000
00100000
10000000
,
01000000
00010000
00001000
00000100
00000010
00010000
00000100
00000010
,
00000001
00000010
00000100
00010000
00001000
00000100
00000010
00010000
,
00000100
00010000
00001000
01000000
00100000
00000000
01000000
01100000
,
00000000
00100000
10000000
01000000
00010000
00001000
00100000
01000000
,
00100000
00001000
01000000
00100000
00010000
00001000
00000100
00000010
,
00001000
00000001
00000010
00000100
00000010
00000100
00010000
00001000
,
01000000
00100000
01000000
00001000
00010000
00000100
00010100
00000000
,
00011000
00000000
MMMMMMMM
00000000
00000000
00000000
00000000
00000000
00001000
01000000
00001000
00000000
00100000
00000000
00100000
00000000
,
00000000
00000000
MMMMMMMM
00000000
00000000
00000000
00000000
00000000
01000000
10000000
01000000
00000000
00010000
00000000
00010000
00000000
,
00000000
00000000
MMMMMMMM
00000000
00000000
00000000
00000000
00000000
00001000
00010000
00001000
00000000
00000100
00000000
00000100
00000000
,
00000000
00000000
MMMMMMMM
00000000
00000000
00000000
00000000
00000000
00000010
00010000
00000010
00000000
00000100
00000000
00000100
00000000
,
00001010
00000000
MMMMMMMM
00000000
00010100
00000000
00000000
00000000
00001000
00100000
00001000
00000000
01000000
00000000
01000000
00000000
,
01100000
00000000
MMMMMMMM
00000000
10010000
00000000
00000000
00000000
00010000
00100000
00010000
00000000
01000000
00000000
01000000
00000000
,
01010000
00000000
MMMMMMMM
00000000
00101000
00000000
00000000
00000000
00000100
00000010
00000100
00000000
00001000
00000000
00001000
00000000
,
00001100
00000000
MMMMMMMM
00000000
00000011
00000000
00000000
00000000
00001000
00000010
00001000
00000000
00000001
00000000
00001000
00000000
,
00002001
00000010
00000000
00010000
,
00003100
00000000
00010000
00001000
01000000
00100000
01000000
00001000
,
00000000
00001000
01000000
00100000
00000000
00010000
00001000
00000100
,
00000000
00000010
00010000
00000100
00000010
00000100
00010000
00000010
,
00000000
00010000
00001000
00100000
00000000
00001000
00010000
00000010
,
00000000
00010000
00001000
00100000
01000000
10000000
00100000
01100000
,
00000000
01010000
00000000
00101000
00000000
00010100
00000000
00001010
,
00000000
00000000
00000001
00000010
00000100
00001000
00000010
00001010
,
00000000
00010100
00000000
00101000
00000000
01010000
00000000
10100000
,
10000000
01000000
00100000
00020000
00000000
01030000
00010000
00000000
,
00110000
00100000
01000000
00100000
,
00001000
00010000
00000010
00000100
00000000
00000010
00001000
00000000
,
00000100
00000100
00020000
00000000
00031000
00001000
02000000
00000000
,
03001000
00010000
00000100
00000010
00000000
00000001
00001000
00000000
,
00000010
00000100
00000000
00000110
00000000
00000010
00010000
00000000
,
00002000
00000000
00103000
02000000
00000000
13000000
00200000
00000000
,
01300000
00001000
00010000
00000100
,
00010100
00000100
00000010
00000001
00000000
00001000
00000010
00000000
,
00010010
00000100
00010000
00000100
,
00010000
00001000
01000000
00200000
00000000
10300000
01000000
00000000
,
00110000
00001000
00001100
00000010
,
00001000
00000100
00010000
00001000
00000000
00000100
00000020
00000000
,
00010030
00001000
00000000
00102000
00000000
00000000
00103000
00000000
,
01000000
10000000
00010000
01000000
,
00010000
00100000
01000000
00100000
00001000
00010000
00000100
00000000
,
00022000
00000000
00000000
00000000
00000000
00000000
00000000
00033000
;

//---------------dance-double - M. Simmons----------------
#NOTES:
     dance-double:
     M. Simmons:
     Medium:
     5:
     0.394,0.000,0.387,0.267,0.026:
00000000
00000000
00000000
00000000
,
00000000
00000000
00000000
00000000
,
00000000
00000000
00000000
00000000
,
00000000
00000000
00000000
00000000
,
00000100
00000000
00010000
00001000
00000000
01000000
00000000
00100000
,
00000000
01010000
00000000
00110000
00000000
11000000
00000000
01000000
,
00000000
00200000
00000000
00000000
00301000
00010000
00000000
00011000
,
00000000
00010010
00000010
00010000
,
00010010
00000000
00000010
00000100
00000000
00000001
00000000
00000010
,
00000000
00000110
00000000
00001100
00000000
00020020
00000000
00000000
,
00030030
00000000
00000000
00000000
00000010
00010000
00000000
00002000
,
00000000
00000000
00013000
00000000
00001000
00000000
00100000
00010000
,
00100000
00000000
01000000
10000000
00000000
00100000
00000000
01000000
,
00000000
00010000
00000000
00110000
00000000
01001000
00000000
00110000
,
00000000
00012000
00000000
00000000
00013000
00000100
00000000
00010100
,
00000000
00000110
00000010
00000010
,
00000001
00000000
00001000
00000010
00000000
00000100
00000000
00000010
,
00000000
00010010
00000000
00010100
00000000
00022000
00000000
00000000
,
00000000
00033000
00000000
00000000
00001000
00100000
00001000
00100000
,
00000000
01000000
00100000
01000000
,
10000000
00010000
10000000
00010000
10000000
00010000
10000000
00010000
,
00000000
00100000
00001000
00100000
00001000
00100000
00001000
00100000
,
00000000
00001000
00010000
00001000
00010000
00001000
00010000
00001000
,
00000000
00010000
00000100
00010000
00000100
00000000
00010100
00000000
,
00002200
00000000
00000000
00003300
,
00000100
00000000
00010000
00000010
00000000
00000100
00000000
00000010
,
00010000
00000000
00000000
00000010
00000000
00000000
00010000
00000000
00000010
00000000
00000000
00010000
00000000
00000000
00000010
00000000
,
00000000
00010000
00001000
00000000
00100000
00000000
01000000
00000000
,
10000000
00000000
00100000
00000000
01000000
00010000
01000000
00000000
,
00010000
00000000
00000000
00000000
00100000
00000000
01000000
00000000
00000000
00100000
00000000
00000000
00000000
00001000
00000000
00000000
,
00010000
00000000
00000000
00000100
00000000
00000000
00010000
00000000
00000010
00000000
00000000
00000100
00000000
00000000
00000010
00000000
,
00000000
00000100
00000010
00000000
00001000
00000000
00000100
00001000
,
00000000
00000100
00010000
00000000
00001000
00000000
00100000
00000000
,
00101000
00000000
00011000
00000000
00010000
00000100
00010000
00000000
,
00001000
00000000
01001000
00000000
00001000
00010000
00001000
00000000
,
01000000
00000000
01100000
00000000
00100000
10000000
00100000
00000000
,
01000000
00000000
01010000
00000000
00010000
00100000
00010000
00000000
,
00100000
01000000
00100000
00001000
,
00010000
00000010
00000100
00000001
,
00001000
00000100
00010000
00001000
,
01000000
00100000
01000000
00010000
,
20020000
00000000
00000000
30030000
,
00000000
00000000
00010000
00100000
00000000
01000000
00000000
01100000
,
00000000
00000000
00000000
00110000
00000000
00000000
00000000
00101000
,
00000000
00000000
00001000
00010000
00000000
00000010
00000000
00010010
,
00000000
00000000
00000000
00000110
00000000
00000000
00000000
00001001
,
00000000
00000000
00000001
00000100
00000000
00000010
00000000
00010010
,
00000000
00000000
00000000
00011000
00000000
00000000
00000000
00101000
,
00000000
00000000
00001000
01000000
00000000
00100000
00000000
01100000
,
00000000
01100000
00000000
01100000
00000000
01100000
00000000
01000000
,
00002000
00000000
00000000
00023000
00000000
00000000
00030100
00000000
,
00000110
00000100
00000000
00010000
,
00002000
00000000
00000000
02003000
00000000
00000000
03100000
00000000
,
10100000
01000000
00200000
01300000
,
02000000
00000000
00000000
03002000
00000000
00000000
00013000
00000000
,
00001000
00010000
00000000
00000100
00000000
00000000
00010000
00000000
,
00001000
00000000
00000000
00200000
00000000
00000000
01300000
00000000
,
01100000
00000000
00110000
00000000
,
00200000
00000000
00000000
00302000
00000000
00000000
00013000
00000000
,
00000100
00010000
00000100
00010000
,
00000020
00000000
00000000
00000230
00000000
00000000
00000310
00000000
,
00001000
00000001
00002000
00003010
,
00000200
00000000
00000000
00000320
00000000
00000000
00001030
00000000
,
00000100
00010000
00000000
00000010
00000000
00000000
00010010
00000000
,
00010200
00000000
00000000
00002300
00000000
00000000
00003100
00000000
,
00020000
00000000
00032000
00000000
,
00203000
00000000
00000000
00000000
,
00300000
00000000
00000000
00000000
;

//---------------dance-double - M. Simmons----------------
#NOTES:
     dance-double:
     M. Simmons:
     Easy:
     3:
     0.242,0.000,0.112,0.172,0.000:
00000000
00000000
00000000
00000000
,
00000000
00000000
00000000
00000000
,
00000000
00000000
00000000
00000000
,
00000000
00000000
00000000
00000000
,
00001000
00000000
00100000
00000000
,
01000000
00000000
10000000
00000000
,
00010000
00000000
01000000
00000000
,
00100000
00000000
01000000
00000000
,
01010000
00000000
00100000
00000000
,
00001000
00000000
00010000
00000000
,
00000100
00000000
00010000
00000000
,
00000010
00000000
00000100
00000000
,
00000110
00000000
00000010
00000000
,
00001000
00000000
00000100
00000000
,
00010000
00000000
00000010
00000000
,
00000100
00000000
00000001
00000000
,
00001001
00000000
00001000
00000000
,
00000100
00000000
00010000
00000000
,
00001000
00000000
00100000
00000000
,
01000000
00000000
10000000
00000000
,
00100000
00100000
01000000
00000000
,
01000000
01000000
00001000
00000000
,
00100000
00100000
00010000
00000000
,
00110000
00000000
00101000
00000000
,
00022000
00000000
00000000
00033000
,
00010000
00000100
00000000
00001000
,
00000000
00000010
00000000
00000100
,
00000000
00000010
00000000
00001000
,
00000000
00000100
00000010
00000010
,
00000010
00000100
00000000
00010000
,
00000000
00001000
00000000
01000000
,
00000000
00100000
00000000
10000000
,
00000000
01000000
00100000
00100000
,
01000000
00100000
00010000
00000000
,
00100000
00001000
00010000
00000000
,
00001000
00010000
00000100
00000000
,
00010000
00001000
00010000
00000000
,
00000010
00000100
00000010
00000100
,
00000001
00001000
00000001
00001000
,
00000100
00010000
00000100
00010000
,
00001000
00010000
00001000
00010000
,
00202000
00000000
00000000
00303000
,
00001000
01000000
00100000
00000000
,
01000000
00000000
01000000
00000000
,
00100000
10000000
00010000
00000000
,
00100000
00000000
00100000
00000000
,
01000000
00100000
00001000
00000000
,
00010000
00000000
00010000
00000000
,
00000100
00010000
00000010
00000000
,
00000100
00000000
00000100
00000000
,
00000020
00000000
00000000
00000230
00000000
00000000
00000310
00000000
,
00000100
00000100
00000010
00000010
,
00020000
00000000
00000000
00030020
00000000
00000000
00010030
00000000
,
00010010
00000000
00010010
00000000
,
00020000
00000000
00000000
00032000
00000000
00000000
00013000
00000000
,
00001000
00100000
00000000
00001000
00000000
00000000
01000000
00000000
,
00200000
00000000
00000000
02300000
00000000
00000000
03010000
00000000
,
10000000
00000000
10010000
00000000
,
00020000
00000000
00000000
00230000
00000000
00000000
01300000
00000000
,
00100000
00001000
00100000
00000000
,
02000000
00000000
00000000
03200000
00000000
00000000
00301000
00000000
,
00010000
00000000
00010100
00000000
,
00020000
00000000
00000000
00030020
00000000
00000000
00010030
00000000
,
00000010
00010000
00000000
00000010
00000000
00000000
00000100
00000000
,
00000010
00001000
00000001
00000010
,
00000110
00001000
00000010
00001000
,
00000220
00000000
00000000
00000000
,
00000330
00000000
00000000
00000000
;

//---------------dance-double - R. Uchima----------------
#NOTES:
     dance-double:
     R. Uchima:
     Challenge:
     9:
     0.554,0.000,0.447,0.542,0.194:
00000000
00000000
00000000
00000000
,
00000000
00000000
00000000
00000000
,
00000000
00000000
00000000
00000000
,
00000000
00000000
00000000
00000000
,
10000000
00000000
00010000
10010000
00000000
00011000
00000000
00001001
,
00000000
00000110
00000000
00011000
00000000
01100000
00000000
00011000
,
00000000
00002200
00000000
00000000
00000010
00010000
00000000
00000010
,
00000000
00000000
00000000
00000000
00003300
00000000
00010000
00000000
00001000
00000000
00010000
00000000
00100000
00000000
00010000
00100000
,
10000000
00100000
10000000
11000000
00000000
00110000
00000000
01001000
,
00000000
00010100
00000000
00000011
00000000
00001001
00000000
00020200
,
00000000
00000000
00000000
00000000
00001000
00100000
00000000
00000010
,
00000000
00000000
00000000
00000000
00030300
00000000
00010000
00000000
00001000
00000000
00010000
00000000
01000000
00000000
00010000
01000000
,
10000000
00010000
10000000
10100000
00000000
01001000
00000000
00100100
,
00000000
01000100
00000000
01000010
00000000
00010001
00000000
10001000
,
00000000
02020000
00000000
00000000
00100000
00001000
00000000
00100000
,
00000000
00000000
00000000
00000000
03030000
00000000
00001000
00000000
00010000
00000000
00001000
00000000
00000100
00000000
00001000
00000100
,
00000001
00000010
00000100
00001100
00000000
00110000
00000000
00001010
,
00000000
01010000
00000000
00001100
00000000
00011000
00000000
02002000
,
00000000
00000000
00000000
00000000
00010000
00000010
00100000
00000010
,
00000000
00000000
00000000
00000000
03003000
00000000
00001000
00000000
00010000
00000000
00001000
00000000
00000010
00000000
00001000
00000010
,
00000001
00000001
00000100
00000010
00001000
00000001
00001000
00000010
,
00000000
0000MMMM
00100000
00000000
00010000
00000000
01000000
00000000
00100000
00000000
10000000
00000000
00010000
00000000
00100000
00000000
,
00000000
MMMM0000
00000010
00000000
00001000
00000000
00000010
00000000
00000100
00000000
00000001
00000000
00001000
00000000
00000010
00000000
,
00000000
0000MMMM
01000000
00000000
00100000
00000000
10000000
00000000
10010000
00000000
00000000
00000000
00011000
00000000
00000000
00000000
,
00000100
MMMM1000
00000100
00001000
00000100
00000010
00000100
00000010
00000001
00000010
00000001
00000010
00000001
00001000
00000001
00001000
,
00000010
00000000
00000100
00000000
00000100
00000000
00000010
00000000
00000000
00000000
00010000
00000000
00000000
00001000
00000000
00000000
,
00200000
00000000
00000000
00020000
00000000
00300000
02000000
00030000
20000000
00000000
03000000
00200000
00000000
30000000
00020000
00000000
,
00000000
00330000
00100000
00001000
01000000
00001000
00010000
00000010
,
00000100
00000000
00000010
00010000
00000100
00000000
00000100
01001000
,
00000000
00000000
00000000
00000000
00001000
00000000
00010000
00000000
00000000
00000000
00000100
00000000
00000000
00001000
00000000
00000000
,
00000020
00000000
00000000
00002000
00000000
00000030
00000200
00003000
00000002
00000000
00000300
00000020
00000000
00000003
00002000
00000000
,
00000000
00003030
00000010
00010000
00000100
00010000
00001000
01000000
,
00100000
01000000
00010000
00100000
01000000
10000000
00010000
00100000
,
00001000
00010000
00001000
00000000
00010000
00000000
00000100
00000000
00001000
00000100
00001000
00000000
00000010
00000000
00000100
00000000
,
00000001
00000010
00000001
00000000
00000100
00000000
00000010
00000000
00001000
00000010
00001000
00000000
00000100
00000000
00010000
00000000
,
00001000
00100000
00001000
00000000
01000000
00000000
00010000
00000000
01000000
00100000
01000000
00000000
00010000
00000000
10000000
00000000
,
01000000
10000000
01000000
00000000
00100000
00000000
00010000
00000000
01000000
00010000
01000000
00000000
00001000
00000000
00010000
00000000
,
00000100
00001000
00000001
00000000
00000100
00000000
00000010
00000000
00001000
00000100
00000010
00000000
00000100
00000000
00010000
00000000
,
00001000
00100000
00010000
00000000
01000000
00000000
00100000
00000000
10000000
01000000
00100000
00000000
01000000
00000000
00100000
00000000
,
00010000
01000000
00100000
00000000
10000000
00000000
00010000
00000000
00100000
00001000
00010000
00000000
00000100
00000000
00001000
00000000
,
00000100
00001000
00000001
00000000
00000100
00000000
00000010
00000000
00000100
00000010
00001000
00000000
00000010
00000000
00010000
00000000
,
00001000
00010000
00001000
00010000
00001000
00100000
00001000
00100000
00010000
00100000
00010000
00100000
00010000
10000000
00010000
10000000
,
01000000
00000000
00100000
00010000
00000000
00110000
00000000
01100000
,
00000000
00000000
0MM00000
00000110
00000000
00000000
00000MM0
01100000
,
00000000
00000000
10000000
00010000
00000000
00011000
00000000
00001001
,
00000000
00000000
0000M00M
10010000
00000000
00000000
M00M0000
00001001
,
00000000
00000000
00000100
00000010
00000000
00010010
00000000
10001000
,
00000000
M0M1M0M1
00000000
1M0M1M0M
00000000
M0M1M0M1
00000000
1M0M1M0M
,
00000000
M0M0M0M0
01000000
00000100
00000000
01000100
00000000
0M1M0M1M
,
00000000
M1M0M1M0
00000000
0M1M0M1M
00000000
M1M0M1M0
00000000
0M0M0M0M
,
00002000
00000000
00000000
00020000
00000000
00003000
00200000
00030000
,
02000000
00000000
00000000
00000000
00000000
00000000
00000000
00300000
,
00002000
00000000
03000000
00200000
00000000
00003000
00000200
00300000
,
02000000
00000000
00000000
00000300
00200000
00000000
00000000
03000000
,
02000000
00000000
00300000
00020000
00000000
03000000
00200000
00030000
,
00302000
00000020
00003000
00000200
00000000
00000030
00002000
00000300
,
00020000
00000000
00003000
00200000
00000000
00030000
00000020
00300000
,
00200000
00000000
00000000
00000030
02000000
00000000
00000000
00300000
,
00020000
00000000
03000000
00000200
00000000
00030000
00000020
00000300
,
00002000
00000000
00000000
00000000
00000000
00000000
00000000
00000030
,
00020000
00000000
00003000
00000020
00000000
00030000
00200000
00000030
,
00000200
00000000
00000000
00300000
00000002
00000000
00000000
00000300
,
00002000
00000000
00000003
00200000
00000000
00003000
20000000
00300000
,
30200000
00020000
00300000
02000000
00000000
00030000
00000200
03000000
,
00020000
00000000
00000300
00200000
00000000
00030000
02000000
00300000
,
00000020
00000000
00000000
03000000
00000002
00000000
00000000
00000030
,
00002000
00003003
00000000
00000000
;
