#TITLE:Rock Steady;
#SUBTITLE:;
#ARTIST:Diclonius Kid;
#TITLETRANSLIT:;
#SUBTITLETRANSLIT:;
#ARTISTTRANSLIT:;
#GENRE:Electro;
#CREDIT:Sync by HellRazor;
#BANNER:Rock Steady-bn.png;
#BACKGROUND:Rock Steady-bg.png;
#LYRICSPATH:;
#CDTITLE:;
#MUSIC:Rock Steady.ogg;
#OFFSET:-0.0196;
#SAMPLESTART:32.000;
#SAMPLELENGTH:12.000;
#SELECTABLE:YES;
#DISPLAYBPM:240:120;
#BPMS:0=120,28=240,104.5=360,107.5=240,126=360,128=240,130=360,132=240,134=360,136=240,138=360,140=240,236=120,252=240,254=360,256=240,258=360,260=240,262=360,264=240,265=360,266=240,267=360,268=240;
#STOPS:104.5=0.0833333,105.5=0.0833333,106.5=0.0833333,126=0.0833333,127=0.0833333,130=0.0416666,130.5=0.0416666,131=0.0833333,134=0.0833333,135=0.0833333,138=0.0416666,138.5=0.0416666,139=0.0833333,254=0.0833333,255=0.0833333,258=0.0416666,258.5=0.0833333,259.5=0.0416666,262=0.0833333,263=0.0833333,265=0.0833333,267=0.0833333;
#BGCHANGES:0.000=Rock Steady-bg.png=1.000=0=0=1=====,
8.000=In The Groove Rebirth/165_JB_HD.mpg=1.000=0=0=1=====,
24.000=Rock Steady-bg.png=1.000=1=0=1===CrossFade==,
28.000=In The Groove Rebirth/896_JumpBack.mpg=1.000=0=0=1=====,
60.000=In The Groove Rebirth/306_JB_HD.mpg=1.000=0=0=1=====,
76.000=In The Groove Rebirth/257_JB_HD.mpg=1.000=0=0=1=====,
92.000=In The Groove Rebirth/1142_JumpBack.mpg=1.000=0=0=1=====,
104.000=Rock Steady-bg.png=1.000=0=0=1=====,
104.500=Rock Steady-bg.png=1.000=0=0=1====1^0^0^1=,
105.500=Rock Steady-bg.png=1.000=0=0=1====0^1^0^1=,
106.500=Rock Steady-bg.png=1.000=0=0=1====0^0^1^1=,
107.500=In The Groove Rebirth/169_JB_HD.mpg=1.000=0=0=1=====,
126.000=In The Groove Rebirth/257_JB_HD.mpg=1.000=0=0=1=====,
127.000=In The Groove Rebirth/306_JB_HD.mpg=1.000=0=0=1=====,
128.000=In The Groove Rebirth/896_JumpBack.mpg=1.000=0=0=1=====,
130.000=In The Groove Rebirth/165_JB_HD.mpg=1.000=0=0=1=====,
130.500=In The Groove Rebirth/1142_JumpBack.mpg=1.000=0=0=1=====,
131.000=In The Groove Rebirth/877_JumpBack.mpg=1.000=0=0=1=====,
132.000=In The Groove Rebirth/261_JB_HD.mpg=1.000=0=0=1=====,
134.000=In The Groove Rebirth/206_JB_HD.mpg=1.000=0=0=1=====,
135.000=In The Groove Rebirth/821_JumpBack.mpg=1.000=0=0=1=====,
136.000=In The Groove Rebirth/881_JumpBack.mpg=1.000=0=0=1=====,
138.000=In The Groove Rebirth/261_JB_HD.mpg=1.000=0=0=1=====,
138.500=In The Groove Rebirth/165_JB_HD.mpg=1.000=0=0=1=====,
139.000=In The Groove Rebirth/306_JB_HD.mpg=1.000=0=0=1=====,
140.000=In The Groove Rebirth/896_JumpBack.mpg=1.000=0=0=1=====,
156.000=In The Groove Rebirth/881_JumpBack.mpg=1.000=0=0=1=====,
172.000=In The Groove Rebirth/257_JB_HD.mpg=1.000=1=0=1=SongBgWithMovieViz==CrossFade==,
188.000=In The Groove Rebirth/877_JumpBack.mpg=1.000=0=0=1=====,
204.000=In The Groove Rebirth/821_JumpBack.mpg=1.000=0=0=1=====,
220.000=In The Groove Rebirth/306_JB_HD.mpg=1.000=0=0=1=====,
236.000=In The Groove Rebirth/261_JB_HD.mpg=0.400=1=0=1=Checkerboard2File2x2=Rock Steady-bg.png=CrossFade==,
252.000=In The Groove Rebirth/165_JB_HD.mpg=1.000=0=0=1=====,
254.000=In The Groove Rebirth/306_JB_HD.mpg=1.000=0=0=1=====,
255.000=In The Groove Rebirth/896_JumpBack.mpg=1.000=0=0=1=====,
256.000=In The Groove Rebirth/881_JumpBack.mpg=1.000=0=0=1=====,
258.000=In The Groove Rebirth/1142_JumpBack.mpg=1.000=0=0=1=====,
258.500=Rock Steady-bg.png=1.000=0=0=1=====,
259.500=In The Groove Rebirth/206_JB_HD.mpg=1.000=0=0=1=====,
260.000=In The Groove Rebirth/169_JB_HD.mpg=1.000=0=0=1=====,
262.000=In The Groove Rebirth/165_JB_HD.mpg=1.000=0=0=1=====,
263.000=In The Groove Rebirth/257_JB_HD.mpg=1.000=0=0=1=====,
264.000=In The Groove Rebirth/821_JumpBack.mpg=1.000=0=0=1=====,
265.000=Rock Steady-bg.png=1.000=0=0=1====0^1^0^1=,
266.000=In The Groove Rebirth/261_JB_HD.mpg=1.000=0=0=1=====,
267.000=Rock Steady-bg.png=1.000=0=0=1====0^0^1^1=,
268.000=In The Groove Rebirth/206_JB_HD.mpg=1.000=0=0=1=====,
284.000=In The Groove Rebirth/169_JB_HD.mpg=1.000=0=0=1=====,
304.000=In The Groove Rebirth/877_JumpBack.mpg=1.000=0=0=1=====,
320.000=In The Groove Rebirth/1142_JumpBack.mpg=1.000=0=0=1=====,
334.000=Rock Steady-bg.png=1.000=1=0=1===CrossFade==,
336.000=Rock Steady-bg.png=1.000=0=0=1=====,
99999=-nosongbg-=1.000=0=0=0 // don't automatically add -songbackground-
;
#BGCHANGES2:75.000=white flash=0.800=0=0=1=====,
155.000=white flash=0.800=0=0=1=====,
336.000=white flash=0.300=0=0=1=====,
;
#KEYSOUNDS:;

//---------------dance-single - Brendino----------------
#NOTES:
     dance-single:
     Brendino:
     Challenge:
     11:
     0.890,0.890,0.380,0.070,0.335:
0000
0000
0000
0000
,
0000
0000
0000
0000
,
1001
0000
0000
0000
0MM0
0000
0000
0000
1010
0000
0000
0110
0000
0000
0101
0000
,
1001
0000
0000
0000
00MM
0000
1100
0000
0110
0000
0000
0011
0000
0000
0001
1000
,
0001
0000
0000
0000
M00M
0000
0000
0000
0110
0000
0000
1010
0000
0000
1100
0000
,
0110
0000
0000
0000
MM00
0000
0011
0000
1000
0100
1000
0000
0000
1001
0000
0000
,
0200
0000
0000
0000
0000
0000
0000
0300
,
0110
0000
0010
0000
1000
0001
1000
0000
,
0100
0000
0000
0000
0010
0000
0000
0000
0001
0000
0010
0000
0100
0000
1000
0001
,
1000
0010
0100
0001
,
1000
0000
0000
0000
0100
0000
0010
0000
0001
0000
0010
0000
0100
1000
0100
1000
,
0100
0000
0000
0000
1000
0000
0000
0000
0001
0000
0000
0000
0100
0001
0100
0001
,
0100
0000
0010
0000
1000
0000
0001
0000
1000
0000
0100
0000
0010
0001
0010
0001
,
0010
0000
0100
0000
1000
0000
0001
0001
,
0000
0000
0100
0000
0010
0000
1000
0000
0100
0000
0010
0000
0001
1000
0001
1000
,
0001
0000
0100
0000
0010
0000
1000
0000
0100
0000
1000
0000
0001
0000
1000
0010
,
1000
0000
0010
0000
0100
0000
0001
0000
1000
0000
0100
0000
0010
0100
0010
0000
,
0001
0000
1000
0000
0001
0000
0100
0000
0010
0000
1000
0000
0001
1000
0001
1000
,
0001
0000
0010
0000
0100
1000
0100
0000
0010
0000
0001
0000
2002
0000
3MM3
0000
,
0100
0000
0010
0000
1000
0000
0010
0000
0100
0000
0001
0000
1000
0001
1000
0000
,
0100
0000
0010
0000
0001
0010
0001
0000
0010
0000
0100
0000
1000
0010
1000
0000
,
0010
0000
0100
0000
0001
0000
1000
1000
,
0000
0000
0000
0000
0010
0000
0000
0000
0100
0000
0000
0000
0001
0010
0001
0010
,
0001
0010
0100
1000
0000
M0M0
0000
0000
,
1000
0000
0100
0000
0010
0000
0001
0000
0000
0000
M00M
0000
0100
0010
0100
0010
,
0100
0010
1000
0001
0000
MM00
0000
0000
,
0010
0000
0110
0000
0000
0000
1100
0000
0000
0000
1001
0000
0000
0000
0001
0100
,
0001
1000
0010
0100
0000
M0M0
0000
0000
,
0001
0000
1000
0000
0100
0000
0010
0000
0000
0000
MM00
0000
0010
0000
0001
0010
,
0001
0010
0100
1000
,
0001
0000
0100
0000
0100
0000
0001
0000
1000
0000
1000
0000
0100
0010
0001
0010
,
0001
1000
0010
0100
0001
0000
0001
0000
,
1000
0100
0010
0001
0100
0100
0100
0000
,
0010
0010
0100
0001
1000
0000
1000
0000
,
0100
0000
0010
0100
0010
0000
0001
0000
0100
0000
0100
0000
0100
0000
0000
0000
,
0010
0000
0010
0000
0100
0000
0010
0000
1000
0000
0010
0000
0100
0001
0100
0000
,
0010
0000
0100
0000
0001
0000
0100
0000
0010
0000
0100
0000
0001
1000
0001
0000
,
1000
0000
0100
0000
0010
0000
0100
0000
1000
0000
0100
0000
0010
0001
0010
0000
,
0100
0000
1000
0000
0001
1000
0001
0000
0100
0000
0010
0000
0220
0000
M33M
0000
,
1000
0000
0100
0000
0010
0000
0001
0000
0010
0000
0100
0000
1000
0001
1000
0000
,
0010
0000
0100
0000
0001
0100
0001
0000
0100
0000
0010
1000
0010
0000
1000
0000
,
1100
0000
0010
0000
0001
0000
0100
0100
,
0000
0000
0001
0000
0100
0000
0010
0000
1000
0000
0100
0000
0010
0100
1000
0100
,
0010
0001
1000
0001
0100
0010
1000
0100
,
1000
0001
0010
0100
1000
0010
0100
0001
,
0001
0000
0001
1000
0100
0010
0001
0010
,
0100
0000
1000
0000
0010
0000
0100
0000
0010
0000
1000
0000
0001
1000
0001
1000
,
0001
0000
1000
0010
0001
0010
0100
0010
,
1000
0100
0010
0100
1000
0001
0010
1000
,
1000
0010
0001
0100
0100
0010
1000
0001
,
0001
0000
0000
0000
0010
0000
0000
0000
0100
1000
0100
0000
0000
0000
0010
0000
,
0010
0000
0001
0100
1000
0001
0010
1000
,
0100
0000
0000
0010
0000
0000
1000
0000
0000
0010
0000
0000
0100
0000
0000
0001
0000
0000
0100
0000
0010
0000
0001
0000
,
0010
0000
1000
0001
0100
1000
0001
0100
,
1000
0000
0000
0100
0000
0000
0010
0000
0000
1000
0000
0000
0001
0000
0000
0010
0000
0000
0001
0000
0100
0000
0010
0000
,
0100
0000
0001
0010
0001
0100
1000
0100
,
0001
0000
0000
0010
0000
0000
0100
0000
0000
1000
0000
0000
0010
0000
0000
0100
0000
0000
0001
0000
1000
0000
0100
0000
,
1000
0000
0010
0000
1000
0000
0001
0001
,
0000
0000
0000
0000
0100
0000
0000
0000
0010
0000
0000
0000
1000
0001
1000
0000
,
1001
0000
0000
0000
0MM0
0000
0000
0000
0101
0000
0000
0110
0000
0000
1010
0000
,
1001
0000
0000
0000
MM00
0000
0011
0000
0110
0000
0000
1100
0000
0000
1000
0001
,
1000
0000
0000
0000
M00M
0000
0000
0000
0110
0000
0000
0101
0000
0000
0011
0000
,
0110
0000
0000
0000
0000
0100
1000
0000
1001
0000
0100
0000
1010
0000
0001
0000
,
1000
0100
0010
0001
1000
0000
1000
0000
,
0010
0000
0100
0000
0001
1000
0010
0000
0100
0000
0001
0000
0000
0000
1000
0000
,
0100
0000
0010
0100
0010
0000
0001
0000
0100
0000
0000
0000
0100
0000
0000
0000
,
0010
1000
0100
0000
0010
0001
0100
0000
,
0010
1000
0100
1000
0000
0001
0010
0001
,
0100
0000
0010
0000
0100
0000
0010
0000
1000
0000
0100
0000
1000
0100
1000
0000
,
0010
0100
0001
0100
0000
0010
1000
0001
,
0010
0000
0100
0000
1000
0000
0001
0000
1000
0000
0100
0000
1000
0001
1000
0000
,
0001
0100
0010
0100
0000
0001
0010
0001
,
0100
0000
0010
0000
0100
0000
0010
0000
1000
0000
0100
0000
1000
0001
0010
0000
,
0001
0100
0001
1000
0000
0001
0001
0000
,
1000
0000
0001
0000
0100
0000
0010
0100
0010
0000
1000
0000
0001
0000
1000
0001
,
1000
0000
0001
0000
1000
0000
0100
1000
0100
0000
0010
0000
0001
0000
0010
0000
,
0100
1000
0000
1000
0000
0010
0000
0100
,
0001
1000
0100
0000
0010
0001
0101
0000
,
0010
1000
0000
0100
0000
0010
0000
0001
,
0010
0100
1000
0001
0100
0010
0110
0000
,
1000
0100
0000
1000
0000
0001
0010
0001
,
1000
0000
0001
0000
0100
0000
0010
0000
1000
0100
1000
0000
0001
0000
0000
0000
,
0100
0010
0000
1000
0100
1000
0000
0001
,
0010
0000
0000
0001
0000
0000
1000
0000
0000
0010
0000
0000
0100
0000
0001
0000
1000
0000
0001
0000
0000
0000
0000
0000
,
2002
0000
0000
0000
,
0000
0000
0000
0000
,
3000
0000
0000
0000
,
0000
0000
0000
0000
,
0000
0000
0000
0000
,
0003
0000
0000
0000
;

//---------------dance-single - Brendino----------------
#NOTES:
     dance-single:
     Brendino:
     Hard:
     9:
     0.718,0.712,0.080,0.080,0.055:
0000
0000
0000
0000
,
0000
0000
0000
0000
,
0001
0000
0000
0000
0101
0000
0000
0000
0100
0000
0000
0010
0000
0000
1000
0000
,
0100
0000
0000
0000
0110
0000
0001
0000
1000
0000
0000
0001
0000
0000
0100
0010
,
0100
0000
0000
0000
0101
0000
0000
0000
1000
0000
0000
0010
0000
0000
0100
0000
,
0001
0000
0000
0000
1000
0000
0100
0000
0010
0100
0010
0000
0000
0001
0000
0000
,
2002
0000
0000
0000
0000
0000
0000
3003
,
0010
0000
0100
0000
0001
1000
0001
0000
,
1000
0000
0100
0000
0010
0001
1000
0001
,
0100
0010
1000
0100
,
0010
0000
0001
1000
0010
0100
0001
1000
,
0001
0000
0010
0000
0100
0000
1000
0100
,
0010
0001
0010
0100
1000
0001
1000
0010
,
0100
0000
0001
0000
1000
0000
0100
0010
,
0000
0000
0001
0000
1000
0000
0010
0100
,
0001
1000
0100
0010
0001
1000
0001
0100
,
0010
1000
0010
0100
0001
1000
0100
0000
,
0010
0100
1000
0010
0100
0001
1000
0100
,
1000
0001
0100
0010
1000
0001
2000
300M
,
0010
0100
0001
1000
0100
0010
0001
1000
,
0001
1000
0010
0100
0010
0100
0001
0000
,
1000
0000
0100
0000
0010
0000
0001
0100
,
0000
0000
0010
0000
1000
0000
0100
0010
,
0001
0000
1000
0010
0000
MMMM
0000
0000
,
0100
0000
0001
1000
0000
MMMM
0000
0000
,
0100
0000
0010
0100
0000
MMMM
0000
0000
,
1000
0001
0000
0100
0000
0010
0000
1000
,
0100
0000
0010
0001
0000
MMMM
0000
0000
,
0100
0000
0010
1000
0000
MMMM
0001
0010
,
0100
0000
1000
0001
0000
MMMM
0000
0000
,
0010
1000
0010
1000
0001
0100
0010
1000
,
0001
1000
0001
1000
0010
0000
0010
0000
,
0100
0010
0100
0010
1000
0100
0010
0000
,
0001
0010
0001
0010
0100
0000
0100
0000
,
1000
0010
1000
0010
0100
0001
0010
0000
,
0100
0000
1000
0100
0000
0010
0000
0001
,
0000
1000
0010
0100
0001
0100
0010
0000
,
1000
0000
0100
0010
0000
0001
0000
1000
,
0000
0010
0100
0010
1000
0100
0020
0M30
,
0001
0000
0100
0010
0000
1000
0000
0100
,
0000
1000
0001
0100
0010
1000
0100
1000
,
0001
0000
0100
0000
0010
0000
1000
0001
,
0000
0000
0010
0000
0100
0000
1000
0100
,
0010
0000
0001
1000
0001
0000
0100
0010
,
0100
0000
0010
1000
0010
0000
1000
0001
,
0001
0000
1000
0100
1000
0000
0001
0100
,
0001
0000
1000
0010
1000
0000
0010
0100
,
0010
0000
0100
0001
1000
0000
0100
0010
,
0001
0000
1000
0010
0100
0000
0001
0010
,
0010
0000
0100
1000
1000
0000
0001
0100
,
0100
0000
0010
0000
1000
1000
0000
0001
,
0010
0100
1000
0001
0100
0010
1000
0010
,
0100
0001
1000
0001
1000
0001
0010
0000
,
0100
1000
0100
0010
0001
1000
0001
0100
,
0010
1000
0001
0010
0100
0010
0100
0000
,
1000
0100
0010
0001
0010
0100
1000
0001
,
0100
0001
0100
0010
1000
0010
1000
0000
,
0001
0000
0100
0000
0010
0000
1000
0100
,
0000
0000
0010
0000
0100
0000
1000
0001
,
0100
0000
0000
0000
1010
0000
0000
0000
0001
0000
0000
0010
0000
0000
0100
0000
,
1000
0000
0000
0000
1001
0000
0001
0000
0100
0000
0000
0010
0000
0000
1000
0100
,
1000
0000
0000
0000
0110
0000
0000
0000
0001
0000
0000
1000
0000
0000
0010
0000
,
0100
0000
0000
0000
0000
0001
1000
0000
0100
0000
0020
0000
0000
0000
0030
0000
,
0001
1000
0001
1000
0010
0000
0010
0000
,
0100
0001
0100
0001
1000
0100
0000
1000
,
0010
0100
0010
0100
0001
0000
0001
0000
,
1000
0001
1000
0000
0010
0100
0010
0000
,
1000
0001
1000
0001
0000
0100
0010
0100
,
0001
1000
0001
1000
0100
0010
0100
0000
,
0010
0001
0010
0001
0000
1000
0100
1000
,
0010
1000
0010
0100
0010
0100
0010
0000
,
0100
0001
0100
0001
0000
1000
0001
1000
,
0001
0010
0100
0010
0001
1000
0001
0000
,
0100
0010
0100
0010
0000
1000
0001
0000
,
0010
0100
0100
1000
0010
0100
0100
0001
,
1000
0100
0100
0010
0001
0100
0100
0010
,
1000
0001
0000
1000
0000
0100
0000
0010
,
0100
1000
0100
0000
1000
0001
1000
0000
,
0001
0100
0000
0010
0000
1000
0000
0010
,
0100
0001
0100
0010
1000
0010
1000
0000
,
0001
1000
0000
0100
0000
0010
0100
0010
,
0100
1000
0001
1000
0001
0100
0010
0000
,
1000
0100
0000
0010
0001
0010
0000
0100
,
1000
0001
0100
0010
2000
0001
0100
3000
,
0220
0000
0000
0000
,
0000
0000
0000
0000
,
0300
0000
0000
0000
,
0000
0000
0000
0000
,
0000
0000
0000
0000
,
0030
0000
0000
0000
;

//---------------dance-single - Brendino----------------
#NOTES:
     dance-single:
     Brendino:
     Medium:
     7:
     0.551,0.534,0.040,0.130,0.045:
0000
0000
0000
0000
,
0000
0000
0000
0000
,
1000
0000
0000
0000
0001
0000
0000
0000
0100
0000
0000
0001
0000
0000
1000
0000
,
0001
0000
0000
0000
0000
0000
0010
0000
0100
0000
0000
1000
0000
0000
0001
0000
,
0001
0000
0000
0000
0000
0000
0000
0000
0100
0000
0000
0010
0000
0000
1000
0000
,
0001
0000
0000
0000
0000
0000
0010
0000
0100
0000
0100
0000
0000
1000
0000
0000
,
2002
0000
0000
0000
0000
0000
0000
3003
,
0100
0010
1000
0100
,
0010
0000
0001
0000
0100
0010
0100
0010
,
0100
0001
1000
0100
,
0010
0000
0001
1000
0001
0000
0100
0000
,
0110
0010
1000
0001
,
1000
0000
0100
1000
0100
1000
0100
0000
,
0010
0000
0001
0000
1000
0000
0010
0100
,
0000
0001
1000
0100
,
0010
0001
0010
0100
,
1000
0000
0001
0000
0100
0000
0010
1000
,
0010
0100
0001
1000
,
0100
0000
0010
0000
0001
0000
0200
0300
,
0010
1000
0100
0010
,
0001
1000
0010
0100
,
0001
0000
1000
0000
0100
0000
0010
0100
,
0000
1000
0001
0100
,
0010
0000
1000
0002
0000
0003
0000
0000
,
0010
0000
0100
2000
0000
3000
0001
1000
,
0001
0000
0100
0020
0000
0030
0000
0000
,
1000
0100
0000
0010
0000
0001
0000
1000
,
0001
0000
0100
0020
0000
0030
0000
0000
,
1000
0000
0100
0020
0000
0030
0001
1000
,
0001
0100
0010
1000
,
0001
0000
0010
0100
0010
0000
0100
0000
,
1000
1000
0001
0001
,
0100
0000
0100
0000
0010
1000
0010
0000
,
0100
0100
0001
0001
,
1000
0000
1000
0000
0100
0010
0100
0000
,
0010
0000
0001
0000
1000
0001
1000
0000
,
0010
0100
0001
0100
,
0010
0000
1000
0000
0100
0010
0100
0000
,
1000
0000
0001
0000
0100
0000
0020
0030
,
1000
0000
0100
0000
0010
0000
0001
1000
,
0001
0100
0010
1000
,
0100
0000
0010
0000
0001
0000
0100
0010
,
0000
0000
1000
0000
0100
0000
0010
0001
,
0010
0001
0100
M0MM
,
0010
0000
1000
0000
0001
0000
0000
0001
,
0010
0001
1000
0MMM
,
0010
0000
0100
0000
0001
0000
0000
0100
,
0001
MMM0
0100
0000
,
0110
0000
0000
0000
1000
0000
0000
0010
,
0100
0000
0000
0001
1000
0000
0000
0001
,
0010
0000
0100
0000
1000
0100
0000
0010
,
0001
0000
0100
0001
0100
0000
0010
0000
,
1000
0100
1000
0000
0001
0000
0100
0010
,
0100
0000
0010
1000
0010
0000
1000
0000
,
0100
0010
0100
0000
0010
0000
0001
0000
,
1000
0000
0010
1000
0010
0000
0100
0000
,
0001
1000
0001
0000
1000
0000
0100
0010
,
0001
0000
1000
0000
0010
0000
0100
0001
,
0000
1000
0100
0010
,
0001
0000
0000
0000
0000
0000
0000
0000
0100
0000
0000
0010
0000
0000
1000
0000
,
0100
0000
0000
0000
0000
0000
0010
0000
0100
0000
0000
1000
0000
0000
0001
1000
,
0001
0000
0000
0000
0000
0000
0000
0000
0001
0000
0000
0100
0000
0000
0010
0000
,
1000
0000
0000
0000
0000
0001
1000
0000
0001
0000
2000
0000
0000
0000
3000
0000
,
0001
0001
0010
0010
,
0100
0000
0100
0000
1000
0001
0000
0100
,
0010
0010
1000
1000
,
0001
0010
0100
0000
1000
0100
0010
0000
,
0001
0001
0100
0100
,
0010
0000
0010
0000
1000
0001
1000
0000
,
0100
0100
0010
0010
,
0001
1000
0001
1000
0001
1000
0001
0000
,
0100
0100
0010
0010
,
1000
0000
1000
0000
0100
0010
0100
0000
,
0010
0010
0001
0001
,
1000
0000
0000
0010
0100
0000
0000
0001
,
0100
0000
0000
0010
1000
0000
0000
0001
,
1000
0001
0000
0100
0000
0010
0000
1000
,
0010
1000
0010
0000
0100
0010
0100
0000
,
0001
1000
0000
0010
0000
0100
0000
0001
,
0100
0000
0001
0100
0001
0100
0001
0000
,
1000
0010
0000
0100
0000
0010
0100
0000
,
0001
0010
0100
0000
1000
0001
0100
0000
,
0010
0000
1000
0010
0100
0001
0000
0000
,
1000
0001
1000
0001
2000
0000
0010
3000
,
0202
0000
0000
0000
,
0000
0000
0000
0000
,
0300
0000
0000
0000
,
0000
0000
0000
0000
,
0000
0000
0000
0000
,
0003
0000
0000
0000
;

//---------------dance-double - M. Simmons----------------
#NOTES:
     dance-double:
     M. Simmons:
     Challenge:
     12:
     0.854,0.860,0.550,0.300,0.185:
00000000
00000000
00000000
00000000
,
00000000
00000000
00000000
00000000
,
00000010
00000000
00000000
00000000
00000000
0000MM00
00000000
00000000
00010000
00000000
00000000
00001000
00000000
000M0000
00000010
00000000
,
00000001
00000000
00001100
00000000
00011000
00000000
00100000
00000M00
00100000
00000000
00000000
01000000
00000000
00000000
00010000
00M01000
,
00000100
0M000000
00000010
00000000
00000101
00000000
00000000
000000M0
00001000
00000000
0M000000
00000100
00000000
0000M000
00010000
00000000
,
01010000
00000000
00000000
00M00000
00000000
M0000000
01000000
00000000
10000000
00010000
00001000
00M00000
00000000
0000M001
00000000
00000000
,
00002002
00000000
00000000
00003003
,
00000001
00000000
00001000
00000000
00000100
00000010
00001000
00000000
,
00010000
00100000
01000000
00010000
00100000
00001000
00010000
00000000
,
00001000
00000000
00000010
00000000
00000001
00001000
00000010
00000000
,
00000100
00000010
00010000
00000100
00001000
00000010
00010000
00001000
,
01000000
00000000
00001000
00000000
00100000
00010000
10000000
00000000
,
01000000
00100000
10000000
00100000
00010000
01000000
00001000
00000100
,
00001000
00000000
00010000
00000000
00001000
00000000
00100000
00110000
,
00000000
00000000
01000000
00000000
01010000
00000000
00000000
00000000
10000000
00000000
00000000
00000000
00010000
00100000
00010000
00100000
,
00010000
00100000
00001000
00010000
00000100
00000010
00001000
00000010
,
00000001
00000100
00000010
00000100
00001000
00010000
01000000
00100000
,
00010000
10000000
00100000
00010000
00001000
00100000
00001000
00010000
,
00000010
00000100
00000001
00001000
00000100
00001000
00000020
00000000
,
01000030
00100000
10000000
00010000
00100000
10000000
00100000
01000000
,
00010000
01000000
10000000
00010000
01000000
00001000
00010000
00001000
,
00100000
00000000
00110000
00000000
00001010
00000000
00101000
00010000
,
00000000
00100000
00011000
00000000
00002020
00000000
00003030
00000000
,
00000001
00001000
00000100
00000000
00000110
00000000
00011000
00000000
,
00010000
00001000
00100000
00000000
00011000
00000000
00000110
00000000
,
00000100
00010000
00001000
00000000
00110000
00000000
11000000
00000000
,
10000000
00010000
00000000
00001000
00000000
00000001
00000000
00000100
,
00000010
00010000
00001000
00000000
00110000
00000000
01010000
00000000
,
10000000
01000000
00010000
00000000
00001100
00000000
00000011
00000000
,
00000001
00001000
00000010
00000000
00000110
00000000
00011000
00000000
,
00001000
00100000
10000000
00100000
00010000
01000000
00001000
01000000
,
00001000
00100000
00002000
01000000
01000000
00000000
10000000
00000000
,
20003000
00010000
00010000
30010000
00010000
10000000
00001000
00000000
,
00001000
00010000
00000002
00001000
00001000
00000000
00010003
00000000
,
00001000
00000000
00010000
00000100
00010000
00000000
00001000
00000000
02000000
00000000
00000100
00000000
03000100
00000000
00000000
00000000
,
00100000
00010000
01000000
00100000
10000000
00010000
00100000
01000000
,
00010000
00001000
00000100
00000010
00001000
00000001
00000010
00000100
,
00000001
00000100
00010000
00000010
00000100
00001000
00010000
01000000
,
10000000
00010000
01000000
00100000
10000000
00010000
02000000
00000000
,
03000010
00001000
00000100
00001000
00000001
00000100
00000010
00001000
,
00000100
00010000
00100000
01000000
00010000
10000000
01000000
00010000
,
00001000
00000000
00100000
00000000
01010000
00000000
00001000
00011000
,
00000000
00010000
00010010
00000000
00002200
00000000
00003300
00000000
,
02000200
00000000
00000000
00010000
00001000
00000000
00001000
00000000
,
00100000
00000000
00000000
00001000
00010000
00000000
00001000
00010000
,
00011000
00000000
00011000
00000000
00001000
00000000
00000000
00100000
,
00001000
00000000
00010000
00000010
00001000
00000000
00022000
00033000
,
03011300
00000000
00000000
00000100
00001000
00000010
00000100
00000010
,
00001000
00000000
00000000
00000100
00010000
00001000
01000000
00100000
,
00010000
00100000
10000000
00000000
00001000
00010000
00100000
00000000
,
01000000
00001000
00000010
00000100
00010000
00001000
00100000
00001000
,
00010000
00000100
00000010
00000001
00000100
00000010
00000001
00000010
,
00000100
00000010
00010000
00000100
00010000
00001000
01000000
00010000
,
10000000
01000000
00010000
01000000
00100000
00001000
00010000
00000010
,
00000100
00000001
00001000
00000100
00000010
00001000
00010000
00000010
,
00000100
00001000
00010000
00000100
00001000
00000010
00010000
00001000
,
00100000
01000000
10000000
00010000
01000000
00100000
00010000
00100000
,
10000000
00000000
00110000
00000000
00011000
00000000
00000100
00100000
,
00000000
00000010
01000000
00000000
00022000
00000000
00033000
00000000
,
00000100
00000000
000M0000
00000000
00001100
00000000
00000000
00000M00
00010000
00000000
00000000
00000010
00000000
000M0000
00000100
0000M000
,
00000001
00000000
00001000
00000000
00001100
00000000
000100M0
00000000
00001100
000M0000
00000000
00010000
00000000
00000000
0M001000
00100000
,
00010000
00000000
01000000
000M0000
10100000
00000000
00000000
00M00000
10010000
00000000
00000000
00011000
M0000000
00000000
00001001
000M0000
,
00000110
00000000
00000000
0000M000
00010000
000001M0
00001000
00000000
000M0010
0000M000
00000100
00000000
00000001
000000M0
00001000
0000000M
,
00000100
00010000
00002000
00010000
00010000
00000000
10003000
00000000
,
10000000
01000000
00200000
00001000
00001000
00001000
00000000
00300010
,
00000010
00000100
00000002
00001000
00001000
00000000
00010003
00000000
,
00001000
01000000
10000000
00000000
10000000
01000000
00001000
00000000
,
10000000
01000000
00000000
00110000
00000000
00011000
00000000
00010000
,
00000010
00001000
00000010
00010000
00000000
00001000
00002000
00000000
,
01003000
00100000
10000000
01000000
00000000
00010000
00000000
00001000
,
00000100
00000010
00001000
00000001
00000010
00000100
00020000
00000000
,
00031000
00001000
00000000
00010000
00000000
00000100
00000010
00000001
,
00001000
00000100
00000010
00000100
00000000
00000010
00000020
00000000
,
00000130
00001000
00000001
00000100
00000000
00000001
00000100
00000000
,
00001000
00000000
00010000
00000000
00100000
00000000
00010000
00100000
00010000
00000000
00100000
00000000
10000000
00000000
00010000
00100000
,
00010000
00000000
00100000
00000000
00001000
00000000
00000010
00000100
00000010
00000000
00000100
00000000
00001000
00000000
00000001
00000000
,
00001001
00000100
00000000
00000011
00000000
00001010
00000000
00000100
,
00010000
00000000
00011000
00000000
01000000
00100000
00020000
00000000
,
00031000
00010000
00000000
00000011
00000000
00001010
00000000
00000001
,
00000100
00001000
00010000
00100000
10000000
01000000
00020000
00000000
,
00031000
00000000
00000000
00011000
00000000
00010000
00000100
00010000
,
00000010
00000100
00000001
00001000
00000100
00000010
00002000
00000000
,
00103000
00000000
00000000
01000000
01100000
01000000
00000000
00100000
,
00010000
00000100
00000001
00001000
00000020
00000000
00000000
00000000
,
00002200
00000030
00000000
00000000
,
00000000
00000000
00000000
00000000
,
00003300
00000000
00000000
00000000
;

//---------------dance-double - M. Simmons----------------
#NOTES:
     dance-double:
     M. Simmons:
     Easy:
     5:
     0.486,0.510,0.350,0.420,0.000:
00000000
00000000
00000000
00000000
,
00000000
00000000
00000000
00000000
,
00110000
00000000
00002000
00013000
,
00011000
00000000
00020000
00030100
,
00010100
00000000
00000200
00000310
,
00000110
00000000
00000001
00000100
,
00000220
00000000
00000000
00000330
,
00000010
00001000
00000100
00010000
,
00001000
00100000
00100000
00010000
,
01000000
00100000
10000000
00010000
,
01000000
00001000
00001000
00010000
,
00000100
00000010
00000001
00001000
,
00000010
00000100
00000100
00000010
,
00010000
00000000
00001000
00000000
00100000
00000000
00010000
01000000
,
00000000
00100000
00100000
00000000
,
10000000
00010000
00100000
00001000
,
00010000
00000010
00000100
00000001
,
00001000
00000100
00000010
00000100
,
00010000
00000100
00001000
00000020
,
00000130
00000001
00001000
00000100
,
00010000
00001000
00100000
00010000
,
01000000
00000000
00100000
00000000
01000000
00000000
00010000
10000000
,
00000000
00010000
00010000
00000000
,
20000000
00000000
30000000
00110000
00000000
00000000
00000000
00000000
,
00002000
00000000
00003000
00011000
00000000
00000000
00000000
00000000
,
00020000
00000000
00030000
00001010
00000000
00000000
00000000
00000000
,
00002002
00000000
00000000
00003003
,
00000002
00000000
00000003
00001010
00000000
00000000
00000000
00000000
,
00020000
00000000
00030000
00110000
00000000
00000000
00000000
00000000
,
02000000
00000000
03000000
10010000
00000000
00000000
00000000
00000000
,
10000000
01000000
00100000
00010000
,
01000000
01000000
02020000
03030000
,
00010000
00100000
00022000
00033000
,
00001000
00010000
00020200
00030300
,
00000100
00000010
00000220
00000330
,
00000010
00000100
00001000
00000001
,
00000100
00000010
00001000
00000100
,
00010000
00001000
00100000
00010000
,
01000000
00100000
01000000
00020000
,
10030000
01000000
00100000
00010000
,
00100000
00001000
00010000
00000010
,
00000100
00000000
00000001
00000000
00001000
00000000
00000100
00000010
,
00000000
00000100
00000100
00000000
,
00022000
00000000
00000000
00000000
,
00000000
00000000
00033000
00000000
,
00002200
00000000
00000000
00000000
,
00000000
00000000
00003300
00000000
,
00011000
00000000
00010000
00000000
,
00100000
00000000
01000000
00000000
,
00011000
00000000
00011000
00000000
,
00001000
00010000
00001000
00010000
,
00001000
00000010
00000001
00000100
,
00000010
00001000
00000001
00000100
,
00000010
00010000
00001000
00100000
,
00010000
00100000
01000000
10000000
,
00010000
01000000
00100000
00010000
,
00100000
01000000
00010000
00100000
,
00001000
00000000
00010000
00000000
00000010
00000000
00000100
00000001
,
00000000
00000001
00000001
00000000
,
00000101
00000000
00000002
00001003
,
00001010
00000000
00000020
00010030
,
00010100
00000000
00002000
00103000
,
00110000
00000000
00010000
10000000
,
01000000
01000000
00220000
00330000
,
00001000
00000000
00010000
00000000
00002200
00000000
00000000
00003300
,
00000100
00010000
00022000
00033000
,
00100000
01100000
01000000
01010000
,
01000000
00010000
00100000
00001000
,
00010000
00000100
00000010
00000001
,
00000100
00000010
00001000
00000001
,
00000100
00000010
00010000
00001000
,
00100000
00010000
01000000
00100000
,
10000000
00010000
01000000
00010000
,
10000000
01000000
00100000
00010000
,
00200000
00301000
00020000
00030100
,
00002000
00003010
00000200
00000301
,
00000001
00000000
00000000
00001000
00000000
00000000
00000000
00000000
,
00000100
00010000
00010000
00001000
,
00100000
00000000
00000000
00010000
00000000
00000000
00000000
00000000
,
01000000
01000000
00100000
00100000
,
10000000
00000000
00000000
00010000
00000000
00000000
00000000
00000000
,
00100000
00001000
00001000
00010000
,
00001100
00000000
00000011
00000000
,
00001001
00001000
00001010
00000000
,
00020200
00000000
00000000
00000000
,
00030300
00000000
00000000
00000000
;

//---------------dance-single - NIQ9----------------
#NOTES:
     dance-single:
     NIQ9:
     Beginner:
     1:
     0.160,0.222,0.020,0.200,0.000:
0000
0000
0000
0000
,
0000
0000
0000
0000
,
0001
0000
1000
0000
,
0010
0000
0100
0000
,
0001
0000
0010
0000
,
0100
0000
1000
0000
,
1001
0000
0000
0000
,
0001
0000
0000
0000
,
0000
0000
0000
0000
,
0100
0000
0000
0000
,
0000
0000
0000
0000
,
0010
0000
0000
0000
,
0000
0000
0000
0000
,
1000
0000
0000
0000
,
0000
0000
0000
0000
,
0100
0000
0000
0000
,
0010
0000
0000
0000
,
0001
0000
0000
0000
,
0001
0000
0000
0000
,
1000
0000
0000
0000
,
0001
0000
0000
0000
,
0010
0000
0000
0000
,
0010
0000
0000
0000
,
0002
0000
0003
0000
,
2000
0000
3000
0000
,
0020
0000
0030
0000
,
0100
0000
0000
0000
,
0200
0000
0300
0000
,
0020
0000
0030
0000
,
2000
0000
3000
0000
,
0001
0000
0000
0000
,
1000
0000
0002
0003
,
0000
0000
2000
3000
,
0000
0000
0002
0003
,
0000
0000
2000
3000
,
0001
0000
0000
0000
,
0010
0000
0000
0000
,
0100
0000
0000
0000
,
1000
0000
0000
0000
,
0010
0000
0000
0000
,
0100
0000
0000
0000
,
0001
0000
0000
0000
,
0000
0000
0000
0000
,
1000
0000
0000
0000
,
0000
0000
0000
0000
,
0100
0000
0000
0000
,
0000
0000
0000
0000
,
0010
0000
0000
0000
,
0001
0000
0000
0000
,
0010
0000
0010
0000
,
1000
0000
0000
0000
,
0010
0000
0000
0000
,
0001
0000
0000
0000
,
0100
0000
0000
0000
,
0010
0000
0000
0000
,
1000
0000
0000
0000
,
0100
0000
0000
0000
,
0020
0000
0030
0000
,
0002
0000
0003
0000
,
1000
0000
0010
0000
,
0100
0000
0001
0000
,
0010
0000
0100
0000
,
1000
0000
0001
0000
,
1000
0000
0200
0300
,
0000
0000
0020
0030
,
0000
0000
0002
0003
,
0000
0000
2000
3000
,
0001
0000
0000
0000
,
0010
0000
0010
0000
,
0001
0000
0000
0000
,
0001
0000
0001
0000
,
1000
0000
0000
0000
,
0010
0000
0010
0000
,
0100
0000
0000
0000
,
0002
0000
0003
0000
,
2000
0000
3000
0000
,
0010
0000
0000
0000
,
0000
0000
0000
0000
,
1000
0000
0000
0000
,
0001
0000
0000
0000
,
1000
0000
0000
0000
,
0100
0000
1000
0000
,
0001
0000
0000
0000
,
0010
0000
0000
0000
,
2002
0000
0000
0000
,
0000
0000
0000
0000
,
3000
0000
0000
0000
,
0000
0000
0000
0000
,
0000
0000
0000
0000
,
0003
0000
0000
0000
;

//---------------dance-single - NIQ9----------------
#NOTES:
     dance-single:
     NIQ9:
     Easy:
     6:
     0.441,0.578,0.370,0.340,0.015:
0000
0000
0000
0000
,
0000
0000
0000
0000
,
1002
0000
0013
0100
,
1002
0000
0103
0100
,
2010
0000
3001
0010
,
2100
0000
3001
0100
,
0020
0000
0000
0000
,
1030
0000
1000
0000
,
0001
0000
0001
0000
,
0010
0000
0010
0000
,
0100
0000
0100
0000
,
1000
0000
1000
0000
,
0001
0000
0010
0010
,
0020
0000
0000
0000
,
0000
0000
0000
0030
,
0001
0010
0100
1000
,
0100
0010
0001
0100
,
0010
1000
0100
0100
,
0010
0001
0100
0120
,
1030
0001
0010
0100
,
1000
0100
0001
0100
,
2000
0000
0000
0000
,
0002
0000
0000
3003
,
0002
0000
0000
1003
0000
0000
0000
0000
,
2000
0000
0000
3100
0000
0000
0000
0000
,
0200
0000
0000
0310
0000
0000
0000
0000
,
0001
0000
0000
0010
0000
0100
0000
0000
,
2000
0000
0000
3001
0000
0000
0000
0000
,
0002
0000
0000
0013
0000
0000
0000
0000
,
0200
0000
0000
1300
0000
0000
0000
0000
,
0001
0100
0000
0010
0000
0000
0000
0000
,
1000
0001
2002
3003
,
1000
0100
0022
0033
,
0001
0100
0220
0330
,
0010
0010
2002
3003
,
0001
0100
0010
1000
,
0001
0001
0010
0100
,
1000
0001
0100
0010
,
1000
1000
0001
2001
,
3001
0010
0100
1000
,
0001
0100
0010
0010
,
1000
0000
0001
0000
0010
0000
0100
0010
,
0000
0000
0001
0000
0001
1000
0000
0000
,
0002
0000
0000
0000
,
0100
0000
0000
0000
,
2000
0000
0000
0000
,
0010
0000
0000
3003
,
1001
0000
00M0
0000
,
0101
0000
M000
0000
,
0110
0000
1010
0000
,
1001
0101
1001
2100
,
3001
0100
0010
1000
,
0100
0010
0001
0010
,
0010
0001
0100
0010
,
1000
0001
0010
0100
,
0100
1000
0001
0100
,
0010
1000
0001
0010
,
0010
0000
0100
0000
1000
0000
0001
0100
,
0000
0000
0010
0000
1000
0010
0000
0000
,
1010
0000
0000
0000
0000
0000
0000
0000
1000
0000
0000
0100
0000
0000
0010
0000
,
1001
0000
0000
0000
0000
0000
0001
0000
0001
0000
0000
0100
0000
0000
0010
0000
,
1001
0000
0000
0000
0000
0000
0000
0000
1000
0000
0000
0010
0000
0000
0100
0000
,
0101
0110
0100
0010
,
1000
0001
0200
0000
,
0310
1000
0002
0000
,
0013
0100
2000
0000
,
3001
0100
0120
0000
,
1030
0000
0000
0001
0000
0010
0000
0000
,
1001
1001
1001
0001
,
0100
0000
0000
0010
0000
0010
0000
0000
,
1001
1001
1001
1000
,
0001
0000
0000
0100
0000
0001
0000
0000
,
0110
0110
0110
1000
,
0100
0000
0000
0001
0000
0100
0000
0000
,
0100
1000
0001
0100
,
0010
0000
0100
0001
,
0101
0000
0000
0000
,
0010
0000
0000
0000
,
1001
0000
0000
0000
,
0100
0000
0000
0000
,
0101
0000
0000
1000
0000
0010
0000
0000
,
0100
0100
0001
1000
,
0100
0000
0000
0010
0000
0002
0000
0000
,
0103
0001
1000
0010
,
0220
0000
0000
0000
,
0000
0000
0000
0000
,
0030
0000
0000
0000
,
0000
0000
0000
0000
,
0000
0000
0000
0000
,
0300
0000
0000
0000
;

//---------------dance-double - D. Bernardone----------------
#NOTES:
     dance-double:
     D. Bernardone:
     Hard:
     9:
     0.627,0.645,0.250,0.110,0.060:
00000000
00000000
00000000
00000000
,
00000000
00000000
00000000
00000000
,
00010000
00000000
00000000
00000000
00000000
00000000
00000000
00000000
01000000
00000000
00000000
00010000
00000000
00000000
00000100
00000000
,
00000001
00000000
00000000
00000000
00000000
00000000
00001000
00000000
00000001
00000000
00000000
00000010
00000000
00000000
00000100
00010000
,
00000100
00000000
00000000
00000000
00000000
00000000
00000000
00000000
00000100
00000000
00000000
00010000
00000000
00000000
00100000
00000000
,
10000000
00000000
00000000
00000000
00000000
00000000
00010000
00000000
00010000
01000000
00100000
00000000
10000000
01000000
00000000
00100000
,
00010000
00000000
02000000
00000000
,
03100000
10000000
01000000
01000000
,
00100000
00001000
01000000
01000000
,
00010000
00100000
00001000
00001000
,
00010000
00000100
00001000
00001000
,
00000010
00000000
00000100
00000000
00000001
00000000
00000001
00000010
,
00000100
00000000
00000100
00000000
00010000
00000000
00010000
00001000
,
00010000
00000000
00011000
00000000
00011000
00000000
00001000
00100000
,
00000000
00000000
00100000
00000000
00010000
00000000
01000000
00010000
,
01000000
00000000
00100000
00000000
10000000
01000000
10000000
00000000
,
00100000
00000000
01000000
00000000
00001000
00010000
00001000
00000000
,
01000000
00000000
00010000
00000000
00100000
00001000
00100000
00000000
,
00010000
00000000
01000000
00000000
00001000
00010000
00002000
00000000
,
00013000
00000000
00000100
00000000
00001000
00000010
00001000
00000100
,
00001000
00000000
00000100
00000000
00000010
00000001
00001000
00000001
,
00000100
00000000
00000010
00000000
00010000
00000000
00001000
00010000
,
00000000
00000000
00010000
00000000
00001000
00000000
00100000
00010000
,
00100000
00000000
01000000
20000000
00000000
00000000
3M000000
00000000
,
00010000
00000000
01000000
00002000
00000000
00000000
0M003000
00000000
,
00010000
00000000
00000100
00002000
00000000
00000000
00003M00
00000000
,
00000010
00000100
00000000
00000001
000000M0
00000001
00000000
00001000
,
00000100
00000000
00010000
00001000
00000000
00100000
000M1000
00000000
,
01000000
00000000
00010000
00100000
00000000
01000000
100M0000
00000000
,
01000000
00000000
10000000
00010000
00000000
01000000
M0010000
00000000
,
01000000
00001000
00010000
00001000
00000000
00010000
00000010
00001000
,
00000100
00000010
00000110
00000110
,
00000001
000000M0
00001000
00000000
00000100
00000100
00000100
00000000
,
00010000
00000M00
00001000
00000000
00101000
00000000
00101000
00000000
,
00100000
0000M000
00010000
00000000
01000000
01000000
01000000
00000000
,
00100000
10000000
01000000
00100000
01000000
10000000
00100000
00000000
,
00010000
00001000
00010000
00100000
00010000
00001000
00010000
00000000
,
00000100
00010000
00000010
00010000
00000100
00010000
00000010
00000000
,
00000100
00001000
00010000
00001000
00000100
00001000
00020000
00000000
,
00130000
01000000
00010000
01000000
00100000
01000000
00001000
00000000
,
00010000
00000100
00000010
00000100
00010000
00000100
00000010
00000001
,
00001000
00000000
00000010
00000000
00000010
00000000
00000100
00000100
,
00000000
00001000
00100000
00100000
,
00002000
00000000
00000000
00000000
,
00000100
00000000
00000000
00000000
00010000
00000000
00003000
00010000
,
00001000
00020000
00000000
00000000
,
01000000
00000000
00000000
00000000
00001000
00000000
00031000
00010000
,
00000020
00000000
00000030
00000000
,
00000110
00000000
00000000
00000000
00000MM0
00000000
00000000
00000010
,
00010000
00000000
00000000
000001M0
00010000
00000000
00000000
00001000
,
00011000
00000000
00011000
00000000
00001000
00010000
00000000
00010000
,
00001000
00000000
00100000
00000000
00010000
01000000
00010000
00000000
,
01000000
00000000
00100000
00000000
10000000
01000000
10000000
00000000
,
00100000
00000000
00010000
00000000
00001000
00010000
00001000
00000000
,
00000010
00000000
00000100
00000000
00001000
00000010
00001000
00000000
,
00000001
00000000
00000010
00000000
00000100
00010000
00000100
00000000
,
00000010
00000000
00001000
00000000
00010000
00001000
00010000
00000000
,
00001000
00000000
00101000
00000000
00110000
00000000
00010000
10000000
,
00000000
00000000
11000000
00000000
10000000
00000000
00010000
10000000
,
00010000
00000000
00000000
00000000
00000000
00000000
00000000
00000000
01000000
00000000
00000000
00011000
00000000
00000000
00000010
00000000
,
00000100
00000000
00000000
00000000
00000000
00000000
00001000
00000000
00000001
00000000
00000000
00001010
00000000
00000000
00000001
00001000
,
00000001
00000000
00000000
00000000
00000000
00000000
00000000
00000000
00000100
00000000
00000000
00010010
00000000
00000000
00100000
00000000
,
01000000
00000000
00000000
00000000
01000000
00010000
10000000
00000000
00010000
00000000
00000000
00000000
10010000
00000000
00000000
00000000
,
10000000
010M0000
00100000
00000000
01100000
00000000
01100000
00000000
,
00010000
00M00000
01000000
00000000
00001000
00001000
00000000
00001000
,
00010000
000000M0
00000100
00000000
00001100
00000000
00001100
00000000
,
00001000
00000M00
00001001
00000000
00000001
0000M000
00000011
00000000
,
00000001
00001000
00000000
00000100
00000000
00000100
00000000
00010000
,
00001000
01000000
00010000
01000000
00001000
01000000
00010000
00000000
,
10000000
00100000
00000000
00010000
00000000
00001000
01000000
00000000
,
00010000
01000000
00010000
01000000
00001000
00010000
00001000
00010000
,
00000100
00001000
00000000
00000010
00000000
00000001
00000010
00001000
,
00000010
00000001
00000010
00001000
00000100
00001000
00001000
00000000
,
00000100
00010000
00000000
00001000
00000000
00100000
00100000
00000000
,
00110000
00000000
00010000
00100000
00100000
00000000
01000000
10000000
,
10000000
00000000
00010000
01000000
01000000
00000000
00001000
00010000
,
00010000
00000100
00000000
00000100
00000000
00000100
00000000
00000100
,
00000010
00000001
00000000
00000010
00000001
00001000
00000001
00000000
,
00000101
00000000
00000000
00000010
00000000
00000010
00000000
00000010
,
00010000
00001000
00010000
00001000
01000000
00001000
01000000
00001000
,
00010000
00000000
00000000
00001000
00000000
01000000
00100000
01000000
,
00010000
01000000
00010000
00000000
00010000
00010000
10000000
00000000
,
01000000
00000000
00000000
00100000
00001000
01000000
00000000
00000000
,
00010000
00100000
00001000
00000100
00002000
00000000
00000000
00003000
,
00010200
00000000
00000000
00000000
,
00000000
00000000
00000000
00000000
,
00000300
00000000
00000000
00000000
;

//---------------dance-double - D. Bernardone----------------
#NOTES:
     dance-double:
     D. Bernardone:
     Medium:
     6:
     0.493,0.588,0.270,0.180,0.000:
00000000
00000000
00000000
00000000
,
00000000
00000000
00000000
00000000
,
10000000
00000000
00010000
00000000
00110000
00000000
00100000
00001000
,
00010000
00000000
00000100
00000010
00000010
00000000
00000001
00000000
,
00000100
00000000
00000110
00000000
00010000
00000000
00001000
00100000
,
00010000
00000000
10000000
01000000
00200000
00000000
00302000
00000000
,
00013000
00000000
00000020
00000000
,
00000130
00000001
00001000
00000000
,
00001000
00000010
00010000
00000000
,
00010000
00001000
00100000
00000000
,
00100000
01000000
10000000
00000000
,
10000000
00100000
00010000
00000000
,
00010000
00001000
00010000
00000000
,
00010000
00000000
00000100
00000000
00000100
00000000
00001000
00000100
,
00000000
00001000
00001000
00001000
,
00000001
00000100
00001000
00000000
,
00010000
01000000
10000000
00000000
,
01000000
00100000
00001000
00000000
,
00010000
00001000
01000000
00000000
,
00100000
00010000
00001000
00000000
,
00010000
00000010
00000100
00000000
,
00000001
00000000
00001000
00000000
00001000
00000000
00000010
00001000
,
00000000
00000010
00000010
00000010
,
00020000
00000000
00031000
00000000
,
02000000
00000000
03100000
00000000
,
20000000
00000000
31000000
00000000
,
00100000
00010000
00000000
01000000
00000000
01000000
00000000
00010000
,
00200000
01000000
01300000
00000000
,
20000000
00010000
30010000
00000000
,
01000000
00001000
00010000
00000000
,
00001000
00000010
00000100
00000000
,
00001000
00000001
00001001
00001001
,
00001000
00000000
00000010
00000000
00010000
00001000
00010000
00000000
,
00000100
00001000
00001010
00001010
,
00000010
00000000
00010000
00000000
00001000
00100000
00001000
00000000
,
01000000
00010000
00100000
00000000
,
01000000
10000000
00100000
00000000
,
01000000
00001000
00010000
00000000
,
00000100
00001000
00000010
00000200
,
00000301
00000010
00001000
00000000
,
00010000
00100000
10000000
01000000
,
01000000
00000000
00100000
00000000
00100000
00000000
00010000
00100000
,
00000000
00010000
00010000
00010000
,
02000000
00000000
00001000
00000000
,
00010000
00000000
03001000
00000000
,
00011000
00011000
00020000
00000000
,
00001000
00000000
00030100
00000000
,
00001100
00000000
00000000
00000000
,
00000011
00000000
00000000
00000000
00000000
00000000
00000000
00000001
,
00001000
00000000
00000000
00001000
00000001
00000000
00000000
00000001
,
00001000
00000000
00001000
00000000
00001000
00000010
00000000
00000010
,
00001000
00000100
00010000
00010000
,
00001000
01000000
00010000
00010000
,
00100000
01000000
10000000
10000000
,
00010000
01000000
00001000
00001000
,
00010000
00000100
00000010
00000010
,
00000100
00001000
00000001
00000001
,
00000100
00000000
00000010
00000000
00000010
00000000
00001000
00000010
,
00000000
00001000
00001000
00001000
,
00000200
00010300
00011000
00101000
,
00011000
00000000
00001000
01000000
00010000
00000000
00110000
00000000
,
11000000
10000000
01010000
01001000
,
01010000
00000000
00010000
00100000
00002000
00000000
00003020
00000000
,
00000031
00000100
00000101
00000101
,
00001000
00000000
00000100
00000000
00010000
00000100
00000000
00010000
,
00000100
00010000
00011000
00011000
,
00002000
00103000
00002000
00103000
,
00010000
01000000
10000000
01000000
,
00001000
00010000
00000100
00000001
,
00000100
00001000
00000010
00001000
,
00000100
00011000
00100000
00011000
,
01000000
00010000
00100000
01000000
,
10000000
00100000
00010000
00001000
,
00020000
00000000
00000000
00030100
00000000
00001000
00000001
00000000
,
00000001
00000100
00001000
00010000
,
01000000
10000000
00100000
00010000
,
00001000
01000000
00100000
00000000
,
10000000
01000000
01000000
01000000
,
10010000
00000000
00010000
01000000
,
00001000
00010000
00000010
00000100
,
00000101
00000000
00000000
00000001
00000000
00001000
00000100
00001000
,
00000100
00000000
00000000
00010000
00001000
00010000
00001000
00000000
,
01000000
00000000
00000000
00010000
10000000
00010000
00000000
00000000
,
01000000
00100000
00020000
00031000
,
00011000
00000000
00000000
00000000
;
