#TITLE:Remember December;
#SUBTITLE:;
#ARTIST:DJ Meas;
#TITLETRANSLIT:;
#SUBTITLETRANSLIT:;
#ARTISTTRANSLIT:;
#GENRE:Electronic Score;
#CREDIT:Sync by HellRazoR;
#BANNER:Remember December-bn.png;
#BACKGROUND:Remember December-bg.png;
#LYRICSPATH:;
#CDTITLE:;
#MUSIC:Remember December.ogg;
#OFFSET:0.011;
#SAMPLESTART:8.780;
#SAMPLELENGTH:12.000;
#SELECTABLE:YES;
#DISPLAYBPM:152.000:76.000;
#BPMS:0.000=152.000,148.000=154.200,152.000=76.000,168.000=152.000,272.000=76.000;
#STOPS:;
#BGCHANGES:0.000=Remember December-bg.png=1.000=0=0=1=====,
16.000=In The Groove Rebirth/1159_JumpBack.mpg=1.000=0=0=1=====,
32.000=In The Groove Rebirth/1124_JumpBack.mpg=1.000=0=0=1===SlideLeft==,
48.000=In The Groove Rebirth/1139_JumpBack.mpg=1.000=0=0=1=====,
64.000=In The Groove Rebirth/800_JumpBack.mpg=1.000=0=0=1===SlideLeft==,
80.000=In The Groove Rebirth/508_JB_HD.mpg=1.000=0=0=1===FadeUp==,
96.000=In The Groove Rebirth/406_JB_HD.mpg=1.000=0=0=1=====,
108.000=Remember December-bg.png=1.000=1=0=1===CrossFade==,
112.000=In The Groove Rebirth/307_JB_HD.mpg=1.000=1=0=1===CrossFade==,
128.000=In The Groove Rebirth/243_JB_HD.mpg=1.000=0=0=1=====,
145.500=Remember December-bg.png=1.000=1=0=1===CrossFade==,
152.000=In The Groove Rebirth/1159_JumpBack.mpg=0.400=0=0=1=Kaleidoscope2x2====,
168.000=In The Groove Rebirth/1133_JumpBack.mpg=1.000=0=0=1=====,
184.000=In The Groove Rebirth/800_JumpBack.mpg=1.000=0=0=1===FadeRight==,
200.000=In The Groove Rebirth/519_JB_HD.mpg=1.000=0=0=1=====,
216.000=In The Groove Rebirth/320_JB_HD.mpg=1.000=0=0=1===SlideLeft==,
232.000=In The Groove Rebirth/1124_JumpBack.mpg=1.000=0=0=1=====,
248.000=In The Groove Rebirth/1139_JumpBack.mpg=1.000=0=0=1=====,
264.000=Remember December-bg.png=1.000=1=0=1===CrossFade==,
99999=-nosongbg-=1.000=0=0=0 // don't automatically add -songbackground-
;
#BGCHANGES2:48.000=white flash=1.000=0=0=1=====,
152.000=white flash=1.000=0=0=1=====,
232.000=white flash=1.000=0=0=1=====,
272.000=flash=1.000=0=0=1====0.5^0.5^0.5^1=,
;
#KEYSOUNDS:;

//---------------dance-single - D. Bernardone----------------
#NOTES:
     dance-single:
     D. Bernardone:
     Hard:
     7:
     0.482,0.530,0.327,0.223,0.082:
0000
0000
0000
0000
,
0000
0000
0000
0000
,
0000
0000
0000
0000
,
0000
0000
0000
0000
,
0002
0000
0103
1000
0100
0000
0010
0000
,
2000
0000
3100
0001
0100
0000
0010
0000
,
0002
0000
0013
1000
0010
0000
0100
0000
,
2000
0000
3010
0001
0010
0000
0100
0000
,
0002
0000
0013
0100
0010
0000
1000
0000
,
0020
0000
0031
1000
0001
0000
0100
0000
,
0002
0000
0103
0010
0100
0000
1000
0000
,
0200
0000
0301
0010
0100
0100
1000
0001
,
0100
1010
0001
0110
,
1000
1100
0001
0011
,
1000
1001
0100
1010
,
0100
0000
0101
0001
1000
0000
1100
1000
,
0010
0011
0100
1001
,
0010
0101
1000
1100
,
0010
0110
0001
1001
,
1000
0000
0010
0000
0100
0000
0001
0000
0010
0000
0100
0000
1000
0001
1000
0001
,
1000
0000
0010
0100
0001
0000
0010
0100
,
1000
0000
0100
0010
0001
0000
0100
0010
,
1000
0000
0100
0010
0100
0010
0100
0010
,
0002
0203
2300
3200
,
0301
0000
1000
0100
0010
0000
0001
0100
,
0010
0000
1000
0010
0100
0000
0001
0010
,
0100
0000
1000
0001
1000
0001
1000
0001
,
0011
1100
1010
0101
,
1001
0000
1000
0100
0000
0100
1000
0000
,
1001
0000
0001
0100
0000
0001
1000
0000
,
0011
0000
0010
0100
0000
0100
1000
0000
,
1001
0000
0001
0100
0000
0010
0100
0000
,
0101
0000
0100
0010
0000
0010
1000
0000
,
1001
0000
0001
0010
0000
0010
0001
0000
,
0011
0000
0001
0100
1000
0000
0100
0001
,
0010
0000
0100
1000
0001
1000
0010
0000
,
0100
0000
0000
0001
0000
0000
0010
0000
,
0210
0000
0000
0000
,
1300
0000
0001
0000
0100
0000
0010
0000
0110
0000
0000
1001
0000
0000
1000
0000
,
0001
0000
0010
0000
0100
0000
1000
0000
1100
0000
0000
0011
0000
0000
0010
0000
,
0001
0000
0100
0000
0010
0000
1000
0000
1010
0000
0000
0101
0000
0000
0001
0000
,
0100
0000
0010
0000
1000
0000
0001
0000
1001
0000
0000
0101
0000
0000
0010
0000
,
1001
0000
0000
0000
1000
0000
0000
0001
0100
0000
0000
0000
0010
0000
0000
0000
,
1000
0000
0000
0000
0100
0000
0000
1000
0001
0000
0000
0000
0100
0000
0000
0000
,
1000
0000
0000
0000
0100
0000
0000
0010
1000
0000
0000
0000
0001
0000
0000
0000
,
0010
0000
0000
0000
0100
0000
0000
1000
0010
0000
0000
0000
0100
0000
0000
0000
,
0001
0000
0000
0000
0010
0000
0000
0100
1000
0000
0000
0000
0001
0000
0000
0000
,
0100
0000
0000
0000
0001
0000
0000
0010
0100
0000
0000
0000
1000
0000
0000
0000
,
0010
0000
0000
0000
0001
0000
0000
0010
0100
0000
0000
0000
0001
0000
0000
0000
,
1000
0000
0010
0000
0100
0000
0001
0000
0010
0000
0100
0000
1000
0001
1000
0001
,
2000
0000
0010
0000
0000
0000
3010
0020
,
0000
0000
0100
0000
0000
0000
0100
0030
,
0200
0000
0001
0000
0000
0000
0301
0002
,
0000
0000
1000
0000
0000
0000
1000
0003
,
2000
0100
0000
0100
,
3200
0010
0000
0010
,
0320
0001
0000
0001
,
0031
0000
1000
0000
0100
0000
0010
0000
0001
0000
1000
0000
0010
0100
0010
0100
,
0010
0000
0010
0000
0010
0000
1000
0001
,
0200
0001
0000
0001
0000
0001
0000
0301
,
0010
0000
0010
0000
0010
0000
0010
0100
,
2000
0010
0000
0010
0000
3010
0100
0001
,
1000
0000
1000
0000
1000
0000
1000
0100
,
0020
0001
0000
0001
0000
0001
0000
0031
,
1001
0010
0110
0001
,
1000
0000
0001
0000
0100
0000
0010
0000
1000
0000
0001
0000
0010
0100
0010
0100
,
0000
1000
0000
1000
0000
1000
0000
1000
,
0020
0000
0000
0000
0000
0000
0000
0000
0000
0000
0000
0000
0000
0000
0000
0000
0000
0000
0000
0000
0000
0000
0000
0000
0000
0000
0000
0000
0000
0000
0000
0000
0000
0000
0000
0000
0000
0000
0000
0000
0000
0000
0000
0000
0000
0000
0000
0000
0000
0000
0000
0000
0000
0000
0000
0000
0000
0000
0000
0000
0000
0000
0000
0030
,
0202
0000
0303
0000
;

//---------------dance-single - D. Bernardone----------------
#NOTES:
     dance-single:
     D. Bernardone:
     Beginner:
     1:
     0.104,0.146,0.086,0.000,0.000:
0000
0000
0000
0000
,
0000
0000
0000
0000
,
0000
0000
0000
0000
,
0000
0000
0000
0000
,
1000
0000
0000
0000
,
0001
0000
0000
0000
,
1000
0000
0000
0000
,
0010
0000
0000
0000
,
0100
0000
0000
0000
,
0010
0000
0000
0000
,
1000
0000
0000
0000
,
0100
0000
0000
0000
,
1000
1000
0000
0001
,
0000
0100
0000
0010
,
0000
1000
0000
0001
,
0000
0010
0000
0100
,
0000
1000
0000
0001
,
0000
0100
0000
0010
,
0000
0100
0000
0001
,
0001
0000
1000
0000
,
0001
0000
0000
0000
,
0100
0000
0000
0000
,
1000
0000
0000
0000
,
0100
0000
0000
0000
,
0001
0000
0000
0000
,
0010
0000
0000
0000
,
1000
0000
0000
0000
,
0010
0000
0000
0000
,
0001
0000
0000
1000
,
0000
0000
0000
0000
,
0010
0000
0000
0000
,
0100
0000
0000
0000
,
0001
0000
0000
0000
,
1000
0000
0000
0000
,
0001
0000
0000
0000
,
0010
0000
0000
0000
,
0100
0000
0000
0000
,
1001
0000
0000
0000
,
1000
0000
0000
0000
,
1000
0000
0000
0000
,
0001
0000
0000
0000
,
0001
0000
0000
0000
,
1001
0000
0000
0000
,
1000
0000
0000
0000
,
0010
0000
0000
0000
,
0100
0000
0000
0000
,
0001
0000
0000
0000
,
1000
0000
0000
0000
,
0100
0000
0000
0000
,
0010
0000
0000
0000
,
0001
0000
0000
0000
,
1000
0000
0000
0000
,
0100
0000
0100
0000
,
0100
0000
0000
0000
,
0010
0000
0000
0000
,
0001
0000
0000
0000
,
0100
0000
0000
0000
,
0010
0000
0000
0000
,
1001
0000
0000
0000
,
1001
0000
0000
0000
,
1001
0000
0000
0000
,
0110
0000
0000
0000
,
0110
0000
0000
0000
,
0110
0000
0000
0000
,
1001
0000
0000
0000
,
0110
0000
0000
1000
,
0000
0000
0000
0000
,
0001
0000
0000
0000
,
0100
0000
0000
0000
;

//---------------dance-single - D. Bernardone----------------
#NOTES:
     dance-single:
     D. Bernardone:
     Challenge:
     9:
     0.594,0.795,0.292,0.327,0.232:
0000
0000
0000
0000
,
0000
0000
0000
0000
,
0000
0000
0000
0000
,
0000
0000
0000
0000
,
1001
1000
0100
1000
0001
1000
0010
1000
,
0100
0010
0001
0010
1000
0010
0100
0010
,
0001
0100
0010
0100
1000
0100
0001
0100
,
0010
0100
0010
0000
0100
0010
0100
0000
0001
1000
0001
0000
1000
0001
1000
0000
,
1001
0001
0010
0001
1000
0001
0100
0001
,
1000
0010
0100
0010
0001
0010
0100
0010
,
1000
0100
0001
0100
0010
0100
0001
0100
,
2000
0001
0001
3001
0020
0100
0100
0130
,
1001
0000
0000
0001
0100
0000
0010
0000
1000
0000
0000
0100
0010
0000
0001
0000
,
0100
0000
0000
0010
1000
0000
0100
0000
0010
0000
0000
0001
0100
0000
0001
0000
,
0010
0000
0000
0100
1000
0000
0001
0000
0100
0000
0000
0010
1000
0000
0001
0000
,
0001
0000
1000
1100
0000
0101
0010
0000
,
1001
0000
0000
0001
1000
0000
0100
0000
1000
0000
0000
0010
0100
0000
0001
0000
,
0010
0000
0001
0100
0000
1000
0100
0000
,
0101
0000
0000
1000
0010
0000
0001
0000
0010
0000
0000
0100
0010
0000
1000
0000
,
0001
0000
0001
0000
0010
0000
0010
0000
0100
1000
0100
0000
1000
0001
1000
0010
,
0100
0000
0001
0100
0101
0000
0001
1000
,
1001
0000
1000
0100
1100
0000
0100
0010
,
0110
0000
0010
0001
0100
0010
1000
0000
,
1001
0001
1001
0000
0110
0100
0110
0000
,
1001
0000
1000
0100
0010
0001
1000
0100
,
1100
0000
0010
0110
0000
0010
0001
0001
,
0011
0000
0010
0100
1100
0000
1000
0100
,
2000
0200
0020
0002
,
3333
0000
0000
0001
,
0100
0000
0000
0100
0000
0000
1000
0100
,
1000
0000
0010
0100
0000
0001
0100
1000
,
0100
0000
0010
1000
0000
0100
1000
0100
,
0010
0000
0001
0100
0000
1000
0100
0000
,
0010
0000
1000
0100
0000
0001
0100
0010
,
0001
0000
0010
0100
0000
1000
0010
0100
,
1000
0000
0100
0001
0000
0010
0100
1000
,
0100
0000
0100
0010
0000
0000
0000
0000
,
0002
0000
0000
0000
,
1003
0000
0010
0100
0001
0100
0010
2000
0002
0000
0000
3013
0000
0000
0100
1000
,
0001
0000
0100
0010
1000
0010
0100
0002
2000
0000
0000
3103
0000
0000
0010
0000
,
0011
0000
0001
1000
0100
1000
0001
0200
0020
0000
0000
1330
0000
0000
0100
0010
,
0001
0000
1000
0001
0010
0001
1000
0020
0200
0000
0000
0331
0000
0000
0010
0100
,
1000
0000
0000
0000
0001
0100
0001
0000
0100
0000
0000
0000
0010
0000
0000
0000
,
1000
0000
0000
0000
0001
0010
0001
0000
0010
0000
0000
0000
0100
0000
0000
0000
,
1000
0000
0000
0000
0010
0100
0010
0000
0100
0000
0000
0000
0001
0000
0000
0000
,
0010
0000
0000
0000
0100
1000
0100
0000
1000
0000
0000
0000
0010
0000
0100
0000
,
1001
0000
0000
0000
0001
0100
0001
0000
0100
0010
0000
0000
1000
0000
0000
0000
,
0100
0000
0000
0000
1000
0001
1000
0000
0001
0100
0000
0000
0010
0000
0000
0000
,
1000
0000
0000
0000
0001
0010
0001
0000
1000
0001
1000
0000
0010
0000
0100
0000
,
0001
0000
0001
0000
1000
0000
1000
0000
0100
0010
0100
0000
0010
0001
1000
0001
,
0200
0000
0001
0000
M000
0000
0301
2000
,
000M
0100
000M
0100
,
3020
0000
0200
0000
0001
0330
0100
0001
,
0001
1001
0000
0011
0000
0001
1000
0100
,
1010
0000
0101
0000
0101
0000
0010
1000
,
0002
0000
0020
0000
1000
0033
0001
0100
,
0010
0000
1010
0000
1010
0000
0110
1000
,
0010
0000
0100
0000
0010
0000
0100
0000
0001
0000
1000
0000
0100
0010
0100
0010
,
0001
0000
1001
0000
1010
0000
0010
0100
,
0002
0000
2000
0000
0010
3003
1000
0100
,
0020
0000
0002
0000
1000
0033
0100
0010
,
2000
0000
0200
0000
0001
3300
1000
0010
,
0200
0000
0002
0000
0010
0303
0001
1000
,
0020
0000
2000
0000
0001
3030
1000
0001
,
0202
0000
1000
0303
0220
0000
1000
0330
,
0001
0000
0100
0000
0001
0000
0010
0000
0100
0000
1000
0000
0001
0100
0010
0100
,
0004
0000
0000
0000
,
0020
0003
0000
0000
0000
0000
0000
0000
,
0032
2000
0000
0000
0000
0000
0000
0000
0000
0000
0000
0000
0000
0000
0000
0000
0000
0000
0000
0000
0000
0000
0000
0000
0000
0000
0000
0000
0000
0000
0000
0000
3003
0000
0000
0000
0000
0000
0000
0000
0000
0000
0000
0000
0000
0000
0000
0000
0000
0000
0000
0000
0000
0000
0000
0000
0000
0000
0000
0000
0000
0000
0000
0000
;

//---------------dance-single - D. Bernardone----------------
#NOTES:
     dance-single:
     D. Bernardone:
     Easy:
     2:
     0.185,0.206,0.043,0.146,0.000:
0000
0000
0000
0000
,
0000
0000
0000
0000
,
0000
0000
0000
0000
,
0000
0000
0000
0000
,
1000
0000
0001
0001
,
0001
0000
1000
0000
,
0100
0000
0010
0010
,
0010
0000
0001
0000
,
1000
0000
0010
0010
,
0010
0000
0100
0000
,
0001
0000
1000
1000
,
1000
0000
0001
0000
,
1001
1000
0100
0000
,
0000
0010
0001
0000
,
0000
0100
0010
0000
,
0000
1000
0100
0000
,
0000
1000
0001
0000
,
0000
0100
0001
0000
,
0000
1000
0010
0000
,
0000
0100
0001
1000
,
0100
0000
0010
0000
,
0001
0000
1000
0000
,
0010
0000
0100
0000
,
0001
0000
1000
0000
,
0100
0000
0010
0000
,
0001
0000
1000
0000
,
0010
0000
0100
0000
,
0001
0001
1000
1000
,
0020
0000
0030
0100
,
0100
0000
0000
0000
,
0002
0000
0003
1000
,
1000
0000
0001
0000
,
0200
0000
0300
0010
,
0010
0000
1000
0000
,
0200
0000
0300
0010
,
0010
0000
0001
0000
,
2000
0000
3000
0001
,
0002
0000
0000
0000
,
1003
0000
0100
0000
,
0010
0000
0001
0000
,
0100
0000
0010
0000
,
1000
0000
0001
0000
,
1000
0000
0100
0000
,
1000
0000
0100
0000
,
0010
0000
0001
0000
,
0010
0000
0001
0000
,
0100
0000
0010
0000
,
0100
0000
0010
0000
,
1000
0000
0001
0000
,
1000
0000
0001
0000
,
1001
1000
0010
0000
,
0000
0100
0001
0000
,
0000
1000
0100
0000
,
0000
1000
0010
0000
,
0000
0100
0001
0000
,
0000
0010
0100
0000
,
0000
1000
0001
0000
,
0000
1000
0010
0000
,
0210
0000
0300
0000
,
0002
0000
0003
0000
,
2000
0000
3000
0000
,
0200
0000
0300
0000
,
0020
0000
0030
0000
,
0002
0000
0003
0000
,
1000
0000
1000
0000
,
0010
0010
0100
0200
,
0300
0000
0000
0000
,
2002
0000
3003
0000
,
0220
0000
0330
0000
;

//---------------dance-single - D. Bernardone----------------
#NOTES:
     dance-single:
     D. Bernardone:
     Medium:
     4:
     0.303,0.353,0.095,0.232,0.000:
0000
0000
0000
0000
,
0000
0000
0000
0000
,
0000
0000
0000
0000
,
0000
0000
0000
0000
,
2001
0000
3001
0010
,
0200
0000
1300
0001
,
0200
0000
0310
1000
,
0200
0000
0310
0001
,
2000
0000
3010
0100
,
0002
0000
1003
0100
,
0020
0000
0031
0100
,
0001
0000
0010
0000
0100
0000
1000
0001
,
1000
0010
0010
0100
,
0001
1000
1000
0100
,
0010
0001
0001
1000
,
0010
0100
0100
0001
,
1000
0100
0100
0010
,
0001
1000
1000
0010
,
0100
0010
0010
1000
,
0001
0000
0010
0000
0010
0000
0100
1000
,
0001
0000
0011
0000
,
0110
0000
1100
0000
,
1001
0000
1010
0000
,
0101
1001
0110
1001
,
1010
1000
0000
0001
,
0010
0000
0000
0100
0000
0000
1000
0000
,
0010
0000
0100
0000
,
0002
0023
2030
3020
,
0031
0000
0000
0001
0000
0000
1000
0000
,
0010
0000
0000
0010
0000
0000
0000
0000
,
0100
0000
0000
0100
0000
0000
0001
0000
,
1000
0000
0000
1000
0000
0000
0100
0000
,
0010
0000
0000
0010
0000
0000
0001
0000
,
0100
0000
0000
0100
0000
0000
0010
0000
,
1000
0000
0000
1000
0000
0000
0100
0000
,
0010
0000
0000
0010
0000
0000
0001
0000
,
1000
0000
0000
1000
0000
0000
0001
0000
,
0200
0000
0000
0000
,
0310
1000
0100
0001
,
0100
1000
0001
0100
,
1000
0100
0001
1000
,
0010
0001
0010
1000
,
0001
0001
0100
0000
,
1000
1000
0100
0000
,
0010
0010
1000
0000
,
0001
0001
0010
0000
,
0100
0100
1000
0000
,
0010
0010
0100
0000
,
0001
0001
0010
0000
,
0100
0000
1000
0000
0001
0000
0010
0100
,
2000
0000
0000
0000
0000
3000
0001
0002
,
0000
0000
0000
0000
0000
0000
0000
0003
,
0200
0000
0000
0000
0000
0300
0010
0020
,
0000
0000
0000
0000
0000
0030
1000
0000
,
0200
0010
0010
0310
,
0002
1000
1000
1003
,
0020
0100
0100
0130
,
0001
0000
1000
0000
0100
0000
0010
0001
,
2000
0100
0001
3001
,
0200
1000
0010
0310
,
2000
0001
0100
3100
,
0020
0001
0100
0130
,
2000
0100
0001
3001
,
0020
1000
0100
0130
,
2000
0001
0010
3010
,
0100
0000
0001
0000
1000
0000
0100
0010
,
0000
0000
0000
0000
,
0002
0000
0000
0000
,
4003
0000
3000
0000
;

//---------------dance-double - M. Simmons----------------
#NOTES:
     dance-double:
     M. Simmons:
     Easy:
     3:
     0.281,0.293,0.043,0.034,0.000:
00000000
00000000
00000000
00000000
,
00000000
00000000
00000000
00000000
,
00000000
00000000
00000000
00000000
,
00000000
00000000
00000000
00000000
,
00010000
10000000
01000000
10000000
,
00010000
00100000
00001000
00010000
,
00000100
00001000
00000001
00000100
,
00000001
00001000
00001001
00001001
,
00000001
00000100
00000010
00000100
,
00000001
00001000
00000100
00010000
,
00001000
00100000
00010000
10000000
,
00010000
00100000
01100000
01100000
,
01000000
10000000
00010000
01000000
,
00010000
00100000
00001000
00010000
,
00000100
00001000
00000001
00001000
,
00000010
00000100
00000010
00001000
,
00000001
00000100
00000001
00001000
,
00000100
00010000
00001000
00100000
,
00010000
10000000
00010000
01000000
,
00100000
00100000
00100000
00100000
,
01000000
00010000
01000000
00010000
,
00100000
00001000
00010000
00000010
,
00001000
00000100
00001000
00000001
,
00001000
00000010
00001001
00000000
,
00000001
00000100
00000001
00001000
,
00000100
00010000
00001000
01000000
,
00100000
01000000
00010000
10000000
,
01000000
01000000
01000000
01000000
,
01000000
00000000
00000000
00100000
00000000
00000000
00010000
00000000
,
00100000
00000000
00000000
00001000
00000000
00000000
00010000
00000000
,
00001000
00000000
00000000
00010000
00000000
00000000
00001000
00000000
,
00010000
00000000
00000000
00000100
00000000
00000000
00000010
00000000
,
00000100
00000000
00000000
00000010
00000000
00000000
00000001
00000000
,
00001000
00000000
00000000
00000010
00000000
00000000
00000100
00000000
,
00000010
00000000
00000000
00001000
00000000
00000000
00000001
00000000
,
00001000
00000000
00000000
00000100
00000000
00000000
00010000
00000000
,
00001000
00000000
00000000
02000000
00000000
00000000
00000000
00000000
,
00000000
00000000
00000000
00000000
,
03010000
00000000
00100000
00010000
00100000
00000000
00000000
00000000
,
01000000
00000000
10000000
00010000
10000000
00000000
00000000
00000000
,
00010000
00000000
01000000
00001000
01000000
00000000
00000000
00000000
,
00001000
00000000
00010000
00000100
00010000
00000000
00000000
00000000
,
00000001
00000100
00000010
00000100
,
00000001
00001000
00000100
00001000
,
00000100
00010000
00001000
00100000
,
00010000
01000000
00100000
10000000
,
00010000
01000000
00010000
10000000
,
01000000
00100000
00010000
00100000
,
01000000
00100000
00001000
00010000
,
00000100
00001000
00000002
00000100
,
00000013
00000001
00001000
00000100
,
00010000
00001000
01000000
00010000
,
10000000
01000000
10000000
00010000
,
01000000
00100000
01000000
00010000
,
00100000
00001000
00010000
00000010
,
00000100
00000001
00000010
00000100
,
00000010
00000001
00001000
00000010
,
00000100
00001000
00010000
00001000
,
00010000
00001000
00000000
01000000
,
00000000
00100000
00000000
01000000
,
00000000
00010000
00000000
10000000
,
00000000
01000000
00000000
00100000
,
00010000
00100000
00000000
00001000
,
00000000
00010000
00000000
00000100
,
00000000
00001000
00000000
00000001
,
00000000
00000100
00000000
00000020
,
00000000
00000000
00000000
00000000
,
00000000
00000000
00000000
00000000
,
00000200
00000330
00000000
00000000
;

//---------------dance-double - M. Simmons----------------
#NOTES:
     dance-double:
     M. Simmons:
     Medium:
     5:
     0.361,0.383,0.155,0.026,0.034:
00000000
00000000
00000000
00000000
,
00000000
00000000
00000000
00000000
,
00000000
00000000
00000000
00000000
,
00000000
00000000
00000000
00000000
,
00000001
00000100
00000010
00000100
,
00000001
00000000
00001000
00000100
00000000
00001000
00000100
00000000
,
00010000
01000000
00100000
00010000
,
00010000
00000000
10000000
01000000
00000000
01000000
00100000
00000000
,
00010000
00100000
00001000
00010000
,
00000010
00000000
00000100
00000010
00000000
00000100
00000010
00000000
,
00001000
00000001
00000100
00000001
,
00001000
00000000
00000100
00010000
00000000
00000100
00010000
00000000
,
00001000
00000000
00010000
00000000
00001000
00100000
00010000
00000000
,
10000000
10000000
00100000
00000000
,
01000000
00000000
00010000
00000000
00100000
00010000
00100000
00000000
,
00001000
00000000
00010000
00001000
00000000
00010000
00001000
00000000
,
00010000
00000000
00000100
00000000
00000010
00000001
00000010
00000000
,
00000100
00000010
00000010
00000000
,
00000100
00010000
00001000
01000000
,
00100000
00000000
10000000
00000000
00010000
10000000
00010000
10000000
,
00010000
00100000
01000000
10000000
,
00010000
00000000
00100000
00001000
00000000
00010000
00001000
00010000
,
00000100
00001000
00000010
00000100
,
00000001
00000000
00001000
00000001
00000000
00000100
00000001
00000000
,
00001001
00000001
00000100
00000010
,
00010000
00000000
00001000
00010000
00000000
00001000
00010000
00001000
,
00100000
00010000
10000000
00100000
,
01000000
00001000
00001000
00001000
,
00011000
00000000
00000000
00010010
,
00001100
00000000
00000000
00000010
00000000
00000000
00000100
00000000
,
00001001
00000000
00000000
00000110
00000000
00000000
00001000
00000000
,
00010100
00000000
00000000
00001000
00000000
00000000
01000000
00000000
,
01010000
00000000
00000000
00100000
00000000
00000000
10000000
00000000
,
10010000
00000000
00000000
00100000
00000000
00000000
01000000
00000000
,
00110000
00000000
00000000
00010000
00000000
00000000
00100000
00000000
,
00101000
00000000
00000000
00010000
00000000
00000000
00000100
00000000
,
00001000
00000000
00000000
00002000
00000000
00000000
00000000
00000000
,
00000000
00000000
00000000
00000000
,
00003001
00000000
00000000
00000100
00000000
00000000
00000010
00000000
00001000
00000000
00000000
00000001
00000000
00000000
00000100
00000000
,
00000001
00000000
00000000
00001000
00000000
00000000
00000100
00000000
00001000
00000000
00000000
00000010
00000000
00000000
00010000
00000000
,
00001000
00000000
00000000
01000000
00000000
00000000
00010000
00000000
10000000
00000000
00000000
01000000
00000000
00000000
00100000
00000000
,
01000000
00000000
00000000
10000000
00000000
00000000
00010000
00000000
00100000
00000000
00000000
10000000
00000000
00000000
00100000
00000000
,
00010000
01000000
00010000
10000000
,
01000000
00010000
00001000
00000100
,
00000010
00001000
00000001
00000100
,
00000001
00000000
00001000
00000000
00000100
00000010
00000100
00000010
,
00000100
00010000
00001000
01000000
,
00010000
10000000
01000000
00100000
,
00010000
10000000
00010000
01000000
,
00001000
00000000
00010000
00000000
00000100
00010000
00001000
00010000
,
00000100
00000000
00000110
00000000
00001000
00000001
00000100
00000000
,
00000010
00000000
00001010
00000000
00000100
00000010
00010000
00000000
,
00000100
00000000
00011000
00000000
00001000
00100000
00010000
00000000
,
01000000
00000000
10010000
00000000
01000000
00100000
01000000
00010000
,
10000000
00000000
01100000
00000000
01000000
00010000
10000000
00000000
,
01000000
00000000
01010000
00000000
00100000
00001000
00010000
00000000
,
00000010
00000000
00001010
00000000
00000100
00000010
00001000
00000000
,
00000001
00000100
00000001
00000000
00001000
00000100
00001000
00000000
,
00001000
00000000
00000010
00000000
00000100
00000000
00000010
00010000
,
00000000
00001000
00000000
00100000
00000000
00010000
00000000
01000000
,
00100000
00000000
01000000
00000000
00010000
00000000
10000000
01000000
,
00000000
00100000
00000000
00001000
00000000
00010000
00000000
00000010
,
00000100
00000000
00000010
00000000
00001000
00000000
00000100
00010000
,
00000000
00001000
00000000
01000000
00000000
00010000
00000000
10000000
,
00010000
00000000
00100000
00000000
00010000
00000000
00100000
00001000
,
00000000
00010000
00000000
00000100
00000000
00001000
00000000
00000002
,
00000000
00000000
00000000
00000000
,
00000000
00000003
00000000
00000000
,
00000002
00000000
00000003
00000000
;

//---------------dance-double - M. Simmons----------------
#NOTES:
     dance-double:
     M. Simmons:
     Hard:
     8:
     0.543,0.589,0.352,0.172,0.086:
00000000
00000000
00000000
00000000
,
00000000
00000000
00000000
00000000
,
00000000
00000000
00000000
00000000
,
00000000
00000000
00000000
00000000
,
01000000
00010000
00100000
01000000
20000000
00000000
30010000
01000000
,
00010000
00100000
01000000
00100000
00001000
00010000
00000010
00000100
,
00000001
00000100
00000001
00001000
00000200
00000000
00010300
00001000
,
00100000
00010000
10000000
00010000
01000000
00100000
01000000
00010000
,
10000000
01000000
00100000
00010000
00200000
00000000
00301000
00010000
,
00000010
00000100
00000010
00001000
00000001
00000100
00000001
00001000
,
00000100
00010000
00001000
01000000
00200000
00000000
01300000
00010000
,
00100000
00101000
00011000
00010100
,
00001000
00000010
00000100
00000010
00001000
00000100
00010000
00001000
,
01000000
00100000
01000000
00010000
10000000
01000000
00100000
00010000
,
00100000
00001000
00010000
00000100
00001000
00000001
00000100
00000010
,
00000100
00000000
00001010
00000000
00000100
00000100
00000100
00000000
,
00000010
00001000
00000100
00010000
00001000
01000000
00100000
01000000
,
00010000
10000000
01000000
00010000
00001000
00010000
00100000
10000000
,
00010000
01000000
00100000
01000000
00010000
00100000
00001000
00010000
,
00000010
00000000
00001000
00000000
00000001
00000000
00000100
00000000
00000001
00001000
00000100
00001000
00000001
00001000
00000100
00001000
,
00000001
00000000
00000100
00000010
00000110
00000000
00000010
00000000
,
00010010
00000000
00001000
00010000
00011000
00000000
00010000
00000000
,
01001000
01000000
00010000
20000000
,
32000000
03020000
00032000
00003200
,
00000301
00001000
00000100
00010000
,
00011000
00000000
00001000
00101000
00000000
00010000
00110000
00100000
,
01000000
00000000
10010000
00000000
10010000
00000000
01000000
00100000
,
02000000
03020000
02030000
03002000
,
00013000
00000000
00001000
00000000
00010000
00000000
00000100
00000000
00000000
00000100
00000000
00000000
00000100
00000000
00001000
00000000
,
00000010
00000000
00000100
00000000
00000010
00000000
00001000
00000000
00000000
00001000
00000000
00000000
00001000
00000000
00000001
00000000
,
00000100
00000000
00000010
00000000
00010000
00000000
00001000
00000000
00000000
00001000
00000000
00000000
00001000
00000000
00010000
00000000
,
01000000
00000000
10000000
00000000
00010000
00000000
01000000
00000000
00000000
01000000
00000000
00000000
01000000
00000000
01000000
00000000
,
01000000
00200000
00000000
01300000
00000000
00010000
00100000
00000000
,
00001000
00002000
00000000
00013000
00000000
00000010
00000100
00000000
,
00000001
00000002
00000000
00001003
00000000
00000100
00010000
00000000
,
01000000
00000000
10000000
00010000
00000000
10000000
00010000
00000000
,
20000000
00000000
00000000
00000000
00000000
00000000
31000000
00000000
00000MM0
00000000
0000M00M
MMM00000
0000M00M
MMM00000
00000MM0
00000000
,
00000000
M000000M
0M0000M0
M0M00M0M
0M0MM0M0
00M00M00
000MM000
00000000
,
10000000
00000000
00000000
01000000
00000000
00000000
00100000
00000000
00010000
00000000
00000000
00001000
00000000
00000000
00000100
00000000
,
00000010
00000000
00000000
00000001
00000000
00000000
00000010
00000000
00000100
00000000
00000000
00001000
00000000
00000000
00010000
00000000
,
00100000
00000000
00000000
01000000
00000000
00000000
10000000
00000000
01000000
00000000
00000000
00100000
00000000
00000000
00010000
00000000
,
01000000
00000000
00000000
00001000
00000000
00000000
00000100
00000000
00000001
00000000
00000000
00001000
00000000
00000000
00000100
00000000
,
00010000
00001000
00100000
00000000
00010000
10000000
00010000
00000000
,
01000000
00100000
01000000
00000000
00010000
00000000
00010000
00000000
,
10000000
01000000
00100000
00000000
00100000
00001000
00010000
00000000
,
00000010
00000100
00000010
00000000
00001000
00000000
00001000
00000000
,
00000001
00000100
00000001
00000000
00000001
00001000
00000100
00000000
,
00010000
00001000
00100000
00000000
00010000
00000000
00010000
00000000
,
10000000
01000000
10000000
00000000
00010000
00100000
00001000
00000000
,
00010000
00000010
00000100
00000000
00000010
00000100
00000001
00000010
,
00000100
00001000
00000001
00000100
00000001
00001000
00000100
00010000
,
00001000
00100000
00010000
10000000
00100000
01000000
00100000
10000000
,
00010000
01000000
00010000
10000000
01000000
00010000
00001000
00000100
,
00000001
00001000
00000001
00000100
00000010
00000100
00000001
00001000
,
00000100
00010000
00001000
01000000
00010000
00100000
10000000
00100000
,
00010000
10000000
00100000
01000000
00001000
00010000
00000010
00000100
,
00000001
00001000
00000100
00000010
00000100
00001000
00000001
00001000
,
00000010
00000000
00010000
00000000
00001000
00000000
01000000
00000000
00001000
00000000
00100000
00000000
00001000
00010000
00001000
00010000
,
00001000
00000000
00011000
00000000
00010100
00000000
00001100
00000010
,
00000000
00000101
00000000
00001001
00000000
00001100
00000000
00011000
,
00100000
00000000
01010000
00000000
10010000
00000000
11000000
00100000
,
00000000
00011000
00000000
00010100
00000000
00011000
00000000
01001000
,
00010000
00000000
01100000
00000000
11000000
00000000
00110000
00001000
,
00000000
00010100
00000000
00001100
00000000
00001001
00000000
00000110
,
00001000
00000000
00000101
00000000
00000011
00000000
00010100
00010000
,
00000000
00011000
00000000
10010000
00000000
01100000
00000000
20020000
,
00000000
00000000
00000000
00000000
,
00000000
00000000
30030000
00000000
,
00000200
00000000
00000300
00000000
;

//---------------dance-double - M. Simmons----------------
#NOTES:
     dance-double:
     M. Simmons:
     Challenge:
     9:
     0.694,0.736,0.352,0.146,0.352:
00000000
00000000
00000000
00000000
,
00000000
00000000
00000000
00000000
,
00000000
00000000
00000000
00000000
,
00000000
00000000
00000000
00000000
,
01000000
00000000
00001000
00000000
00100000
00010000
00100000
00000000
00001000
00000000
01000000
00000000
00100000
00000000
10000000
00000000
,
01000000
00100000
00001000
01000000
00000000
00001000
00011000
00000000
,
00010000
00000000
00000010
00000000
00000100
00000010
00000100
00000000
00000001
00000000
00001000
00000000
00000100
00000000
00000010
00000000
,
00001000
00010000
00001000
00100000
00001000
00010000
00101000
00000000
,
00001000
00000000
01000000
00000000
00100000
10000000
00100000
00000000
01000000
00000000
00010000
00000000
10000000
00000000
01000000
00000000
,
00100000
00010000
10000000
00100000
00000000
01000000
01001000
00000000
,
00001000
00000000
00010000
00000000
00000100
00010000
00000100
00000000
00000010
00000000
00000001
00000000
00000100
00000000
00000010
00000000
,
00000001
00000010
00001000
00000100
00010000
00000010
00010010
00000000
,
00000100
00000000
00010000
00000000
00001000
00100000
00001000
00000000
01000000
00000000
00001000
00000000
00010000
00001000
00010000
00000000
,
00000100
00000000
00000010
00000000
00000001
00001000
00000001
00000000
00000100
00000000
00000010
00000000
00010000
00000000
00010000
00000000
,
00010000
00000000
00001000
00000000
01000000
00001000
01000000
00000000
00100000
00000000
10000000
00000000
01000000
00100000
01000000
00000000
,
00100000
00000000
00010000
00000000
10000000
00100000
10000000
00000000
00010000
00000000
00100000
00000000
01100000
00000000
00000000
00000000
,
00100000
00000000
00001000
00000000
01000000
00001000
01000000
00000000
00001000
00000000
00100000
00000000
00010000
00100000
00010000
00000000
,
00100000
00000000
01000000
00000000
00010000
00001000
00010000
00000000
00001000
00000000
00000100
00000000
00000010
00000000
00000010
00000000
,
00000010
00000000
00001000
00000000
00001000
00000010
00001000
00000000
00000010
00000000
00010000
00000000
00000100
00010000
00000100
00000000
,
00010000
00000000
00001000
00000000
00100000
00000000
01000000
00000000
10000000
00010000
01000000
00010000
10000000
00010000
01000000
00010000
,
10000000
00100000
01000000
00010000
00200000
01300000
10000000
00010000
,
00200000
00301000
00010000
00000100
00000020
00000031
00001000
00000001
,
00000020
00000030
00001000
00010000
00200000
01300000
00010000
10000000
,
00200000
01300000
00001000
00010000
00000020
00000130
00000001
00000100
,
00000020
00000030
00001000
00000100
00010000
00001000
01000000
00100000
,
00010000
00000000
00001000
00010000
00000000
00010000
00000100
00010000
,
00000100
00000000
00010010
00000000
00010010
00000000
00000010
00000010
,
00020000
00032000
02003000
03020000
,
10030000
00000000
01000000
10000000
01000000
00000000
00100000
00000000
00010000
01000000
00010000
00000000
00100000
00001000
00100000
00001000
,
00100000
00000000
00001000
00010000
00001000
00000000
00010000
00000000
00000010
00010000
00000010
00000000
00000100
00000010
00000100
00000010
,
00000100
00000000
00000001
00001000
00000001
00000000
00000010
00000000
00000100
00010000
00000100
00000000
00010000
00001000
00010000
00001000
,
00010000
00000000
00001000
00100000
00001000
00000000
01000000
00000000
00100000
10000000
00100000
00000000
01000000
00010000
01000000
00010000
,
01000000
00000000
00010000
00100000
00010000
00000000
01000000
00000000
00001000
01000000
00001000
00000000
00010000
00001000
00010000
00001000
,
00010000
00000000
00000100
00010000
00000100
00000000
00000010
00000000
00000001
00001000
00000001
00000000
00000100
00000010
00001000
00000010
,
00000100
00000000
00000010
00010000
00000010
00000000
00010000
00000000
00001000
00100000
00001000
00000000
01000000
00010000
01000000
00100000
,
10000000
00000000
00100000
01000000
00100000
00000000
01000000
00000000
00001000
00010000
00001000
00000000
00010000
00000100
00010000
00001000
,
00200000
00000000
00000000
00000000
0000000M
00000000
02000000
00000000
000000M0
00000000
0000M000
00000000
00000000
00000M00
00000000
00000000
,
0000000M
00000000
00000000
00000000
000000M0
00000000
00000000
0000M000
00000000
000000M0
00000M00
00000000
0330000M
00000M00
0000M000
000000M0
,
01000000
00000000
10000000
00000000
00010000
01000000
00010000
01000000
00100000
00000000
01000000
00000000
00001000
00010000
00001000
00010000
,
00000100
00000000
00000010
00000000
00000001
00001000
00000010
00001000
00000100
00000000
00010000
00001000
00000000
00100000
00001000
00000000
,
00011000
00000000
00001000
00000000
01000000
00100000
01000000
00010000
01000000
00000000
00100000
00000000
10000000
00010000
00100000
00010000
,
10000000
00000000
01000000
00000000
00100000
00001000
00010000
00001000
00100000
00000000
01000000
00100000
00000000
00010000
01000000
00010000
,
01000000
00100000
01000000
00001000
00010000
00000100
00000010
00001000
,
00010000
00000010
00000100
00000001
00000010
00000100
00001000
00000010
,
00010000
00000100
00010000
00001000
01000000
00100000
00010000
00001000
,
00100000
01000000
10000000
00010000
01000000
00100000
01000000
00001000
,
00010000
00000100
00000010
00000001
00000010
00001000
00010000
00000010
,
00000100
00000010
00010000
00001000
01000000
00100000
00010000
00001000
,
00100000
01000000
10000000
01000000
00100000
00001000
00010000
00000010
,
00000100
00000000
00000001
00000000
00000010
00000000
00000100
00000000
00001000
00000001
00000100
00000010
00000100
00000001
00001000
00000001
,
00000100
00000000
00001010
00001000
00000100
00000000
00011000
00001000
,
01000000
00000000
00101000
00001000
00100000
00000000
11000000
01000000
,
10000000
00000000
10010000
00000000
01010000
00000000
00100000
00110000
,
00000000
01001000
00000000
00011000
00000000
00010100
00000000
00000100
,
00000110
00000000
00001001
00000000
00000110
00000000
00000001
00000101
,
00000000
00001010
00000000
00001100
00000000
00010100
00000000
00001000
,
00011000
00000000
00011000
00000000
00101000
00000000
00001000
01001000
,
00000000
01010000
00000000
10100000
00000000
11000000
00000000
01000000
,
01100000
00100000
00001000
00010000
00000100
00010000
00000010
00000100
,
00000110
00000010
00001000
00000001
00000010
00000100
00010000
00000100
,
00010100
00001000
01000000
00100000
00010000
00001000
00100000
01000000
,
01100000
01000000
10000000
00010000
01000000
00100000
01000000
00001000
,
00101000
00001000
00010000
00000010
00000100
00000010
00001000
00000001
,
00001001
00000001
00000010
00000100
00010000
00000010
00010000
00000100
,
00010100
00001000
00011000
00001000
,
01000000
00000000
00000000
00000000
01000000
00000000
00000000
00000000
00100000
10000000
00100000
10000000
00100000
10000000
00200000
00000000
,
00000000
00000000
00000000
00000000
00000000
00000000
00000000
00300000
,
00000000
00000000
00000000
00000000
,
2002M00M
00000000
00000000
00000000
00000000
0000M00M
00000000
00000MM0
30030000
00000000
00000000
00000000
00000000
00000000
00000000
00000000
;
