#TITLE:Reloading 150;
#SUBTITLE:;
#ARTIST:CanBlaster;
#TITLETRANSLIT:;
#SUBTITLETRANSLIT:;
#ARTISTTRANSLIT:;
#GENRE:Electro;
#CREDIT:;
#BANNER:Reloading 150-bn.png;
#BACKGROUND:Reloading 150-bg.png;
#LYRICSPATH:;
#CDTITLE:;
#MUSIC:Reloading 150.ogg;
#OFFSET:-0.061;
#SAMPLESTART:40.020;
#SAMPLELENGTH:12.000;
#SELECTABLE:YES;
#DISPLAYBPM:150.000;
#BPMS:0.000=150.000,92.000=148.000,96.000=150.000;
#STOPS:;
#BGCHANGES:0.000=Reloading 150-bg.png=1.000=0=0=1=====,
16.000=In The Groove Rebirth/172_JB_HD.mpg=1.000=0=0=1=====,
32.000=In The Groove Rebirth/257_JB_HD.mpg=0.400=1=0=1=Checkerboard2File2x2=Reloading 150-bg.png=CrossFade==,
48.000=In The Groove Rebirth/206_JB_HD.mpg=1.000=0=0=1=====,
64.000=In The Groove Rebirth/215_JB_HD.mpg=1.000=1=0=1===CrossFade==,
80.000=In The Groove Rebirth/208_JB_HD.mpg=1.000=0=0=1=====,
88.000=Reloading 150-bg.png=1.000=1=0=1===CrossFade==,
92.250=Reloading 150-bg.png=1.000=0=0=1====1^0^0^1=,
93.000=Reloading 150-bg.png=1.000=0=0=1====0^1^0^1=,
93.750=Reloading 150-bg.png=1.000=0=0=1====0^0^1^1=,
94.500=Reloading 150-bg.png=1.000=0=0=1====0^1^0^1=,
95.250=Reloading 150-bg.png=1.000=0=0=1====1^0^0^1=,
96.000=In The Groove Rebirth/217_JB_HD.mpg=1.000=0=0=1=====,
112.000=In The Groove Rebirth/257_JB_HD.mpg=1.000=0=0=1=====,
128.000=In The Groove Rebirth/172_JB_HD.mpg=1.000=0=0=1=====,
144.000=In The Groove Rebirth/218_JB_HD.mpg=1.000=0=0=1=====,
159.500=In The Groove Rebirth/215_JB_HD.mpg=1.000=1=0=1===CrossFade==,
176.000=In The Groove Rebirth/309_JB_HD.mpg=1.000=0=0=1=====,
192.000=In The Groove Rebirth/205_JB_HD.mpg=1.000=0=0=1=====,
207.000=In The Groove Rebirth/206_JB_HD.mpg=1.000=0=0=1=====,
223.000=In The Groove Rebirth/172_JB_HD.mpg=1.000=0=0=1=====,
239.000=In The Groove Rebirth/257_JB_HD.mpg=1.000=0=0=1=====,
255.000=Reloading 150-bg.png=1.000=0=0=1=====,
99999=-nosongbg-=1.000=0=0=0 // don't automatically add -songbackground-
;
#BGCHANGES2:255.000=white flash=0.200=0=0=1=====,
;
#KEYSOUNDS:;

//---------------dance-single - M. Simmons----------------
#NOTES:
     dance-single:
     M. Simmons:
     Easy:
     4:
     0.310,0.326,0.083,0.147,0.198:
0000
0000
0000
0000
,
0000
0000
0000
0000
,
0000
0000
0000
0000
,
0000
0000
0000
0000
,
0001
1001
1000
1001
,
0010
0110
0200
0000
,
0301
1001
1000
1001
,
0100
0110
0200
0000
,
0310
0000
0000
0000
,
0000
0000
0000
0001
0000
0000
0000
0000
0000
0000
0000
0000
0000
0000
0000
0000
,
0000
1000
0000
0000
0000
0000
0000
0000
0000
0000
0000
0000
0000
0000
0000
0000
,
0000
0010
0000
0000
0000
0000
0000
0000
0000
0000
0000
0000
0000
0000
0000
0000
,
0000
1000
0000
0000
0000
0100
0000
0000
0000
1000
0000
0000
0000
0010
0000
0000
,
0000
0100
0000
0000
0000
0010
0000
0000
0000
1000
0000
0000
0000
0001
0000
0000
,
0000
0000
0000
0000
0000
0010
0000
0000
0000
0100
0000
0000
0000
0010
0000
0000
,
0000
0001
0000
0000
0000
1000
0000
0000
0000
0100
0000
0000
0000
1000
0000
0001
,
0000
2000
0000
0000
0000
0000
0000
0000
0000
3001
0000
0000
0000
0010
0000
0000
,
0000
0200
0000
0000
0000
0000
0000
0000
0000
0310
0000
0000
0000
0001
0000
0000
,
0000
2000
0000
0000
0000
0000
0000
0000
0000
3010
0000
0000
0000
0100
0000
0000
,
0000
0010
0000
0000
0000
0000
0000
0000
0000
1000
0000
0001
0000
1000
0000
0000
,
0000
0002
0000
0000
0000
0000
0000
0000
0000
0013
0000
0000
0000
0100
0000
0000
,
0000
0020
0000
0000
0000
0000
0000
0000
0000
0130
0000
0000
0000
1000
0000
0000
,
0000
0002
0000
0000
0000
0000
0000
0000
0000
1003
0000
0000
0000
0010
0000
0000
,
0000
1000
0000
0000
0000
0000
0000
0000
0000
0000
0000
0000
0000
0000
0000
0000
,
0000
0001
0000
0000
1000
0000
0000
0000
0100
0000
0000
0000
1000
0000
0000
0000
,
0001
0100
0010
1000
,
0001
0000
0010
0000
0100
0000
0010
0002
,
0000
0000
0000
1003
,
0010
0100
0010
1000
,
0001
0100
0001
1000
,
0100
0000
0010
0000
0001
0000
1000
0020
,
0000
0000
0000
0130
,
0010
1000
0001
0100
,
0001
1000
0100
0010
,
0100
0000
1000
0000
0001
0000
1000
0200
,
0000
0000
0000
0310
,
0001
1000
0010
0100
,
0010
1000
0001
0100
,
0001
1000
0100
0010
,
0001
0000
0010
0000
0001
0000
1000
0010
,
0000
1000
0100
1000
,
0001
0100
0010
0010
,
1000
0100
1000
0010
,
0100
0010
0110
0000
,
0010
1000
0001
0100
,
0001
1000
0010
0010
,
1000
0001
0100
0001
,
1000
0100
1001
0000
,
0010
0100
0002
1000
,
0013
0100
0010
0001
,
0001
0010
0200
0001
,
0310
0001
1000
1000
,
0010
0100
0020
1000
,
0130
0001
1000
0100
,
0100
1000
0001
0100
,
0010
0000
1000
0001
1000
0000
0010
0000
,
0100
0010
1000
0001
,
0100
0001
1000
0100
,
0010
0100
1000
0001
,
0100
0002
1000
0103
,
0010
1000
0001
0100
,
0001
1000
0100
0010
,
0100
1000
0001
0100
,
0010
0000
0100
0010
0100
0000
0120
0000
,
0000
0000
0030
0000
;

//---------------dance-single - M. Simmons----------------
#NOTES:
     dance-single:
     M. Simmons:
     Challenge:
     10:
     0.694,0.759,0.340,0.101,0.750:
0000
0000
0000
0000
,
0000
0000
0000
0000
,
0000
0000
0000
0000
,
0000
0000
0000
0000
,
0000
1010
0000
0101
0000
1010
0000
0011
,
0000
0000
1100
0000
0000
0000
1001
0000
0100
0000
0001
1000
0000
0000
0001
0000
,
0000
0011
0000
1010
0000
1001
0000
0011
,
0000
1100
0000
0110
0440
0000
0000
0000
,
0330
0000
0000
0000
0000
0000
0000
0001
0000
0000
0000
0100
0000
0000
0000
0010
,
0000
0000
0000
1000
0000
0000
0000
0000
0000
0100
0000
0000
0000
0010
0000
0000
,
0000
0001
0000
0000
0000
0000
0000
1000
0000
0000
0000
0000
0000
0010
0000
0000
,
0000
0100
0000
0000
0000
0000
0000
0001
0000
0010
0000
0000
0100
0000
0000
1000
,
0000
0001
0000
0100
0000
0001
0000
0000
0100
0000
0000
0010
0000
1000
0000
0000
,
0001
0000
0000
0010
0000
0001
0000
0000
0100
0000
0001
0100
0000
0100
0000
0000
,
0000
0000
0000
0100
0000
0001
0000
0000
0100
0000
0000
0001
0000
1000
0000
0000
,
0010
0000
0000
0100
0000
0001
0000
0100
0001
1000
0000
1000
0100
0000
1000
0000
,
0001
0000
0000
0001
0000
1000
0000
0000
0010
0000
0000
1000
0000
0001
0000
0000
,
0100
0000
0000
0010
0000
0100
0000
0000
1000
0000
0100
0010
0000
1000
0000
0000
,
0000
0000
0000
0010
0000
0100
0000
0000
0001
0000
0000
1000
0000
0010
0000
0000
,
0100
0000
0000
0100
0000
0001
0000
0100
0010
0100
0000
0001
1000
0000
0001
0000
,
0100
0000
0000
0010
0000
1000
0000
0000
0100
0000
0000
0010
0000
0001
0000
0000
,
1000
0000
0000
0010
0000
0100
0000
0000
0010
0000
1000
0100
0000
1000
0000
0000
,
M000
0000
00M0
0000
0M00
000M
0000
0000
M000
0M00
00M0
0000
M000
00M0
000M
0M00
,
0010
1000
0000
0010
1000
0000
0010
1000
0000
0010
1000
0000
0010
1000
0000
0010
,
1000
0001
1000
0100
0001
0100
0010
0000
,
0010
0001
1000
0010
0001
0010
0100
0000
,
0100
1000
0100
0010
0100
0001
1000
0200
,
0300
0200
0300
0200
0300
0100
1100
0110
,
1001
0001
1000
0010
0100
0010
1000
0000
,
0010
1000
0010
0001
0010
0100
0001
0100
,
0001
0010
0001
0010
0100
0010
0001
2000
,
3000
0000
2000
0000
3000
0000
2000
0000
3000
0000
2000
0000
3001
0010
0001
0010
,
0001
0010
0110
1000
0001
0010
0110
1000
,
0001
0100
0110
1000
0001
1000
0110
1000
,
0001
0100
1001
0100
1000
0010
1001
0020
,
0030
0020
0030
0020
0030
0010
1100
0101
,
1010
0100
1010
0001
0100
0010
1010
0100
,
0001
1000
1010
0100
0001
1000
1010
1000
,
0010
1000
0101
0001
1000
0010
0101
0010
,
0100
0000
0010
0000
0101
0000
0001
0000
1000
0000
0100
0000
1000
0100
1000
0100
,
1000
0000
1000
0001
0000
0000
0010
0001
0000
0000
1000
0010
0000
0000
0100
0001
,
0000
0000
0010
0100
0000
0000
1000
0001
0000
0000
1000
0010
0100
0000
0001
0000
,
0000
0000
0100
0001
0000
0000
0010
0100
0000
0000
1000
0001
0000
0000
0010
0001
,
0000
0000
1000
0001
0000
0000
0100
0010
0000
0000
1000
0100
0010
0001
0010
0001
,
0010
0000
0100
1000
0000
0000
0001
1000
0000
0000
0010
0100
0000
0000
0010
1000
,
0000
0000
0001
0010
0000
0000
0100
0010
0000
0000
0001
1000
0010
0000
0100
0000
,
0000
0000
0001
1000
0000
0000
0001
0010
0000
0000
1000
0010
0000
0000
0100
1000
,
0000
0000
0001
0100
0000
0000
0010
1000
0000
0000
0001
1000
0010
0100
0010
0100
,
0010
0000
0100
0001
1000
0000
0100
0010
0001
0000
0010
0100
1000
0000
0001
1000
,
0010
0000
0100
0010
1000
0000
0001
0100
0001
0000
1000
0100
1000
0000
0010
0100
,
0001
0000
0010
0001
1000
0000
0001
1000
0010
0000
0000
0000
1000
0100
1000
0000
,
1100
0000
0000
0000
0010
0001
0010
0000
0011
0000
0000
0000
0001
0000
1000
0100
,
1000
0000
0001
0010
0001
0000
0001
0010
0001
0000
0001
0100
0010
0000
0100
0001
,
1000
0000
0001
1000
0100
0000
0010
0001
0100
0000
0001
0100
0001
0000
1000
0100
,
0010
0000
0010
0001
1000
0000
0010
1000
0001
0000
0010
0001
0100
0000
0001
1000
,
0010
0000
1000
0001
0100
0000
0100
0010
1000
0001
0100
0001
1000
0000
0100
1000
,
0001
0000
0100
0001
1000
0000
0100
0010
0001
0000
0010
0100
1000
0000
0010
0100
,
0001
0000
0100
0010
0100
0000
0001
1000
0001
0000
1000
0100
1000
0000
0100
0010
,
0001
0000
0001
1000
0010
0000
1000
0001
0100
0000
0010
1000
0001
1000
0001
0000
,
1001
0000
0000
0000
0010
0100
0010
0000
0110
0000
0000
0000
0100
0000
0001
1000
,
0100
0000
1000
0001
0010
0000
0100
1000
0001
0000
0100
0010
1000
0000
0001
1000
,
0100
0000
0010
0001
0100
0000
0001
0100
1000
0000
0100
0001
0010
0000
1000
0010
,
0001
0000
0001
1000
0100
0000
0001
1000
0010
0000
0010
0100
0001
1000
0100
0000
,
1010
0000
0000
0000
0001
1000
0001
0100
0010
1000
0001
0100
0020
0000
0000
0000
,
0000
0000
0000
0000
,
0000
0000
0000
0000
,
0030
0000
0000
0000
;

//---------------dance-single - M. Simmons----------------
#NOTES:
     dance-single:
     M. Simmons:
     Beginner:
     1:
     0.118,0.147,0.037,0.000,0.055:
0000
0000
0000
0000
,
0000
0000
0000
0000
,
0000
0000
0000
0000
,
0000
0000
0000
0000
,
1000
0000
0100
0000
,
0010
0000
0100
0000
,
1000
0000
0001
0000
,
0100
0000
0010
0000
,
0110
0000
0000
0000
,
0000
0000
0000
0000
,
0000
0000
0000
0000
,
0000
0000
0000
0000
,
0000
1000
0000
0000
0000
0000
0000
0000
0000
0000
0000
0000
0000
0000
0000
0000
,
0000
0100
0000
0000
0000
0000
0000
0000
0000
0000
0000
0000
0000
0000
0000
0000
,
0000
0010
0000
0000
0000
0000
0000
0000
0000
0000
0000
0000
0000
0000
0000
0000
,
0000
0001
0000
0000
0000
0000
0000
0000
0000
0000
0000
0000
0000
0000
0000
0000
,
0000
1001
0000
0000
0000
0000
0000
0000
0000
0000
0000
0000
0000
0000
0000
0000
,
0000
1000
0000
0000
0000
0000
0000
0000
0000
0000
0000
0000
0000
0000
0000
0000
,
0000
0001
0000
0000
0000
0000
0000
0000
0000
0000
0000
0000
0000
0000
0000
0000
,
0000
0010
0000
0000
0000
0000
0000
0000
0000
0000
0000
0000
0000
0000
0000
0000
,
0000
0110
0000
0000
0000
0000
0000
0000
0000
0000
0000
0000
0000
0000
0000
0000
,
0000
1000
0000
0000
0000
0000
0000
0000
0000
0000
0000
0000
0000
0000
0000
0000
,
0000
0100
0000
0000
0000
0000
0000
0000
0000
0000
0000
0000
0000
0000
0000
0000
,
0000
1000
0000
0000
0000
0000
0000
0000
0000
0000
0000
0000
0000
0000
0000
0000
,
0000
0100
0000
0010
,
0000
0001
0000
1000
,
0000
0010
0000
0100
,
0000
0010
0000
1000
,
0000
0001
0000
0100
,
0000
0001
0000
1000
,
0000
0100
0000
0010
,
0000
0001
0000
0010
,
0000
0100
0000
1000
,
0000
0001
0000
1000
,
0000
0100
0000
1000
,
0000
0001
0000
0100
,
0000
0010
0000
0100
,
0000
0001
0000
1000
,
0000
0100
0000
1000
,
0000
0001
0000
0100
,
0100
0000
0000
0000
,
0000
0000
0000
0000
,
0010
0000
0000
0000
,
0000
0000
0000
0000
,
0100
0000
0000
0000
,
0000
0000
0000
0000
,
0001
0000
0000
0000
,
0000
0000
0000
0000
,
1000
0000
0100
0000
,
1000
0000
0001
0000
,
0100
0000
0010
0000
,
1000
0000
0000
0000
,
1000
0000
0001
0000
,
0100
0000
0010
0000
,
0100
0000
0001
0000
,
1000
0000
0000
0000
,
0100
0000
0010
0000
,
0100
0000
1000
0000
,
0001
0000
0100
0000
,
0010
0000
0000
0000
,
0100
0000
0001
0000
,
1000
0000
0100
0000
,
1000
0000
0001
0000
,
1000
0000
0000
1001
;

//---------------dance-single - M. Simmons----------------
#NOTES:
     dance-single:
     M. Simmons:
     Medium:
     5:
     0.357,0.389,0.175,0.037,0.202:
0000
0000
0000
0000
,
0000
0000
0000
0000
,
0000
0000
0000
0000
,
0000
0000
0000
0000
,
1000
0000
0100
0000
0010
0001
0100
0000
,
0001
0000
0100
0000
0010
1000
0100
0000
,
0010
0000
0100
0000
1000
0001
0100
0000
,
0001
0000
1000
0000
0100
1000
0001
0000
,
1001
0000
0000
0000
,
0000
0000
0000
0000
,
0000
0000
0000
0000
,
0000
0000
0000
0000
,
0000
1000
0000
0002
0000
0000
0000
0100
0000
0000
0000
0010
0000
0000
0000
1000
,
0003
0000
0000
0002
0000
0000
0000
0000
0000
0100
0000
0000
0000
0010
0000
0000
,
0000
1000
0000
0000
0003
0000
0000
0002
0000
0000
0000
0000
0000
0100
0000
0000
,
0000
0010
0000
0000
0003
0000
0000
0001
0000
1000
0000
0000
0100
0000
0000
1000
,
0000
0010
0000
0000
0000
0000
0000
0100
0000
0000
0000
0010
0000
0000
0000
1000
,
0000
0000
0000
0100
0000
0000
0000
0000
0000
0010
0000
0000
0000
0001
0000
0000
,
0000
1000
0000
0000
0000
0000
0000
0100
0000
0000
0000
0000
0000
1000
0000
0000
,
0000
0010
0000
0000
0000
0000
0000
0100
0000
0001
0000
0000
1000
0000
0000
0100
,
0000
1000
0000
0000
0000
0000
0000
0010
0000
0000
0000
0100
0000
0000
0000
0001
,
0000
0000
0000
1000
0000
0000
0000
0000
0000
0100
0000
0000
0000
0010
0000
0000
,
0000
0100
0000
0000
0000
0000
0000
1000
0000
0000
0000
0000
0000
0001
0000
0000
,
0000
0100
0000
0000
0000
0000
0000
0010
0000
1000
0000
0000
0001
0000
0000
0100
,
0000
0010
0000
0000
1000
0000
0000
0000
0100
0000
0000
0000
1000
0000
0001
0000
,
0100
0000
0010
0000
1000
0000
0010
0100
,
0001
0000
1000
0000
0001
0000
0100
0010
,
0100
0000
0010
0000
1000
0001
0010
0100
,
1000
0000
0010
0000
0100
0000
0010
1000
,
0001
0000
0100
0000
0010
0000
0100
0001
,
1000
0000
0100
0000
0010
0000
0100
1000
,
0001
0000
0100
0000
0001
1000
0100
1000
,
0001
1010
0100
1010
,
0100
0011
0100
0011
,
0100
1001
0100
1001
,
0010
0000
1001
0000
0100
0010
0100
0001
,
1000
0011
0100
1010
,
0100
0101
0100
1100
,
1000
1001
0010
0110
,
0001
0000
1001
0000
0100
0010
0100
0001
,
0100
0010
1000
0001
,
0100
0001
1000
0100
,
1000
0001
0100
0010
,
1000
0010
0110
0110
,
0100
0001
1000
0001
,
0100
0001
1000
0100
,
0010
0100
1000
0001
,
0100
0010
1001
1001
,
1000
0100
0010
0100
,
1000
0001
0100
0010
,
0100
0000
0001
0000
1000
0000
0100
0010
,
0001
0000
0100
0010
1000
0000
0001
0000
,
0100
0010
0100
0001
,
1000
0100
1000
0001
,
0100
0010
1000
0010
,
0100
0000
0001
0100
0001
0100
0001
0000
,
1000
0100
1000
0001
,
0100
0010
0100
0001
,
1000
0000
0100
0000
0010
0000
0100
1000
,
0001
0000
0100
0001
1000
0000
0100
0000
,
1000
0001
0100
0010
,
0100
0001
1000
0100
,
0010
1000
0010
0001
,
1000
0000
0010
0001
0010
0001
0020
0000
,
0000
0000
0000
0000
,
0030
0000
0000
0000
;

//---------------dance-single - M. Simmons----------------
#NOTES:
     dance-single:
     M. Simmons:
     Hard:
     7:
     0.494,0.510,0.055,0.166,0.299:
0000
0000
0000
0000
,
0000
0000
0000
0000
,
0000
0000
0000
0000
,
0000
0000
0000
0000
,
1000
0100
0010
0000
0100
1000
0001
0000
,
0100
0000
0001
0000
1000
0000
0000
0000
0100
0000
0010
0100
0000
0000
0010
0000
,
0001
1000
0010
0000
0100
0010
1000
0000
,
0001
0000
0100
0000
0001
0000
0000
0000
1000
0000
0100
0000
0010
0100
0010
0100
,
0010
0000
0000
0000
,
0000
0000
0000
0110
0000
0000
0000
0000
0000
0000
0000
0000
0000
0000
0000
0000
,
0000
1010
0000
0000
0000
0000
0000
0000
0000
0000
0000
0000
0000
0000
0000
0000
,
0000
0101
0000
0000
0000
0000
0000
0000
0000
0000
0000
0000
0000
0000
0000
0000
,
0000
0001
0000
1000
0000
0100
0010
0000
0100
0000
0000
1000
0000
0001
0100
0000
,
0010
0000
0000
0100
0000
0001
1000
0000
0100
0000
1000
0100
0000
1000
0001
0000
,
0000
0000
0000
0100
0000
0010
0100
0000
0001
0000
0000
1000
0000
0100
0010
0000
,
0100
0000
0000
0010
0000
0001
1000
0000
0010
0000
0100
0010
0000
1000
0000
0001
,
0100
0000
0000
0010
0000
1000
0001
0000
0100
0000
0000
0001
0000
1000
0100
0000
,
0010
0000
0000
0100
0000
1000
0100
0000
1000
0000
0001
0100
0000
0001
0010
0000
,
0000
0000
0000
0100
0000
0010
0000
0000
0001
0000
0000
1000
0000
0010
0100
0000
,
0001
0000
0000
1000
0000
0100
1000
0000
0001
0000
0100
0001
0000
0100
0000
0010
,
1000
0000
0000
0100
0000
0010
0001
0000
1000
0000
0000
0001
0000
0100
0010
0000
,
1000
0000
0000
0001
0000
1000
0100
0000
0010
0000
0100
0010
0000
0100
1000
0000
,
0000
M000
0000
M000
0000
M000
0000
MMMM
0000
0000
0000
0MM0
0000
M00M
0000
M00M
0000
M00M
0000
0MM0
0000
0000
M000
0000
M000
0000
M000
0000
MMMM
0000
0000
0000
,
0000
1000
0000
0000
0001
0000
0000
0100
0000
0000
0010
0000
0000
0100
0000
0000
,
0001
1000
0100
1000
0001
0100
0010
0100
,
0001
1000
0100
0010
0100
1000
0001
1000
,
0001
0100
0010
0100
0001
1000
0100
2000
,
0000
0000
0000
0000
0000
0000
3001
0010
,
0001
0010
0100
1000
0001
0100
0010
0100
,
0001
1000
0100
1000
0001
0100
0010
1000
,
0001
0010
0100
0010
0001
1000
0010
0200
,
0000
0000
0000
0000
0000
0000
0301
1000
,
0100
1000
0001
0100
0010
1000
0010
0100
,
0001
0100
0010
1000
0001
0010
0100
0010
,
0001
1000
0001
0100
0001
1000
0100
2000
,
0000
0000
0000
0000
0000
0000
3001
0100
,
0010
0100
0001
1000
0100
0010
0001
0010
,
0100
1000
0100
1000
0001
0100
0010
0100
,
0001
1000
0001
0100
0001
0010
0100
1000
,
0100
1000
0100
1000
0100
0010
0100
0010
,
0000
0100
0000
1000
0000
0001
0000
0100
,
0000
0000
0010
0000
0000
0000
1000
0000
0000
0000
0001
0010
0000
0000
0001
0000
,
0000
1000
0000
0001
0000
0100
0000
0010
,
0000
0100
0000
0001
0000
1000
0400
0000
,
0300
1000
0000
0010
0000
0100
0000
0010
,
0000
0000
1000
0000
0000
0000
0001
0000
0000
0000
0100
0001
0000
0000
1000
0000
,
0000
0100
0000
0010
0000
0001
0000
0010
,
0000
0100
0000
1000
0000
0001
4000
0000
,
3020
1000
0230
0001
,
0320
0100
2030
0100
,
3002
0100
0023
0001
,
0230
0000
0010
0300
1001
0000
0001
1000
,
0001
0100
0010
0100
0001
0000
1000
0100
,
1000
0001
0100
0010
0100
0000
0001
1000
,
0100
1000
0001
0100
0001
0000
1000
0100
,
1000
0100
0010
0001
0040
0000
0230
0000
,
1000
0320
1000
0032
,
1000
0203
1000
0320
,
1000
0230
1000
0320
,
1000
0030
1001
0000
0110
0000
0001
1000
,
0100
1000
0001
0100
0010
0000
0100
0010
,
1000
0001
0100
0001
1000
0000
0100
1000
,
0001
0100
0001
1000
0100
0000
0010
0100
,
1000
0100
0010
0001
0010
0001
2000
0000
,
0000
0000
0000
0000
,
0000
3000
0000
0000
;

//---------------dance-double - M. Simmons----------------
#NOTES:
     dance-double:
     M. Simmons:
     Challenge:
     9:
     0.580,0.572,0.368,0.138,0.589:
00000000
00000000
00000000
00000000
,
00000000
00000000
00000000
00000000
,
00000000
00000000
00000000
00000000
,
00000000
00000000
00000000
00000000
,
00000000
11000000
00000000
00011000
00000000
11000000
00000000
00011000
,
00000000
00000000
11000000
00000000
00000000
00000000
00011000
00000000
00000000
00000000
00001000
00010000
00000000
00000000
00000100
00000000
,
00000000
00000101
00000000
00011000
00000000
00000101
00000000
00011000
,
00000000
00000101
00000000
00011000
00044000
00000000
00000000
00033000
,
01000100
00000000
00000000
00000000
0M000000
00000000
00000000
00000100
00000000
00000000
00000000
00100M00
00000000
00000000
00000000
00M10000
,
00000000
00000000
00000000
100M0000
00000000
00000000
00000000
M0000000
00000000
01000000
00000000
00000000
00000000
1M000000
00000000
00000000
,
00000000
M0001000
00000000
00000000
00000000
000MM000
00000000
00100000
00000000
00000000
00000000
00M00000
00000000
00001000
00000000
00000000
,
00000000
0001M000
00000000
00000000
00000000
000M0000
00000000
00000100
00000000
00010000
00000000
00000000
00001000
00000000
00000000
00100000
,
00000000
00010000
00000000
10000000
00000000
01000000
00100000
00000000
00001000
00000000
00000000
00100000
00000000
00001000
00000010
00000000
,
00000001
00000000
00000000
00010000
00000000
00000010
00001000
00000000
00000100
00000000
00010000
00001000
00000000
10000000
00000000
00000000
,
00000000
0000M000
00000000
10000000
00000000
00010000
01000000
00000000
00100000
00000000
00000000
01000000
00000000
00001000
00010000
00000000
,
00000100
00000000
00000000
00010000
00000000
00001000
00100000
01000000
10000000
00010000
00000000
01000000
00100000
00000000
10000000
00000000
,
00001000
00000000
00000000
01000000
00000000
00001000
00000100
00000000
00000001
00000000
00000000
00000001
00000000
00010000
00001000
00000000
,
10000000
00000000
00000000
00100000
00000000
01000000
00010000
00000000
00100000
00000000
00001000
00010000
00000000
00010000
00000000
00000000
,
000M0000
00000000
00000000
00000010
00000000
00010000
00001000
00000000
01000000
00000000
00000000
00100000
00000000
00010000
00001000
00000000
,
00000010
00000000
00000000
00000001
00000000
00001000
00000100
00010000
00001000
00100000
00000000
00001000
00100000
00000000
00010000
00000000
,
01000000
00000000
00000000
00100000
00000000
10000000
00010000
00000000
00100000
00000000
00000000
00001000
00000000
00010000
00000100
00000000
,
00001000
00000000
00000000
00000010
00000000
00000100
00000001
00000000
00001000
00000000
00000100
00010000
00000000
00001000
00100000
00000000
,
0MM00000
M00M0000
M00M0000
M00M0000
0MM00000
000M000M
000MM0MM
000M0M0M
000M000M
000M000M
00000000
00000000
00MM0000
0M000000
0M000000
0M0MM000
,
00MM0000
01000000
00000000
00000000
00010000
00000000
00000000
00001000
00000000
00000000
00000100
00000000
00000000
00000001
00000000
00000000
,
00000010
00000001
00001001
00000000
00000010
00001000
00010010
00000000
,
00000100
00010000
00101000
00100000
00001000
01000000
01010000
00000000
,
00010000
10000000
10100000
00000000
01000000
00001000
00101000
00002000
,
00000000
00003020
00000000
00000032
00000000
00000203
00000000
00001300
,
00010000
00001000
00101000
00000000
00010000
01000000
01001000
00000000
,
00010000
10000000
01100000
01000000
00001000
00010000
00010100
00000000
,
00001000
00000010
00000011
00000000
00010000
00001000
00001100
00020000
,
00000000
00030200
00000000
00000302
00000000
00000023
00010000
00010030
,
00000100
00001000
00010100
00000000
00001000
00100000
00110000
00000000
,
01000000
00100000
01100000
10000000
00010000
01000000
00011000
00000000
,
00001000
00010000
00001100
00000000
00000010
00000100
00000101
00000002
,
00000000
00000023
00000000
00002030
00000000
00003200
00000000
00000301
,
00001000
00000100
00001100
00000000
00010000
00001000
00110000
00000000
,
00010000
10000000
01000000
10000000
00100000
01000000
00010000
00000000
,
00100000
00001000
00010000
00000001
00000100
00000010
00010000
00001000
,
10000000
01000000
00100000
00001000
00010000
00000001
00001000
00000020
,
00000100
00000001
00001000
00000100
,
00000001
00000000
00001000
00000000
00000100
00000030
00001000
00000000
,
00001010
00000100
00010000
00001000
,
00110000
00000000
00000000
00000000
01000000
00000000
00000000
00000000
00100000
00000000
00000000
00000000
10000000
00010000
10000000
00010000
,
10000000
00100000
01000000
00010000
,
00100000
00001000
00010000
00000100
,
00001000
00000010
00010000
00001000
,
00100000
00000000
00000000
00000000
00010000
00000000
00000000
00000000
10000000
00000000
00000000
00000000
00100000
10000000
00100000
10000000
,
00100000
00000000
01000000
00010000
00000000
00000000
00100000
00001000
00000000
00000000
00010000
00000100
00000000
00000000
00001000
00000010
,
00000000
00000000
00000100
00000010
00000000
00000000
00001000
00000100
00000000
00000000
00010000
00001000
00000000
00000000
00100000
00010000
,
00000000
00000000
10000000
00100000
00000000
00000000
00010000
00100000
00000000
00000000
01000000
00001000
00010000
00000000
00000100
00000000
,
00001000
00000000
00000000
00000000
00001010
00000000
00000010
00000000
00001000
00000000
00000000
00000000
00000000
00000000
00001000
00000001
,
00000000
00000000
00010000
00001000
00000000
00000000
10000000
00010000
00000000
00000000
01000000
00010000
00000000
00000000
00100000
00001000
,
00000000
00000000
00010000
00000100
00000000
00000000
00010000
00001000
00000000
00000000
00100000
00010000
00000000
00000000
10000000
00100000
,
00000000
00000000
01000000
00100000
00000000
00000000
10000000
01000000
00000000
00000000
00100000
00010000
00000000
00000000
00100000
00001000
,
00000000
00000000
00010000
00000100
00000000
00000000
00001000
00000010
00000100
00000010
00000100
00000010
00000100
00000000
00000001
00001000
,
00000000
00000000
00000100
00010000
00000000
00000000
00001000
00010000
00000000
00000000
00001000
00100000
00000000
00000000
00010000
01000000
,
00000000
00000000
00100000
10000000
00000000
00000000
00010000
10000000
00000000
00000000
01000000
10000000
00000000
00000000
01000000
10000000
,
00000000
00000000
00010000
01000000
00000000
00000000
00001000
00010000
00000000
00000000
00000100
00010000
00000100
00000000
00000010
00000000
,
00000110
00000000
00000000
00000000
00000100
00000000
00001000
00000000
00001001
00000000
00000000
00000000
00000000
00000000
00000010
00000100
,
00000000
00000000
00000010
00001000
00000000
00000000
00000001
00000100
00000000
00000000
00000001
00010000
00000000
00000000
00001000
00010000
,
00000000
00000000
00001000
00100000
00000000
00000000
00010000
00100000
00000000
00000000
00100000
10000000
00000000
00000000
00100000
00010000
,
00000000
00000000
00010000
01000000
00000000
00000000
00001000
00010000
00000000
00000000
00001000
00010000
00000100
00000000
00000010
00000000
,
00000001
00001000
00000010
00000100
00000010
00001000
00002002
00000000
,
00000000
00000000
00000000
00000000
,
00000000
00000000
00003003
00000000
;

//---------------dance-double - D. Bernardone----------------
#NOTES:
     dance-double:
     D. Bernardone:
     Easy:
     3:
     0.162,0.266,0.018,0.028,0.129:
00000000
00000000
00000000
00000000
,
00000000
00000000
00000000
00000000
,
00000000
00000000
00000000
00000000
,
00000000
00000000
00000000
00000000
,
10000000
00000000
00010000
00000000
,
01000000
00000000
00001000
00000000
,
00010000
00000000
00000010
00000000
,
00001000
00000000
00000002
00000000
,
00000013
00000000
00000000
00000000
00000000
00000000
00000000
00000100
00000000
00000000
00000000
00000000
00000000
00000000
00000000
00000100
,
00000000
00000000
00000000
00000000
00000000
00000000
00000000
00000000
00000000
00000100
00000000
00000000
00000000
00000000
00000000
00000000
,
00000000
00000010
00000000
00000000
00000000
00000000
00000000
00000000
00000000
00000000
00000000
00000000
00000000
00000010
00000000
00000000
,
00000000
00000000
00000000
00000000
00000000
00000000
00000000
00000010
00000000
00000000
00000000
00000000
00000000
00000000
00000000
00000000
,
00000000
00000001
00000000
00000000
00000000
00000000
00000000
00000000
00000000
00000001
00000000
00000000
00000000
00000000
00000000
00000000
,
00000000
00000001
00000000
00000000
00000000
00000000
00000000
00000000
00000000
00001000
00000000
00000000
00000000
00000000
00000000
00000000
,
00000000
00001000
00000000
00000000
00000000
00000000
00000000
00000000
00000000
00001000
00000000
00000000
00000000
00000000
00000000
00000000
,
00000000
00000100
00000000
00000000
00000000
00000000
00000000
00000000
00000000
00000010
00000000
00000000
00000000
00000000
00000000
00000000
,
00000000
00000110
00000000
00000000
00000000
00000000
00000000
00000000
00000000
00000000
00000000
00000000
00000000
00000000
00000000
00010000
,
00000000
00000000
00000000
00000000
00000000
00000000
00000000
00000000
00000000
00000000
00000000
00000000
00000000
00000000
00000000
00001000
,
00000000
00000000
00000000
00000000
,
00000000
00000000
00000000
00000000
00000000
00100000
00000000
00000000
00000000
01000000
00000000
00000000
00000000
00000000
00000000
10000000
,
00000000
00000000
00000000
00000000
00000000
00000000
00000000
00000000
00000000
00010000
00000000
00000000
00000000
00000000
00000000
00100000
,
00000000
00000000
00000000
00000000
00000000
01000000
00000000
00000000
00000000
00000000
00000000
00000000
00000000
00000000
00000000
10000000
,
00000000
00000000
00000000
00000000
00000000
00010000
00000000
00000000
00000000
00000000
00000000
00000000
00000000
01000000
00000000
00000000
,
00000000
00000000
00000000
00000000
00000000
00000000
00000000
00000000
00000000
00100000
00000000
00000000
00000000
00000000
00000000
00000000
,
00000000
10000000
00000000
00000000
10000000
00000000
00000000
00000000
01000000
00000000
00000000
00000000
00000000
00000000
00000000
00000000
,
00100000
00010000
00000000
00000000
,
01000000
00001000
00000000
00000000
,
00000000
00010000
00000100
00001000
,
00000100
00001000
00000000
00000000
,
00000010
00010000
00000000
00000000
,
00000010
00001000
00000000
00000001
,
00000000
00001000
00001000
00000100
,
00010000
00001000
00000000
00000000
,
01000000
00100000
00000000
00000000
,
10000000
01000000
00000000
00000000
,
00000000
00100000
00010000
01000000
,
00010000
00100000
00000000
00000000
,
00001000
00010000
00000000
00000000
,
00000100
00000010
00000000
00000000
,
00000001
00000100
00000000
00000010
,
00000010
00000000
00000000
00000000
,
00001000
00000000
00000000
00000000
,
00000100
00000000
00000000
00000000
,
00010000
00000000
00000000
00000000
,
00001000
00000000
00000000
00000000
,
01000000
00000000
00000000
00000000
,
00010000
00000000
00000000
00000000
,
10000000
00000000
00000000
00000000
,
01000000
00000000
01000000
00000000
,
00100000
00000000
00100000
00000000
,
00010000
00000000
01000000
00000000
,
00001000
00000000
00010000
00000000
,
00001000
00000000
00010000
00000000
,
00000100
00000000
00001000
00000000
,
00000100
00000000
00000010
00000000
,
00000001
00000100
00000001
00000100
,
00000010
00000000
00001000
00000000
,
00000100
00000000
00010000
00000000
,
00001000
00000000
01000000
00000000
,
00010000
00000000
00100000
00000000
,
01000000
00000000
10000000
00000000
,
00100000
00000000
01000000
00000000
,
00010000
00000000
00100000
00000000
,
00010000
01000000
00001000
00022000
,
00000000
00033000
00000000
00000000
;

//---------------dance-double - D. Bernardone----------------
#NOTES:
     dance-double:
     D. Bernardone:
     Medium:
     5:
     0.329,0.414,0.018,0.129,0.239:
00000000
00000000
00000000
00000000
,
00000000
00000000
00000000
00000000
,
00000000
00000000
00000000
00000000
,
00000000
00000000
00000000
00000000
,
10000000
10000000
01000000
01000000
,
00100000
00100000
00010000
00010000
,
01000000
01000000
00001000
00001000
,
00010000
00010000
00000200
00000000
,
00000310
00000000
00000000
00000000
00000000
00000000
00000000
00000001
00000000
00000000
00000000
00000001
00000000
00000000
00000000
00000001
,
00000000
00000000
00000000
00001000
00000000
00000000
00000000
00000000
00000000
00000010
00000000
00000000
00000000
00000010
00000000
00000000
,
00000000
00000010
00000000
00000000
00000000
00000000
00000000
00000100
00000000
00000000
00000000
00000000
00000000
00000001
00000000
00000000
,
00000000
00000001
00000000
00000000
00000000
00000000
00000000
00001000
00000000
00000100
00000000
00000000
00000000
00000100
00000000
00000000
,
00000000
00010000
00000000
00000000
00000000
00001000
00000000
00000000
00000000
00010000
00000000
00000000
00000000
00001000
00000000
00000000
,
00000000
00100000
00000000
00000000
00000000
00010000
00000000
00000000
00000000
00100000
00000000
00010000
00000000
00100000
00000000
00000000
,
00000000
01000000
00000000
00000000
00000000
10000000
00000000
00000000
00000000
00010000
00000000
00000000
00000000
01000000
00000000
00000000
,
00000000
00010000
00000000
00000000
00000000
01000000
00000000
00000000
00000000
00100000
00000000
00000000
00000000
01000000
00000000
00000000
,
00000000
01100000
00000000
00000000
00000000
00000000
00000000
00000000
00000000
00000000
00000000
00000000
00000000
00000000
00000000
00000000
,
00000000
10000000
00000000
00000000
00000000
01000000
00000000
00000000
00000000
10000000
00000000
00000000
00000000
00000000
00000000
00000000
,
00000000
00010000
00000000
00000000
00000000
01000000
00000000
00000000
00000000
00010000
00000000
00000000
00000000
00000000
00000000
00000000
,
00000000
00000000
00000000
00000000
00000000
00100000
00000000
00000000
00000000
00001000
00000000
00000000
00000000
00000000
00000000
00000000
,
00000000
00010000
00000000
00000000
00000000
00001000
00000000
00000000
00000000
00010000
00000000
00000000
00000000
00000000
00000000
00000000
,
00000000
00000100
00000000
00000000
00000000
00001000
00000000
00000000
00000000
00000100
00000000
00000000
00000000
00000000
00000000
00000000
,
00000000
00001000
00000000
00000000
00000000
00000010
00000000
00000000
00000000
00001000
00000000
00000000
00000000
00000000
00000000
00000000
,
00000000
00000001
00000000
00000000
00000000
00000010
00000000
00000000
00000000
00000001
00000000
00000000
00000000
00000000
00000000
00000000
,
00000000
00001000
00000000
00000000
00000001
00000000
00000000
00000000
00000100
00000000
00000000
00000000
00000010
00000000
00000000
00000000
,
00001000
00000100
00010000
00001000
,
00010000
00001000
00100000
00010000
,
10000000
00000000
00100000
00000000
01000000
00000000
00010000
00010000
,
00010000
00100000
01000000
10000000
,
00010000
00100000
00001000
00010000
,
00000100
00001000
00000001
00000010
,
00000100
00000000
00001000
00000000
00000001
00000000
00000100
00000100
,
00000100
00000020
00001030
00000100
,
00010000
00002000
00103000
00010000
,
01000000
00200000
10300000
01000000
,
10000000
20000000
30200000
02300000
,
03010000
00200000
00301000
00010000
,
00000010
00000200
00000310
00001000
,
00000100
00000020
00000031
00000100
,
00000010
00000000
00002000
00000000
00003100
00000000
00010000
00001000
,
01000000
00000000
00010000
00000000
,
10000000
00000000
01000000
00000000
,
00010000
00000000
00001000
00000000
,
00000100
00000000
00000001
00000002
,
00000013
00000000
00000100
00000000
,
00001000
00000000
00000010
00000000
,
00000100
00000000
00001000
00000000
,
00010000
00000000
00000000
00000000
00001000
00010000
00001000
00000000
,
01000000
00000000
00010000
00000000
00100000
01000000
00100000
00000000
,
00010000
00000000
10000000
00000000
01000000
00100000
01000000
00000000
,
10000000
00000000
00010000
00000000
00100000
00001000
00100000
00000000
,
00001000
00000000
00010000
00000000
00000100
00001000
00000100
00000000
,
00001000
00000000
00000010
00000000
00000100
00000001
00000100
00000000
,
00000001
00000000
00000010
00000000
00000100
00001000
00000100
00000000
,
00010000
00000000
00001000
00000000
00010000
00001000
00010000
00000000
,
00001000
00000000
01000000
00000000
00010000
00100000
00010000
00000000
,
01000000
00000000
00100000
00000000
10000000
00010000
10000000
00000000
,
01000000
00000000
10000000
00000000
00010000
01000000
00010000
00000000
,
00100000
00000000
00001000
00000000
00010000
00001000
00010000
00000000
,
00000100
00000000
00001000
00000000
00000010
00001000
00000010
00000000
,
00000100
00000000
00000001
00000000
00001000
00000001
00001000
00000000
,
00000010
00000000
00001000
00000000
00000100
00010000
00000100
00000000
,
00010000
00000000
00001000
00000000
01000000
00001000
01000000
00000000
,
00010000
00000000
00100000
01000000
10000000
00010000
20020000
00000000
,
00000000
30030000
00000000
00000000
;

//---------------dance-double - D. Bernardone----------------
#NOTES:
     dance-double:
     D. Bernardone:
     Hard:
     7:
     0.469,0.579,0.037,0.037,0.414:
00000000
00000000
00000000
00000000
,
00000000
00000000
00000000
00000000
,
00000000
00000000
00000000
00000000
,
00000000
00000000
00000000
00000000
,
00000001
00000010
00000100
00001000
,
00000010
00010000
00001000
01000000
,
00010000
00100000
01000000
10000000
,
00100000
00000000
01000000
00000000
00002000
00000000
00013000
00000010
,
00000100
00000000
00000000
00000000
00000000
00000000
00000000
00000001
00000000
00000000
00000000
00000010
00000000
00000000
00000000
00000100
,
00000000
00000000
00000000
00001000
00000000
00000000
00000000
00000000
00000000
00000010
00000000
00000000
00000000
00010000
00000000
00000000
,
00000000
00001000
00000000
00000000
00000000
00000000
00000000
01000000
00000000
00000000
00000000
00000000
00000000
00010000
00000000
00000000
,
00000000
00100000
00000000
00000000
00000000
00000000
00000000
01000000
00000000
10000000
00000000
00000000
10000000
00000000
00000000
00010000
,
00000000
01000000
00000000
00100000
00000000
00100000
00000000
00000000
10000000
00000000
00000000
10000000
00000000
01000000
00000000
00000000
,
00100000
00000000
00000000
00001000
00000000
00010000
00000000
00000000
00000100
00000000
00000000
00001000
00000000
00001000
00000000
00000000
,
00000010
00000000
00000000
00000100
00000000
00000001
00000000
00000000
00000010
00000000
00000000
00000100
00000000
00001000
00000000
00000000
,
00000010
00000000
00000000
00010000
00000000
00001000
00000000
00000000
01000000
00000000
00000000
00010000
00000000
00010000
00000000
00000000
,
00000000
10010000
00000000
00000000
00000000
10000000
00000000
01000000
00000000
10000000
00000000
01000000
00000000
00000000
00000000
00100000
,
00000000
00000000
00000000
00000000
00000000
00010000
00000000
01000000
00000000
00010000
00000000
01000000
00000000
00000000
00000000
00001000
,
00000000
00000000
00000000
00000000
00000000
00010000
00000000
00001000
00000000
00010000
00000000
00001000
00000000
00000000
00000000
00000000
,
00000000
00000000
00000000
00010000
00000000
00000010
00000000
00000100
00000000
00000001
00000000
00000010
00000000
00000000
00000000
00000100
,
00000000
00000000
00000000
00000000
00000000
00001000
00000000
00000010
00000000
00001000
00000000
00000010
00000000
00000000
00000000
00010000
,
00000000
00000000
00000000
00000000
00000000
00001000
00000000
00010000
00000000
00001000
00000000
00010000
00000000
00000000
00000000
00001000
,
00000000
00000000
00000000
00000000
00000000
01000000
00000000
00100000
00000000
01000000
00000000
00100000
00000000
10000000
00000000
10010000
,
00000000
00000000
00000000
00010000
00000000
00100000
00000000
01000000
00000000
10000000
00000000
00100000
00000000
00000000
00000000
00100000
,
00000000
01000000
00000000
00000000
01000000
00000000
00010000
00000000
00100000
00000000
00010000
00000000
00000000
00000000
01000000
00000000
,
00000000
00000000
00001000
00010000
00000010
00010000
00000000
00000100
,
00000000
00000000
00001000
00000100
00001000
00000010
00000000
00000000
,
00000000
00000100
00000001
00000010
00001000
00010000
00000000
00000010
,
00000000
00000000
00000100
00000001
00001000
00000010
00000000
00010000
,
00000000
00000000
00001000
00100000
00010000
00100000
00000000
01000000
,
00000000
00000000
10000000
00010000
00100000
00010000
01000000
01100000
,
00000000
10000000
01000000
00010000
00001000
00010000
00000100
00000100
,
00000100
00000010
00000001
00000100
00000010
00010000
00000100
00010000
,
00001000
00100000
00010000
01000000
00100000
01000000
00001000
00010000
,
00000100
00000010
00000100
00001000
00000010
00010000
00000100
00001000
,
00000020
00000001
00000100
00001000
,
00010030
00001000
01000000
00001000
00010000
00000100
00000010
00000100
,
00001000
00000010
00010000
00001000
01000000
00010000
00100000
00001000
,
00010000
00000100
00001000
00000010
00000100
00000010
00010000
00001000
,
00100000
01000000
00100000
00001000
00010000
01000000
00100000
00100000
,
00010000
00010000
00010000
00010000
,
01000000
01000000
01000000
01000000
,
00001000
00001000
00001000
00001000
,
00010000
00000000
00010000
00000000
00010000
00000000
00010000
00000100
,
00000010
00000010
00000010
00000010
,
00000001
00000001
00000001
00000001
,
00001000
00001000
00001000
00001000
,
00000010
00000000
00000100
00000000
00000001
00001000
00000001
00000010
,
00000100
00000000
00000100
00000000
00001000
00000000
00000000
00000010
00000100
00000000
00000000
00000000
00000010
00000000
00000000
00000000
,
00010000
00000000
00010000
00000000
00001000
00000000
00000000
00100000
00010000
00000000
00000000
00000000
00100000
00000000
00000000
00000000
,
00010000
00000000
00010000
00000000
10000000
00000000
00000000
00100000
01000000
00000000
00000000
00000000
00100000
00000000
00000000
00000000
,
10000000
00000000
10000000
00000000
01000000
00000000
01000000
10000000
00010000
00000000
00010000
00000000
10000000
00000000
00000000
00000000
,
00100000
00000000
00100000
00000000
01000000
00000000
00000000
00001000
00010000
00000000
00000000
00000000
00001000
00000000
00000000
00000000
,
00010000
00000000
00010000
00000000
00000010
00000000
00000000
00001000
00000100
00000000
00000000
00000000
00001000
00000000
00000000
00000000
,
00000010
00000000
00000010
00000000
00000100
00000000
00000000
00000001
00001000
00000000
00000000
00000000
00000001
00000000
00000000
00000000
,
00000100
00000000
00000100
00000000
00000001
00000000
00000001
00001000
00000100
00000000
00000100
00000000
00001000
00000000
00000000
00000000
,
00000010
00000000
00000010
00000000
00010000
00000000
00000000
00001000
00010000
00000000
00000000
00000000
00001000
00000000
00000000
00000000
,
01000000
00000000
01000000
00000000
00010000
00000000
00000000
00100000
01000000
00000000
00000000
00000000
00100000
00000000
00000000
00000000
,
00010000
00000000
00010000
00000000
01000000
00000000
00000000
00100000
10000000
00000000
00000000
00000000
00100000
00000000
00000000
00000000
,
01000000
00000000
01000000
00000000
00010000
00000000
00010000
10000000
01000000
00000000
01000000
00000000
10000000
00000000
00010000
00000000
,
10000000
00000000
01000000
00000000
00100000
00000000
00000000
00001000
00010000
00000000
00000100
00000000
00001000
00000000
00000010
00000000
,
00010000
00000000
00000100
00000000
00000100
00000000
00000000
00001000
00000010
00000000
00000100
00000000
00000001
00000000
00001000
00000000
,
00000100
00000000
00000010
00000000
00000010
00000000
00000000
00000001
00000100
00000000
00001000
00000000
00000100
00000000
00000001
00000000
,
00000100
00000000
00000010
00000000
00001000
00000000
00000100
00000000
00010000
00001000
00010000
00000000
00022000
00000000
00000000
00000000
,
00000000
00000000
00000000
00000000
,
00000000
00000000
00000000
00000000
,
00000000
00033000
00000000
00000000
;
