#TITLE:ReaF;
#SUBTITLE:;
#ARTIST:m1dy;
#TITLETRANSLIT:;
#SUBTITLETRANSLIT:;
#ARTISTTRANSLIT:;
#GENRE:Hardcore;
#CREDIT:Sync by HellRazoR;
#BANNER:ReaF-bn.png;
#BACKGROUND:ReaF-bg.png;
#LYRICSPATH:;
#CDTITLE:;
#MUSIC:ReaF.ogg;
#OFFSET:-0.070;
#SAMPLESTART:42.194;
#SAMPLELENGTH:11.920;
#SELECTABLE:YES;
#DISPLAYBPM:220.000;
#DISPLAYBPM:220;
#BPMS:0=220,222=224.2,227=220,319=241.24,319.75=220;
#STOPS:158.500=0.273;
#BGCHANGES:0.000=ReaF-bg.png=1.000=0=0=1=====,
16.000=In The Groove Rebirth/314_JB_HD.mpg=2.000=0=0=1=====,
32.000=In The Groove Rebirth/263_JB_HD.mpg=2.000=0=0=1=====,
48.000=In The Groove Rebirth/308_JB_HD.mpg=2.000=0=0=1=====,
64.000=In The Groove Rebirth/257_JB_HD.mpg=1.000=0=0=1=SongBgWithMovieViz====,
80.000=In The Groove Rebirth/264_JB_HD.mpg=1.000=0=0=1=SongBgWithMovieViz====,
88.000=ReaF-bg.png=1.000=0=0=1=====,
92.000=ReaF-bg.png=1.000=0=0=1====0^1^0^1=,
93.000=ReaF-bg.png=1.000=0=0=1====1^0^0^1=,
94.000=ReaF-bg.png=1.000=0=0=1====0^0^1^1=,
94.500=ReaF-bg.png=1.000=0=0=1====1^0^0^1=,
95.000=In The Groove Rebirth/263_JB_HD.mpg=2.000=0=0=1=SongBgWithMovieViz====,
96.000=In The Groove Rebirth/824_JumpBack.mpg=2.000=0=0=1=====,
112.000=In The Groove Rebirth/1358_JumpBack.mpg=2.000=0=0=1=====,
128.000=In The Groove Rebirth/308_JB_HD.mpg=2.000=0=0=1=====,
144.000=In The Groove Rebirth/314_JB_HD.mpg=1.000=0=0=1=====,
158.500=ReaF-bg.png=1.000=0=0=1=Kaleidoscope2x2====,
159.000=In The Groove Rebirth/401_JB_HD.mpg=2.000=0=0=1=====,
175.000=In The Groove Rebirth/207_JB_HD.mpg=2.000=0=0=1=====,
191.000=In The Groove Rebirth/263_JB_HD.mpg=2.000=0=0=1=====,
207.000=In The Groove Rebirth/1358_JumpBack.mpg=2.000=0=0=1=====,
222.000=In The Groove Rebirth/1358_JumpBack.mpg=0.100=0=0=1=====,
222.833=In The Groove Rebirth/1358_JumpBack.mpg=1.000=0=0=1=====,
223.000=In The Groove Rebirth/264_JB_HD.mpg=2.000=0=0=1=====,
239.000=In The Groove Rebirth/308_JB_HD.mpg=2.000=0=0=1=====,
251.000=ReaF-bg.png=1.000=0=0=1=====,
255.000=In The Groove Rebirth/314_JB_HD.mpg=2.000=0=0=1=====,
271.000=In The Groove Rebirth/207_JB_HD.mpg=2.000=0=0=1=====,
287.000=In The Groove Rebirth/257_JB_HD.mpg=2.000=0=0=1=====,
303.000=In The Groove Rebirth/401_JB_HD.mpg=2.000=0=0=1=====,
319.000=In The Groove Rebirth/824_JumpBack.mpg=2.000=0=0=1=SongBgWithMovieViz====,
335.000=In The Groove Rebirth/1358_JumpBack.mpg=2.000=0=0=1=SongBgWithMovieViz====,
351.000=ReaF-bg.png=1.000=0=0=1=====,
99999=-nosongbg-=1.000=0=0=0 // don't automatically add -songbackground-
;
#BGCHANGES2:64.000=flash=1.000=0=0=1====0.5^0.5^0.5^1=,
72.000=flash=1.000=0=0=1====0.5^0.5^0.5^1=,
80.000=flash=1.000=0=0=1====0.5^0.5^0.5^1=,
88.000=flash=2.000=0=0=1====0.5^0.5^0.5^1=,
90.000=flash=1.000=0=0=1====0.5^0.5^0.5^1=,
128.000=white flash=1.000=0=0=1=====,
144.000=white flash=1.000=0=0=1=====,
158.500=flash=2.000=0=0=1====0.5^0.5^0.5^1=,
159.000=white flash=1.000=0=0=1=====,
175.000=flash=1.000=0=0=1====0.5^0.5^0.5^1=,
227.000=flash=1.000=0=0=1====0.5^0.5^0.5^1=,
231.000=flash=1.000=0=0=1====0.5^0.5^0.5^1=,
235.000=flash=1.000=0=0=1====0.5^0.5^0.5^1=,
239.000=white flash=1.000=0=0=1=====,
243.000=white flash=1.000=0=0=1=====,
247.000=white flash=1.000=0=0=1=====,
251.000=flash=1.000=0=0=1====0^0^0^1=,
319.000=white flash=1.000=0=0=1=====,
351.000=flash=0.700=0=0=1====0^0^0^1=,
;
#KEYSOUNDS:;

//---------------dance-single - M. Simmons & S. Venkat----------------
#NOTES:
     dance-single:
     M. Simmons & S. Venkat:
     Challenge:
     13:
     1.000,0.000,0.626,0.021,1.000:
0000
0000
0000
0000
,
0000
0000
0000
0000
,
0000
0000
0000
0000
,
0000
0000
0000
0000
0000
0000
1000
0001
,
1000
0001
1000
0000
0010
0000
0100
0000
0001
0000
0010
0000
0100
1000
0100
0000
,
0100
0010
0001
0000
0001
0000
1000
0000
0010
0000
0100
0000
0010
1000
0001
0000
,
0001
0100
0010
0000
1000
0000
0100
0000
0010
0000
0001
0000
0100
0001
1000
0000
,
1000
0100
0010
0000
0010
0000
0001
0000
1001
0000
0100
0000
0100
0000
0010
0000
,
1000
0001
1000
0000
1000
0000
0001
0000
0100
0000
0001
0000
1000
0100
0010
0000
,
0010
0001
0100
0000
0010
0000
1000
0000
0001
0000
0100
0000
0001
1000
0100
0000
,
0100
0010
0001
0000
1000
0000
0001
0000
0100
0000
0010
0000
1000
0001
0010
0000
,
0010
0100
1000
0000
0001
0000
1000
0000
1001
0000
0001
0000
1000
0100
1000
0001
,
0100
0000
0010
0000
1000
0000
0001
0000
0100
0000
0001
0000
1000
0100
0010
0000
,
0010
0001
1000
0000
0010
0000
0100
0000
0001
0000
0100
0000
0010
1000
0010
0000
,
0010
1000
0001
0000
0100
0000
0001
0000
1000
0000
0100
0000
0010
0100
1000
0000
,
1000
0010
0100
0000
0010
0000
1000
0000
0011
0000
0100
0000
1000
0100
0010
0100
,
1000
0010
0100
0001
1000
0100
1000
0001
,
0100
0010
1000
0000
0001
0100
0001
0000
1000
0000
0100
0000
0010
0001
1000
0001
,
1001
1000
0100
0010
0001
1000
0001
0100
,
0010
0000
1000
0001
0100
0000
0100
0000
0010
0000
1000
0000
0100
0010
0100
1000
,
1001
0001
1000
0010
0100
0001
0100
0010
,
1000
0100
0010
0000
0010
0100
1000
0000
0001
0000
0100
0000
0010
0000
1000
0000
,
1001
0000
0000
0001
1001
0000
0000
1000
,
1001
0000
0100
0000
0110
0000
1000
0000
0011
0000
0100
0000
1000
0001
0100
0010
,
1000
0001
0100
0000
0100
0000
0010
0000
0100
0000
0001
0000
1000
0001
1000
0000
,
1000
0100
0010
0000
0001
0000
1000
0000
0010
0000
1000
0000
0100
0010
0001
0000
,
0001
1000
0010
0000
0100
0000
0010
0000
1000
0000
0001
0000
0100
0001
0100
0000
,
0100
0010
1000
0000
0001
0000
0100
0000
0001
0000
1000
0000
0100
0010
0001
1000
,
0001
0000
0100
0000
0010
0000
1000
0000
0001
0000
0100
0000
0001
1000
0100
0000
,
0100
0010
0001
0000
0010
0000
0100
0000
1000
0000
0001
0000
1000
0010
1000
0000
,
1000
0001
0100
0000
0001
0000
1000
0000
0100
0000
0010
0000
0100
1000
0100
0000
,
0100
1000
0001
0000
1000
0000
0010
0000
0100
0000
0010
0000
1000
0001
0100
0001
,
1001
0000
0001
1000
0100
0000
0010
0001
1000
0000
0010
1000
0001
0000
0100
0001
,
0010
0000
0100
1000
0001
0000
1000
0100
0010
0000
0001
1000
0010
0000
0100
0001
,
1000
0000
0010
1000
0001
0000
0010
0100
1000
0000
0100
0010
0001
0000
0010
0100
,
1000
0001
0100
0001
1000
0000
0010
0000
1000
0000
1000
0000
1001
0000
0000
0000
,
1100
0000
1000
0001
0100
0000
0010
1000
0100
0000
0010
0001
1000
0000
0001
0010
,
0100
0000
0100
1000
0001
0000
0100
0010
1000
0000
0010
0100
0001
0000
1000
0100
,
0010
0000
0010
0001
1000
0000
0010
0100
0001
0000
0100
0010
1000
0000
0010
0000
,
1000
0000
0100
0010
1000
0000
1000
0000
0010
0000
0001
0000
1000
0100
0010
0000
,
0010
0000
0001
0000
1000
0000
0100
0000
1000
0000
0001
0000
0100
0010
1000
0000
,
1000
0000
0001
0000
0100
0000
0010
0000
0100
0000
0001
0000
1000
0100
0010
0000
,
0010
0000
0100
0000
1000
0000
0001
0000
0010
0000
1000
0000
0010
0001
1000
0000
,
1000
0000
0001
0000
0100
0001
0100
0010
1000
0001
0010
0000
0100
1000
0001
0000
,
0100
0000
0010
0000
1000
0000
0100
0000
0010
0000
0001
0000
1000
0010
0100
0000
,
0010
0000
1000
0000
0001
0000
0100
0000
0001
0000
1000
0000
0100
0010
0100
0000
,
1000
0000
0010
0000
0100
0000
0001
0000
1000
0000
0010
0000
1000
0001
1000
0000
,
0100
0010
0100
0000
1000
0001
0100
0000
0001
1000
0100
0010
0001
1000
0001
0000
,
0100
0000
0010
0000
1000
0000
0001
0000
0100
0001
0100
0000
0100
0010
1000
0000
,
0010
0000
0100
0001
0100
0000
0010
0000
1001
0000
0001
0000
1000
0100
1000
0000
,
0001
0000
1000
0100
0010
0000
0001
0000
1000
0010
1000
0000
1000
0001
0100
0001
,
1000
0000
0100
0000
0010
0000
0011
0000
0000
0000
0000
0000
0001
1000
0100
0000
,
0100
0000
1000
0001
0100
0000
0100
0000
0010
1000
0001
0000
0001
1000
0010
0000
,
0100
0000
0010
0000
1000
0001
1000
0000
1010
0000
1000
0000
0001
1000
0100
0000
,
0010
0000
0001
0000
1000
0001
0010
0000
0010
0100
0010
0000
0001
1000
0001
0100
,
0010
1000
0010
0000
1010
0000
1001
0000
0101
0000
0000
0000
1001
0000
0001
0100
,
0010
0000
0100
0010
1000
0000
0001
0100
0001
0000
1000
0000
1001
0000
0100
0010
,
1000
0000
0001
0100
0001
0000
1000
0100
0010
0000
0001
0000
1001
0000
0100
0010
,
1000
0000
0001
0100
0001
0000
1000
0100
0010
0000
0100
0000
0110
0000
0010
0100
,
1000
0000
0001
0100
0010
0000
0010
1000
0001
0100
0001
0000
1010
0000
0100
0010
,
1000
0000
0001
1000
0001
0000
0001
0100
0010
0000
1000
0000
1100
0000
0100
0010
,
0001
0000
1000
0100
0010
0000
0010
0001
1000
0000
0001
0000
1010
0000
1000
0001
,
0100
0000
0010
1000
0010
0000
0010
1000
0001
0000
0100
0000
0001
0000
0100
0010
,
0100
0000
0001
0000
1000
0000
0100
0010
0100
0000
1000
0000
0001
0100
0001
0000
,
1000
0000
0100
0000
0010
0001
1000
0000
1000
0010
0100
0000
0100
0010
1000
0000
,
0001
0000
0010
0000
0100
1000
0001
0000
0001
0100
0010
0000
0010
1000
0001
0000
,
0100
0000
0001
0000
1000
0100
0010
0000
0100
1000
0001
0000
0100
0000
0001
0000
,
1010
0000
0010
0000
1000
0000
0100
0000
0010
0000
0010
0001
1000
0000
0001
0000
,
0001
0000
0010
0000
0100
1000
0001
0000
0001
0100
0010
0000
0010
1000
0001
0000
,
0100
0000
0001
0000
1000
0100
0010
0000
0010
0100
1000
0000
0010
0100
0010
0000
,
1000
0000
0001
0000
0100
0001
0010
0000
0100
1000
0001
0000
0001
1000
0100
0000
,
0010
0000
0100
0000
1000
0000
0100
0000
0001
0000
0100
1000
0100
0000
1000
0000
,
1010
0000
0100
0000
0010
1000
0001
0000
0010
0100
1000
0000
1000
0100
0010
0000
,
0001
0000
0100
0000
0010
0100
0001
0000
0001
1000
0010
0000
1000
0100
0010
0000
,
0010
0000
0001
0000
1000
0010
1000
0000
0100
1000
0100
0000
0010
0001
0010
0000
,
0010
0000
0001
0000
0001
0000
0100
0000
1000
0000
0100
0001
0100
0010
0100
0000
,
1010
0000
0100
0000
0010
1000
0010
0000
0110
0000
0100
0000
1000
0000
0001
0000
,
0101
0000
0010
0000
1000
0100
1000
0000
0110
0000
0001
0000
1000
0000
0010
0000
,
0011
0000
0100
0000
0100
1000
0010
0000
0110
0000
1000
0000
0001
0100
0001
0000
,
1000
0000
0010
1000
0001
0000
0001
0000
1000
0000
1000
0000
1100
0000
0000
1010
,
0000
0000
0101
0000
0000
0011
0000
0000
0100
0010
0100
0000
1010
0000
0000
0110
,
0000
0000
1001
0000
0000
0011
0000
0100
0010
0000
0010
0000
1010
0000
0000
0101
,
0000
0000
1001
0000
0000
0110
0000
0000
1000
0001
1000
0000
0011
0000
0000
1001
,
0000
0000
0101
0000
1000
0100
0010
0001
1000
0001
0100
0010
1000
0000
0000
0011
,
0000
0000
1001
0000
0000
0110
0000
0000
1000
0010
0100
0000
0101
0000
0000
0011
,
0000
0000
1010
0000
0000
1001
0000
0010
0100
0000
0100
0000
1001
0000
0000
0101
,
0000
0000
1010
0000
0000
0011
0000
0100
1000
0100
0010
0000
0100
0000
1000
0000
,
0001
0000
0100
0010
0100
0000
0001
0000
1000
0100
1000
0000
2002
0000
0000
0000
,
0000
0000
0000
3003
;

//---------------dance-single - R. Uchima----------------
#NOTES:
     dance-single:
     R. Uchima:
     Hard:
     11:
     1.000,0.000,0.595,0.041,0.344:
0000
0000
0000
0000
,
0000
0000
0000
0000
,
0000
0000
0000
0000
,
0000
0000
0000
0000
,
1000
0000
0100
0000
0010
0000
0001
0000
0010
0000
0001
0000
0100
0000
0010
1000
,
0010
0000
1000
0000
0100
0000
0010
0000
0001
0000
0100
0000
0010
0000
0100
0001
,
0100
0000
0001
0000
1000
0000
0010
0000
1000
0000
0001
0000
0100
0000
0010
1000
,
0001
0100
0010
1000
1010
0000
0000
1000
,
0010
0000
1000
0000
0100
0000
0010
0000
0001
0000
0100
0000
0010
0000
0100
0010
,
1000
0000
0100
0000
0010
0000
0001
0000
0100
0000
0010
0000
1000
0000
0001
1000
,
0100
0000
0010
0000
0001
0000
0100
0000
0010
0000
0100
0000
0001
0000
0010
0100
,
1000
0010
1000
0001
0101
0000
0000
0001
,
0100
0000
0010
0000
1000
0000
0100
0000
1000
0000
0001
0000
0100
0000
0010
0100
,
0001
0000
1000
0000
0100
0000
0010
0000
0100
0000
1000
0000
0001
0000
0100
0010
,
0100
0000
0001
0000
0010
0000
0100
0000
0010
0000
0001
0000
0100
0000
0010
1000
,
0100
0000
0010
0000
0100
0000
1000
0000
1010
0000
0000
0000
2000
0000
0100
3000
,
0011
MM10
0001
0100
0010
0100
0010
1000
,
0001
0100
0001
0000
1000
0000
0100
0000
0010
0000
0001
0000
0200
0000
0010
0300
,
1001
0MM1
1000
0010
0100
0001
0100
0010
,
1000
0000
0001
1000
0001
0000
0100
0000
0001
0000
1000
0000
0002
0000
0100
0003
,
1010
0M1M
1000
0001
0010
0001
0100
0001
,
0010
0100
1000
0000
0010
0000
0100
0000
0010
0000
1000
0000
0010
0000
1000
0000
,
0101
MMMM
0110
MMMM
,
1001
1000
1100
0100
0110
0010
0001
0001
,
1000
0000
0010
0000
0100
0000
0010
0000
1000
0000
0100
0000
0010
0001
0010
0000
,
0001
0000
0100
0000
0001
0000
0010
0000
0100
0000
1000
0000
0001
0100
0001
0000
,
0100
0000
0010
0000
1000
0000
0100
0000
1000
0000
0001
0000
0010
0100
0010
0000
,
0100
1000
0010
0100
0010
1000
1001
0000
,
0011
0000
0100
0000
1000
0000
0010
0000
0100
0000
0001
0000
0010
0001
0010
0000
,
0001
0000
0100
0000
0001
0000
1000
0000
0010
0000
0100
0000
0001
1000
0001
0000
,
0100
0000
0010
0000
1000
0000
0100
0000
0010
0000
0100
0000
0010
0001
0010
0000
,
0001
0100
0010
0100
0010
1000
1001
0000
,
1100
1000
0010
0010
0100
0100
0010
0010
,
1000
1000
0001
0001
0010
0010
0100
0100
,
1000
1000
0001
0001
0100
0100
0010
0010
,
1000
0001
1000
0000
0001
0000
0100
0000
0010
0100
0010
0000
1000
0100
1000
0000
,
1100
1000
0010
0010
0100
0100
0001
0001
,
0010
0010
0100
0100
1000
1000
0010
0010
,
0100
0100
0001
0001
1000
1000
0010
0010
,
0100
0000
0010
1000
0001
0000
1000
0000
1001
0MM0
0000
M00M
0110
0000
0100
0000
,
0001
0001
0010
0010
0100
0100
1100
1000
,
0010
0010
1000
1000
0001
0001
0011
0010
,
0100
0000
0100
0000
1000
0000
1000
0000
0010
0000
0010
0000
1000
0100
1000
0000
,
0010
0000
0100
0000
0010
1000
0010
0000
1000
0001
1000
0000
1001
0000
0001
0000
,
0100
0100
0001
0001
1000
1000
1010
0010
,
0100
0100
0001
0001
0100
0100
0110
0010
,
1000
0000
1000
0000
0100
0000
0100
0000
1000
0000
1000
0000
0010
1000
0010
0000
,
1000
0000
0100
0000
0010
0001
0010
0000
0001
1000
0001
0000
1001
0000
0000
0000
,
1100
0011
0110
0011
,
0101
0000
1010
0000
1010
1000
1100
0000
,
0110
0000
0011
0000
0101
0000
0101
0100
,
0010
0010
1000
1000
1001
0000
0101
0000
,
0011
1001
1100
1010
,
1100
0000
1001
0000
0101
0100
0110
0000
,
1010
0000
1100
0000
1001
0000
0110
0100
,
0001
0001
1000
1000
1200
0000
4300
0001
,
0000
0010
0000
0001
0000
3100
0040
0100
,
0000
1000
0000
0001
0000
0031
0400
0010
,
0000
1000
0000
0001
0000
0310
4000
0001
,
0000
0100
0000
3010
1010
0000
0004
0100
,
0000
0010
0000
1000
0000
0103
0040
0100
,
0000
0001
0000
0100
0000
1030
0400
0010
,
0000
0001
0000
1000
0000
0310
0004
4000
,
0000
0000
0000
0000
0000
0000
0000
0000
3003
0000
0000
M00M
0100
0000
0001
0000
,
1000
0000
0100
0000
0010
0000
0001
0000
0100
0000
0010
0000
1000
0001
1000
0000
,
0010
0000
1000
0000
0100
0000
0010
0000
0001
0000
0100
0000
0010
1000
0010
0000
,
0100
0000
0001
0000
0010
0000
0100
0000
1000
0000
0010
0000
0100
0010
0100
0000
,
0010
1000
0010
0100
0101
0000
1001
0001
,
0010
0000
0100
0000
1000
0000
0010
0000
0100
0000
0001
0000
0100
0010
0100
0000
,
0010
0000
1000
0000
0100
0000
0010
0000
0001
0000
0100
0000
0010
1000
0010
0000
,
1000
0000
0100
0000
0010
0000
0001
0000
1000
0000
0001
0000
0100
0001
0100
0000
,
0001
0010
0100
1000
1001
0000
0101
0001
,
0100
0000
0010
0000
1000
0000
0010
0000
0100
0000
0001
0000
0010
0001
0010
0000
,
0001
0000
0100
0000
0010
0000
1000
0000
0100
0000
1000
0000
0100
1000
0001
0000
,
0100
0000
0010
0000
1000
0000
0100
0000
1000
0000
0010
0000
0100
0001
0100
0000
,
0010
1000
0100
0010
1001
0000
0011
0010
,
0001
0000
0100
0000
0010
0000
0100
0000
0001
0000
1000
0000
0100
1000
0100
0000
,
0010
0000
0001
0000
0100
0000
0010
0000
0100
0000
0001
0000
1000
0010
1000
0000
,
0010
0000
0100
0000
0001
0000
0010
0000
0100
0000
1000
0000
0100
1000
0100
0000
,
0010
0000
0001
0010
0001
0000
0010
0000
0001
0000
1000
0000
0100
0000
0000
0010
,
0000
0000
0001
0000
0000
1000
0000
0000
1000
0001
1000
0000
0001
0000
0000
0100
,
0000
0000
0010
0000
0000
1000
0000
0000
1000
0000
0100
0000
1000
0000
0000
0001
,
0000
0000
0100
0000
0000
0010
0000
0000
0010
0100
0010
0000
1000
0000
0000
0001
,
0000
0000
0010
0000
0001
1000
0001
1000
0001
1000
0001
1000
0100
0000
0000
0010
,
0000
0000
0001
0000
0000
1000
0000
0000
0100
1000
0001
0000
0100
0000
0000
0010
,
0000
0000
1000
0000
0000
0100
0000
0000
0100
0000
0010
0000
0001
0000
0000
0001
,
0000
0000
1000
0000
0000
0100
0000
0000
1000
0001
0100
0000
0040
0400
0000
0000
,
0000
0000
0000
0000
0000
0000
0000
0000
0000
0000
0330
0000
0004
4MM0
0000
0000
,
0000
0000
0000
0000
0000
3003
MMMM
0000
;

//---------------dance-single - R. Uchima----------------
#NOTES:
     dance-single:
     R. Uchima:
     Medium:
     9:
     0.815,0.000,0.431,0.205,0.082:
0000
0000
0000
0000
,
0000
0000
0000
0000
,
0000
0000
0000
0000
,
0000
0000
0000
0000
,
1000
0000
0001
0000
0100
0000
0010
1000
,
0010
0000
1000
0000
0100
0000
1000
0100
,
0010
0000
0001
0000
0100
0000
0010
0100
,
0001
0000
0010
0000
0110
0000
0000
0010
,
0001
0100
0010
0100
0010
1000
0001
0000
,
1000
0100
0010
0001
0010
0001
0100
0000
,
0001
0100
0010
0100
0010
1000
0100
0000
,
1000
0010
0100
0000
0101
0000
0000
0001
,
1000
0100
1000
0010
0100
0001
0010
0000
,
0001
1000
0100
1000
0010
0100
0010
0000
,
1000
0100
0010
0001
1000
0010
0100
0000
,
0010
0000
1000
0000
0100
0000
0000
0000
1100
0000
0000
0000
0220
0000
0000
0330
,
1001
0000
1000
0100
0010
0000
0001
0000
,
0100
0000
0010
0000
0100
0000
0010
0000
1000
0000
0000
0000
2200
0000
0000
3300
,
0011
0000
0001
0100
0001
0000
1000
0000
,
1000
0001
1000
0001
1000
0001
1000
0001
,
1001
0000
0010
1000
0001
0000
0100
0000
,
0010
1000
0100
0010
0100
0000
1100
0000
,
1100
0100
0110
0010
,
0011
1100
1010
0000
,
0100
0010
0100
0010
1000
0100
1000
0000
,
0010
0100
0010
1000
0100
0010
0001
0000
,
0010
0001
0100
0010
0100
0001
1000
0000
,
1000
0010
0100
0001
0100
0000
0101
0000
,
0010
1000
0100
1000
0100
0010
0001
0000
,
0010
0001
0100
0010
0100
0001
1000
0000
,
0010
1000
0100
0010
0100
1000
0001
0000
,
1000
0100
0010
0001
0100
0000
0110
0000
,
1010
0000
1000
0100
1000
0000
1100
0000
,
1001
0000
0001
0010
0100
0000
0110
0000
,
0011
0000
0001
0100
0010
0000
0110
0000
,
1010
0000
1000
0100
1000
0000
0000
0000
,
0101
0000
0001
0010
0100
0000
0110
0000
,
1100
0000
1000
0001
0100
0000
0110
0000
,
0101
0000
0001
1000
0010
0000
1000
0000
,
0100
0010
0100
0000
1001
0000
1000
0010
,
1000
0001
1000
0000
0001
0000
0100
0010
,
0100
0001
0100
0000
0001
0000
0010
0100
,
0010
0001
0010
0000
0100
0000
1000
0100
,
1000
0010
1000
0001
1000
0000
0001
0100
,
0001
0010
0001
0000
0100
0000
0010
1000
,
0010
0100
0010
0000
1000
0000
0100
0010
,
0100
1000
0100
0000
0010
0000
0001
1000
,
0001
0000
0100
0000
0010
0000
0000
0000
0220
0000
0000
0330
0001
0000
1000
0000
,
0001
0100
0010
0100
0001
0010
0100
1000
,
0010
0100
0010
0000
0100
0000
0010
1000
,
0100
1000
0010
0100
0010
1000
0001
0000
,
1001
0000
0110
0000
0000
0000
1000
0100
,
1000
0010
0100
0010
1000
0100
1000
0001
,
0100
0001
0010
0100
0010
0000
0001
0100
,
0010
1000
0010
1000
0100
0010
0001
0000
,
0101
0000
0000
0000
1010
0000
0000
0000
0202
0000
0000
0303
2000
0000
0000
0000
,
0010
0010
0010
3020
,
0100
0100
0100
0230
,
0001
0001
0001
0302
,
0010
0010
0010
0023
,
0100
0001
0100
0230
,
1000
0010
1000
2300
,
0100
0000
0000
0000
0001
0000
0000
0000
0010
0000
0000
3000
0220
0000
0000
0000
,
0000
0000
0000
0000
0000
0000
0000
0000
0000
0000
0000
0330
1000
0000
0100
0000
,
0010
0001
0010
0001
0100
0000
0001
1000
,
0100
1000
0010
0100
0001
0000
0100
0010
,
1000
0010
0100
0001
1000
0000
1000
0010
,
1000
0100
1000
0000
0110
0000
0001
0010
,
0100
1000
0001
0010
0100
0000
1000
0100
,
0010
0001
1000
0100
0010
0000
0001
0100
,
0010
1000
0001
0100
0010
0000
1000
0010
,
0100
0001
1000
0000
1100
0000
0010
1000
,
0010
1000
0100
1000
0001
0000
0010
0100
,
0010
0001
0100
0010
1000
0000
0100
0010
,
0001
0100
0010
1000
0010
0000
1000
0100
,
0010
0001
0010
0000
1001
0000
0001
0100
,
0010
0100
0010
1000
0100
0010
0001
0010
,
0001
0100
0010
0100
0010
1000
0100
0010
,
0001
0010
0001
0100
0010
1000
0100
0000
,
0110
0000
0000
0000
0011
0000
0000
0000
0000
0000
0000
0000
0001
0000
0000
1000
,
0000
0000
0001
0000
0000
1000
0000
0000
0001
0000
0100
0000
0010
0000
0000
0100
,
0000
0000
0010
0000
0000
0100
0000
0000
0010
0000
1000
0000
0100
0000
0000
1000
,
0000
0000
0100
0000
0000
1000
0000
0000
0100
0000
0010
0000
0001
0000
0000
0100
,
0000
0000
0001
0000
0100
0000
0001
0000
0100
0000
0001
0000
0010
0000
0000
0001
,
0000
0000
0010
0000
0000
0001
0000
0000
0010
0000
0001
0000
0100
0000
0000
0001
,
0000
0000
0100
0000
0000
0001
0000
0000
0100
0000
0010
0000
1000
0000
0000
0010
,
0000
0000
1000
0000
0000
0010
0000
0000
1000
0010
1000
0000
0020
0000
0000
0100
,
0000
0000
0100
0000
0000
0000
0000
0000
0130
0001
0100
0000
0202
0000
0000
0000
,
0000
0000
0000
0303
;

//---------------dance-single - R. Uchima----------------
#NOTES:
     dance-single:
     R. Uchima:
     Easy:
     5:
     0.510,0.000,0.452,0.205,0.000: // measure 1
0000
0000
0000
0000
,  // measure 2
0000
0000
0000
0000
,  // measure 3
0000
0000
0000
0000
,  // measure 4
0000
0000
0000
0000
,  // measure 5
1000
0100
0010
0001
,  // measure 6
0100
0010
0100
0001
,  // measure 7
1000
0100
1000
0010
,  // measure 8
0100
0001
2002
3003
,  // measure 9
1000
0100
1000
0010
,  // measure 10
0100
0001
0100
0010
,  // measure 11
1000
0001
1000
0010
,  // measure 12
0100
0010
2020
3030
,  // measure 13
1000
0100
0010
0001
,  // measure 14
0100
0010
0100
0001
,  // measure 15
0010
0001
1000
0100
,  // measure 16
1000
0010
0100
0110
,  // measure 17
1001
0000
0100
0000
,  // measure 18
0010
0000
0001
0011
,  // measure 19
1100
0000
1000
0000
,  // measure 20
0100
0100
0010
0010
,  // measure 21
1001
0000
0001
0000
,  // measure 22
0100
0000
0010
1010
,  // measure 23
0101
0000
1001
0000
,  // measure 24
0110
0110
0110
0000
,  // measure 25
1000
0100
0010
0001
,  // measure 26
0100
0010
0100
0001
,  // measure 27
0100
0010
1000
0100
,  // measure 28
0010
0001
0011
0000
,  // measure 29
0001
1000
0001
0100
,  // measure 30
0001
0010
0100
1000
,  // measure 31
0010
1000
0100
0010
,  // measure 32
0001
1000
1010
0000
,  // measure 33
1001
1000
0010
0010
,  // measure 34
0100
0100
0001
0001
,  // measure 35
0010
0010
0100
0100
,  // measure 36
1000
0010
0110
0000
,  // measure 37
1000
1000
0001
0001
,  // measure 38
0100
0100
0010
0010
,  // measure 39
1000
1000
0100
0100
,  // measure 40
1000
0100
0011
0001
,  // measure 41
0100
0010
0100
0010
,  // measure 42
1000
0100
1000
0010
,  // measure 43
1000
0100
0010
0001
,  // measure 44
0010
0011
0000
0001
,  // measure 45
0100
0010
0100
0001
,  // measure 46
1000
0001
0100
0010
,  // measure 47
1000
0100
1000
0010
,  // measure 48
0100
0010
1001
0110
,  // measure 49
1000
0100
1000
0001
,  // measure 50
1000
0010
0100
0010
,  // measure 51
1000
0010
0100
0010
,  // measure 52
0100
0101
0000
0001
,  // measure 53
0010
0001
0100
0001
,  // measure 54
0010
0001
1000
0100
,  // measure 55
0010
0001
0100
0010
,  // measure 56
0100
0110
1010
0202
,  // measure 57
0000
0000
0000
0300
0100
0003
0220
0000
,  // measure 58
0000
0000
0000
0030
0010
0300
2020
0000
,  // measure 59
0000
0000
0000
3000
1000
0030
2200
0000
,  // measure 60
0000
0000
0000
0300
0100
3000
0220
0000
,  // measure 61
0000
0030
0010
0000
0010
0300
0022
0000
,  // measure 62
0000
0030
0010
0000
0010
0003
0202
0000
,  // measure 63
0000
0003
0001
0000
0001
0300
0210
0000
,  // measure 64
0010
0000
0010
0000
0010
0300
0010
0000
,  // measure 65
1000
0100
1000
0010
,  // measure 66
0100
0001
0010
0001
,  // measure 67
0100
0010
1000
0100
,  // measure 68
0010
0011
0000
1000
,  // measure 69
0010
0100
0001
0100
,  // measure 70
0010
1000
0100
0010
,  // measure 71
0010
0001
0001
0100
,  // measure 72
0010
1010
0000
0100
,  // measure 73
0001
0010
0100
1000
,  // measure 74
0001
1000
0010
0100
,  // measure 75
0100
0001
0001
0010
,  // measure 76
0100
1100
0000
1000
,  // measure 77
0001
1000
0100
0010
,  // measure 78
0001
0100
0010
0100
,  // measure 79
0001
0010
0100
1000
,  // measure 80
0100
0110
0010
1001
,  // measure 81
0000
M00M
0000
1100
,  // measure 82
0000
MM00
0000
0011
,  // measure 83
0000
00MM
0000
0110
,  // measure 84
0000
0MM0
0000
1100
,  // measure 85
0000
MM00
0000
1010
,  // measure 86
0000
M0M0
0000
0101
,  // measure 87
0000
1M1M
0000
M0M1
,  // measure 88
1000
0000
0100
0000
0010
0000
M002
0M00
,  // measure 89
M000
0M00
M000
0M00
M000
0M00
M003
0000
;

//---------------dance-single - R. Uchima----------------
#NOTES:
     dance-single:
     R. Uchima:
     Beginner:
     1:
     0.169,0.000,0.164,0.000,0.000:
0000
0000
0000
0000
,
0000
0000
0000
0000
,
0000
0000
0000
0000
,
0000
0000
0000
0000
,
1000
0000
0000
0000
,
0010
0000
0000
0000
,
0100
0000
0000
0000
,
0001
0000
0000
0000
,
1000
0000
0000
0000
,
0010
0000
0000
0000
,
0100
0000
0000
0000
,
0001
0000
0001
0000
,
0001
0000
0000
0000
,
0010
0000
0000
0000
,
0100
0000
0000
0000
,
1000
0000
1000
0000
,
1001
0000
0000
0000
,
0100
0000
0000
0000
,
0110
0000
0000
0000
,
0001
0000
1000
0000
,
1001
0000
0000
0000
,
0010
0000
0000
0000
,
1001
0000
1001
0000
,
1001
0000
0001
0000
,
1000
0000
0000
0000
,
0001
0000
0000
0000
,
0100
0000
0000
0000
,
0010
0000
0010
0000
,
1000
0000
0000
0000
,
0100
0000
0000
0000
,
0010
0000
0000
0000
,
0001
0000
0001
0000
,
0100
0000
0000
0000
,
0010
0000
0000
0000
,
1000
0000
0000
0000
,
0100
0000
0100
0000
,
0100
0000
0000
0000
,
0010
0000
0000
0000
,
0001
0000
0000
0000
,
0100
0000
0100
0001
,
0000
0000
0000
0010
,
0000
0000
0000
0100
,
0000
0000
0000
1000
,
0000
1000
0000
1000
,
0000
0000
0000
0010
,
0000
0000
0000
0100
,
0000
0000
0000
0001
,
0000
0001
0000
0001
,
0000
0000
0000
0100
,
0000
0000
0000
0010
,
0000
0000
0000
1000
,
0000
0000
0000
1001
,
0000
0000
0000
0001
,
0000
0000
0000
0010
,
0000
0000
0000
0100
,
0000
0000
0000
0110
,
0000
0000
0000
1000
,
0000
0000
0000
1001
,
0000
0000
0000
0100
,
0000
0000
0000
0110
,
0000
0000
0000
0001
,
0000
0000
0000
1001
,
0000
0000
0000
1001
,
0000
0000
0000
1000
,
0000
0000
0000
0100
,
0000
0000
0000
0010
,
0000
0000
0000
0100
,
0000
0100
0000
0100
,
0000
0000
0000
1000
,
0000
0000
0000
0001
,
0000
0000
0000
0010
,
0000
0010
0000
0010
,
0000
0000
0000
0001
,
0000
0000
0000
1000
,
0000
0000
0000
0001
,
0000
0001
0000
0001
,
0000
0000
0000
0100
,
0000
0000
0000
0010
,
0000
0000
0000
1000
,
0000
1000
0000
1000
,
0000
0000
0000
0000
,
0000
0000
0000
0110
,
0000
0000
0000
0000
,
0000
0000
0000
1001
,
0000
0000
0000
0000
,
0000
0000
0000
1001
,
0000
0001
0000
1000
,
0000
0001
0000
1001
;

//---------------dance-double - M. Simmons----------------
#NOTES:
     dance-double:
     M. Simmons:
     Challenge:
     14:
     1.000,0.000,0.606,0.103,1.000:
00000000
00000000
00000000
00000000
,
00000000
00000000
00000000
00000000
,
00000000
00000000
00000000
00000000
,
00000000
00000000
00000000
00000000
00000000
00000000
00000100
00001000
,
00000100
00010000
00001000
00000000
00010000
00001000
01000000
00000000
00100000
10000000
00010000
00000000
01000000
00010000
10000000
00000000
,
01000000
00100000
00010000
00000000
00100000
01000000
10000000
00000000
00010000
01000000
00001000
00000000
00010000
00000100
00010000
00000000
,
00000100
00000010
00000001
00000000
00001000
00000001
00000100
00000000
00000010
00001000
00000001
00000000
00000100
00000010
00001000
00000000
,
00000001
00000010
00000100
00000000
00000010
00000001
00001000
00000000
00002002
00000000
00000000
00000000
00003003
00000000
00000000
00000000
,
00000001
00000100
00000010
00000000
00010000
00000100
00001000
00000000
00000100
00010000
00001000
00000000
00010000
00001000
01000000
00000000
,
00010000
01000000
00010000
00000000
00100000
01000000
10000000
00000000
01000000
00100000
01000000
00000000
00100000
00010000
10000000
00000000
,
00010000
10000000
01000000
00000000
00100000
00001000
00010000
00000000
00000100
00001000
00000001
00000000
00000100
00000010
00001000
00000000
,
00000001
00000100
00000001
00000000
00001000
00000100
00010000
00000000
00020200
00000000
00000000
00000000
00030300
00000000
00000000
00000000
,
00001000
01000000
00100000
00000000
01000000
00010000
10000000
00000000
01000000
00100000
00010000
00000000
00100000
01000000
10000000
00000000
,
00010000
01000000
00001000
00000000
00010000
00000100
00010000
00000000
00000100
00000010
00000001
00000000
00001000
00000010
00000100
00000000
,
00000010
00001000
00000001
00000000
00000100
00000001
00001000
00000000
00000001
00000100
00000001
00000000
00001000
00000100
00000010
00000000
,
00000100
00010000
00001000
00000000
00010000
00001000
01000000
00000000
01001000
00000000
00000000
00000000
00110000
00000000
00000000
00000000
,
01001000
00000000
00001000
00010000
00000100
00000010
00001000
00010000
,
00000010
00000100
00000001
00000010
00001000
00010000
00100000
00010000
,
00011000
01000000
00100000
10000000
01000000
00010000
00001000
00000100
,
00000010
00000000
00001000
00000100
00000010
00000000
00000100
00000000
00010000
00000000
00000010
00000000
00000100
00000000
00001000
00000000
,
00011000
00010000
00100000
10000000
00100000
01000000
00001000
00010000
,
00000100
00000000
00000010
00000000
00001000
00000000
00010000
00000000
00001000
00000000
00000100
00000000
00000020
00000000
00000000
00000030
,
00001001
00000000
00011000
00000000
,
10010000
00000000
00000000
00000000
00101000
00000000
00000000
00000000
00010000
00000000
00000100
00000000
00000010
00000100
00010000
00001000
,
00010000
00000000
00001000
00000000
01000000
00100000
10000000
00000000
00010000
00000000
01000000
00001000
00010000
00000000
00001000
00010000
,
00000100
00000000
00000010
00000000
00000100
00001000
00000100
00000000
00000010
00000000
00000100
00010000
00001000
00000000
00010000
00001000
,
00100000
00000000
01000000
00000000
00100000
00001000
00010000
00000000
00000100
00000000
00010000
00001000
01000000
00000000
00010000
01000000
,
00001000
00000000
00010000
00000000
00000100
00000010
00000100
00000000
00010000
00000000
00000010
00000100
00000010
00000100
00000001
00001000
,
00000001
00000000
00000001
00000000
00000010
00000100
00001000
00000000
00000100
00000000
00001000
00000100
00010000
00000000
00001000
01000000
,
00010000
00000000
00100000
00000000
01000000
00100000
01000000
00000000
10000000
00000000
00010000
01000000
00100000
00000000
10000000
00010000
,
10000000
00000000
00010000
00000000
00100000
01000000
00100000
00000000
00001000
00000000
01000000
00001000
00010000
00000000
00000100
00010000
,
00001000
00000000
00010000
00000000
00000100
00000010
00000100
00000000
00001000
00000000
00000001
00000100
00000010
00000100
00000001
00001000
,
00000001
00000000
00000010
00000100
00001000
00000000
00000001
00000100
00000010
00000000
00001000
00000100
00001000
00000000
00000001
00000000
,
00000101
00000000
00000001
00001000
00000100
00000000
00010000
00000100
00001000
00000000
00000100
00010000
00001000
00000000
01000000
00000000
,
01001000
00000000
00001000
00100000
00010000
00000000
01000000
00100000
10000000
00000000
00010000
01000000
00010000
00000000
10000000
00000000
,
10000000
00010000
01000000
00000000
00001000
01000000
00100000
00000000
00010000
00000000
00100000
00000000
10000000
00000000
00010000
00000000
,
00100000
00000000
00010000
01000000
00001000
00000000
00001000
01000000
00100000
00000000
10000000
00010000
00100000
00000000
00001000
00000000
,
00011000
00000000
00010000
00000100
00001000
00000000
00000010
00000100
00000010
00000000
00001000
00000001
00010000
00000000
00000100
00000000
,
00010100
00000000
00000100
00000010
00000001
00000000
00001000
00000010
00000100
00000000
00000010
00001000
00000001
00000000
00000010
00000000
,
00000011
00000000
00000010
00000100
00001000
00000000
00000010
00000000
00001000
00000000
00000001
00000000
00000100
00000010
00001000
00000000
,
00000010
00010000
00001000
00000000
00100000
00001000
00010000
00000000
00000100
00000000
00001000
00000000
00000010
00000100
00000001
00000000
,
00000100
00000010
00001000
00000000
00000100
00000010
00000100
00000000
00000010
00000000
00000001
00000000
00001000
00000100
00001000
00000000
,
00000100
00010000
00001000
00000000
00010000
00000100
00010000
00000000
00001000
00000000
00100000
00000000
01000000
00000000
10000000
00100000
,
01000000
00000000
00010000
00000000
10000000
00000000
01000000
10000000
00010000
00000000
00100000
00000000
00100000
00010000
10000000
00000000
,
00010000
01000000
00001000
00000000
01000000
00100000
10000000
00000000
00010000
00000000
00100000
00000000
01000000
00100000
00001000
00000000
,
00010000
00000100
00010000
00000000
00001000
00010000
00000010
00000000
00000100
00000000
00000010
00000000
00001000
00000001
00000100
00000000
,
00000001
00001000
00000100
00000000
00000010
00000001
00001000
00000000
00000010
00000000
00000100
00000000
00000010
00001000
00000001
00000000
,
00000010
00000001
00001000
00000000
00000010
00000100
00000010
00000000
00001000
00000100
00010000
00001000
00010000
00000000
00001000
00000000
,
01000000
00010000
10000000
00000000
00010000
01000000
00010000
00000000
10000000
00000000
01000000
00000000
00100000
00010000
00100000
00000000
,
00001000
00010000
00001000
00000000
00010000
00000000
00000100
00000000
00001100
00000000
00000100
00000000
00000010
00000100
00001000
00000000
,
00000100
00000010
00000001
00000000
00001000
00000010
00010000
00000000
00001000
00000000
01000000
00000000
00100000
10000000
00010000
00100000
,
00010000
00000000
01000000
00000000
02001000
00000000
00010000
00000000
00000000
00000000
00000000
00000000
03001000
01000000
00001000
00000000
,
00010000
00001000
00010000
00000000
00000010
00001000
00000010
00000000
00000100
00000000
00000010
00000000
00001000
00000001
00000100
00000000
,
00000001
00001000
00000100
00000000
00000010
00000000
00000100
00000000
00000110
00000000
00000001
00000000
00001000
00000001
00000010
00000000
,
00000100
00001000
00000100
00000000
00010000
00001000
00100000
00000000
01000000
00000000
00100000
00000000
00001000
00100000
00001000
00100000
,
00010000
00000000
01000000
00000000
00010000
00000000
20010000
00000000
00020000
00000000
30030000
00000000
00110000
00000000
00100000
00001000
,
00010000
00000000
00001000
00010000
00001000
00000000
00010000
00000010
00000100
00000000
00000010
00000000
00001010
00000000
00000001
00000100
,
00000010
00000000
00001000
00000001
00000100
00000000
00000001
00001000
00000100
00000000
00010000
00000000
00010100
00000000
00000100
00010000
,
00001000
00000000
01000000
00100000
01000000
00000000
00010000
10000000
01000000
00000000
00100000
00000000
01100000
00000000
01000000
10000000
,
00010000
00000000
01000000
00100000
10000000
00000000
00010000
01000000
00001000
00010000
00001000
01000000
00010000
00000000
01000000
00001000
,
00010000
00000000
00000100
00010000
00001000
00000000
00010000
00000010
00010000
00000000
00001000
00000000
00011000
00000000
00010000
00000100
,
00001000
00000000
00000100
00000010
00000100
00000000
00001000
00000001
00001000
00000000
00000010
00000000
00001010
00000000
00000100
00000001
,
00001000
00000000
00000010
00000100
00000001
00000000
00001000
00000100
00000010
00000000
00000100
00000000
00000010
00000001
00001000
00000001
,
00001000
00000000
00000010
00000000
00000100
00000010
00010000
00000010
00010000
00000000
00001000
00000000
00010000
00001000
01000000
00000000
,
00010000
10000000
01000000
00000000
00100000
00010000
10000000
00000000
00100000
10000000
00100000
00000000
01000000
00001000
00010000
00000000
,
00001000
00100000
00001000
00000000
00010000
00000100
00001000
00000000
00000001
00001000
00000001
00000000
00000100
00000010
00001000
00000000
,
00000010
00000100
00000001
00000000
00001000
00000001
00000100
00000000
00000010
00010000
00001000
00000000
00100000
00010000
01000000
00000000
,
00101000
00000000
00000000
00000000
00001000
00000000
00010000
00000000
00000010
00000000
00001000
00000000
00000010
00000100
00000001
00000000
,
00000100
00000010
00001000
00000000
00000100
00010000
00000100
00000000
00010000
00001000
00100000
00000000
00010000
01000000
00100000
00000000
,
01000000
00100000
10000000
00000000
00100000
10000000
00010000
00000000
00100000
00001000
00010000
00000000
00001000
01000000
00100000
00000000
,
10000000
00010000
01000000
00000000
00001000
00010000
00001000
00000000
00010000
00000010
00001000
00000000
00000010
00000100
00000001
00000000
,
00001010
00000000
00000000
00000000
00000010
00000000
00010000
00000000
00001000
00000000
01000000
00100000
10000000
00000000
00010000
00000000
,
00100000
01000000
00100000
00000000
00010000
00100000
00001000
00000000
00010000
00001000
00010000
00000000
00000100
00001000
00000010
00000000
,
00000100
00000001
00001000
00000000
00000100
00010000
00001000
00000000
00010000
00001000
00010000
00000000
00000100
00001000
00000001
00000000
,
00000100
00000010
00010000
00000000
00001000
00100000
00010000
00000000
10000000
01000000
00100000
00000000
00010000
01000000
00100000
00000000
,
01010000
00000000
00000000
00000000
00001000
00000000
00010000
00000000
00000010
00000000
00001000
00000001
00000100
00000000
00000010
00000000
,
00001000
00000001
00000100
00000000
00000001
00001000
00000100
00000000
00000010
00000100
00010000
00000000
00001000
00010000
00000010
00000000
,
00010000
00001000
01000000
00000000
00100000
10000000
00010000
00000000
01000000
00001000
00010000
00000000
00001000
00010000
00000100
00000000
,
00000010
00000001
00001000
00000000
00000001
00000100
00000010
00000000
00000100
00000001
00001000
00000000
00000100
00000000
00000010
00000001
,
00001000
00000000
00000010
00000000
00001001
00000000
00000001
00000100
00000010
00000000
00010000
00000000
00010010
00000000
00000000
00001100
,
00000000
00000000
00010100
00000000
00000000
00010010
00000000
00000000
00010000
00001000
00100000
00000000
10001000
00000000
00000000
01000100
,
00000000
00000000
00010001
00000000
00000000
00100010
00000000
00010000
00001000
00000000
00100000
00000000
00101000
00000000
00000000
01010000
,
00000000
00000000
00011000
00000000
00000000
00010100
00000000
00000000
00000010
00000001
00000010
00000000
00000110
00000000
00000000
00001100
,
00000000
00000000
00010100
00000000
00001000
01000000
00010000
01000000
00100000
10000000
00010000
01000000
00001000
00000000
00000000
00011000
,
00000000
00000000
00100010
00000000
00000000
00010010
00000000
00000000
00000010
00001000
00000010
00000000
00001010
00000000
00000000
00010100
,
00000000
00000000
01001000
00000000
00000000
00001000
01000000
00000000
01001000
00000000
00001000
00000000
00101000
00000000
00000000
00011000
,
00000000
00000000
00110000
00000000
00000000
01100000
00000000
00000000
10000000
00010000
01000000
00000000
01010000
00000000
00000000
01001000
,
00000000
00000000
00010100
00000000
00010000
00001000
00010000
00000000
00001000
00000000
01000000
00002000
20000000
00000000
00000000
00000000
,
00000000
00000000
00000000
30003000
;

//---------------dance-double - M. Simmons----------------
#NOTES:
     dance-double:
     M. Simmons:
     Hard:
     11:
     0.941,0.000,0.616,0.123,0.529:
00000000
00000000
00000000
00000000
,
00000000
00000000
00000000
00000000
,
00000000
00000000
00000000
00000000
,
00000000
00000000
00000000
00000000
,
00011000
01000100
00011000
00100010
,
00010010
00101000
01000010
00100100
,
01001000
00010100
00010001
00010010
,
00100010
10001000
00022000
00033000
,
01001000
01000100
00011000
00010001
,
00010010
00100010
00011000
01001000
,
00110000
11000000
10010000
01001000
,
00110000
00101000
00200020
00300030
,
00001010
00000101
00000011
00000110
,
00001001
00010001
00010100
01000100
,
00011000
01010000
00110000
01100000
,
10010000
01001000
10001000
00011000
,
00100000
00000010
00001000
00000100
00000010
00000001
00001000
00000100
,
00010000
00001000
01000000
00100000
10000000
01000000
00010000
00001000
,
00000200
00000000
00000310
00001000
00000001
00000010
00000100
00010000
,
00001000
01000000
00100000
01000000
00001000
00010000
00000100
00000010
,
00000002
00000000
00000103
00000010
00010000
00001000
01000000
00001000
,
00100000
01000000
10000000
00010000
01000000
00100000
01000000
00001000
,
00020000
00000000
00030200
00000300
,
00001100
00000000
00001010
00000000
00000001
00000001
00000001
00000000
,
00000010
00000100
00010000
00001000
01000000
00100000
01000000
00001000
,
00010000
00000100
00010000
00000010
00000100
00000001
00000010
00001000
,
00010000
00001000
01000000
00100000
10000000
01000000
10000000
00010000
,
01000000
00100000
00010000
00001000
00010000
00000100
00010000
00001000
,
01000000
00100000
10000000
01000000
00100000
00001000
00010000
00000010
,
00000100
00000010
00001000
00000001
00000010
00000100
00010000
00001000
,
01000000
00100000
01000000
00001000
00100000
01000000
10000000
00010000
,
01000000
00100000
01000000
00001000
00010000
00000010
00000100
00000001
,
00001000
00000000
00000000
00000010
00000100
00000000
00000000
00000001
00001000
00000000
00000000
00000100
00010000
00000000
00000000
00001000
,
01000000
00000000
00000000
00100000
10000000
00000000
00000000
00010000
00100000
00000000
00000000
01000000
00100000
00000000
00000000
00001000
,
00010000
00000000
00000000
00000100
01000000
00000000
00000000
00001000
00010000
00000000
00000000
00000010
00000100
00000000
00000000
00000001
,
00001000
00000100
00000100
00010000
00001000
01000000
01000000
00100000
,
10000000
00000000
00000000
00001000
00010000
00000000
00000000
00001000
01000000
00000000
00000000
00100000
01000000
00000000
00000000
00001000
,
00010000
00000000
00000000
00000100
00000010
00000000
00000000
00000001
00001000
00000000
00000000
00000010
00000100
00000000
00000000
00000001
,
00010000
00000000
00000000
00001000
00100000
00000000
00000000
01000000
10000000
00000000
00000000
01000000
00100000
00000000
00000000
00010000
,
10000000
00000000
00010000
00000000
01000000
00000000
00001000
00000000
00200000
00000000
00000000
00300000
01000000
00000000
10000000
00000000
,
00010000
01000000
00001000
00100000
01000000
00100000
00001000
00010000
,
00000010
00000100
00000001
00001000
00000100
00000010
00000100
00001000
,
00000001
00000100
00000010
00010000
00001000
01000000
00100000
01000000
,
00001000
00100000
01000000
10000000
10010000
00000000
00010000
01000000
,
00001000
00010000
00000100
00010000
00001000
00010000
00000010
00000100
,
00000001
00001000
00000100
00000010
00001000
00010000
00000010
00000100
,
00000010
00001000
00000100
00010000
00001000
01000000
00100000
01000000
,
00001000
00100000
01000000
10000000
00020000
00000000
00130000
00000000
,
01000000
00100000
00001000
00010000
,
00000010
00000000
00000100
00000000
00000010
00001000
00001000
00000000
,
00000100
00000000
00010000
00000000
00001000
00000000
00100000
00000010
,
00100000
00000010
00100010
00000000
00000000
00000000
00001000
00000000
,
01000000
00100000
10000000
00010000
,
00100000
00000000
01000000
00000000
00100000
10000000
10000000
00000000
,
00100000
00000000
00001000
00000000
00010000
00000000
00000010
00000100
,
00000001
00001000
00000100
00000010
00000100
00001000
00001001
00000000
,
00000001
00000000
00000010
00000000
00000100
00000000
00010000
00000000
00001000
00010000
00001000
00000000
00011000
00000000
00000000
00000000
,
00001000
00000000
01000000
00000000
00100000
00000000
10000000
00000000
00010000
10000000
00010000
00000000
10010000
00000000
00000000
00000000
,
00010000
00000000
00100000
00000000
01000000
00000000
00100000
00000000
00001000
00100000
00001000
00000000
00101000
00000000
00000000
00000000
,
00010000
00000000
00000100
00000000
00010000
00000000
00000010
00000000
00010000
00000001
00010000
00000000
00010001
00000000
00000000
00000000
,
00000001
00000000
00000010
00000000
00000100
00000000
00001000
00000000
00000001
00001000
00000001
00000000
00001001
00000000
00000000
00000000
,
00000010
00000000
00010000
00000000
00000100
00000000
00010000
00000000
00001000
00100000
00001000
00000000
00101000
00000000
00000000
00000000
,
00010000
00000000
10000000
00000000
01000000
00000000
10000000
00000000
00100000
10000000
00100000
00000000
10000000
00000000
00010000
10000000
,
00010000
00000000
00100000
00000000
01000000
00000000
00100000
00001000
00100000
00000000
00001000
00000000
00010000
00000000
00000000
00000010
,
00001000
00000000
00000000
00000100
00000010
00000000
00000000
00000100
00010000
00000000
00000000
00001000
01000000
00000000
00000000
00100000
,
10000000
00000000
00000000
00010000
01000000
00000000
00000000
00001000
00010000
00000000
00000000
00000100
00010000
00000000
00000000
00001000
,
00010000
00000000
00000000
00000010
00000100
00000000
00000000
00000001
00001000
00000000
00000000
00000100
00000010
00000000
00000100
00000000
,
00010000
00000000
00000000
00000000
00001000
00000000
01000000
00000000
10000000
00000000
00000000
00000000
01000000
00000000
00000000
00010000
,
10000000
00000000
00000000
01000000
00100000
00000000
00000000
01000000
10000000
00000000
00000000
00010000
01000000
00000000
00000000
00001000
,
00010000
00000000
00000000
00000100
00000010
00000000
00000000
00000100
00010000
00000000
00000000
00000010
00000100
00000000
00000000
00000001
,
00000010
00000000
00000000
00000100
00010000
00000000
00000000
00001000
00100000
00000000
00000000
01000000
10000000
00000000
00010000
00000000
,
01000000
00000000
00000000
00000000
00001000
00000000
00100000
00000000
00000010
00000000
00000000
00000000
00011000
00000000
00000000
00010000
,
00000100
00000000
00000000
00000010
00000001
00000000
00000000
00000100
00000010
00000000
00000000
00010000
00001000
00000000
00000000
01000000
,
00100000
00000000
00000000
10000000
00010000
00000000
00000000
01000000
00001000
00000000
00000000
00100000
00010000
00000000
00000000
00100000
,
00001000
00000000
00000000
00010000
00000010
00000000
00000000
00000100
00000010
00000000
00000000
00000100
00000001
00000000
00001000
00000000
,
00000100
00000000
00000000
00000000
00010000
00000000
00001000
00000000
00100000
00000000
00000000
00000000
01001000
00000000
00000000
00010000
,
10000000
00000000
00000000
01000000
00100000
00000000
00000000
01000000
00010000
00000000
00000000
00001000
00010000
00000000
00000000
00000100
,
00000010
00000000
00000000
00000001
00001000
00000000
00000000
00000010
00000100
00000000
00000000
00000010
00010000
00000000
00000000
00001000
,
01000000
00000000
00000000
00000100
00010000
00000000
00000000
00001000
00100000
00000000
00000000
01000000
10000000
00000000
00010000
00000000
,
00010000
00000000
01000000
00000000
00001000
00000000
00010000
00000000
00010000
00000000
00000100
00000000
00000010
00000000
00000000
00000001
,
00000000
00000000
00001000
00000000
00000000
00000100
00000000
00000000
00010000
00001000
00010000
00000000
00001000
00000000
00000000
01000000
,
00000000
00000000
00100000
00000000
00000000
10000000
00000000
00010000
00100000
00000000
01000000
00000000
01000000
00000000
00000000
10000000
,
00000000
00000000
00010000
00000000
00000000
01000000
00000000
00000000
00001000
00010000
00001000
00000000
00010000
00000000
00000000
00000100
,
00000000
00000000
00000010
00000000
00000000
00000004
00004000
00000000
00000000
00000000
00000000
00000000
00003003
00000000
00000000
00000001
,
00000000
00000000
00000010
00000000
00000000
00000100
00000000
00000000
00001000
00000100
00001000
00000000
00000100
00000000
00000000
00010000
,
00000000
00000000
00001000
00000000
00000000
01000000
00000000
00100000
10000000
00000000
00010000
00000000
00010000
00000000
00000000
01000000
,
00000000
00000000
00001000
00000000
00000000
00010000
00000000
00000000
00001000
00010000
00001000
00000000
00010000
00000000
00000100
00000000
,
00010000
00000010
00010000
00000000
00000100
00000000
00010000
00000000
00001000
01000000
00001000
00000000
00022000
00000000
00000000
00000000
,
00000000
00000000
00000000
00033000
;

//---------------dance-double - M. Simmons----------------
#NOTES:
     dance-double:
     M. Simmons:
     Medium:
     7:
     0.606,0.000,0.216,0.216,0.077:
00000000
00000000
00000000
00000000
,
00000000
00000000
00000000
00000000
,
00000000
00000000
00000000
00000000
,
00000000
00000000
00000000
00000000
,
00001000
00010000
00000100
00010000
,
00001000
01000000
00100000
10000000
,
00010000
00100000
01000000
10000000
,
00010000
01000000
20020000
30030000
,
00010000
00100000
01000000
00100000
,
00001000
00010000
00000010
00000100
,
00000001
00001000
00000100
00000010
,
00000100
00001000
00002002
00003003
,
00000001
00000100
00000010
00010000
,
00000100
00010000
00001000
01000000
,
00010000
00100000
01000000
10000000
,
00100000
01000000
10010000
01100000
,
10010000
00000000
00100000
00001000
00000000
00001000
00010000
00000000
,
00011000
00000000
00010000
00000100
00000000
00000100
00000010
00000100
,
00000010
00000000
00000001
00001000
00000000
00000010
00001000
00000000
,
00000100
00010000
00000100
00000000
00010000
00000100
00010000
00000000
,
00010100
00000000
00000100
00010000
00000000
00010000
00001000
00000000
,
00001000
00000000
01000000
00100000
00000000
00100000
10000000
00000000
,
10010000
00000000
01100000
00000000
,
00010000
00000000
00010000
00000000
00010000
10000000
00010000
00000000
,
00100000
01000000
00100000
00001000
,
00010000
00000100
00010000
00000010
,
00010000
00000100
00000010
00000001
,
00001000
00000000
00000010
00000000
00000100
00000000
00000001
00000100
,
00000001
00001000
00000100
00000010
,
00000100
00010000
00001000
01000000
,
00100000
10000000
00010000
00100000
,
01000000
00000000
10000000
00000000
01000000
00000000
00100000
00010000
,
00100000
00002000
00010000
00100000
,
00013000
00000200
00000010
00001000
,
00000310
00000002
00001000
00000010
,
00000103
00000000
00000010
00000000
00001000
00000100
00001000
00000000
,
00000100
00020000
00001000
00100000
,
00031000
02000000
00100000
10000000
,
03010000
00200000
01000000
10000000
,
01300000
00100000
00001000
00011000
,
00010000
00000010
00000100
00001001
,
00000001
00000010
00000100
00010100
,
00001000
00000000
00010000
00000000
00001000
00000000
01000000
00001000
,
01000000
00000000
00100000
00000000
10000000
00010000
10000000
00000000
,
01000000
00100000
00001000
00011000
,
00010000
00000010
00000100
00001001
,
00000001
00000010
00000100
00001000
,
00000100
00000000
00010000
00001000
00010000
00001000
00010000
00000000
,
00001000
01000000
00100000
01000000
,
00001000
01000000
10100000
00010000
,
00100000
00000000
01000000
00000000
00100000
00000000
00001000
00100000
,
00001000
00100000
00001000
00000000
00000000
00000000
00010000
00000000
,
00000100
00010000
00000010
00000100
,
00000001
00001000
00001001
00000001
,
00000010
00000000
00000100
00000000
00010000
00000000
00001000
00100000
,
00001000
00100000
00001000
00000000
00101000
00000000
02001000
00000000
,
00001000
00001000
03010000
20010000
,
01000000
01000000
30100000
02100000
,
00001000
00001000
03010000
00010200
,
00001000
00000000
00001000
00000000
00000310
00000100
00000020
00000000
,
00000100
00000100
00001030
00020000
,
00000100
00000100
00031000
00200000
,
01000000
00000000
01000000
00000000
10300000
00000000
00100000
00010000
,
00100000
00000000
01000000
00000000
10000000
00010000
10000000
00000000
,
00010000
01000000
00001000
00010000
,
00000100
00000010
00000001
00001000
,
00000010
00000000
00000100
00000000
00000010
00000000
00010000
00001000
,
00010000
00000000
00000100
00010000
00000100
00000000
00010000
00000000
,
00001000
01000000
00100000
10000000
,
01000000
00100000
00001000
00010000
,
00000010
00000000
00000100
00000000
00000010
00000000
00001000
00000001
,
00001000
00000000
00000010
00000100
00000010
00000000
00010000
00000000
,
00001000
00010000
00000100
00010000
,
00001000
01000000
00100000
10000000
,
01000000
00000000
00010000
00000000
00001000
00000000
00010000
00000010
,
00010000
00000000
00000100
00010000
00000100
00000000
00000010
00000000
,
00000001
00001000
00000100
00010000
,
00000010
00000100
00001000
00010000
,
00001000
00000000
01000000
00000000
00100000
00000000
10000000
00010000
,
10000000
00000000
00010000
00000000
10000000
00000000
00010000
00000000
10000000
00000000
00010000
00000000
10000000
00000000
00000000
00010000
,
00000000
00000000
00100000
00000000
00000000
00001000
00000000
00000000
00010000
00000000
00000000
00000000
00000010
00000000
00000000
00000100
,
00000000
00000000
00000010
00000000
00000000
00001000
00000000
00000000
00000001
00000000
00000000
00000000
00000010
00000000
00000000
00000100
,
00000000
00000000
00010000
00000000
00000000
00001000
00000000
00000000
00100000
00000000
00000000
00000000
01000000
00000000
00000000
10000000
,
00000000
00000000
00020000
00000000
02000000
00000000
00000000
00000000
00000000
00000000
00000000
00000000
03030000
00000000
00000000
00010000
,
00000000
00000000
01000000
00000000
00000000
00001000
00000000
00000000
00010000
00000000
00000000
00000000
00000100
00000000
00000000
00000010
,
00000000
00000000
00000100
00000000
00000000
00001000
00000000
00000000
00000001
00000000
00000000
00000000
00000100
00000000
00000000
00000010
,
00000000
00000000
00000100
00000000
00000000
00000010
00000000
00000000
00010000
00000000
00000000
00000000
00001000
00000000
00000000
00100000
,
00000000
00000000
01000000
00000000
00000000
10000000
00000000
00000000
00010000
00000000
02000000
00000000
00020000
00000000
00000000
00000000
,
00000000
00000000
00000000
03030000
;

//---------------dance-double - M. Simmons----------------
#NOTES:
     dance-double:
     M. Simmons:
     Easy:
     4:
     0.305,0.000,0.226,0.154,0.000:
00000000
00000000
00000000
00000000
,
00000000
00000000
00000000
00000000
,
00000000
00000000
00000000
00000000
,
00000000
00000000
00000000
00000000
,
00001000
00000000
00010000
00000000
,
00000100
00000000
00010000
00000000
,
00001000
00000000
01000000
00000000
,
00100000
01000000
00100000
00000000
,
01000000
00000000
00001000
00000000
,
00010000
00000000
00000100
00000000
,
00000010
00000000
00000001
00000000
,
00001000
00000001
00001000
00000000
,
00000010
00000000
00000100
00000000
,
00000010
00000000
00010000
00000000
,
00000100
00000000
00010000
00000000
,
00001000
00100000
00001000
00100000
,
00001000
00000000
00000000
00000000
,
00000000
00000000
00000000
00110000
,
00110000
00000000
00000000
00000000
,
20020000
00000000
00000000
30030000
,
10010000
00000000
00000000
00000000
,
00000000
00000000
00000000
00011000
,
00011000
00000000
00011000
00000000
,
00010000
00010000
00010000
00010000
,
00010000
00000000
00000100
00000000
,
00001000
00000000
00000010
00000000
,
00000100
00000000
00000010
00000000
,
00001000
00000000
00000001
00000010
,
00000001
00000000
00000010
00000000
,
00000100
00000000
00010000
00000000
,
00001000
00000000
01000000
00000000
,
00100000
00000000
10000000
00010000
,
10000000
00000000
00000000
00000000
,
10010000
00000000
00000000
00000000
,
00110000
00000000
00000000
00000000
,
00101000
00000000
00000000
00000000
,
00011000
00000000
00000000
00000000
,
00010100
00000000
00000000
00000000
,
00000110
00000000
00000000
00000000
,
00001001
00000000
00000000
00000001
,
00000010
00000001
00000000
00001000
,
00000100
00001000
00000000
00000010
,
00010000
00000010
00000000
00010000
,
00000000
00001000
00000000
00010000
,
00001000
00100000
00000000
01000000
,
00100000
01000000
00000000
10000000
,
00010000
10000000
00000000
00100000
,
00100000
01000000
02000000
03010000
,
00000000
00100000
00000000
00001000
,
00000000
00010000
00001000
00010000
,
00000000
00000100
00000000
00000010
,
00000010
00000010
00000000
00000100
,
00000000
00001000
00000000
00000001
,
00000000
00000100
00000010
00000100
,
00000000
00000010
00000000
00010000
,
00000010
00010000
00000010
00020000
,
00000000
00000000
00000000
00032000
,
00000000
00000000
00000000
02003000
,
00000000
00000000
00000000
03200000
,
00000000
00000000
00000000
20300000
,
00000000
00000000
00000000
30020000
,
00000000
00000000
00000000
00230000
,
00000000
00000000
00000000
02300000
,
00000000
00000000
00000000
03100000
,
00000000
00001000
00000000
00010000
,
00000000
00001000
00000000
00010000
,
00000000
00000010
00000000
00000100
,
00000010
00000100
00000010
00000100
,
00000000
00000001
00000000
00000100
,
00000000
00000010
00000000
00001000
,
00000000
00000100
00000000
00010000
,
00001000
00010000
00001000
00010000
,
00000000
00001000
00000000
01000000
,
00000000
00100000
00000000
10000000
,
00000000
01000000
00000000
00100000
,
00010000
00100000
00010000
00100000
,
00000000
00001000
00000000
00010000
,
00000000
00000010
00000000
00000100
,
00000000
00000001
00000000
00001000
,
00000001
00001000
00000001
00001000
,
00000000
00000000
00000000
00000000
,
00000000
00000000
00000000
00000000
00000100
00000000
00010000
00010100
,
00000000
00000000
00000000
00000000
,
00000000
00000000
00000000
10010000
,
00000000
00000000
00000000
00000000
00110000
00000000
00010000
00110000
,
00000000
00000000
00000000
01100000
,
00000000
01100000
00000000
20020000
,
00000000
00000000
30030000
20020000
,
00000000
00000000
00000000
30030000
;
