#TITLE:Progression;
#SUBTITLE:;
#ARTIST:Draigun;
#TITLETRANSLIT:;
#SUBTITLETRANSLIT:;
#ARTISTTRANSLIT:;
#GENRE:Electronic Score;
#CREDIT:Sync by HellRazoR;
#BANNER:Progression-bn.png;
#BACKGROUND:Progression-bg.png;
#LYRICSPATH:;
#CDTITLE:;
#MUSIC:Progression.ogg;
#OFFSET:-0.1303;
#SAMPLESTART:65.480;
#SAMPLELENGTH:12.000;
#SELECTABLE:YES;
#DISPLAYBPM:125.000;
#BPMS:0.000=125.000;
#STOPS:;
#BGCHANGES:0.000=Progression-bg.png=1.000=0=0=1=====,
8.000=In The Groove Rebirth/250_JB_HD.mpg=1.000=0=0=1=====,
24.000=In The Groove Rebirth/311_JB_HD.mpg=1.000=0=0=1=====,
39.000=In The Groove Rebirth/311_JB_HD.mpg=1.000=0=0=1=Kaleidoscope2x2====,
40.000=In The Groove Rebirth/209_JB_HD.mpg=1.000=0=0=1=====,
56.000=In The Groove Rebirth/269_JB_HD.mpg=1.000=0=0=1=====,
72.000=In The Groove Rebirth/508_JB_HD.mpg=1.000=0=0=1=====,
88.000=In The Groove Rebirth/502_JB_HD.mpg=1.000=1=0=1===CrossFade==,
104.000=In The Groove Rebirth/882_JumpBack.mpg=1.000=0=0=1===FadeUp==,
120.000=In The Groove Rebirth/1129_JumpBack.mpg=1.000=1=0=1===CrossFade==,
136.000=In The Groove Rebirth/209_JB_HD.mpg=1.000=0=0=1=====,
152.000=In The Groove Rebirth/311_JB_HD.mpg=1.000=0=0=1=====,
168.000=In The Groove Rebirth/502_JB_HD.mpg=1.000=0=0=1=====,
184.000=In The Groove Rebirth/269_JB_HD.mpg=1.000=0=0=1=====,
199.750=Progression-bg.png=1.000=1=0=1===CrossFade==,
204.000=In The Groove Rebirth/250_JB_HD.mpg=1.000=0=0=1=====,
220.000=In The Groove Rebirth/508_JB_HD.mpg=1.000=0=0=1=====,
235.750=Progression-bg.png=1.000=1=0=1===CrossFade==,
99999=-nosongbg-=1.000=0=0=0 // don't automatically add -songbackground-
;
#BGCHANGES2:8.000=white flash=1.600=0=0=1=====,
40.000=white flash=1.000=0=0=1=====,
72.000=white flash=0.200=0=0=1=====,
136.000=white flash=1.000=0=0=1=====,
203.000=white flash=2.000=0=0=1=====,
;
#KEYSOUNDS:;

//---------------dance-single - M. Simmons----------------
#NOTES:
     dance-single:
     M. Simmons:
     Challenge:
     9:
     0.618,0.000,0.204,0.009,0.847:
0000
0000
0000
0000
,
0000
0000
0000
0000
,
1000
0000
0001
0010
0000
0000
0100
0000
1000
0000
0001
0000
0100
0000
0010
0000
,
0100
0000
0001
1000
0000
0000
0100
0000
0010
0000
0001
0000
1000
0010
1000
0010
,
0000
0000
0100
0001
0000
0000
1000
0000
0100
0000
1000
0000
0001
0000
0010
0000
,
0100
0000
1000
0010
0000
0000
0100
0000
0001
0000
0010
0000
0100
1000
0100
1000
,
0000
0000
0001
0010
0000
0000
0001
0000
0100
0000
0001
0000
1000
0000
0010
0000
,
0100
0000
0001
0010
0000
0000
0100
0000
1000
0000
0100
0000
0010
0001
0010
0001
,
0000
0000
1000
0001
0000
0000
0010
0000
0001
0000
1000
0000
0010
0000
0100
0000
,
0001
0000
0000
0000
0100
0000
0010
0000
0000
0000
0000
0000
1000
0000
0000
0000
0100
0000
0000
0000
1000
0000
0000
0000
0004
4000
0000
0000
0000
0000
0000
0000
,
3003
0000
0000
0000
0011
0000
0000
0000
0010
0100
0000
0000
0110
0000
0000
0000
,
1000
0000
0000
0000
1001
0000
0000
0000
0001
0000
0000
0000
1000
0100
1000
0100
,
0000
0000
0010
0001
0000
0000
0000
0000
1000
0010
0000
0000
0110
0000
0000
0000
,
0001
0000
0000
0110
0000
0000
0000
0000
0010
0000
0000
0000
0100
0010
0100
0010
,
0000
0000
0000
1000
0001
0000
0000
0000
0010
0100
0000
0000
1100
0000
0000
0000
,
1000
0000
0000
1001
0000
0000
0000
0000
0001
0000
0000
0000
1000
0010
1000
0010
,
0000
0000
0000
0100
0001
0000
0000
0000
1000
0100
0000
0000
1100
0000
0000
0000
,
0010
0000
0000
0000
0000
0000
1001
0000
0000
0000
0000
0000
0000
0000
0000
0000
1000
0000
0010
0000
1000
0000
0010
0000
4000
0004
0000
0000
0000
0000
0000
0000
,
3003
0000
0000
0000
0011
0000
0000
0010
0000
0000
0110
0000
0000
0000
0100
0000
,
0100
0000
0000
1000
0010
0000
0000
0100
0000
0000
1010
0000
0000
0000
0001
0000
,
0000
0010
0000
0000
0100
0000
0000
0100
0000
0000
1100
0000
0000
0001
0100
0000
,
0000
0010
0000
0000
1000
0000
0000
0001
0000
0000
0100
0000
0000
0001
0010
0000
,
0000
0110
0000
0000
0100
0000
0000
1000
0000
0000
0001
0000
0000
0010
0001
0000
,
1000
0000
0000
0000
0100
0000
0000
1000
0000
0000
0010
0000
0000
0010
1000
0000
,
0000
0010
0000
0000
0100
0000
0000
0001
0000
0000
1001
0000
0000
0001
0100
0000
,
0000
0001
0000
0000
1000
0000
0000
0100
0000
0000
1000
0000
0000
0010
0100
0000
,
0010
1000
0000
0000
0001
0100
0000
0001
0010
0000
0001
1000
0000
0100
1000
0000
,
0100
0000
0000
0000
0010
0001
0000
1000
0001
0000
0010
0100
0000
0010
0001
0000
,
0000
1000
0000
0010
0100
0000
0001
0100
0000
0001
1000
0000
0000
0100
0010
0000
,
0000
0100
0000
1000
0100
0000
0010
0001
0000
1000
0001
0000
0100
0000
0001
0000
,
0000
1000
0000
0100
1000
0000
0001
0100
0000
0001
1000
0000
0010
1000
0000
0000
,
0110
0000
0000
0000
0101
0000
0000
0011
0000
0000
0110
0000
0000
0000
0100
0000
,
0000
1000
0001
0000
0100
0001
0000
0010
0001
0000
1000
0100
0000
0010
0001
0000
,
0000
1000
0010
0000
0100
0010
0000
1000
0001
0000
1000
0010
0000
0100
0010
1000
,
0010
0100
0000
0001
1000
0000
0100
0010
0000
0100
1000
0001
0000
0100
0001
0000
,
1000
0100
0000
0010
0001
0000
1000
0010
0000
0100
0010
1000
0000
0001
0100
0001
,
0000
1000
0100
0000
0010
0001
0000
1000
0001
0000
0100
0010
0000
1000
0100
0010
,
0000
0100
1000
0000
0001
0100
0000
0001
0010
0000
0100
1000
0000
0001
1000
0001
,
0100
0010
0000
1000
0001
0000
0010
0100
0000
0010
0001
0000
0001
1000
0001
0100
,
0010
0000
0000
0010
1000
0000
0001
0100
0000
0001
1000
0000
0000
0010
1000
0010
,
0000
0100
0001
0000
1000
0100
0000
1000
0001
0000
0100
0010
0000
1000
0010
0100
,
0000
0001
0010
0000
1000
0010
0000
0001
1000
0000
0010
0001
0010
1000
0001
0100
,
0001
0000
0000
1000
0100
0000
0010
0100
0000
1000
0001
0000
0000
0000
0101
0000
,
1010
0000
0000
0001
0100
0000
0001
1000
0000
0100
0010
0000
0000
0110
0000
0000
,
0000
0100
1000
0001
1000
0000
0010
0100
0000
0001
0100
0000
0010
1000
0001
0100
,
0000
0001
1000
0000
0100
0010
0000
0100
1000
0000
0001
0100
0000
0010
1000
0010
,
0000
1000
0001
0000
0100
0001
0000
1000
0100
0000
1000
0001
0000
0100
0010
1000
,
0001
0000
0000
0100
0001
0000
1000
0100
0000
1000
0001
0000
0100
0010
1000
0000
,
0000
0001
0100
0000
0001
1000
0000
0100
0010
0000
0001
0010
0000
0100
1000
0010
,
0100
0000
0000
0010
1000
0000
0001
0010
0000
0100
1000
0010
1000
0001
0100
0001
,
0000
0000
0000
0000
0000
0000
0000
0000
0000
0000
0000
0000
0000
0000
0000
0000
0000
0000
0000
0000
0000
0000
0000
1000
0001
0000
0000
0000
0000
0000
0000
0000
,
0100
0000
0010
0000
1000
0000
0100
0000
1000
0000
0001
0100
0000
0100
0010
0000
,
1000
0000
0001
0000
0100
0000
0001
0000
1000
0000
0100
1000
0000
0100
1000
0100
,
1000
0000
0001
0000
0100
0000
0010
0000
0100
0000
0001
1000
0000
0001
1000
0000
,
0010
0000
0100
0000
0010
0000
1000
0000
0001
0000
0010
0100
0000
0100
1000
0010
,
0100
0000
0010
0000
1000
0000
0001
0000
0100
0000
0001
0010
0000
0010
0100
0000
,
1000
0000
0001
0000
0100
0000
0001
0000
1000
0000
0100
0010
0000
0010
0001
0000
,
1000
0000
0010
0000
1000
0000
0100
0000
0001
0000
0100
1000
0000
1000
0001
1000
,
0001
0000
0100
0000
0010
0000
1000
0000
0001
0000
0100
0001
0000
0101
0000
2010
,
0000
3000
0000
0000
;

//---------------dance-single - M. Simmons----------------
#NOTES:
     dance-single:
     M. Simmons:
     Hard:
     7:
     0.471,0.000,0.170,0.060,0.400:
0000
0000
0000
0000
,
0000
0000
0000
0000
,
0001
1000
0100
0010
,
0001
0000
0000
0000
1000
0000
0000
0000
0010
0000
0000
0000
0100
0000
0100
0010
,
0000
1000
0001
0100
,
0001
0000
0000
0000
1000
0000
0000
0000
0100
0000
0000
0000
0010
0000
0010
0100
,
0000
1000
0001
1000
,
0010
0000
0000
0000
0100
0000
0000
0000
0001
0000
0000
0000
0100
0000
0100
0010
,
0000
1000
0100
0010
,
0001
0010
0100
2002
,
3003
0000
0000
0000
0001
0000
0000
0000
0100
0010
0000
0000
0010
0000
0000
0000
,
1000
0100
0010
1001
,
1000
0000
0000
0000
0010
0000
0000
0000
0100
0010
0000
0000
0010
0000
0000
0000
,
1000
0000
0000
0000
0100
0000
0000
0000
0010
0000
0000
0000
0001
1000
0001
1000
,
0000
0000
0000
0000
0001
0000
0000
0000
0100
0010
0000
0000
0010
0000
0000
0000
,
0100
0001
1000
1100
,
0100
0000
0000
0000
0010
0000
0000
0000
0001
1000
0000
0000
0001
0000
0000
0000
,
0100
0000
0000
0000
0001
0000
0000
0000
0010
0100
0010
0200
0020
0000
0000
0000
,
0330
0000
0000
0000
0100
0000
0000
1000
0000
0000
0001
0000
0000
0000
0100
0000
,
0100
0000
0000
0000
0010
0000
0000
1000
0000
0000
0010
0000
0000
0000
1000
0000
,
0000
1000
0000
0000
0001
0000
0000
0010
0000
0000
0100
0000
0000
0000
0010
0000
,
0000
0010
0000
0000
0001
0000
0000
0100
0000
0000
0001
0000
0000
0000
0001
0000
,
0000
0001
0000
0000
1000
0000
0000
0100
0000
0000
0010
0000
0000
0000
0100
0000
,
1000
0000
0000
0000
0001
0000
0000
0100
0000
0000
0001
0000
0000
0000
0010
0000
,
0000
0010
0000
0000
0100
0000
0000
1000
0000
0000
0001
0000
0000
0000
1000
0000
,
0000
1000
0000
0000
0010
0000
0000
0100
0000
0000
0010
0000
0000
0000
0100
0000
,
0010
0100
0000
0000
0010
0000
0000
1000
0000
0000
0001
0000
0000
0000
0010
0000
,
0010
0000
0000
0000
0100
0000
0000
1000
0000
0000
0001
0000
0000
0000
0010
0000
,
0000
0010
0000
0000
0001
0000
0000
0100
0000
0000
0010
0000
0000
0000
1000
0000
,
0000
1000
0000
0000
0100
0000
0000
0010
0000
0000
0001
0000
0000
0000
1000
0000
,
0000
1000
0000
0000
0010
0000
0000
1000
0000
0000
0100
0000
0000
0000
0010
0000
,
0010
0000
0000
0000
0100
0000
0000
1000
0000
0000
0001
0000
0000
0000
0010
0000
,
0000
0001
0000
0000
1000
0000
0000
0001
0000
0000
0100
0000
0000
0000
0010
0000
,
0000
1000
0000
0000
0010
0000
0000
0100
0000
0000
0001
0000
0000
0000
1000
0000
,
0100
0000
0010
0000
0001
0000
1000
0000
0010
0000
0100
0000
0010
0000
1000
0001
,
1000
0000
0000
0000
1001
0000
0000
0011
0000
0000
1001
0000
0000
0000
0010
0000
,
0000
0010
1000
0000
0100
0000
1000
0000
0001
0000
0100
0000
0010
1000
0010
0000
,
1010
0000
0000
0000
0101
0000
0000
1001
0000
0000
0110
0000
0000
0000
0100
0000
,
0000
0001
1000
0000
0100
0000
0010
0000
0001
0000
0010
0000
0100
1000
0100
0000
,
1100
0000
0000
0000
0110
0000
0000
0011
0000
0000
1001
0000
0000
0000
0010
0000
,
0000
0010
1000
0000
0001
0000
0100
0000
0001
0000
1000
0000
0100
0010
0100
0000
,
0110
0000
0000
0000
1100
0000
0000
1001
0000
0000
0011
0000
0000
0000
1000
0000
,
0000
0010
0100
0000
0010
1000
0000
0010
0100
0000
0001
0000
1000
0000
0100
0000
,
0010
0100
0000
1000
0100
0000
0010
0001
0000
1000
0010
0000
0100
0000
0010
0000
,
0000
0100
0001
0000
0100
0010
0000
1000
0001
0000
0100
0000
0001
0000
1000
0000
,
0100
0010
0000
0100
1000
0000
0001
0100
0000
0010
1000
0000
0001
0000
0010
0000
,
0000
0100
1000
0000
0100
0010
0000
0001
0100
0000
0010
0000
1000
0000
0001
0000
,
0100
0001
0000
1000
0100
0000
0010
0001
0000
1000
0010
0000
0100
0000
0010
0000
,
0000
0100
0001
0000
0100
0010
0000
1000
0010
0000
0100
0000
0001
0000
0010
0000
,
0100
1000
0000
0100
0010
0000
0001
0100
0000
0010
1000
0000
0001
0000
0200
0000
,
0000
0000
0300
1001
,
0001
0000
0010
0000
0100
0000
1000
0000
0001
0000
0100
0010
0000
0100
0010
0000
,
1000
0000
0001
0000
0100
0000
0001
0000
1000
0000
0100
0010
0000
0100
0010
0000
,
0100
0000
1000
0000
0001
0000
0100
0000
0001
0000
0010
0100
0000
0010
0100
0000
,
1000
0000
0001
0000
0100
0000
0010
0000
1000
0000
0010
1000
0000
0010
1000
0000
,
0001
0000
0010
0000
0100
0000
1000
0000
0100
0000
0010
0001
0000
0010
0001
0000
,
1000
0000
0010
0000
0100
0000
0001
0000
0010
0000
0100
0010
0000
0100
0010
0000
,
0100
0000
1000
0000
0010
0000
0100
0000
0001
0000
1000
0001
0000
1000
0001
0000
,
0010
0000
0100
0000
1000
0000
0010
0000
0100
0000
0001
0010
0000
0010
0000
0220
,
0000
0000
0000
0330
0000
0000
0000
0000
0000
0000
0000
0000
0000
0000
0000
0000
;

//---------------dance-double - M. Simmons----------------
#NOTES:
     dance-double:
     M. Simmons:
     Hard:
     7:
     0.493,0.000,0.392,0.034,0.413:
00000000
00000000
00000000
00000000
,
00000000
00000000
00000000
00000000
,
00100000
00000000
00000000
00010000
00100000
00000000
00000000
00000000
00001000
00000000
00000000
00000000
00010000
00000000
00000000
00000000
,
00001000
00000000
00000000
00010000
00000100
00000000
00000000
00000000
00000010
00000000
00000000
00000000
00000001
00001000
00000001
00001000
,
00000000
00000000
00000000
00000010
00001000
00000000
00000000
00000000
00000010
00000000
00000000
00000000
00000100
00000000
00000000
00000000
,
00000001
00000000
00000000
00001000
00000100
00000000
00000000
00000000
00010000
00000000
00000000
00000000
00001000
00100000
00001000
00100000
,
00000000
00000000
00000000
01000000
00100000
00000000
00000000
00000000
01000000
00000000
00000000
00000000
10000000
00000000
00000000
00000000
,
00010000
00000000
00000000
01000000
00010000
00000000
00000000
00000000
00100000
00000000
00000000
00000000
01000000
10000000
01000000
10000000
,
00000000
00000000
00000000
10000000
00100000
00000000
00000000
00000000
01000000
00000000
00000000
00000000
00010000
00000000
00000000
00000000
,
00100000
00000000
00000000
00001000
00010000
00000000
00000000
00000000
00001000
00000000
00000000
00000000
00010000
00000100
00010000
00000100
,
00010000
00011000
00001000
01001000
,
00100000
00000000
00000000
00000000
10000000
00000000
00000000
00000000
01000000
00000000
00000000
00000000
00100000
00010000
00100000
00010000
,
00000000
00100000
00001000
00010000
,
00000100
00000000
00000000
00000000
00000010
00000000
00000000
00000000
00000001
00000000
00000000
00000000
00001000
00000010
00001000
00000010
,
00000000
00001010
00000100
00010000
,
00001000
00000000
00000000
00000000
00110000
00000000
00000000
00000000
01000000
00000000
00000000
00000000
00100000
10000000
00100000
10000000
,
00000000
00010000
00100000
00110000
,
00100000
00000000
00000000
00000000
01000000
00000000
00000000
00000000
00100000
00001000
00100000
00004000
00400000
00000000
00000000
00000000
,
00303000
00000000
00000000
00000000
00101000
00000000
00000000
00011000
00000000
00000000
00010100
00000000
00000000
00000000
00000100
00000000
,
00000100
00000000
00000000
00000000
00000110
00000000
00000000
00000000
00000010
00000000
00000000
00000001
00000000
00000000
00001000
00000000
,
00000000
00001000
00000000
00000000
00000010
00000000
00000000
00000100
00000000
00000000
00000010
00000000
00000000
00000000
00010000
00000000
,
00000000
00001000
00000000
00000000
00100000
00000000
00000000
00010000
00000000
00000000
01000000
00000000
00000000
00000000
00010000
00000000
,
00000000
10000000
00000000
00000000
01000000
00000000
00000000
00100000
00000000
00000000
01000000
00000000
00000000
00000000
10000000
00000000
,
10000000
00000000
00000000
00000000
00010000
00000000
00000000
01000000
00000000
00000000
00001000
00000000
00000000
00000000
00010000
00000000
,
00000000
00001000
00000000
00000000
00010000
00000000
00000000
00000100
00000000
00000000
00000010
00000000
00000000
00000000
00000001
00000000
,
00000000
00001000
00000000
00000000
00000010
00000000
00000000
00000100
00000000
00000000
00000010
00000000
00000000
00000000
00001000
00000000
,
00001001
00000000
00000000
00000000
00000010
00000000
00000000
00001000
00000000
00000000
00000100
00000000
00000000
00000000
00010000
00000000
,
00010000
00000000
00000000
00000000
00001000
00000000
00000000
01000000
00000000
00000000
00100000
00000000
00000000
00000000
01000000
00000000
,
00000000
10000000
00000000
00000000
01000000
00000000
00000000
00010000
00000000
00000000
10000000
00000000
00000000
00000000
00010000
00000000
,
00000000
01000000
00000000
00000000
00001000
00000000
00000000
01000000
00000000
00000000
00100000
00000000
00000000
00000000
10000000
00000000
,
00000000
01000000
00000000
00000000
00010000
00000000
00000000
00001000
00000000
00000000
00010000
00000000
00000000
00000000
00000100
00000000
,
00000100
00000000
00000000
00000000
00000010
00000000
00000000
00000001
00000000
00000000
00001000
00000000
00000000
00000000
00000010
00000000
,
00000000
00001000
00000000
00000000
00000100
00000000
00000000
00010000
00000000
00000000
00001000
00000000
00000000
00000000
00010000
00000000
,
00000000
00001000
00000000
00000000
00010000
00000000
00000000
00000010
00000000
00000000
00000100
00000000
00000000
00000000
00000010
00000000
,
00010010
00000000
00000000
00000000
00011000
00000000
00000000
00101000
00000000
00000000
00110000
00000000
01000000
10000000
01000000
00000000
,
00100000
00000000
00000000
00000000
00011000
00000000
00000000
00010100
00000000
00000000
00001100
00000000
00000010
00000100
00000010
00000000
,
00000110
00000000
00000000
00000000
00001100
00000000
00000000
00010100
00000000
00000000
00011000
00000000
00001000
00000000
01000000
00000000
,
01100000
00000000
00000000
00000000
01010000
00000000
00000000
00110000
00000000
00000000
11000000
00000000
10000000
00000000
00010000
00000000
,
10010000
00000000
00000000
00000000
01001000
00000000
00000000
00101000
00000000
00000000
00011000
00000000
00010000
00000100
00010000
00000000
,
00010100
00000000
00000000
00000000
00001100
00000000
00000000
00000110
00000000
00000000
00001001
00000000
00000001
00000010
00000001
00000000
,
00000011
00000000
00000000
00000000
00000110
00000000
00000000
00001100
00000000
00000000
00001001
00000000
00000000
00000000
00000010
00000000
,
00000000
00010010
00000000
00000000
00011000
00000000
00000000
00101000
00000000
00000000
00110000
00000000
00010000
00100000
00010000
00000000
,
10000000
01000000
00000000
00100000
00010000
00000000
01000000
00001000
00000000
00010000
00001000
00000000
00000000
00000000
00000000
00000000
,
00010000
00000100
00000000
00000100
00001000
00000000
00001000
00000001
00000000
00000001
00000010
00000000
00000000
00000000
00000110
00000000
,
00000100
00001000
00000000
00001000
00000100
00000000
00000100
00010000
00000000
00010000
00001000
00000000
00000000
00000000
00000000
00000000
,
00001000
01000000
00000000
01000000
00100000
00000000
00100000
10000000
00000000
10000000
01000000
00000000
00000000
00000000
01100000
00000000
,
00100000
00001000
00000000
00001000
00010000
00000000
00010000
00000010
00000000
00000010
00100000
00000000
00000000
00000000
00000000
00000000
,
00100000
00001000
00000000
00001000
00010000
00000000
00010000
00000001
00000000
00000001
00000010
00000000
00000000
00000000
00000110
00000000
,
00000010
00000100
00000000
00000100
00010000
00000000
00010000
00001000
00000000
00001000
01000000
00000000
00000000
00000000
00000000
00000000
,
01000000
00001000
00000000
00001000
00010000
00000000
00010000
00000100
00000000
00000100
00001000
00000000
00000000
00000000
00002020
00000000
,
00000000
00000000
00003030
00001001
,
00000001
00000010
00000100
00010000
00001000
01000000
00100000
10000000
,
00010000
01000000
00001000
00010000
00001000
00100000
01000000
00100000
,
00001000
00010000
00000010
00000100
00000001
00000100
00000001
00000010
,
00000100
00010000
00001000
01000000
00100000
10000000
00100000
10000000
,
01000000
00100000
00001000
00010000
00000100
00001000
00000010
00001000
,
00000100
00010000
00001000
01000000
00100000
10000000
01000000
00010000
,
00001000
00000100
00000010
00001000
00000001
00000100
00000001
00001000
,
00000100
00000000
00000010
00000000
00001000
00000000
00010000
00000000
00100000
00000000
01000000
00000000
00001000
00000000
02000000
00002000
,
00000000
00000000
03003000
00000000
;

//---------------dance-single - M. Simmons----------------
#NOTES:
     dance-single:
     M. Simmons:
     Beginner:
     1:
     0.085,0.000,0.051,0.000,0.000: // measure 1
0000
0000
0000
0000
,  // measure 2
0000
0000
0000
0000
,  // measure 3
0000
0000
0000
0000
,  // measure 4
0000
0000
0000
0000
,  // measure 5
0000
0000
0000
0000
,  // measure 6
0000
0000
0000
0000
,  // measure 7
0010
0000
0000
0000
,  // measure 8
0100
0000
0000
0000
,  // measure 9
0001
0000
0000
0000
,  // measure 10
1000
0000
0000
0110
,  // measure 11
0000
0000
0000
0000
,  // measure 12
1000
0000
0000
0000
,  // measure 13
0010
0000
0000
0000
,  // measure 14
0100
0000
0000
0000
,  // measure 15
0001
0000
0000
0000
,  // measure 16
0100
0000
0000
0000
,  // measure 17
0010
0000
0000
0000
,  // measure 18
1000
0000
0000
0000
,  // measure 19
1001
0000
0000
0000
,  // measure 20
0000
0000
0000
0000
,  // measure 21
0010
0000
0000
0000
,  // measure 22
0100
0000
0000
0000
,  // measure 23
0010
0000
0000
0000
,  // measure 24
1000
0000
0000
0000
,  // measure 25
0001
0000
0000
0000
,  // measure 26
0100
0000
0000
0000
,  // measure 27
0001
0000
0000
0000
,  // measure 28
0010
0000
0000
0000
,  // measure 29
0100
0000
0000
0000
,  // measure 30
1000
0000
0000
0000
,  // measure 31
0010
0000
0000
0000
,  // measure 32
0100
0000
0000
0000
,  // measure 33
0010
0000
0000
0000
,  // measure 34
1000
0000
0000
0000
,  // measure 35
1001
0000
0000
0000
,  // measure 36
0100
0000
0100
0000
,  // measure 37
0001
0000
0000
0000
,  // measure 38
1000
0000
1000
0000
,  // measure 39
0010
0000
0000
0000
,  // measure 40
0100
0000
0001
0000
,  // measure 41
0001
0000
0000
0000
,  // measure 42
0010
0000
0100
0000
,  // measure 43
0100
0000
0000
0000
,  // measure 44
1000
0000
1000
0000
,  // measure 45
0100
0000
0000
0000
,  // measure 46
0010
0000
0010
0000
,  // measure 47
0001
0000
0000
0000
,  // measure 48
0100
0000
0001
0000
,  // measure 49
0001
0000
0000
0000
,  // measure 50
1000
0000
0010
0000
,  // measure 51
0110
0000
0000
1001
,  // measure 52
1000
0000
0000
0000
,  // measure 53
0001
0000
0000
0000
,  // measure 54
0100
0000
0000
0000
,  // measure 55
0010
0000
0010
0000
,  // measure 56
0100
0000
0000
0000
,  // measure 57
0001
0000
0000
0000
,  // measure 58
1000
0000
0000
0000
,  // measure 59
0100
0000
0010
0000
,  // measure 60
0110
0000
0000
0000
;

//---------------dance-single - M. Simmons----------------
#NOTES:
     dance-single:
     M. Simmons:
     Easy:
     3:
     0.236,0.000,0.094,0.085,0.000:
0000
0000
0000
0000
,
0000
0000
0000
0000
,
0000
0000
0000
0000
,
0000
0000
0000
0000
,
0000
0000
0000
0000
,
0000
0000
0000
0000
,
0001
0010
0001
0010
,
0001
1000
0002
0000
,
0103
0010
0100
0010
,
1000
0010
1000
0220
,
0330
0010
1000
0100
,
0010
0100
1000
0002
,
0103
0010
1000
0100
,
1000
0001
0100
0020
,
0130
0001
1000
0100
,
1000
0100
0010
0002
,
1003
0001
0100
0010
,
0100
0001
2002
0000
,
3003
0000
0000
0000
,
0010
0000
0000
0000
,
0100
0000
0000
0000
,
0001
0000
0000
0000
,
1000
0000
0000
0000
,
0100
0000
0000
0000
,
0010
0000
0000
0000
,
0100
0000
0000
0000
,
1000
0010
0000
0000
,
0100
0010
0000
0000
,
0100
0001
0000
0000
,
0010
0001
0000
0000
,
1000
0100
0000
0000
,
1000
0010
0000
0000
,
0100
0010
0000
0000
,
0100
0001
0000
1001
,
1001
0010
1000
0100
,
1000
0001
1000
1001
,
0010
0100
0010
1000
,
0001
0010
0100
0110
,
0100
1000
0001
0100
,
0010
1000
0010
1001
,
0100
0001
0010
0100
,
1000
0100
0010
0110
,
1001
0001
0100
0010
,
1000
0001
0100
0001
,
1000
0100
0010
0001
,
0010
0100
1000
0001
,
0100
0010
0100
0001
,
0010
0100
1000
0100
,
0010
0001
1000
0010
,
0100
0000
0010
0000
1000
0000
0002
2000
,
0000
3003
0000
0110
,
0010
0000
1000
0000
0001
1000
0001
0000
,
0100
0000
0001
0000
0010
0100
0010
0000
,
0100
1000
0001
0100
,
0010
0100
0001
0010
,
0100
0000
1000
0000
0100
0010
0100
0000
,
1000
0000
0001
0000
0100
0001
0100
0000
,
0010
0000
1000
0000
0001
1000
0001
0000
,
0100
0001
0010
0100
,
0110
0000
0000
0000
;

//---------------dance-single - M. Simmons----------------
#NOTES:
     dance-single:
     M. Simmons:
     Medium:
     6:
     0.349,0.000,0.060,0.187,0.196:
0000
0000
0000
0000
,
0000
0000
0000
0000
,
0010
0100
0001
1000
,
0100
0000
0010
0000
0001
1000
0001
1000
,
0001
0100
0010
1000
,
0001
0000
0100
0000
0001
0010
0001
0010
,
0001
1000
0100
1000
,
0010
0000
0100
0000
0001
1000
0001
1000
,
0001
0100
0001
1000
,
0100
0010
0110
2002
,
3003
0002
0000
0200
,
0000
0010
0000
1303
,
0000
2000
0000
0200
,
0000
0010
0000
3301
,
0000
0002
0000
2000
,
0000
0100
0000
3013
,
0000
0020
0000
0200
,
0000
1330
0220
0000
,
0330
0000
0000
0000
0001
0000
0000
0001
0000
0000
0001
0000
0000
0000
0000
0000
,
0010
0000
0000
0000
0100
0000
0000
0100
0000
0000
0100
0000
0000
0000
0000
0000
,
0000
1000
0000
0000
1000
0000
0000
1000
0000
0000
1000
0000
0000
0000
0000
0000
,
0000
0010
0000
0000
0010
0000
0000
0010
0000
0000
0010
0000
0000
0000
0000
0000
,
0000
0100
0000
0000
0100
0000
0000
0100
0000
0000
0100
0000
0000
0000
0000
0000
,
1001
0000
0000
0000
0001
0000
0000
0001
0000
0000
0010
0000
0000
0000
0000
0000
,
0000
0100
0000
0000
0100
0000
0000
0100
0000
0000
1000
0000
0000
0000
0000
0000
,
0000
0010
0000
0000
0010
0000
0000
0100
0000
0000
0100
0000
0000
0000
0000
0000
,
0000
0001
0000
0000
1000
0000
0000
0001
0000
0000
1000
0000
0000
0000
0000
0000
,
0010
0000
0000
0000
0100
0000
0000
0010
0000
0000
0100
0000
0000
0000
0000
0000
,
0000
0001
0000
0000
0010
0000
0000
0001
0000
0000
0010
0000
0000
0000
0000
0000
,
0000
0100
0000
0000
1000
0000
0000
0100
0000
0000
1000
0000
0000
0000
0000
0000
,
0000
0001
0000
0000
0010
0000
0000
0100
0000
0000
1000
0000
0000
0000
0000
0000
,
0001
0000
0000
0000
0100
0000
0000
0010
0000
0000
1000
0000
0000
0000
0000
0000
,
0000
0010
0000
0000
0100
0000
0000
0001
0000
0000
0010
0000
0000
0000
0000
0000
,
0000
0100
0000
0000
1000
0000
0000
0010
0000
0000
0100
0000
0000
0000
0000
0000
,
0001
0000
0000
0001
1000
0000
0000
0010
0000
0000
0010
0000
0000
0000
0010
0000
,
0100
0000
0000
0100
0001
0000
0000
1000
0000
0000
1000
0000
0000
0000
1000
0000
,
0010
0000
0000
0000
0010
0000
0000
0010
0000
0000
0100
0000
0000
0000
0001
0000
,
1000
0000
0000
0000
0100
0000
0000
0010
0000
0000
0001
0000
0000
0000
0100
0000
,
0010
0000
0000
0000
1000
0000
0000
0100
0000
0000
1000
0000
0000
0000
0001
0000
,
0100
0000
0000
0000
0001
0000
0000
0010
0000
0000
0100
0000
0000
0000
0010
0000
,
0001
0000
0000
0000
1000
0000
0000
0100
0000
0000
1000
0000
0000
0000
0010
0000
,
0100
0000
0000
0001
0000
0000
1000
0000
0000
0001
0000
0000
0000
0000
0001
0000
,
1001
0000
0000
0000
1000
0000
0000
0100
0000
0000
1000
0000
0010
0000
0100
0000
,
0010
0000
0000
0000
1000
0000
0000
0100
0000
0000
1000
0000
0001
0000
0100
0000
,
0001
0000
0000
0000
0010
0000
0000
0100
0000
0000
0010
0000
0001
0000
1000
0000
,
0100
0000
0000
0000
1000
0000
0000
0010
0000
0000
0100
0000
0010
0000
1000
0000
,
0001
0000
0000
0000
0100
0000
0000
0010
0000
0000
1000
0000
0001
0000
0100
0000
,
0001
0000
0000
0000
1000
0000
0000
0100
0000
0000
0010
0000
0100
0000
0010
0000
,
0001
0000
0000
0000
1000
0000
0000
0010
0000
0000
0100
0000
0010
0000
0100
0000
,
0001
0000
0000
0000
1000
0000
0000
0100
0000
0000
1000
0000
0100
0000
2000
0000
,
0200
0000
3300
0110
,
0010
0100
1000
0010
0200
0000
0301
0000
,
0100
0010
1000
0001
0020
0000
0130
0000
,
0010
0001
1000
0001
0200
0000
0301
0000
,
0001
1000
0100
0010
0200
0000
1300
0000
,
0100
1000
0010
0100
0002
0000
0103
0000
,
0001
1000
0100
1000
0002
0000
0103
0000
,
0010
0100
0010
1000
0020
0000
0130
0000
,
0010
1000
0100
0010
0002
0000
0013
0000
,
1001
0000
0000
0000
;

//---------------dance-double - M. Simmons----------------
#NOTES:
     dance-double:
     M. Simmons:
     Easy:
     2:
     0.235,0.000,0.128,0.119,0.000:
00000000
00000000
00000000
00000000
,
00000000
00000000
00000000
00000000
,
00000000
00000000
00000000
00000000
,
00000000
00000000
00000000
00000000
,
00000000
00000000
00000000
00000000
,
00000000
00000000
00000000
00000000
,
00001000
00010000
00000100
00001000
,
00000100
00010000
00001000
00002000
,
01003000
00100000
01000000
00010000
,
10000000
00010000
00100000
00220000
,
00330000
01000000
10000000
00010000
,
01000000
00001000
00010000
00002000
,
00013000
00000100
00000010
00000100
,
00001000
00000001
00000100
00000020
,
00000130
00000010
00001000
00000001
,
00000100
00000001
00000010
00000200
,
00010300
00001000
00100000
00010000
,
00100000
00001000
00202000
00000000
,
00303000
00000000
00000000
00000000
,
00011000
00000000
00000000
00000000
,
00010100
00000000
00000000
00000000
,
00001010
00000000
00000000
00000000
,
00000011
00000000
00000000
00000000
,
00001001
00000000
00000000
00000000
,
00001010
00000000
00000000
00000000
,
00001100
00000000
00000000
00000000
,
00010100
00000000
00000000
00000000
,
00011000
00000000
00000000
00000000
,
00110000
00000000
00000000
00000000
,
01010000
00000000
00000000
00000000
,
10000000
01000000
00000000
00000000
,
00100000
00010000
00000000
00000000
,
01000000
00001000
00000000
00000000
,
00010000
00001000
00000000
00000000
,
00010000
00000100
00010000
00000010
,
00001000
00000010
00000100
00000001
,
00000100
00000010
00001000
00000001
,
00001000
00000001
00000010
00000100
,
00010000
00001000
01000000
00100000
,
01000000
00010000
10000000
01000000
,
00100000
01000000
10000000
00010000
,
01000000
00001000
00010000
00000100
,
00000010
00000100
00001000
00000001
,
00000100
00000010
00000100
00000010
,
00010000
00001000
00100000
00001000
,
00010000
00000100
00001000
00000100
,
00010000
00001000
01000000
00100000
,
01000000
00010000
10000000
01000000
,
00100000
01000000
10000000
00010000
,
00100000
00001000
00010000
00001000
,
00022000
00033000
00000000
00010100
,
00000100
00000010
00000001
00001000
,
00000010
00000100
00000010
00002000
,
00003001
00000100
00000001
00000010
,
00000100
00010000
00001000
00020000
,
00031000
00100000
00010000
10000000
,
00100000
01000000
00010000
00200000
,
01300000
10000000
01000000
00100000
,
00001000
00010000
00000010
00000200
,
00000310
00000000
00000000
00000000
;

//---------------dance-double - M. Simmons----------------
#NOTES:
     dance-double:
     M. Simmons:
     Medium:
     6:
     0.366,0.000,0.273,0.043,0.115:
00000000
00000000
00000000
00000000
,
00000000
00000000
00000000
00000000
,
00001000
00010000
00001000
00000000
00000000
00000000
00000000
00000000
,
00100000
00010000
00100000
00000000
01000000
00000000
10000000
00000000
,
00100000
01000000
00100000
00000000
00000000
00000000
00000000
00000000
,
01000000
00001000
01000000
00000000
00001000
00000000
00010000
00000000
,
00000100
00010000
00000100
00000000
00000000
00000000
00000000
00000000
,
00000010
00000100
00000010
00000000
00000001
00000000
00001000
00000000
,
00000010
00010000
00000010
00000000
00000000
00000000
00000000
00000000
,
00010000
00001000
00010000
00000000
00001000
00000000
00022000
00000000
,
00033000
00011000
00000000
00101000
,
00000000
00110000
10000000
01000000
,
00100000
00101000
00000000
00011000
,
00000000
00010100
00000100
00000010
,
00000001
00001001
00000000
00001010
,
00000000
00010100
00001000
00010000
,
00001000
01001000
00000000
01100000
,
00000000
01010000
20020000
00000000
,
30030000
00000000
00000000
00000000
00001000
00000000
00000000
00100000
00000000
00000000
00001000
00000000
00000000
00000000
00010000
00000000
,
00010000
00000000
00000000
00000000
00000100
00000000
00000000
00000010
00000000
00000000
00000001
00000000
00000000
00000000
00001000
00000000
,
00000000
00000100
00000000
00000000
00010000
00000000
00000000
00001000
00000000
00000000
00010000
00000000
00000000
00000000
00001000
00000000
,
00000000
01000000
00000000
00000000
00100000
00000000
00000000
10000000
00000000
00000000
00010000
00000000
00000000
00000000
00100000
00000000
,
00000000
01000000
00000000
00000000
00100000
00000000
00000000
00001000
00000000
00000000
00010000
00000000
00000000
00000000
00000100
00000000
,
00000100
00000000
00000000
00000000
00000010
00000000
00000000
00000001
00000000
00000000
00001000
00000000
00000000
00000000
00000100
00000000
,
00000000
00010000
00000000
00000000
00001000
00000000
00000000
01000000
00000000
00000000
00001000
00000000
00000000
00000000
00100000
00000000
,
00000000
01000000
00000000
00000000
00100000
00000000
00000000
00010000
00000000
00000000
10000000
00000000
00000000
00000000
00100000
00000000
,
00000000
01000000
00000000
00000000
00001000
00000000
00000000
00010000
00000000
00000000
00000100
00000000
00000000
00000000
00010000
00000000
,
00010000
00000000
00000000
00000000
00001000
00000000
00000000
00010000
00000000
00000000
00000010
00000000
00000000
00000000
00000100
00000000
,
00000000
00000001
00000000
00000000
00001000
00000000
00000000
00000100
00000000
00000000
00001000
00000000
00000000
00000000
00000010
00000000
,
00000000
00010000
00000000
00000000
00001000
00000000
00000000
01000000
00000000
00000000
00100000
00000000
00000000
00000000
10000000
00000000
,
00000000
00010000
00000000
00000000
00100000
00000000
00000000
01000000
00000000
00000000
00100000
00000000
00000000
00000000
00001000
00000000
,
00001000
00000000
00000000
00000000
00010000
00000000
00000000
00000100
00000000
00000000
00000010
00000000
00000000
00000000
00000001
00000000
,
00000000
00001000
00000000
00000000
00000100
00000000
00000000
00001000
00000000
00000000
00000010
00000000
00000000
00000000
00000100
00000000
,
00000000
00000010
00000000
00000000
00001000
00000000
00000000
00000100
00000000
00000000
00010000
00000000
00000000
00000000
00001000
00000000
,
00011000
00000000
00101000
00000000
00001000
01000000
00100000
00000000
,
01000000
00000000
01010000
00000000
00010000
00100000
01000000
00000000
,
00100000
00000000
00101000
00000000
00001000
00100000
01000000
00000000
,
10000000
00000000
10100000
00000000
01000000
00001000
00010000
00001000
,
00010000
00000000
00010100
00000000
00000100
00000010
00000001
00000000
,
00001000
00000000
00001001
00000000
00000001
00000100
00000010
00000000
,
00001000
00000000
00001100
00000000
00000100
00000010
00000001
00000000
,
00000010
00000000
00000110
00000000
00000100
00010000
00000100
00010000
,
00000100
00000000
00011000
00000000
00010000
00001000
00100000
00000000
,
00010000
00000000
01010000
00000000
00100000
01000000
00010000
00000000
,
10000000
00000000
10010000
00000000
01000000
00100000
10000000
00000000
,
00010000
00000000
00110000
00000000
00100000
01000000
00100000
00001000
,
00100000
00000000
00101000
00000000
00010000
00000100
00010000
00000000
,
00001000
00000000
00010100
00000000
00000100
00000010
00000001
00000000
,
00001000
00000000
00001010
00000000
00000100
00000010
00001000
00000000
,
00000001
00000100
00001000
00010000
00001000
00010000
00000100
00000010
,
00000002
00000000
00000003
00001001
,
00000001
00000100
00000010
00000000
00010000
00000000
00001000
00000000
,
00010000
00001000
00010000
00000000
00001000
00000000
01000000
00000000
,
00100000
10000000
00010000
00000000
01000000
00000000
00010000
00000000
,
00100000
01000000
10000000
00000000
00100000
01000000
00010000
00000000
,
00100000
01000000
10000000
00000000
00100000
00000000
01000000
00000000
,
00001000
00010000
00001000
00000000
00010000
00000000
00000100
00000000
,
00000010
00000001
00001000
00000000
00000010
00000000
00000100
00000000
,
00000010
00001000
00000001
00000000
00000100
00000001
00001000
00000000
,
00001001
00000000
00000000
00000000
;

//---------------dance-double - M. Simmons----------------
#NOTES:
     dance-double:
     M. Simmons:
     Challenge:
     9:
     0.580,0.000,0.307,0.034,0.669:
00000000
00000000
00000000
00000000
,
00000000
00000000
00000000
00000000
,
10000000
00000000
00010000
00100000
00000000
00000000
01000000
00000000
00100000
00000000
00001000
00000000
00010000
00000000
00000100
00000000
,
00000010
00000000
00000100
00001000
00000000
00000000
00000010
00000000
00000100
00000000
00000001
00000000
00001000
00000001
00001000
00000001
,
00000000
00000000
00000001
00000010
00000000
00000000
00000100
00000000
00010000
00000000
00001000
00000000
01000000
00000000
10000000
00000000
,
01000000
00000000
00010000
00100000
00000000
00000000
01000000
00000000
00010000
00000000
00001000
00000000
00010000
00000100
00010000
00000100
,
00000000
00000000
00010000
00000010
00000000
00000000
00000100
00000000
00000010
00000000
00010000
00000000
00000100
00000000
00010000
00000000
,
00001000
00000000
01000000
00100000
00000000
00000000
10000000
00000000
01000000
00000000
00010000
00000000
00001000
01000000
00001000
01000000
,
00000000
00000000
00001000
00100000
00000000
00000000
00001000
00000000
00010000
00000000
00000100
00000000
00000010
00000000
00000001
00000000
,
00001000
00000000
00000010
00000100
00000000
00000000
00000001
00000000
00001000
00000000
00000100
00000000
00001100
00000000
00000000
00000000
,
00100010
00100100
00011000
01001000
,
00110000
00000000
00000000
00000000
10010000
00000000
00000000
00000000
01100000
00000000
00000000
00000000
01000000
00001000
01000000
00001000
,
00000000
00000000
00010000
00000001
00000000
00000000
00000000
00000000
00010001
00000000
00000000
00000000
00011000
00000000
00000000
00000000
,
10001000
00000000
00000000
00000000
01000100
00000000
00000000
00000000
00010010
00000000
00000000
00000000
00000100
00000010
00000100
00000010
,
00000000
00000000
00000100
00010000
00000000
00000000
00000000
00000000
00011000
00000000
00000000
00000000
00010010
00000000
00000000
00000000
,
00010100
00000000
00000000
00000000
00101000
00000000
00000000
00000000
01001000
00000000
00000000
00000000
00010000
10000000
00010000
10000000
,
00000000
00000000
00010000
00100000
00000000
00000000
00000000
00000000
01100000
00000000
00000000
00000000
00101000
00000000
00000000
00000000
,
00010100
00000000
00000000
00000000
00000000
00000000
00000000
00000000
00010001
00000000
00000000
00000000
00000000
00000000
00000000
00000000
00000010
00000000
00010000
00000000
00000010
00000000
00010000
00000000
00000040
00040000
00000000
00000000
00000000
00000000
00000000
00000000
,
00030030
00000000
000M00M0
00M0M000
0MM00000
000M0M00
000000MM
00000MM0
,
00010000
00000000
00000000
00000000
10000000
00000000
00000000
01000000
00000000
00000000
00100000
00000000
00000000
00001000
00010000
00000000
,
00000000
00000100
00000000
00000000
00000010
00000000
00000000
00000001
00000000
00000000
00001000
00000000
00000000
00000100
00000010
00000000
,
00000000
00000100
00000000
00000000
00010000
00000000
00000000
00001000
00000000
00000000
01000000
00000000
00000000
00100000
10000000
00000000
,
00000000
10000000
00000000
00000000
01000000
00000000
00000000
00010000
00000000
00000000
00001000
00000000
00000000
00001000
00000100
00000000
,
00000010
00000000
00000000
00000000
00000110
00000000
00000000
00000001
00000000
00000000
00000010
00000000
00000000
00001000
00010000
00000000
,
00000000
01000000
00000000
00000000
10000000
00000000
00000000
00100000
00000000
00000000
01000000
00000000
00000000
00010000
00100000
00000000
,
00000000
01000000
00000000
00000000
10000000
00000000
00000000
01000000
00000000
00000000
00010000
00000000
00000000
00001000
00010000
00000000
,
00000100
00001000
00000000
00000000
00000010
00000000
00000000
00000100
00000000
00000000
00000010
00000000
00000000
00000100
00000001
00000000
,
00001000
00000000
00000000
00000000
00010010
00000000
00000000
00000100
00000000
00000000
00010000
00000000
00000000
00001000
00010000
00000000
,
00000000
00001000
00000000
00000000
01000000
00000000
00000000
00100000
00000000
00000000
10000000
00000000
00000000
01000000
00100000
00000000
,
00000000
00010000
00000000
00000000
01000000
00000000
00000000
00010000
00000000
00000000
00100000
00000000
00000000
01000000
00010000
00000000
,
00000000
00001000
00000000
00000000
00010000
00000000
00000000
00000100
00000000
00000000
00000010
00000000
00000000
00000001
00001000
00000000
,
00000010
00000000
00000000
00000000
00010010
00000000
00000000
00000001
00000000
00000000
00000010
00000000
00000000
00000100
00010000
00000000
,
00000000
00001000
00000000
00000000
01000000
00000000
00000000
00100000
00000000
00000000
10000000
00000000
00000000
01000000
00100000
00000000
,
00000000
01000000
00000000
00000000
10000000
00000000
00010000
00100000
00000000
00010000
01000000
00000000
00000000
01001000
00000000
00000000
,
00010000
00000100
00000000
00000100
00000010
00000000
00000010
00000001
00000000
00000001
00001000
00000000
00000001
00000000
00000010
00000000
,
00000100
00010000
00000000
00010000
00001000
00000000
00001000
01000000
00000000
01000000
00100000
00000000
00000000
00000000
10010000
00000000
,
00000000
01000000
00001000
00000000
00001000
00010000
00000000
00010000
00000100
00000000
00000100
00000010
00000000
00000010
00000001
00001000
,
00000001
00000100
00000000
00000100
00000010
00000000
00000010
00010000
00000000
00010000
00001000
00000000
00100000
00000000
00001000
00000000
,
00010000
00000100
00000000
00000100
01000000
00000000
01000000
00100000
00000000
00100000
10000000
00000000
00010000
00000000
01000000
00000000
,
01001000
00000000
00000000
00000000
00011000
00000000
00000000
00010100
00000000
00000000
00011000
00000000
00000000
00001000
00010000
00000000
,
00010000
00000100
00000000
00000100
00000010
00000000
00000001
00001000
00000000
00001000
00000010
00000000
00000100
00000010
00000100
00000000
,
00000010
00010000
00000000
00010000
00001000
00000000
00001000
01000000
00000000
01000000
00100000
00000000
00000000
00000000
10010000
00000000
,
00000000
00100000
00001000
00000000
00001000
01000000
00000000
01000000
00010000
00000000
00010000
00100000
00000000
00100000
01000000
10000000
,
01000000
00100000
00000000
00100000
00001000
00000000
00001000
00010000
00000000
00010000
00000100
00000000
00000010
00000000
00000001
00000000
,
00001000
00000100
00000000
00000100
00000010
00000000
00000010
00000100
00000000
00000100
00010000
00000000
00001000
00000000
01000000
00000000
,
00100000
01000000
00000000
01000000
00000100
00000000
00000100
00010000
00000000
00010000
00001000
00000000
00010000
00000010
00010000
00000000
,
00000010
00000100
00000000
00000100
00000001
00000000
00000001
00001000
00000000
00001000
00000100
00000000
00000000
00000000
00000110
00000000
,
00000010
00000100
00000000
00000100
00010000
00000000
00010000
00001000
00000000
00001000
01000000
00000000
00100000
10000000
00100000
00000000
,
01000000
00010000
00000000
00100000
01000000
00000000
00100000
00001000
00000000
00010000
00000010
00000000
00000100
00000000
00000001
00000000
,
00000010
00000100
00000000
00010000
00000010
00000000
00000100
00001000
00000000
00010000
00001000
00000000
01000000
00000100
02000000
00002000
,
00000000
00000000
03003000
01010000
,
00010000
00000000
10000000
00000000
01000000
00000000
10000000
00000000
00100000
00000000
01000000
00010000
00000000
00100000
01000000
00000000
,
00010000
00000000
00001000
00000000
00000100
00000000
00000010
00000000
00001000
00000000
00000010
00000100
00000000
00000001
00000010
00000000
,
00000100
00000000
00000010
00000000
00000001
00000000
00000100
00000000
00001000
00000000
00010000
00000100
00000000
00000010
00001000
00000000
,
00010000
00000000
00001000
00000000
01000000
00000000
00100000
00000000
10000000
00000000
01000000
00100000
00000000
01000000
10000000
01000000
,
10000000
00000000
00010000
00000000
01000000
00000000
00001000
00000000
00100000
00000000
00010000
01000000
00000000
00001000
00010000
00000000
,
00000100
00000000
00000010
00000000
00000001
00000000
00001000
00000000
00000010
00000000
00000100
00001000
00000000
00010000
00000100
00000000
,
00000010
00000000
00000100
00000000
00001000
00000000
00000001
00000000
00000100
00000000
00001000
00010000
00000000
00010000
01000000
00000000
,
00100000
00000000
00010000
00000000
01000000
00000000
00100000
00000000
10000000
00000000
01000000
00100000
00000000
00110000
00000000
02020000
,
00000000
03030000
00000000
00000000
;
