#TITLE:Popcorn;
#SUBTITLE:;
#ARTIST:CanBlaster;
#TITLETRANSLIT:;
#SUBTITLETRANSLIT:;
#ARTISTTRANSLIT:;
#GENRE:Dance;
#CREDIT:Sync by HellRazoR;
#BANNER:Popcorn-bn.png;
#BACKGROUND:Popcorn-bg.png;
#LYRICSPATH:;
#CDTITLE:;
#MUSIC:Popcorn.ogg;
#OFFSET:-0.068;
#SAMPLESTART:42.877;
#SAMPLELENGTH:12.000;
#SELECTABLE:YES;
#DISPLAYBPM:140.000;
#BPMS:0.000=140.000;
#STOPS:;
#BGCHANGES:0.000=Popcorn-bg.png=1.000=0=0=1=====,
17.000=In The Groove Rebirth/172_JB_HD.mpg=1.000=0=0=1=====,
33.000=In The Groove Rebirth/218_JB_HD.mpg=1.000=0=0=1=====,
49.000=In The Groove Rebirth/252_JB_HD.mpg=1.000=0=0=1=====,
65.000=In The Groove Rebirth/261_JB_HD.mpg=1.000=0=0=1===SlideRight==,
81.000=In The Groove Rebirth/201_JB_HD.mpg=1.000=0=0=1=====,
97.000=In The Groove Rebirth/309_JB_HD.mpg=1.000=0=0=1=SongBgWithMovieViz==SlideDown==,
113.000=In The Groove Rebirth/252_JB_HD.mpg=1.000=0=0=1=====,
129.000=In The Groove Rebirth/217_JB_HD.mpg=1.000=0=0=1=====,
145.000=In The Groove Rebirth/218_JB_HD.mpg=1.000=0=0=1=====,
161.000=In The Groove Rebirth/201_JB_HD.mpg=1.000=0=0=1=====,
177.000=In The Groove Rebirth/261_JB_HD.mpg=1.000=0=0=1=====,
193.000=In The Groove Rebirth/172_JB_HD.mpg=1.000=0=0=1=====,
209.000=Popcorn-bg.png=1.000=0=0=1=====,
99999=-nosongbg-=1.000=0=0=0 // don't automatically add -songbackground-
;
#BGCHANGES2:17.000=white flash=1.000=0=0=1=====,
33.000=white flash=1.000=0=0=1=====,
49.000=yellow flash=1.000=0=0=1=====,
109.000=white flash=1.000=0=0=1=====,
113.000=white flash=1.000=0=0=1=====,
161.000=flash=1.000=0=0=1====0^1^1^1=,
209.000=white flash=1.000=0=0=1=====,
;
#KEYSOUNDS:;

//---------------dance-single - Brendino----------------
#NOTES:
     dance-single:
     Brendino:
     Challenge:
     10:
     0.815,0.805,0.536,0.230,0.919:
0000
0000
0000
0000
,
0000
0000
0000
0000
,
1000
0001
0101
0000
0010
0000
1000
0000
,
0100
0000
0000
0000
0000
0000
0000
0000
0000
0000
0000
0000
0010
0000
0000
0000
0000
0000
0000
0000
0000
0000
0000
0000
0001
0000
0000
0000
0000
0000
0010
0000
0000
0100
0000
0000
1000
0000
0000
0001
0000
0000
0100
0000
0010
0000
0100
0000
,
0010
1000
1001
0000
0001
0000
0010
0000
,
0100
1000
1010
0000
0010
0000
0100
0000
,
0101
0001
1100
0000
0010
0001
0110
0000
,
1000
0000
0010
0000
0101
0000
0100
0010
0000
0000
1010
0000
1000
0100
0000
0010
,
0001
0000
0101
0000
1001
0000
1000
0000
0100
0010
0000
MMM2
0000
0000
0003
0000
,
0100
0000
0010
0000
1001
0000
0001
0000
0100
0010
0000
2MMM
0000
0000
3000
0000
,
0010
0000
0100
0001
MMM0
0001
0000
0010
0100
0000
1000
0100
M0MM
0100
0000
0010
,
0001
0000
0100
0010
MM0M
0010
0000
1000
0100
0000
0010
M20M
0000
0000
0300
0000
,
1000
0000
0001
0000
0110
0000
0010
0000
1000
0100
0000
MM2M
0000
0000
0030
0000
,
0001
0000
0100
0000
1010
0000
0001
0000
0010
0100
0000
2MMM
0000
0000
3000
0000
,
0010
0000
0100
0001
MMM0
0001
0000
0010
0100
0000
1000
0010
MM0M
0010
0000
0100
,
0001
0000
1000
0100
M0MM
0100
0000
0010
0001
0000
0100
0020
M00M
0000
0030
0000
,
1010
0000
0100
0000
1001
0000
0001
0000
0010
0100
0000
2MMM
0000
0000
3000
0000
,
0010
0000
0100
0000
0001
0000
1000
0000
0010
0100
0000
MMM2
0000
0000
0003
0000
,
0100
0000
0010
1000
0MMM
1000
0000
0100
0010
0000
0001
0010
MM0M
0010
0000
0100
,
1000
0000
0010
0100
M0MM
0100
0000
0001
0010
0000
0100
M02M
0000
0000
0030
0000
,
0101
0000
1000
0000
0110
0000
0100
0000
0001
0010
0000
M2MM
0000
0000
0300
0000
,
1000
0000
0010
0000
0101
0000
1000
0000
0100
0010
0000
MMM2
0000
0000
0003
0000
,
0100
0000
0010
1000
0MMM
1000
0000
0100
0010
0000
0001
0100
M0MM
0100
0000
0010
,
1000
0000
0001
0010
MM0M
0010
0000
0100
1000
0000
0010
0200
M00M
0000
0300
0000
,
0011
0000
0100
0000
1100
0000
1000
0001
0100
0010
1000
0010
0100
0001
1000
0000
,
0100
0010
0001
0010
0100
0000
1000
0010
0100
0010
1000
0001
0010
0100
1000
0000
,
0001
0010
0001
1000
0001
0000
0100
0010
1000
0010
0100
0001
1000
0000
0100
0010
,
0100
1000
0100
0010
0001
0000
0100
0001
0100
0010
1000
0001
0000
0010
0100
0010
,
0000
0100
1000
0100
0010
0000
0001
1000
0001
0000
0100
0010
1000
0001
1000
0000
,
0100
0010
0100
1000
0010
0000
0100
0010
0100
0000
0001
0100
0001
1000
0001
0000
,
0010
0100
1000
0001
1000
0000
0001
0100
0010
1000
0010
0000
0100
0010
0100
0001
,
0100
0000
0001
1000
0100
0010
0001
0010
0100
0000
1000
0001
0100
0001
1000
0001
,
0100
0001
0010
0100
1000
0000
0001
0000
0101
0000
0000
0000
1001
0000
0000
0000
,
1100
0001
0110
0000
1010
0000
1001
0000
,
1010
0100
1001
0000
0011
0100
1100
0000
,
1100
0001
0101
0100
0110
0010
1001
0000
,
1001
0000
0001
0010
0100
0000
1000
0000
0010
0100
0000
MMM2
0000
0000
0003
0000
,
0010
0000
0100
0000
1000
0000
0010
0000
0100
0001
0000
MM2M
0000
0000
0030
0000
,
1010
0000
0010
0100
M0MM
0100
0000
0001
1000
0000
0100
0010
MM0M
0010
0000
0001
,
1000
0000
0010
1000
0MMM
1000
0000
0010
0100
0000
0001
2000
0MM0
0000
3000
0000
,
0010
0000
0100
0001
1000
0000
0100
0000
0110
0000
0010
0001
0100
0000
0010
0000
,
1001
0000
1000
0010
0100
0000
0001
0000
1100
0000
0100
0010
0001
0000
1000
0000
,
0101
0000
0010
1000
0010
0100
0000
0100
0001
0000
1000
0100
0010
0001
0000
0001
,
0100
0000
0010
1000
0001
0010
0000
0010
0100
0000
1000
0001
0100
0010
0100
0010
,
1000
0000
1100
0000
0100
0000
0010
0000
0001
1000
0000
0020
MM0M
0000
0030
0000
,
0100
0000
0001
0000
0100
0000
0010
0000
1000
0001
0000
0200
M0MM
0000
0300
0000
,
0010
0000
0100
0001
MMM0
0001
0000
0010
0100
0000
1000
0010
MM0M
0010
0000
0100
,
0001
0000
0010
0100
M0MM
0100
0000
1000
0100
0000
0010
0002
MM00
0000
0003
0000
,
0101
0000
0100
0001
1000
0000
0100
0000
0010
0100
0000
2000
0MMM
0000
3000
0000
,
1010
0000
0010
0100
0001
0000
1000
0000
0100
0010
0000
0002
MMM0
0000
0003
0000
,
0101
0000
0100
0010
1000
0000
0MMM
0000
1001
0000
0001
0010
0100
0000
M0MM
0000
,
1100
0000
0000
0000
0000
0000
1000
0000
0000
0010
0000
0000
0100
0000
0000
0000
0000
0000
0001
0000
0000
1000
0000
0000
0MM0
0000
0000
0000
0000
0000
1001
0000
0000
0000
0000
0000
1000
0000
0000
0100
0000
0000
0010
0000
0001
0000
0010
0000
,
0001
1001
0210
0000
0310
0000
0000
0000
;

//---------------dance-double - M. Simmons----------------
#NOTES:
     dance-double:
     M. Simmons:
     Challenge:
     10:
     0.771,0.690,0.635,0.175,0.974:
00000000
00000000
00000000
00000000
,
00000000
00000000
00000000
00000000
,
00011000
00000100
00000110
00000000
00000000
00000000
00000000
00000000
,
00000000
00000000
00000000
00000000
00000000
00000000
00000000
00000000
00000000
00000000
00000000
00000000
00000000
00000000
00000000
00000000
00000000
00000000
00000000
00000000
00000000
00000000
00000000
00000000
00000000
00000000
00000000
00000000
00000000
00000000
00000100
00000000
00000000
00000010
00000000
00000000
00000001
00000000
00000000
00001000
00000000
00000000
00000010
00000000
00000100
00000000
00000010
00000000
,
00001000
00000010
00001010
00000000
00000100
00000000
00101000
00000000
,
00010000
01000000
01100000
00000000
01000000
00000000
00101000
00000000
,
00001000
00010000
00010010
00000000
00010000
00001000
00101000
00000000
,
00001000
00000000
01000000
00000000
01001000
00000000
00001000
00010000
00000000
00000100
00000010
00000000
00000100
00001000
00000000
00000010
,
00000100
00000010
00001000
00000000
00001001
00000000
00000010
00000000
00001000
00000100
00000000
00010010
00000000
00000000
00000000
00000000
,
00000001
00000000
00001000
00000000
00000101
00000000
00000010
00000000
00010000
00001000
00000000
00010010
00000000
00000000
00000000
00000000
,
00000010
00000000
00010000
00000100
00000000
00010000
00000000
00001000
01000000
00000000
00010000
00100000
00000000
01000000
00000000
00100000
,
00001000
00000000
01000000
00001000
00000000
00100000
00000000
00010000
10000000
00000000
01000000
10000000
00100000
10000000
00100000
10000000
,
00100000
00000000
10010000
00000000
01000000
00000000
00001000
00000000
00200000
01000000
00000000
00010000
00000000
00000000
00300000
00000000
,
00010000
00000000
01000000
00000000
01001000
00000000
00001000
00000000
00020000
00000010
00000000
00000100
00000000
00000000
00030000
00000000
,
00000100
00000000
00000010
00000001
00000000
00001000
00000000
00000010
00000100
00000000
00000010
00010000
00000000
00000100
00000000
00010000
,
00000010
00000000
00000100
00000010
00000000
00000100
00000000
00000001
00000010
00000000
00001000
00010000
00000000
00000000
00000000
00000000
,
00001000
00000000
01000000
00000000
01000100
00000000
00000100
00000000
00010000
00001000
00000000
00202000
00000000
00000000
00303000
00000000
,
00000100
00000000
00010000
00000000
00010010
00000000
00000010
00000000
00000100
00000001
00000000
00002200
00000000
00000000
00003300
00000000
,
00000010
00000000
00000100
00000010
00000000
00001000
00000000
00000100
00010000
00000000
00100000
01000000
00000000
00001000
00000000
00010000
,
00000100
00000000
00000010
00001000
00000000
00010000
00000000
00001000
01000000
00000000
00100000
10000000
00000000
00000000
00000000
00000000
,
10010000
00000000
01000000
00000000
01001000
00000000
00010000
00000000
10000000
01000000
00000000
10100000
00000000
00000000
00000000
00000000
,
00001000
00000000
00010000
00000000
00010100
00000000
00001000
00000000
00000010
00000100
00000000
00000011
00000000
00000000
00000000
00000000
,
00000100
00000000
00000010
00000100
00000000
00001000
00000000
00000001
00000100
00000000
00000010
00010000
00000000
00000100
00000000
00000010
,
00001000
00000000
00010000
00100000
00000000
01000000
00000000
00100000
10000000
00000000
00010000
10000000
00000000
00000000
00000000
00000000
,
01001000
00000000
00010000
00000000
01001000
00000000
00010000
00000000
00000100
00000010
00000000
00000200
00000000
00001300
00000010
00000000
,
00000100
00000010
00010000
00000010
00010000
00000000
00000100
00000000
00010000
00001000
00000000
02000000
00000000
03100000
10000000
00000000
,
00001000
00010000
00000100
00010000
00000000
00010100
00000000
00001000
01000000
00000000
00100000
01000000
00000000
00000100
00000000
00010000
,
00001000
00000000
00010000
00100000
00000000
01000000
00000000
00100000
10000000
00000000
00010000
00100000
01000000
10000000
01000000
10000000
,
01000000
00000000
10010000
00000000
00100000
00000000
00001000
00100000
00000000
00001000
00000000
00010000
00000000
00000010
00000000
00000100
,
00000010
00000000
00001000
00000000
00000010
00000000
00000100
00000001
00000000
00000010
00000000
00001000
00000000
00010000
00000000
00100000
,
01000000
00000000
00100000
10000000
00000000
00010000
00000000
00100000
01000000
00000000
00100000
00001000
00000000
01000000
00000000
00100000
,
00010000
00000000
00001000
00010000
00000000
00000100
00000000
00000010
00000001
00000000
00001000
00000010
00000100
00000010
00000100
00000010
,
00000100
00000000
00001001
00000000
00000100
00000000
00000001
00000000
00000010
00000100
00000000
00010100
00000000
00000000
00000000
00000000
,
01001000
00000000
00001000
00000000
01000000
00000000
00100000
00000000
10000000
01000000
00000000
00110000
00000000
00000000
00000000
00000000
,
01001000
00000000
00001000
00010000
00000000
00001000
00000000
00010000
00000100
00000000
00000010
00001000
00000000
00010000
00000000
00000010
,
00000100
00000000
00000010
00000001
00000000
00000010
00000000
00010000
00001000
00000000
01000000
00100000
00000000
00000000
00000000
00000000
,
10010000
00000000
10000000
00000000
00110000
00000000
00001000
00000000
01000000
00010000
00000000
00110000
00000000
00000000
00000000
00000000
,
01001000
00000000
00010000
00000000
00010100
00000000
00010000
00000000
00000010
00000100
00000000
00001010
00000000
00000000
00000000
00000000
,
00001001
00000000
00000001
00000010
00000000
00000100
00000000
00010000
00000010
00000000
00000100
00001000
00000000
00010000
00000000
00000100
,
00010000
00000000
00001000
01000000
00000000
00100000
00000000
00010000
00001000
00000000
00100000
01000000
00000000
00000000
00000000
00000000
,
11000000
00000000
10000000
00000000
01010000
00000000
00010000
00000000
00100000
01000000
00000000
01001000
00000000
00000000
00000000
00000000
,
00011000
00000000
00010000
00000000
00010010
00000000
00000001
00000000
00001000
00000010
00000000
00000110
00000000
00000000
00000000
00000000
,
00000010
00000000
00010000
00001000
00000000
01000000
00000000
00100000
00010000
00000000
00001000
00100000
00000000
01000000
00000000
00100000
,
00001000
00000000
00000100
00000010
00000000
00010000
00000000
00000100
00010000
00000000
00001000
01000000
00001000
00100000
00001000
00100000
,
00001000
00000000
00011000
00000000
00010000
00000000
00000010
00000000
00000100
00000010
00000000
00001020
00000000
00000000
00000030
00000000
,
00001000
00000000
00000001
00000000
00000010
00000000
00000100
00000000
00010000
00000100
00000000
02001000
00000000
00000000
03000000
00000000
,
00010000
00000000
00100000
01000000
00000000
00100000
00000000
10000000
00100000
00000000
00001000
00100000
00000000
01000000
00000000
10000000
,
00100000
00000000
01000000
00100000
00000000
00010000
00000000
00100000
01000000
00000000
00001000
00100000
00000000
00000000
00000000
00000000
,
00101000
00000000
00001000
00000000
00020000
00000000
00000010
00000000
00031000
00010000
00000000
00010200
00000000
00000000
00000300
00000000
,
00000010
00000000
00000001
00000000
00000020
00000000
00000100
00000000
00000031
00000010
00000000
00000200
00000000
00000000
00000000
00000300
,
00000110
00001000
00011000
00000000
00011000
00010000
01100000
00000000
,
10100000
00000000
01000000
00000000
01010000
00000000
00010000
00100000
00000000
01000000
00010000
00000000
00001000
00010000
00000000
00001000
,
00010000
00000100
00010000
00000100
00022000
00000000
00000000
00000000
00033000
00000000
00000000
00000000
00000000
00000000
00000000
00000000
;

//---------------dance-double - M. Simmons----------------
#NOTES:
     dance-double:
     M. Simmons:
     Hard:
     9:
     0.640,0.543,0.405,0.328,0.668:
00000000
00000000
00000000
00000000
,
00000000
00000000
00000000
00000000
,
10000000
00010000
01100000
00000000
00000000
00000000
00000000
00000000
,
00000000
00000000
00000000
00000000
00000000
00000000
00000000
00000000
00000000
00000000
01000000
10000000
00010000
01000000
00100000
01000000
,
00001000
00011000
00010200
00000000
00001000
00000000
00000310
00000000
,
00000001
00001000
00001002
00000000
00000010
00000000
00010003
00000000
,
00020100
00031000
01002000
00013000
,
10010000
00000000
00000000
00000000
10000000
00000000
00000000
01000000
00000000
00000000
00100000
00000000
00000000
00010000
00000000
00000000
,
10000000
00000000
00000000
00000000
10000000
00000000
01000000
00000000
00100000
00010000
00000000
00200000
00000000
00000000
00000000
00000000
,
00301000
00000000
00010000
00000000
00010100
00000000
00001000
00000000
00000001
00000100
00000000
00000020
00000000
00000000
00000000
00000000
,
00010030
00000000
00000100
00001000
00000000
00000010
00000000
00000100
00000010
00000000
00001000
00000010
00000000
00010000
00000000
00001000
,
00010000
00000000
00001000
01000000
00000000
00010000
00000000
00100000
00001000
00000000
00010000
00000020
00000000
00000000
00000000
00000000
,
00000130
00000000
00000010
00000000
00001000
00000000
00000001
00000000
00001000
00000010
00000000
00000200
00000000
00000000
00000000
00000000
,
00000310
00000000
00001000
00000000
00000100
00000000
00010000
00000000
00001000
01000000
00000000
00020000
00000000
00000000
00000000
00000000
,
10030000
00000000
01000000
10000000
00000000
00010000
00000000
00100000
01000000
00000000
00100000
00010000
00000000
10000000
00000000
01000000
,
00100000
00000000
00001000
00010000
00000000
00000100
00000000
00001000
00000001
00000000
00000100
00000020
00000000
00000000
00000000
00000000
,
00000130
00000010
00001020
00000000
00010000
00000000
00000130
00000000
,
00000010
00010000
00012000
00000000
00100000
00000000
01003000
00000000
,
00001000
00000000
01000000
00010000
00000000
10000000
00000000
01000000
00100000
00000000
00010000
00100000
00000000
00001000
00000000
00001000
,
00010000
00000000
00001000
00000100
00000000
00000010
00000000
00001000
00000001
00000000
00000100
00000020
00000000
00000000
00000000
00000000
,
00001030
00000100
00010200
00000000
00100000
00000000
00010300
00000000
,
00010000
00000100
00020100
00000000
00001000
00000000
00030010
00000000
,
00000010
00000000
00000100
00000001
00000000
00001000
00000000
00000100
00000010
00000000
00001000
00000010
00000000
00000010
00000000
00000100
,
00001000
00000000
00001000
00000100
00000000
00010000
00000000
00001000
01000000
00000000
00001000
00020000
00000000
00000000
00000000
00000000
,
01030000
00000000
10000000
00000000
21000000
00000000
00000000
00000000
00100000
30000000
00000000
10100000
00000000
00000000
00000000
00000000
,
00010000
00000000
01000000
00000000
01020000
00000000
00000000
00000000
00100000
00030000
00000000
00110000
00000000
00000000
00000000
00000000
,
00001000
00000000
00010000
00000100
00000000
00001000
00000000
00000010
00001000
00000000
00000100
00010000
00000000
00000100
00000000
00001000
,
00000100
00000000
00000010
00000001
00000000
00001000
00000000
00000010
00000100
00000000
00000010
00002000
00000000
00000000
00000000
00000000
,
00003100
00000000
00000000
00000000
00010000
00000000
00001000
00000000
01000000
00000000
00000000
01100000
00000000
00000000
00000000
00000000
,
10000000
00000000
00010000
00000000
00100000
00000000
00001000
00000000
00010000
00000000
00000000
00010100
00000000
00000000
00000000
00000000
,
00000010
00000000
00000100
00000010
00000000
00001000
00000000
00000001
00000010
00000000
00000100
00000010
00000000
00000100
00000000
00010000
,
00001000
00000000
01000000
00100000
00000000
10000000
00000000
00010000
01000000
00000000
00010000
20000000
00000000
00000000
00000000
00000000
,
31000000
1M010000
1M010000
1MM10000
,
000M0M00
000101M0
000101M0
0001M1M0
,
00000MM0
000M0110
000M0110
00MMM110
,
0M010100
00011M00
M00M1100
00011000
,
01000000
00000000
00010000
00000000
00100000
00000000
00001000
00000000
00010000
00000100
00000000
00001010
00000000
00000000
00000000
00000000
,
00000010
00000000
00000100
00000000
00000010
00000000
00010000
00000000
00001000
00100000
00000000
00101000
00000000
00000000
00000000
00000000
,
10000000
00000000
01000000
00100000
00000000
00010000
00000000
00100000
01000000
00000000
00100000
00010000
00000000
00100000
00000000
01000000
,
10000000
00000000
01000000
00100000
00000000
00010000
00000000
00100000
00001000
00000000
00010000
00000020
00000000
00000000
00000000
00000000
,
00000130
00000010
00001002
00000000
00000100
00000000
00000013
00000000
,
00000001
00001000
00000102
00000000
00001000
00000000
00000103
00000000
,
00000001
00000000
00000010
00000100
00000000
00010000
00000000
00010000
00001000
00000000
01000000
00100000
00000000
01000000
00000000
00010000
,
10000000
00000000
01000000
00100000
00000000
00001000
00000000
00010000
00000010
00000000
00000100
00000020
00000000
00000000
00000000
00000000
,
00000130
00000000
00000001
00000000
00001000
00000000
00000100
00000000
00010000
00001000
00000000
00200000
00000000
00000000
00000000
00000000
,
00310000
00000000
10000000
00000000
00100000
00000000
01000000
00000000
00100000
00010000
00000000
00002000
00000000
00000000
00000000
00000000
,
00013000
00000000
00000100
00000010
00000000
00000100
00000000
00000010
00000001
00000000
00001000
00000100
00000000
00010000
00000000
00000010
,
00000100
00000000
00001000
00010000
00000000
00001000
00000000
00100000
00010000
00000000
01000000
00200000
00000000
00000000
00000000
00000000
,
01300000
00000000
00010000
00000000
00100000
00000000
01000000
00000000
00100000
00001000
00000000
00020000
00000000
00000000
00000000
00000000
,
00030100
00000000
00001000
00000000
00000001
00000000
00000100
00000000
00000010
00000001
00000000
00000020
00000000
00000000
00000000
00000000
,
00000130
00001010
00020000
00031000
,
00010000
00000000
00001000
00000000
01000000
00000000
00010000
00000000
10000000
00000000
01000000
00100000
00010000
10000000
00010000
01000000
,
00100000
01000000
01001000
00000000
00000000
00000000
00000000
00000000
;

//---------------dance-double - M. Simmons----------------
#NOTES:
     dance-double:
     M. Simmons:
     Medium:
     6:
     0.425,0.402,0.252,0.022,0.115:
00000000
00000000
00000000
00000000
,
00000000
00000000
00000000
00000000
,
10000000
01000000
00010000
00000000
00001000
00000000
00000100
00000000
,
00000010
00000000
00000000
00000000
00001000
00000000
00000000
00000000
00000001
00000000
00000100
00000010
00000100
00000000
00000001
00000000
,
00001000
00000100
00000010
00000000
00000100
00000000
00010000
00000000
,
00001000
00010000
00100000
00000000
01000000
00000000
00010000
00000000
,
10000000
01000000
00100000
00000000
00001000
00010000
00000100
00000000
,
00001000
00000010
00000100
00000000
00001001
00000000
00000110
00000000
,
00000001
00000000
00001000
00000000
00000200
00000000
00000000
00000000
00000000
00000000
00000000
00010300
00000000
00000000
00000000
00000000
,
00010100
00000000
00000000
00000000
00012000
00000000
00000000
00000000
00000000
00000000
00000000
00103000
00000000
00000000
00000000
00000000
,
00010000
10100000
01000000
00110000
,
00001000
01001000
00010000
00001000
,
00010000
00000000
00000000
00000000
00000010
00000000
00000100
00000000
00000010
00000000
00000000
00001000
00000000
00000000
00000000
00000000
,
00000001
00000000
00000000
00000000
00001000
00000000
00000100
00000000
00001000
00000000
00000000
00000100
00000000
00000000
00000000
00000000
,
00010000
00011000
00001000
00011000
,
00010000
00101000
01001000
10010000
,
00000000
00000000
00000000
00000000
10000000
00000000
01000000
00000000
00100000
00000000
00000000
00010000
00000000
00000000
00000000
00000000
,
00100000
00000000
00000000
00000000
00001000
00000000
00010000
00000000
00001000
00000000
00000000
00010000
00000000
00000000
00000000
00000000
,
00000100
00000000
00001000
00000010
00001010
00000000
00000001
00001000
,
00001001
00000000
00000001
00000100
00000010
00000100
00000001
00000000
,
00001000
00000000
00000000
00000000
00000100
00000000
00001000
00000000
00000100
00000000
00000000
00010000
00000000
00000000
00000000
00000000
,
00001000
00000000
00000000
00000000
01000000
00000000
00010000
00000000
01000000
00000000
00000000
00100000
00000000
00000000
00000000
00000000
,
01000000
01010000
00010000
01010000
,
01000000
00011000
00010100
00011000
,
00000000
00001000
00010000
00000100
,
00000010
00000001
00001000
00000010
,
00000100
00000010
00001000
00000001
,
00000100
00000001
00001000
00000100
,
00000010
00000000
00000000
00000000
00000100
00000000
00001000
00000000
00000100
00000000
00000000
00010000
00000000
00000000
00000000
00000000
,
00000100
00000000
00000000
00000000
00010000
00000000
00001000
00000000
00100000
00000000
00000000
00010000
00000000
00000000
00000000
00000000
,
01000000
00000000
00010000
10000000
00010000
00000000
01000000
00100000
,
01000000
00000000
00010000
00100000
00001000
00010000
00000100
00000000
,
00001001
00000010
00000100
00000001
,
00001000
00000100
00010000
00001000
,
00100000
00010000
10000000
00010000
,
01000000
00010000
10000000
00100000
,
01000000
00000000
00000000
00000000
00001000
00000000
00010000
00000000
00001000
00000000
00000000
00100000
00000000
00000000
00000000
00000000
,
00001000
00000000
00000000
00000000
00010000
00000000
00000100
00000000
00000010
00000000
00000000
00000001
00000000
00000000
00000000
00000000
,
00001000
00000000
00000010
00000100
00000010
00000000
00001000
00000001
,
00001000
00000000
00000010
00000100
00000001
00000100
00000010
00000000
,
00001000
00000000
00000000
00000000
00000100
00000000
00010000
00000000
00001000
00000000
00000000
00100000
00000000
00000000
00000000
00000000
,
00010000
00000000
00000000
00000000
01000000
00000000
00100000
00000000
01000000
00000000
00000000
00010000
00000000
00000000
00000000
00000000
,
10000000
00000000
01000000
00100000
00010000
00000000
00100000
00001000
,
00010000
00000000
00000100
00001000
00000001
00000100
00000010
00000000
,
00001000
00000000
00000000
00000000
00000100
00000000
00010000
00000000
00000100
00000000
00000000
00010000
00000000
00000000
00000000
00000000
,
00001000
00000000
00000000
00000000
01000000
00000000
00100000
00000000
10000000
00000000
00000000
01000000
00000000
00000000
00000000
00000000
,
10000000
00000000
00010000
00100000
00010000
00000000
01000000
00100000
,
01000000
00000000
00010000
01000000
00100000
01000000
00001000
00000000
,
00001000
00000000
00000000
00000000
00010000
00000000
00000100
00000000
00001000
00000000
00000000
00000100
00000000
00000000
00000000
00000000
,
00000010
00000000
00000000
00000000
00000001
00000000
00001000
00000000
00000001
00000000
00000000
00000100
00000000
00000000
00000000
00000000
,
00000010
00001010
00001000
00001010
,
00000010
00000000
00000000
00000000
00001000
00000000
00000000
00000100
00000000
00000000
00001000
00000000
00000000
00000001
00000000
00000000
,
00000100
00000010
00000100
00000000
00000110
00000000
00000000
00000000
;

//---------------dance-double - M. Simmons----------------
#NOTES:
     dance-double:
     M. Simmons:
     Easy:
     3:
     0.316,0.345,0.230,0.219,0.000:
00000000
00000000
00000000
00000000
,
00000000
00000000
00000000
00000000
,
00000000
00000000
00000000
00000000
,
00000000
00000000
00000000
00000000
,
00000000
00011000
00000000
00000000
,
00000000
00011000
00000000
00000000
,
00000000
00110000
00000000
11000000
,
00000000
20020000
00000000
00000000
,
30030000
02000000
00000000
03010000
,
00000000
00200000
00000000
00301000
,
00000000
00010100
00000000
00010010
,
00000000
00001001
00000000
00000000
,
00000000
00000010
00000100
00000010
,
00001000
00000001
00000100
00000001
,
00001000
00000100
00010000
00001000
,
00100000
00010000
10000000
00010000
,
01000000
01010000
00020000
00000000
,
10030000
01100000
00020000
00000000
,
00130000
00001000
00100000
00001000
,
00010000
00000100
00001000
00000002
,
00001003
00001001
00000020
00000000
,
00001030
00000101
00000002
00000000
,
00001003
00000100
00010000
00001000
,
00100000
00010000
10000000
00010000
,
01000000
00001000
00010000
00001000
,
00010000
00000100
00001000
00000100
,
00001000
00000001
00000100
00000010
,
00000100
00000001
00001000
00000002
,
00001003
00000100
00010000
00001000
,
00100000
00010000
10000000
00010000
,
01000000
00010000
10000000
00100000
,
01000000
00100000
10000000
00010000
,
00100000
00101000
00001000
00100000
,
00001000
00011000
00010000
00000100
,
00010000
00000010
00000100
00000001
,
00001000
00000100
00000010
00000001
,
00001000
00000100
00010000
00001000
,
00100000
00010000
10000000
00010000
,
01000000
00100000
01000000
00010000
,
10000000
00100000
00010000
00001000
,
00010000
00000100
00000010
00000001
,
00001000
00000100
00001000
00000001
,
00001000
00000100
00000010
00000100
,
00001000
00000100
00000010
00001000
,
00010000
00011000
00001000
02000000
,
00000000
03001000
00011000
00020000
,
00000000
00030100
00011000
00010000
,
00000010
00010000
00001000
00001000
,
00001000
00100000
00010000
01000000
,
00100000
10000000
00010000
10000000
,
20020000
30030000
02200000
03300000
,
02020000
00000000
00000000
03030000
,
00000000
00022000
00033000
00000000
;

//---------------dance-single - D. Bernardone----------------
#NOTES:
     dance-single:
     D. Bernardone:
     Beginner:
     1:
     0.131,0.229,0.142,0.000,0.000:
0000
0000
0000
0000
,
0000
0000
0000
0000
,
0000
1001
0000
0000
,
0000
0000
0000
1000
,
0000
1001
0000
0000
,
0000
1001
0000
0000
,
0000
0110
0000
0110
,
0000
0110
0000
0000
,
0000
0001
0000
0000
,
0000
1000
0000
0000
,
0000
0100
0000
0010
,
0000
0001
0000
0000
,
0000
1000
0000
0000
,
0000
0010
0000
0000
,
0000
0100
0000
0001
,
0000
0010
0000
0100
,
0000
0100
0000
0000
,
0000
1000
0000
0000
,
0000
0010
0000
0100
,
0000
0010
0000
0000
,
0000
1000
0000
0000
,
0000
0001
0000
0000
,
0000
0010
0000
0100
,
0000
1000
0000
0000
,
0000
0010
0000
0000
,
0000
0010
0000
0000
,
0000
0100
0000
0100
,
0000
0001
0000
1000
,
0000
0000
0100
0000
,
0010
0000
0100
0000
,
1000
0000
0001
0000
,
0100
0000
0010
0000
,
0000
0110
0000
0000
,
0000
0110
0000
0000
,
0000
1001
0000
1001
,
0000
0110
0000
1001
,
0000
1000
0000
0000
,
0000
0100
0000
0000
,
0000
0010
0000
0001
,
0000
1000
0000
0010
,
0000
0100
0000
0000
,
0000
0001
0000
0000
,
0000
1000
0000
0001
,
0000
1000
0000
0010
,
0000
0100
0000
0000
,
0000
0001
0000
0000
,
0000
1000
0000
0100
,
0000
1000
0000
0000
,
0000
0010
0000
0000
,
0000
0100
0000
0000
,
0000
0001
0000
0001
,
0000
0001
0000
1000
,
0000
1001
0000
0000
;

//---------------dance-single - D. Bernardone----------------
#NOTES:
     dance-single:
     D. Bernardone:
     Easy:
     3:
     0.253,0.374,0.131,0.022,0.000:
0000
0000
0000
0000
,
0000
0000
0000
0000
,
1000
1001
0000
0000
,
0000
0000
0000
0100
,
0100
0110
0000
0000
,
0001
1001
0000
0000
,
0010
0110
1000
1001
,
0100
0110
0110
1001
,
1001
0001
0000
0000
,
0100
0010
0000
0000
,
1000
0100
0000
0010
,
0000
0001
0100
0010
,
0000
0000
1000
0100
,
0000
0000
0010
0001
,
0000
0100
0000
0010
,
0000
1000
0100
0010
,
0000
0001
0001
0100
,
0000
0010
0010
1000
,
0000
0100
0100
0010
,
0010
0001
0100
0001
,
0000
1000
1000
0100
,
0000
0010
0010
0001
,
0000
0100
0100
0010
,
0010
1000
0100
1000
,
0000
1001
0000
0100
,
0000
0100
0000
0100
,
0000
0001
0000
0010
,
0000
0110
0000
1000
,
1000
0001
0100
0000
,
0000
0010
0100
0000
,
0001
0010
0000
0100
,
0000
0010
0001
1000
,
1000
0100
0100
0100
,
0100
0100
0100
0100
,
0100
0100
0100
0100
,
0100
0100
0100
0100
,
0010
0001
0000
0000
,
0100
0010
0000
0000
,
1000
0100
0000
0010
,
0000
0001
0010
0100
,
1000
0001
0000
0000
,
0100
0001
0000
0000
,
0010
0100
0000
1000
,
0000
0010
0100
0001
,
0000
1000
0100
0010
,
0001
0100
0010
1000
,
0100
0100
0010
0010
,
0001
0100
0100
0001
,
1000
0001
0010
0100
,
1000
0010
0100
0001
,
1000
0100
0010
0100
,
0001
0100
0100
0010
,
0010
2002
3003
0000
;

//---------------dance-single - D. Bernardone----------------
#NOTES:
     dance-single:
     D. Bernardone:
     Medium:
     5:
     0.349,0.345,0.044,0.131,0.000:
0000
0000
0000
0000
,
0000
0000
0000
0000
,
1000
0001
0100
0000
0000
0000
0000
0000
,
0000
0000
0001
1000
,
0100
0010
0001
0000
0000
0000
0000
0000
,
0100
0010
1000
0000
0000
0000
0000
0000
,
0100
0010
0001
0000
0100
0001
1000
0000
,
0100
0010
0100
0000
0100
0000
1000
0000
,
1000
0002
0000
0103
,
0000
0020
0000
1030
,
0000
0200
0000
0320
,
0000
0032
0000
0003
,
0000
1000
0010
0100
,
0010
1000
0100
0010
,
0001
1000
0001
0000
1000
0100
1000
0000
,
0001
1000
0001
0000
0001
0000
0001
0000
,
0100
0010
1000
0010
,
0100
0001
0100
0010
,
1000
0100
0010
0000
0100
0010
0001
0000
,
0010
0100
1000
0000
1000
0000
1000
0000
,
0010
1000
0001
0010
,
0100
0010
0001
1000
,
0010
0100
0001
0000
0100
0001
0010
0000
,
0001
0100
0010
0000
0010
0000
0010
0000
,
1000
2100
0000
3001
,
0000
0020
0000
0130
,
0000
2000
0000
3020
,
0000
0230
0000
0301
,
1000
0001
0010
0100
,
0010
0001
1000
0010
,
0100
0001
0100
0000
0001
1000
0001
0000
,
0100
0001
0100
0000
0100
0000
0100
0000
,
0010
1000
0001
1000
,
0001
1000
0001
1000
,
0001
1000
0001
1000
,
0001
1000
0001
1000
,
0100
0010
0001
0100
,
0001
0010
0100
1000
,
0001
0100
0010
0000
0100
0010
1000
0000
,
0010
0100
0001
0000
0001
0000
0001
0000
,
0010
0100
1000
0001
,
0100
0010
1000
0100
,
0010
0001
1000
0000
0001
1000
0100
0000
,
1000
0001
0010
0000
0010
0000
0010
0000
,
0100
1000
0001
0100
,
0001
1000
0100
0010
,
0001
1000
0001
0000
1000
0010
1000
0000
,
0001
1000
0001
0000
0001
0000
0001
0000
,
0010
0100
1000
0001
,
0100
0010
1000
0100
,
1000
1010
0001
0011
,
0100
0000
0100
0010
1000
0000
0001
0100
,
0010
2002
3003
0000
;

//---------------dance-single - D. Bernardone----------------
#NOTES:
     dance-single:
     D. Bernardone:
     Hard:
     7:
     0.468,0.546,0.186,0.164,0.274:
0000
0000
0000
0000
,
0000
0000
0000
0000
,
0001
0010
1100
0000
0000
0000
0000
0000
,
0000
0000
0000
0000
0000
0001
1000
0001
,
0100
0010
1001
0000
0000
0000
0000
0000
,
1000
0100
0011
0000
0000
0000
0000
0000
,
0001
0100
1010
0000
1000
0010
0101
0000
,
0001
0000
1000
0000
0110
0000
0001
0100
0000
0000
0010
0000
0010
0000
0100
0001
,
1000
0000
0100
0000
1001
0000
0000
0000
0001
0000
0000
0001
0000
0000
0000
0000
,
0100
0000
0010
0000
0110
0000
0000
0000
1000
0000
0000
1000
0000
0000
0000
0000
,
0001
0000
0010
0000
0022
0000
0000
0033
0000
0000
0000
0000
2200
0000
0000
0000
,
3300
0000
0102
0000
0000
1003
0100
1000
,
0010
0000
0100
0000
0001
0000
0000
0000
1000
0000
0000
1000
0000
0000
0000
0000
,
0100
0000
0010
0000
0001
0000
0000
0000
0100
0000
0000
0100
0000
0000
0000
0000
,
0010
0000
1000
0000
0100
0000
0000
0100
0000
0000
0010
0000
0001
0000
0000
0001
,
0000
0000
0100
0000
0010
0000
0000
0010
0000
0000
1000
0000
0001
0000
0000
0000
,
0010
0000
0100
0000
1000
0000
0000
0000
0010
0000
0000
0100
0000
0000
0000
0000
,
0001
0000
1000
0000
0100
0000
0000
0000
0010
0000
0000
0001
0000
0000
0000
0000
,
0100
0000
0010
0000
1000
0000
0000
0100
0000
0000
0010
0000
0001
0000
0000
0100
,
0000
0000
0001
0000
0010
0000
0000
0100
0000
0000
1000
0000
0001
0000
0000
0000
,
0100
0000
0010
0000
1000
0000
0000
0000
0001
0000
0000
0100
0000
0000
0000
0000
,
0010
0000
1000
0000
0100
0000
0000
0000
0010
0000
0000
0100
0000
0000
0000
0000
,
1000
0000
0001
0000
0100
0000
0000
0010
0000
0000
1000
0000
0001
0000
0000
0010
,
0000
0000
0100
0000
1000
0000
0000
0001
0000
0000
0100
0000
0010
0000
0000
0000
,
1000
0000
0001
0000
0101
0000
0000
0000
0000
0000
0000
0100
0000
0000
0000
0000
,
0000
0000
0000
0000
0010
0000
0000
0000
0000
0000
0000
1000
0000
0000
0000
0000
,
0000
0200
0320
0032
,
0103
0000
0110
0000
0000
0000
1000
0100
,
2000
0000
0000
0000
3001
0000
0100
0000
0010
0000
0000
0100
0000
0000
0000
0000
,
0010
0000
1000
0000
0100
0000
0000
0000
1000
0000
0000
0001
0000
0000
0000
0000
,
0100
0000
0010
0000
1000
0000
0000
0100
0000
0000
1000
0000
0010
0000
0000
0100
,
0000
0000
0001
0000
0010
0000
0000
0100
0000
0000
0010
0000
0001
0000
0000
0000
,
0100
0010
1000
0000
0100
0000
0001
0000
,
0100
1000
0100
0001
,
0100
1000
0100
0001
,
0100
1000
0100
0001
,
0100
0000
1000
0000
1000
0000
0000
0000
0010
0000
0000
0010
0000
0000
0000
0000
,
0100
0000
0001
0000
1000
0000
0000
0000
0100
0000
0000
0100
0000
0000
0000
0000
,
0010
0000
0001
0000
1000
0000
0000
1000
0000
0000
0010
0000
0100
0000
0000
0100
,
0000
0000
0001
0000
0010
0000
0000
0010
0000
0000
0100
0000
1000
0000
0000
0000
,
0001
0000
0100
0000
1000
0000
0000
0000
0001
0000
0000
1000
0000
0000
0000
0000
,
1000
0000
0100
0000
0001
0000
0000
0000
1000
0000
0000
0001
0000
0000
0000
0000
,
0100
0000
0001
0000
0010
0000
0000
1000
0000
0000
0001
0000
0100
0000
0000
0010
,
0000
0000
1000
0000
0100
0000
0000
0010
0000
0000
1000
0000
0001
0000
0000
0000
,
0010
0000
0100
0000
1000
0000
1000
0000
0001
0100
0000
0001
0000
0000
0000
0000
,
1000
0000
0100
0000
0010
0000
0010
0000
0001
1000
0000
0001
0000
0000
0000
0000
,
0100
0000
0010
0000
1000
0000
1000
0100
0000
0000
0010
0000
0001
0000
0001
0100
,
0000
0000
0010
0000
0100
0000
0100
0010
0000
0000
1000
0100
0000
0000
0000
0000
,
0010
0000
0001
0000
2000
0000
3100
0000
1000
0001
0000
1000
0000
0000
0000
0000
,
0010
0000
0100
0000
0002
0000
1003
0000
0100
0010
0000
0100
0000
0000
0000
0000
,
1000
0010
0201
0000
0301
0010
1200
0000
,
1300
0000
0001
0000
0110
0000
0000
0100
0001
0000
0000
0100
0010
0000
0010
0000
,
1000
0100
2002
0000
3003
0000
0000
0000
;
