#TITLE:Palindrome;
#SUBTITLE:;
#ARTIST:Sanxion7;
#TITLETRANSLIT:;
#SUBTITLETRANSLIT:;
#ARTISTTRANSLIT:;
#GENRE:Hardcore;
#CREDIT:Sync by HellRazor;
#BANNER:Palindrome-bn.png;
#BACKGROUND:Palindrome-bg.png;
#LYRICSPATH:;
#CDTITLE:;
#MUSIC:Palindrome.ogg;
#OFFSET:-1.484;
#SAMPLESTART:62.100;
#SAMPLELENGTH:12.500;
#SELECTABLE:YES;
#DISPLAYBPM:165.000:155.000;
#BPMS:0=165,96=162.9,100=161.7,104=159.7,112=159.6,124=159.94,128=155.5,163.75=209.4,164=165;
#STOPS:;
#BGCHANGES:0.000=Palindrome-bg.png=1.000=0=0=1=====,
16.000=In The Groove Rebirth/257_JB_HD.mpg=1.000=0=0=1=====,
32.000=In The Groove Rebirth/263_JB_HD.mpg=1.000=0=0=1=====,
48.000=In The Groove Rebirth/791_JumpBack.mpg=1.000=0=0=1=====,
64.000=In The Groove Rebirth/308_JB_HD.mpg=1.000=0=0=1=====,
80.000=In The Groove Rebirth/306_JB_HD.mpg=1.000=0=0=1=====,
96.000=In The Groove Rebirth/401_JB_HD.mpg=1.000=1=0=1=SongBgWithMovieViz==CrossFade==,
112.000=In The Groove Rebirth/406_JB_HD.mpg=1.000=0=0=1=SongBgWithMovieViz====,
128.000=In The Groove Rebirth/304_JB_HD.mpg=0.300=1=0=1=Kaleidoscope2x2==CrossFade==,
143.750=In The Groove Rebirth/304_JB_HD.mpg=1.000=0=0=1=Kaleidoscope2x2====,
144.000=In The Groove Rebirth/1159_JumpBack.mpg=0.300=0=0=1=Kaleidoscope2x2==FadeUp==,
156.000=Palindrome-bg.png=1.000=0=0=1====1^0^0^1=,
157.000=Palindrome-bg.png=1.000=0=0=1====0^1^0^1=,
158.000=Palindrome-bg.png=1.000=0=0=1====0^0^1^1=,
159.000=Palindrome-bg.png=1.000=0=0=1=====,
160.000=In The Groove Rebirth/263_JB_HD.mpg=1.000=0=0=1=SongBgWithMovieViz====,
161.000=In The Groove Rebirth/257_JB_HD.mpg=1.000=0=0=1=SongBgWithMovieViz====,
162.000=In The Groove Rebirth/306_JB_HD.mpg=1.000=0=0=1=SongBgWithMovieViz====,
163.000=Palindrome-bg.png=1.000=0=0=1=====,
164.000=In The Groove Rebirth/264_JB_HD.mpg=1.000=0=0=1=====,
180.000=In The Groove Rebirth/308_JB_HD.mpg=1.000=0=0=1=====,
192.000=In The Groove Rebirth/308_JB_HD.mpg=0.400=0=0=1=Checkerboard1File2x2====,
196.000=In The Groove Rebirth/306_JB_HD.mpg=1.000=0=0=1=====,
212.000=In The Groove Rebirth/257_JB_HD.mpg=1.000=0=0=1=====,
228.000=Palindrome-bg.png=1.000=0=0=1====1^0^0^1=,
228.500=Palindrome-bg.png=1.000=0=0=1====0^0^1^1=,
229.000=Palindrome-bg.png=1.000=0=0=1=====,
99999=-nosongbg-=1.000=0=0=0 // don't automatically add -songbackground-
;
#BGCHANGES2:16.000=white flash=1.000=0=0=1=====,
112.000=flash=1.000=0=0=1====0.5^0.5^0.5^1=,
192.000=white flash=1.000=0=0=1=====,
199.500=yellow flash=1.000=0=0=1=====,
207.500=yellow flash=1.000=0=0=1=====,
215.500=white flash=1.000=0=0=1=====,
223.500=yellow flash=1.000=0=0=1=====,
229.000=flash=1.000=0=0=1====0.5^0.5^0.5^1=,
;
#KEYSOUNDS:;

//---------------dance-single - D. Bernardone----------------
#NOTES:
     dance-single:
     D. Bernardone:
     Challenge:
     10:
     0.724,0.881,0.564,0.564,0.507,384.000,55.000,55.000,55.000,0.000,0.000:
0000
0000
0000
0000
,
0000
0000
0000
0000
,
0000
0000
0000
0000
,
0000
0000
0000
0000
,
1020
0000
0000
0000
0130
0000
0001
1000
0001
1000
0001
0000
0100
0000
0010
0000
,
1000
0000
0000
M000
0100
0000
0010
0001
0010
0001
0010
0000
0100
0000
1000
0000
,
0001
0000
0000
000M
0100
0000
0010
1000
0010
1000
0010
0000
0100
0000
0001
0000
,
1001
0000
0000
0000
0000
0000
1000
0000
0100
0000
1000
0000
0100
0000
0000
0010
0000
0000
0001
0000
0000
0000
0000
0000
0100
0000
0010
0000
0100
0000
0010
0000
0000
0000
0000
0000
1000
0000
0000
0001
0000
0000
0010
0000
0000
0100
0000
0000
,
1000
0000
0000
M000
0010
0000
0100
0001
0100
0010
0100
0000
0001
0000
0010
0000
,
0100
0000
0000
0M00
1000
0000
0010
0100
0010
1000
0001
0000
0010
0000
0100
0000
,
0010
0000
0000
00M0
0001
0000
1000
0001
1000
0100
1000
0000
0010
0000
0100
0000
,
0001
0000
0000
000M
1000
0000
0001
0100
0001
1000
0001
0000
0010
0000
0100
0000
,
1000
0000
0000
M000
0001
0000
0010
0001
0010
0100
0010
0000
0100
0000
1000
0000
,
0010
0000
0000
00M0
0100
0000
0001
1000
0001
0010
0001
0000
0100
0000
0010
0000
,
1000
0000
0000
M000
0100
0000
0010
0001
0010
0100
0010
0000
0001
0000
1000
0000
,
0010
0000
0000
00M0
0100
0000
0001
1000
0001
0010
0001
0000
0100
0010
1000
0100
,
0010
0000
0001
0000
1000
0000
0010
0100
0010
1000
0020
0000
0230
0000
0302
0000
,
2003
0000
0000
0000
3200
0000
1300
0001
1000
0010
2000
0000
3200
0000
0320
0000
,
0032
0000
0000
0000
0203
0000
0301
1000
0001
0010
0002
0000
0203
0000
0320
0000
,
2030
0000
0000
0000
3020
0000
0130
0001
0100
0010
0200
0000
0302
0000
0023
0000
,
0230
0000
0000
0000
2300
0000
3001
0010
0001
1000
0002
0000
0203
0000
0320
0000
,
0230
0000
0000
0000
0302
0000
0013
0100
0010
0001
0020
0000
0230
0000
2300
0000
,
3020
0000
0000
0000
0230
0000
0301
1000
0001
0100
0002
0000
0023
0000
0230
0300
,
2100
0000
0000
0000
0000
0000
3000
0000
0000
0000
0000
0000
0120
0000
0000
0000
0000
0000
0030
0000
0000
0000
0000
0000
0101
0000
0000
0000
0000
0000
0001
0000
1000
0000
0001
0000
1000
0000
0000
0100
0000
0000
0010
0000
0000
0001
0000
0000
,
2000
3100
0000
0010
0001
0100
1000
0MMM
,
0MM0
0M00
0MM0
0MMM
0101
0010
1000
0100
,
1000
0000
0020
0130
0001
0010
1000
0MMM
,
0MM0
0M00
0MM0
0000
0MMM
0000
0001
1000
0001
1000
0001
1000
0001
0000
0000
0000
,
1002
0103
0000
0010
1000
0100
0001
MMM0
,
0MM0
00M0
0MM0
MMM0
1100
0010
0001
0100
,
0002
0000
0000
0000
0000
0000
MMM0
0000
0000
MMM0
0000
0000
0000
0000
0003
0000
,
0101
0000
0000
0000
0000
0000
0000
0000
0000
0000
0000
0000
0110
0000
0000
0000
0000
0000
0000
0000
0000
0000
0000
0000
1001
0000
0000
0000
0000
0000
1000
0000
0010
0000
1000
0000
0010
0000
0000
0100
0000
0000
0001
0000
0000
0010
0000
0000
,
0100
0100
0000
1000
1000
0000
0000
0000
,
1001
0000
0000
1001
0000
0000
0101
0000
0101
0000
0000
0000
0000
0000
0000
0000
,
0110
0000
0000
0110
0000
0000
1010
0000
1010
0000
0000
0000
0000
0000
0000
0000
,
0002
0000
0000
0000
0000
0000
0000
M000
0203
M000
0010
0000
0310
1000
0100
0010
,
0110
0000
0000
0110
0000
0000
1100
0000
1001
0000
0000
0000
0000
0000
0000
0000
,
1010
0000
0000
1010
0000
0000
1100
0000
1001
0000
0000
0000
0000
0000
0000
0000
,
0101
0000
0000
0101
0000
0000
1001
0000
0011
0000
0000
0011
0000
0000
0110
0000
,
1000
0001
0100
0010
,
1010
0000
0000
0000
0000
0000
0000
0000
0000
0000
0000
0000
0101
0000
0000
0000
0000
0000
0000
0000
0000
0000
0000
0000
1001
0000
0000
0000
0000
0000
0001
0000
0010
0000
0001
0000
0010
0000
0000
0100
0000
0000
1000
0000
0000
0001
0000
0000
,
0200
0000
0000
0000
0310
0000
0000
0000
0000
0000
1001
0000
0000
0000
1000
0100
,
0010
0000
1001
0010
0001
0100
1000
0100
,
0002
0000
0000
0000
1003
0000
0000
0000
0000
0000
0110
0000
0000
0000
0010
1000
,
0001
0000
0000
0000
0110
0000
0000
0000
1000
0000
0000
0000
1000
0000
1000
0010
,
0200
0000
0000
0000
0301
0000
0000
0000
0000
0000
0011
0000
0000
0000
0001
1000
,
0010
0000
1000
0100
1000
0010
0001
0010
,
2000
0000
3100
0000
0000
0011
0000
1000
,
1001
0000
0000
0000
0000
0000
0001
0000
0100
0000
0001
0000
0100
0000
0000
0010
0000
0000
1000
0000
0000
0000
0000
0000
0100
0000
0010
0000
0100
0000
0010
0000
0000
0000
0000
0000
0001
0000
0000
0100
0000
0000
0010
0000
0000
1000
0000
0000
,
0002
0000
0103
0000
0000
0110
0000
1020
,
0100
M000
0031
0010
1000
0100
0001
0100
,
2000
0000
3010
0000
0000
0110
0000
0201
,
1000
0000
000M
0000
0310
0000
0000
0000
0001
0000
0000
0000
0001
0000
0001
0010
,
0200
0000
1300
0000
0000
1001
0000
0021
,
0100
000M
1030
0010
0001
0100
1000
0100
,
0002
0000
0013
0000
0000
0110
0000
1100
,
1001
0000
0000
0000
0000
0000
0000
0000
0000
0000
0000
0000
0101
0000
0000
0000
0000
0000
0000
0000
0000
0000
0000
0000
1010
0000
0000
0000
0000
0000
1000
0000
0001
0000
1000
0000
0001
0000
0000
0010
0000
0000
0100
0000
0000
1000
0000
0000
,
0001
M000
0001
0000
0220
0000
0000
0000
0000
0000
0000
0000
0000
0000
0000
0000
,
0000
0000
0000
0000
,
0000
0330
0000
0000
;

//---------------dance-single - D. Bernardone----------------
#NOTES:
     dance-single:
     D. Bernardone:
     Beginner:
     1:
     0.136,0.176,0.185,0.000,0.000,75.000,18.000,0.000,0.000,0.000,0.000:
0000
0000
0000
0000
,
0000
0000
0000
0000
,
0000
0000
0000
0000
,
0000
0000
0000
0000
,
1001
0000
0000
0000
,
0001
0000
0000
0000
,
0100
0000
0000
0000
,
0110
0000
0000
0000
,
1001
0000
0000
0000
,
1000
0000
0100
0000
,
0100
0000
0000
0000
,
0010
0000
0000
0000
,
0001
0000
0000
0000
,
1000
0000
0100
0000
,
0100
0000
0000
0000
,
0010
0000
0000
0000
,
0110
0000
0000
0000
,
1000
0000
1000
0000
,
0001
0000
0000
0000
,
0100
0000
0000
0000
,
0010
0000
0000
0000
,
1000
0000
1000
0000
,
0001
0000
0000
0000
,
1001
0000
1001
0000
,
1001
0000
1000
0000
,
1000
0000
1000
0000
,
0001
0000
0001
0000
,
0001
0000
0001
0000
,
1001
0000
0100
0000
,
0100
0000
0100
0000
,
0100
0000
0100
0000
,
0110
0000
0110
0000
,
0110
0000
0000
0000
,
1000
0000
0000
0000
,
0001
0000
0000
0000
,
0100
0000
0010
0000
,
1000
0000
0000
0000
,
0001
0000
0000
0000
,
0100
0000
0000
0000
,
0001
0000
1000
0000
,
1001
0000
1001
0000
,
1001
0000
0000
0000
,
1000
0000
0100
0000
,
1000
0000
0000
0000
,
0001
0000
0100
0000
,
0100
0000
0000
0000
,
0001
0000
1000
0000
,
0001
0000
0000
0000
,
1001
0000
0000
0000
,
1000
0000
0000
0000
,
0001
0000
0100
0000
,
0010
0000
0000
0000
,
1000
0000
0000
0000
,
0001
0000
0000
0000
,
0100
0000
0000
0000
,
0010
0000
0000
0000
,
0110
0000
0110
0000
,
0000
1001
0000
0000
;

//---------------dance-single - D. Bernardone----------------
#NOTES:
     dance-single:
     D. Bernardone:
     Easy:
     4:
     0.321,0.385,0.318,0.174,0.000,171.000,31.000,17.000,0.000,0.000,0.000:
0000
0000
0000
0000
,
0000
0000
0000
0000
,
0000
0000
0000
0000
,
0000
0000
0000
0000
,
1001
0001
0010
0000
,
0100
1000
0001
0000
,
1000
0010
0100
0000
,
0110
0100
0001
1000
,
0200
0000
0000
0000
,
0310
0001
1000
0020
,
0130
0000
0001
1000
,
0100
0100
0010
0001
,
2000
0000
0000
0000
,
3010
0100
0001
2000
,
3010
0000
0100
0001
,
1000
0100
0010
0001
,
2001
0000
0000
0010
,
3100
1000
0010
0200
,
0301
0000
1000
0100
,
0010
0001
0010
0100
,
0020
0000
0000
0000
,
0031
1000
0100
2000
,
3001
0000
0100
0010
,
0110
0110
1001
1001
,
1001
0001
0001
0001
,
0100
0100
0100
0100
,
0010
0010
0010
0010
,
1000
1000
1000
1000
,
1001
0001
0001
0001
,
0010
0010
0010
0010
,
0100
0100
0100
0100
,
0110
0110
1001
1001
,
2000
0000
0001
0000
,
3010
0010
0020
0000
,
0130
0100
0200
0000
,
0302
0000
2003
0000
,
3100
0100
0200
0000
,
0310
0010
0020
0000
,
0031
0001
0100
0100
,
0010
0010
1000
1000
,
1001
1001
0110
0110
,
1001
0001
0000
0110
,
0000
0000
0010
1000
,
0100
0010
0000
1001
,
0000
0000
0001
0001
,
0100
0010
0000
1001
,
0000
0000
1000
0100
,
0010
0001
0000
0110
,
1001
1000
0100
0010
,
0001
0100
0000
0010
,
0110
0000
1000
0100
,
1000
0001
0000
0100
,
0110
0000
1000
1000
,
0001
0010
0000
0001
,
1001
0000
1000
0010
,
0100
0010
0000
1000
,
1001
1001
0110
0110
,
0001
2002
0000
3003
;

//---------------dance-single - D. Bernardone----------------
#NOTES:
     dance-single:
     D. Bernardone:
     Medium:
     5:
     0.340,0.358,0.174,0.144,0.000,201.000,17.000,14.000,0.000,0.000,0.000:
0000
0000
0000
0000
,
0000
0000
0000
0000
,
0000
0000
0000
0000
,
0000
0000
0000
0000
,
1001
0010
0100
0001
,
0010
0100
1000
0010
,
1000
0100
0010
0001
,
1001
0000
0001
0000
0010
0000
0100
1000
,
0010
0100
0010
1000
,
0200
0000
0000
0000
0310
0001
0010
0000
,
0002
0000
1003
0100
,
1000
0100
0010
0001
,
0010
0001
0100
0010
,
1000
0000
0001
0000
0100
0010
0100
0000
,
0020
0000
1030
0010
,
1000
0010
0100
0001
,
0201
0310
0000
1020
,
0130
0001
0000
0021
,
0130
1000
0000
1200
,
0310
0001
0000
1002
,
0103
0010
0000
0210
,
0301
1000
0000
2001
,
3010
0100
0000
0120
,
1030
0000
0001
0000
0100
0000
0010
1000
,
0001
0100
0001
0100
,
0001
1000
0001
1000
,
0010
1000
0010
1000
,
0010
0100
0010
0100
,
0110
0100
0001
0100
,
0001
1000
0001
1000
,
0001
0010
0001
0010
,
0100
0000
1000
0000
0001
0000
0100
0010
,
1000
0100
0100
0000
,
1000
0000
0001
1000
0001
0000
0000
0000
,
0100
0000
0010
0100
0010
0000
0000
0000
,
2000
0000
0000
0000
3100
0000
0010
0001
,
1000
0000
0100
1000
0100
0000
0000
0000
,
0010
0000
0001
0010
0001
0000
0000
0000
,
0100
0000
0010
0100
0010
0000
0100
0010
,
0100
0000
0010
0100
0010
0000
0100
0010
,
0100
0000
0001
0000
1000
0000
0100
0010
,
0001
0000
0001
0000
0000
1000
0000
0000
,
0000
0000
0000
0001
1000
0000
0001
0000
,
0100
0000
0100
0000
0000
0010
0000
0000
,
0000
0000
1000
1000
,
0001
0000
0001
0000
0000
1000
0000
0000
,
0000
0000
0000
1000
0010
0000
1000
0000
,
0001
0000
0001
0000
0000
1000
0000
0000
,
0110
0000
0001
0000
0010
0000
0100
1000
,
0001
0000
0001
0000
0000
0100
0000
0110
,
0000
0000
0000
0010
1000
0000
0001
0000
,
0100
0000
0100
0000
0000
0001
0000
1001
,
0000
0000
0100
0100
,
0010
0000
0010
0000
0000
1000
0000
1001
,
0000
0000
0000
0001
0100
0000
0010
0000
,
1000
0000
1000
0000
0000
0100
0000
0110
,
0000
0000
0000
0001
1000
0000
0010
0000
,
0100
0202
0000
0000
,
0000
0303
0000
0000
;

//---------------dance-single - D. Bernardone----------------
#NOTES:
     dance-single:
     D. Bernardone:
     Hard:
     8:
     0.477,0.572,0.267,0.154,0.087,285.000,26.000,15.000,0.000,0.000,0.000:
0000
0000
0000
0000
,
0000
0000
0000
0000
,
0000
0000
0000
0000
,
0000
0000
0000
0000
,
0101
0000
0001
1000
0100
0010
0001
1000
,
1000
0000
0010
0100
0001
1000
0100
0010
,
0010
0000
0001
0100
0001
0010
0100
1000
,
1001
0000
0001
0100
0001
0000
1000
0000
0100
0000
0010
0001
0010
0000
0001
0000
,
0101
0200
0000
0000
0000
0000
0000
0320
,
0000
0000
0000
0000
0000
1030
0100
0010
,
0001
1000
0002
0000
0000
0000
0000
0000
,
0023
0000
0000
0000
0000
0000
0000
0030
,
0110
0200
0000
0000
0000
0000
0000
2300
,
0000
0000
0000
0000
0000
3001
0100
0010
,
1000
0001
2000
0000
0000
0000
0000
0000
,
3100
0000
0000
0000
0010
0000
0000
0000
0001
0000
1000
0100
1000
0000
0010
0000
,
0100
0000
0001
0010
0000
0010
0100
1000
,
0001
0000
0100
0010
0000
0010
1000
0100
,
0010
0000
0001
0100
0000
0100
0001
0010
,
0100
0000
1000
0010
0000
0010
0100
0001
,
0010
0000
0100
1000
0000
1000
0001
0010
,
0100
0000
1000
0001
0000
0001
0100
0010
,
1000
0000
0100
0010
0000
0010
0001
1000
,
1010
0000
0000
0000
1001
0000
0000
0000
0001
0000
0010
0100
0010
0000
0001
0000
,
1000
0100
0001
0100
,
1000
0000
0001
0000
1000
0010
0100
0000
,
0001
0010
1000
0010
,
0001
0000
1000
0000
0001
0100
0001
0000
,
1001
0100
1000
0100
,
0001
0000
1000
0000
0001
0010
0100
0000
,
1000
0010
0001
0010
,
1100
0000
0000
0000
1001
0000
0000
0000
0001
0000
0100
0010
0100
0000
0001
0000
,
1000
0100
0000
1000
0100
0000
0000
0000
,
0010
0000
0000
0001
0000
0000
0100
0000
0010
0000
0000
0000
0000
0000
0000
0000
,
1000
0000
0000
0100
0000
0000
1000
0000
0001
0000
0000
0000
0000
0000
0000
0000
,
0200
0000
0000
0300
0020
0000
0000
0030
,
1000
0000
0000
0001
0000
0000
0010
0000
0001
0000
0000
0000
0000
0000
0000
0000
,
0100
0000
0000
0010
0000
0000
1000
0000
0100
0000
0000
0000
0000
0000
0000
0000
,
0010
0000
0000
0001
0000
0000
0100
0000
0010
0000
0000
1000
0000
0000
0100
0000
,
0010
0000
0000
0001
0000
0000
0100
0000
0010
0000
0000
1000
0000
0000
0001
0000
,
0101
0000
0000
0000
1001
0000
0000
0000
1000
0000
0010
0100
0010
0000
1000
0000
,
0001
0000
0011
0000
0100
1000
0001
0100
,
0010
0000
1010
1000
0001
1000
0100
1000
,
0100
0000
0110
0000
0010
0001
1000
0001
,
0100
0000
0110
0000
0010
0000
0010
0010
,
1000
0000
1100
0000
0100
0010
0001
1000
,
0001
0000
0101
0001
1000
0001
0100
0001
,
0100
0000
0110
0000
0010
1000
0001
0010
,
0110
0000
0100
1000
0100
0000
1000
0000
0010
0000
0100
0001
0100
0000
0010
0000
,
2000
0000
3100
0010
0001
0010
0000
1100
,
0000
0000
0000
0001
0100
0010
1000
0010
,
0200
0000
0301
0010
0100
0010
0000
1001
,
0000
0000
0000
0000
1000
0000
1000
1000
,
0200
0000
0310
0001
0010
0100
0000
1001
,
0000
0000
0000
0001
0100
0010
1000
0010
,
0200
0000
0301
1000
0100
1000
0000
0011
,
1001
0000
0000
0000
0101
0000
0000
0000
0100
0000
0010
1000
0010
0000
1000
0000
,
0100
0100
0220
0000
0000
0000
0000
0000
,
0000
0000
0000
0330
;

//---------------dance-double - D. Bernardone----------------
#NOTES:
     dance-double:
     D. Bernardone:
     Easy:
     2:
     0.215,0.352,0.246,0.174,0.000,106.000,24.000,17.000,0.000,0.000,0.000:
00000000
00000000
00000000
00000000
,
00000000
00000000
00000000
00000000
,
00000000
00000000
00000000
00000000
,
00000000
00000000
00000000
00000000
,
10010000
00000000
00000000
00000000
,
01000000
00000000
00010000
00000000
,
00100000
00000000
00001000
00000000
,
00011000
00000000
00020000
00000000
,
00030100
00000000
00000000
00000000
,
00001000
00000000
00000000
00000010
,
00000100
00000000
00000000
00000000
,
00000001
00000000
00000000
00000000
,
00001000
00000000
00000000
00000000
,
00000010
00000000
00000000
00010000
,
00001000
00000000
01000000
00000000
,
00010000
00000000
20000000
00000000
,
31000000
00000000
00000000
00000000
,
00100000
00000000
00000000
00001000
,
00010000
00000000
00000000
00000000
,
00000100
00000000
00000000
00000000
,
00001000
00000000
00000000
00000000
,
00000010
00000000
00000000
00000100
,
00000001
00000000
00000000
00000000
,
00001001
00001001
00001001
00001001
,
00001001
00000000
00000000
00000010
,
00010000
00000000
00000000
00001000
,
00010000
00000000
00000000
00000100
,
00010000
00000000
00000000
00001000
,
00011000
00000000
00000000
00001000
,
00100000
00000000
00000000
00010000
,
00100000
00000000
00000000
01000000
,
01100000
01100000
01100000
01100000
,
02200000
00000000
03300000
00000000
,
00020000
00000000
00030000
00000000
,
20000000
00000000
30000000
00000000
,
02000000
00000000
03020000
00000000
,
00032000
00000000
00003000
00000000
,
00000200
00000000
00000300
00000000
,
00000020
00000030
00002000
00003000
,
00000002
00000003
00000020
00000030
,
00000110
00000110
00000110
00000110
,
00000110
00001000
00000000
00000100
,
00000000
00000000
00010000
00000000
,
00010000
00010000
00000000
00001000
,
00000000
00000000
01000000
00010000
,
10000000
10000000
00000000
00100000
,
00000000
00000000
01000000
00000000
,
01000000
01000000
00000000
00001000
,
00011000
00000000
00020000
00000000
,
00030100
00000100
00000000
00001000
,
00000010
00000000
00000100
00000000
,
00000100
00000100
00000000
00000010
,
00010000
00000000
00001000
00000000
,
00010000
00010000
00000000
00001000
,
00100000
00000000
00010000
00000000
,
00010000
00010000
00000000
10000000
,
10010000
10010000
10010000
20020000
,
30030000
10010000
00000000
00000000
;

//---------------dance-double - D. Bernardone----------------
#NOTES:
     dance-double:
     D. Bernardone:
     Medium:
     5:
     0.347,0.388,0.174,0.215,0.000,199.000,17.000,21.000,0.000,0.000,0.000:
00000000
00000000
00000000
00000000
,
00000000
00000000
00000000
00000000
,
00000000
00000000
00000000
00000000
,
00000000
00000000
00000000
00000000
,
00011000
00000000
00000000
00000100
00000000
00000000
00000000
00000000
,
00000010
00000000
00000001
00000000
00000100
00000010
00010000
00000000
,
00001000
00000000
00100000
00000000
00010000
01000000
00100000
10000000
,
10010000
10000000
00100000
00000000
01000000
00000000
00020000
00000000
,
10030000
00000000
00100000
00000000
01000000
00010000
01000000
00100000
,
01000000
00000000
00000000
00001000
,
00011000
00000000
00010000
00000000
00000100
00000010
00000100
00001000
,
00000100
00000000
00000000
00001000
,
00001001
00000000
00000000
00000010
00000000
00000000
00000000
00000000
,
00010000
00000000
00001000
00000000
01000000
00010000
00100000
00000000
,
00010000
00000000
10000000
00000000
00100000
01000000
00010000
01000000
,
00100000
00000000
10000000
00020000
,
01030000
00000000
00001000
00000000
00000000
00010000
00000100
00000000
,
00000010
00000000
00000001
00000000
00000000
00000010
00000100
00000000
,
00010000
00000000
00001000
00000000
00000000
00100000
01000000
00000000
,
10000000
00000000
10000000
00000000
00000000
00100000
01000000
00000000
,
00001000
00000000
00010000
00000000
00000000
00000010
00000100
00000000
,
00000001
00000000
00001000
00000000
00000000
00000010
00010000
00000000
,
00001000
00000000
00010000
00000000
00000000
00001000
00100000
00000000
,
00010000
10000000
10010000
00020000
,
00130000
01000000
10000000
00100000
,
01000000
00001000
00010000
00000010
,
00000100
00000001
00001000
00000001
,
00000010
00000100
00010000
00001000
,
00011000
01000000
00100000
10000000
,
00010000
01000000
00001000
00010000
,
00000010
00001000
00000001
00000010
,
00000110
00001001
00001100
00020100
,
00032000
00000000
01003000
00000000
,
00020000
00100000
01030000
00000000
,
00002000
01000000
00013000
00000000
,
00020200
00030300
00001200
00001300
,
00002001
00000010
00003100
00000000
,
00020000
00000010
00031000
00000000
,
02000000
00001000
03020000
01000000
,
00230000
00010000
02300000
00100000
,
13000000
10010000
00010000
00200000
,
00301000
00000000
00010000
00000000
00000000
00000100
00000000
00000000
,
00000000
00000000
00000000
00001000
00000010
00000000
00000100
00000000
,
00000001
00000000
00001000
00000000
00000000
00000010
00000000
00000000
,
00000000
00000000
00010000
00010000
,
00001000
00000000
01000000
00000000
00000000
00010000
00000000
00000000
,
00000000
00000000
00000000
10000000
01000000
00000000
00100000
00000000
,
00001000
00000000
00010000
00000000
00000000
00000100
00000000
00000000
,
00001001
00001000
00000010
00000000
00000100
00000000
00000002
00000000
,
00001003
00000000
00000100
00000000
00000000
00010000
00000000
00001000
,
00000000
00000000
00000000
01000000
00010000
00000000
00100000
00000000
,
01000000
00000000
10000000
00000000
00000000
00010000
00000000
00100000
,
00000000
00000000
00001000
00001000
,
00010000
00000000
00000100
00000000
00000000
00001000
00000000
00000010
,
00000000
00000000
00000000
00000100
00000001
00000000
00001000
00000000
,
00000100
00000000
00010000
00000000
00000000
00001000
00000000
00100000
,
00010000
00000000
01010000
00000000
01000000
01000000
00200000
00000000
,
10300000
20020000
00000000
00000000
,
00000000
30030000
00000000
00000000
;

//---------------dance-double - D. Bernardone----------------
#NOTES:
     dance-double:
     D. Bernardone:
     Hard:
     7:
     0.476,0.510,0.154,0.154,0.041,295.000,15.000,15.000,0.000,0.000,0.000: // measure 1
00000000
00000000
00000000
00000000
,  // measure 2
00000000
00000000
00000000
00000000
,  // measure 3
00000000
00000000
00000000
00000000
,  // measure 4
00000000
00000000
00000000
00000000
,  // measure 5
00001001
00000000
00000001
00000010
00000100
00010000
00001000
00001000
,  // measure 6
01000000
00000000
00010000
10000000
00100000
01000000
00010000
00010000
,  // measure 7
10000000
00000000
01000000
00100000
00001000
00010000
00001000
00001000
,  // measure 8
00010000
00000000
00000100
00001000
00000100
00000000
00000000
00000000
00000010
00000001
00000010
00000000
00000001
00000000
00001000
00000000
,  // measure 9
00001001
00000000
00000100
00000010
00010000
00001000
00010000
00000000
,  // measure 10
00002000
00000000
00000000
00000000
00003000
01000000
00100000
10000000
,  // measure 11
00020000
00000000
00000000
00000000
00000000
00000000
00130000
01000000
,  // measure 12
20000000
00000000
00000000
30000000
,  // measure 13
10010000
00000000
00000000
00011000
00000000
00000000
00000000
00000000
,  // measure 14
00001001
00000000
00000000
00000000
00000100
00000010
00010000
00000000
,  // measure 15
00001000
00100000
01000000
00100000
00001000
00000000
00010000
00000000
,  // measure 16
00001000
01000000
00010000
00100000
00001000
00000000
01000000
00100000
,  // measure 17
00010000
00000000
00100000
00000000
00000000
10000000
01000000
10000000
,  // measure 18
01000000
00000000
01000000
00000000
00000000
00100000
00001000
00100000
,  // measure 19
00001000
00000000
00001000
00000000
00000000
00010000
00000010
00010000
,  // measure 20
00000010
00000000
00000010
00000000
00000000
00000100
00001000
00000100
,  // measure 21
00000001
00000000
00000001
00000000
00000000
00000100
00000010
00010000
,  // measure 22
00000010
00000000
00000010
00000000
00000000
00010000
00001000
00000100
,  // measure 23
00001000
00000000
00001000
00000000
00000000
00100000
01000000
00010000
,  // measure 24
00001000
00000000
00000000
00000000
01010000
00000000
00000000
00000000
00100000
00000000
10000000
00010000
10000000
00000000
00100000
00000000
,  // measure 25
01000000
00000000
00010000
00000000
00100000
00000000
01000000
00010000
,  // measure 26
00001000
00000000
00000100
00000000
00000010
00000000
00010000
00001000
,  // measure 27
00000100
00000000
00001000
00000000
00010000
00000000
00100000
01000000
,  // measure 28
00010000
00000000
10000000
00000000
01000000
00000000
10000000
00010000
,  // measure 29
10010000
00000000
10000000
00000000
00010000
00000000
01000000
00001000
,  // measure 30
00010000
00000000
00100000
01000000
00001000
00000000
00000010
00000100
,  // measure 31
00001000
00000000
00001000
00000000
00000010
00000000
00010000
00001000
,  // measure 32
00100000
00000000
00000000
00000000
01001000
00000000
00000000
00000000
00010000
00000000
01000000
00100000
01000000
00000000
00100000
00000000
,  // measure 33
20000000
00010000
00000000
30010000
10000000
00000000
00000000
00000000
,  // measure 34
02000000
00000000
03100000
00010000
01000000
00000000
00000000
00000000
,  // measure 35
00002000
00000000
00013000
00000010
00001000
00000000
00000000
00000000
,  // measure 36
02000000
00000000
03000000
00000000
00001000
00000010
00000100
00001000
,  // measure 37
00020000
00000000
00031000
00100000
00010000
00000000
00000000
00000000
,  // measure 38
02000000
00000000
03100000
00010000
00001000
00000000
00000000
00000000
,  // measure 39
00020000
00000000
00130000
01000000
20000000
00000000
31000000
00001000
,  // measure 40
02000000
00000000
03010000
00100000
02000000
00000000
03010000
00001000
,  // measure 41
00000100
00000000
00000000
00000000
00000110
00000000
00000000
00000000
00010000
00000000
00001000
00010000
00001000
00000000
00010000
00000000
,  // measure 42
00000100
00000000
00001000
00000010
00000100
00000001
00001000
00000000
,  // measure 43
00000100
00000000
00010000
00001000
01000000
00100000
01000000
00001000
,  // measure 44
00010000
00000000
01000000
00100000
00010000
01000000
00001000
00000000
,  // measure 45
00010000
00000000
00000100
00000000
00001000
00000000
00000010
00000010
,  // measure 46
00000100
00000000
00000001
00000000
00000010
00000100
00001000
00000001
,  // measure 47
00000100
00000000
00000010
00010000
00001000
00000100
00001000
00010000
,  // measure 48
00100000
00000000
01000000
00100000
10000000
01000000
00100000
00000000
,  // measure 49
00010000
00000000
01000000
00010000
01000000
00000000
00010000
00000000
10000000
01000000
10000000
00000000
00010000
00000000
00010000
00000000
,  // measure 50
00100000
00000000
00001000
00010000
00000100
00010000
00000000
00001010
,  // measure 51
00000000
00000000
00000010
00000100
00000001
00000010
00001000
00000010
,  // measure 52
00000100
00000000
00010000
00001000
00010000
00001000
00000000
11000000
,  // measure 53
00000000
00000000
00100000
00000000
01000000
00000000
00010000
00010000
,  // measure 54
00001000
00000000
00100000
01000000
00100000
00001000
00000000
00011000
,  // measure 55
00000000
00000000
00010000
00000100
00000010
00001000
00000010
00000100
,  // measure 56
00000010
00000000
00000001
00000100
00001000
00000100
00000000
00010010
,  // measure 57
00000010
00000000
00000000
00000000
00001010
00000000
00000000
00000000
00001000
00000000
00000100
00010000
00000100
00000000
00010000
00000000
,  // measure 58
00001000
00001000
00022000
00000000
00000000
00000000
00000000
00000000
,  // measure 59
00000000
00000000
00033000
00000000
;

//---------------dance-double - D. Bernardone----------------
#NOTES:
     dance-double:
     D. Bernardone:
     Challenge:
     9:
     0.631,0.577,0.420,0.205,0.144,370.000,41.000,20.000,0.000,0.000,0.000:
00000000
00000000
00000000
00000000
,
00000000
00000000
00000000
00000000
,
00000000
00000000
00000000
00000000
,
00000000
00000000
00000000
00000000
,
02100000
00000000
00010000
00000000
03001000
00010000
00001000
00000100
,
00000020
00000000
00001000
00000000
00000130
00001000
00010000
01000000
,
00200000
00000000
00001000
00000000
00310000
10000000
01000000
00100000
,
00110000
00000000
00010000
01000000
00001000
00000000
00010000
00000000
00000100
00010000
00001000
00000000
00000010
00000000
00000001
00000000
,
00000201
00000000
00000310
00001000
00000010
00010000
00001000
00100000
,
00020000
00000000
10030000
01000000
00100000
00010000
01000000
00001000
,
00020000
00000000
01030000
00100000
00001000
00010000
00001000
00000010
,
00000002
00000000
00000103
00000010
00001000
00000100
00010000
00001000
,
00020000
00000000
00130000
01000000
00010000
00100000
01000000
00010000
,
00002000
00000000
00003100
00000010
00010000
00001000
00010000
01000000
,
20000000
00000000
30100000
01000000
00010000
00100000
00001000
00010000
,
00002000
00000000
00003010
00000001
00000100
00000010
00010000
01000000
,
02100000
00000000
00000000
00000000
13000000
00000000
00000000
00100000
01000000
00000000
00010000
00000000
00100000
00000000
00001000
00010000
,
00002000
00000000
00000000
00000000
00003100
00000000
00000000
00000010
00010000
00000000
00001000
00000000
01000000
00000000
00010000
00100000
,
00020000
00000000
00000000
00000000
10030000
00000000
00000000
00100000
01000000
00000000
10000000
00000000
01000000
00000000
00010000
00100000
,
00020000
00000000
00000000
00000000
01030000
00000000
00000000
00001000
00100000
00000000
01000000
00000000
00010000
00000000
00001000
00010000
,
00002000
00000000
00000000
00000000
00003100
00000000
00000000
00000010
00001000
00000000
00000100
00000000
00010000
00000000
00001000
01000000
,
00002000
00000000
00000000
00000000
00103000
00000000
00000000
00010000
10000000
00000000
01000000
00000000
00010000
00000000
00001000
01000000
,
00002000
00000000
00000000
00000000
00013000
00000000
00000000
00000010
00000100
00000000
00000001
00000000
00001000
00000000
00000100
00000010
,
00000100
00000000
00000000
00000000
00010100
00000000
00000000
00000000
00011000
00000000
00001000
00100000
00010000
00000000
01000000
00000000
,
00100000
00000000
10000000
01000000
00010000
00000000
00010000
01000000
,
00100000
00000000
00100000
00001000
00010000
00000000
00001000
00010000
,
00000010
00000000
00000010
00000100
00001000
00000000
00001000
00000100
,
00000001
00000000
00000001
00000010
00000100
00000000
00000100
00001000
,
00001001
00000000
00000001
00000010
00001000
00000000
00001000
00000010
,
00000100
00000000
00000100
00010000
00001000
00000000
00010000
00001000
,
01000000
00000000
01000000
00100000
00010000
00000000
00010000
00100000
,
10000000
00000000
00000000
00000000
10010000
00000000
00000000
00000000
01010000
00000000
00010000
00100000
00001000
00000000
00010000
00000000
,
00010100
00001000
00000000
00000100
00001010
00000000
00000000
00000000
,
00000101
00000000
00000000
00001100
00000000
00000000
00011000
00000000
00011000
00000000
00000000
00000000
00000000
00000000
00000000
00000000
,
01010000
00000000
00000000
11000000
00000000
00000000
00110000
00000000
00110000
00000000
00000000
00000000
00000000
00000000
00000000
00000000
,
10000000
00000000
00000000
00000000
00001000
00010000
00000100
00000010
,
00001001
00000000
00000000
00011000
00000000
00000000
10010000
00000000
10010000
00000000
00000000
00000000
00000000
00000000
00000000
00000000
,
01100000
00000000
00000000
00011000
00000000
00000000
00000110
00000000
00000110
00000000
00000000
00000000
00000000
00000000
00000000
00000000
,
00000011
00000000
00000000
00001010
00000000
00000000
00011000
00000000
00011000
00000000
00000000
00110000
00000000
00000000
10100000
00000000
,
10100000
01000000
00001000
00000100
,
00000010
00000000
00000000
00000000
00001001
00000000
00000000
00000000
00001010
00000000
00001000
00000100
00010000
00000000
00001000
00000000
,
00100000
00010000
01000000
00100000
00010000
00001000
00000010
00000001
,
00000100
00000010
00000100
00000001
00001000
00000100
00010000
00000010
,
00000001
00001000
00000100
00000001
00001000
00000010
00000001
00000010
,
00000100
00000001
00001000
00000100
00010000
01000000
00100000
00001000
,
00010000
00000100
00000010
00000001
00001000
00000100
00010000
00001000
,
01000000
10000000
00010000
00100000
10000000
01000000
00010000
01000000
,
00100000
00001000
00000010
00000100
00010000
00001000
00100000
01000000
,
10010000
00000000
10000000
00100000
01000000
00000000
00010000
00000000
00100000
01000000
10000000
00000000
01000000
00000000
00010000
00000000
,
00001000
00010000
00000010
00000100
00000001
00001000
00000100
00010000
,
00001000
00100000
10000000
00010000
01000000
10000000
00100000
00010000
,
00100000
01000000
00001000
00000100
00000010
00010000
00001000
01000000
,
00100000
10000000
01000000
00100000
00001000
00010000
00000100
00000001
,
00001000
00000010
00000001
00000100
00001000
00000100
00000010
00010000
,
00100000
01000000
00001000
00010000
00000010
00000100
00000001
00000010
,
00001000
00010000
00001000
00000100
00001000
00010000
01000000
10000000
,
10010000
00000000
00000000
00000000
01010000
00000000
00000000
00000000
01001000
00000000
00001000
00010000
00000010
00000000
00000100
00000000
,
00000001
00000001
00002200
00000000
00000000
00000000
00000000
00000000
,
00000000
00000000
00000000
00000000
,
00000000
00003300
00000000
00000000
;
