#TITLE:Overdrive;
#SUBTITLE:;
#ARTIST:Arctic Xion;
#TITLETRANSLIT:;
#SUBTITLETRANSLIT:;
#ARTISTTRANSLIT:;
#GENRE:Drum & Bass;
#CREDIT:Sync by HellRazoR;
#BANNER:Overdrive-bn.png;
#BACKGROUND:Overdrive-bg.png;
#LYRICSPATH:;
#CDTITLE:;
#MUSIC:Overdrive.ogg;
#OFFSET:-0.050;
#SAMPLESTART:99.980;
#SAMPLELENGTH:12.000;
#SELECTABLE:YES;
#DISPLAYBPM:120.000;
#BPMS:0.000=120.000;
#STOPS:;
#BGCHANGES:0.000=Overdrive-bg.png=1.000=0=0=1=====,
16.000=In The Groove Rebirth/203_JB_HD.mpg=1.000=1=0=1===CrossFade==,
32.000=In The Groove Rebirth/204_JB_HD.mpg=1.000=0=0=1===FadeDown==,
48.000=In The Groove Rebirth/302_JB_HD.mpg=1.000=0=0=1=====,
64.000=In The Groove Rebirth/215_JB_HD.mpg=1.000=0=0=1===FadeUp==,
80.000=In The Groove Rebirth/205_JB_HD.mpg=1.000=0=0=1=====,
96.000=In The Groove Rebirth/264_JB_HD.mpg=1.000=0=0=1=====,
112.000=In The Groove Rebirth/873_JumpBack.mpg=1.000=0=0=1=====,
120.000=In The Groove Rebirth/317_JB_HD.mpg=1.000=0=0=1=====,
136.000=In The Groove Rebirth/204_JB_HD.mpg=1.000=0=0=1===FadeDown==,
144.000=Overdrive-bg.png=1.000=0=0=1=====,
144.500=Overdrive-bg.png=1.000=0=0=1====0^0^1^1=,
145.000=Overdrive-bg.png=1.000=0=0=1====0^1^0^1=,
145.500=Overdrive-bg.png=1.000=0=0=1====1^0^0^1=,
146.000=Overdrive-bg.png=1.000=0=0=1====0^1^0^1=,
146.500=Overdrive-bg.png=1.000=0=0=1====0^0^1^1=,
147.000=Overdrive-bg.png=1.000=0=0=1=====,
147.500=In The Groove Rebirth/205_JB_HD.mpg=1.000=1=0=1===CrossFade==,
152.000=In The Groove Rebirth/264_JB_HD.mpg=1.000=0=0=1=====,
168.000=In The Groove Rebirth/873_JumpBack.mpg=1.000=0=0=1=====,
184.000=In The Groove Rebirth/302_JB_HD.mpg=1.000=0=0=1===FadeUp==,
200.000=In The Groove Rebirth/203_JB_HD.mpg=1.000=0=0=1===FadeDown==,
216.000=In The Groove Rebirth/215_JB_HD.mpg=1.000=0=0=1===FadeDown==,
232.000=Overdrive-bg.png=1.000=1=0=1===CrossFade==,
236.000=In The Groove Rebirth/317_JB_HD.mpg=1.000=0=0=1=====,
240.000=Overdrive-bg.png=1.000=1=0=1===CrossFade==,
99999=-nosongbg-=1.000=0=0=0 // don't automatically add -songbackground-
;
#KEYSOUNDS:;

//---------------dance-single - M. Simmons----------------
#NOTES:
     dance-single:
     M. Simmons:
     Easy:
     3:
     0.249,0.267,0.167,0.214,0.036:
0000
0000
0000
0000
,
0000
0000
0000
0000
,
0000
0000
0000
0000
,
1000
0100
0010
0100
,
1000
0001
0200
0010
,
0301
1000
0200
0010
,
1300
0001
0020
0001
,
0130
1000
0002
0100
,
0013
0001
1000
0010
,
0100
0010
1000
0001
,
0100
0001
1000
0100
,
0010
0001
0010
0100
,
2002
0000
0000
3000
,
0200
0000
0000
0300
,
0020
0000
0000
0030
,
2000
0000
0000
0000
,
0010
0000
0000
0000
,
0100
0000
0000
0003
,
0200
0000
0000
3000
,
0020
0000
0000
0330
,
0100
1000
0001
0110
,
1000
0001
0100
0110
,
0100
0001
1000
0110
,
0010
0001
1000
0110
,
0020
0000
0000
0000
0000
0000
0000
1000
0000
1000
0000
1000
0030
0000
0000
0000
,
1001
0000
0020
0032
,
2003
0000
0000
0000
0000
0000
0000
0010
0000
0010
0000
0010
3000
0000
0000
0000
,
1001
0000
0010
0100
,
0020
0000
0000
0000
0000
0000
0000
0100
0000
0100
0000
0100
0030
0000
0000
0000
,
1000
0000
0001
0010
,
0100
1001
0100
0110
,
0000
0010
0000
1000
,
1000
1001
0001
0110
,
0000
0100
0000
0010
,
0010
0110
0100
1001
,
0010
1000
0001
0100
,
0002
0000
0000
0000
,
1003
0100
0001
0000
,
0100
1000
0001
0000
,
0100
0010
0200
0001
,
0310
1000
0001
1001
,
0001
0010
0100
0110
,
0100
1000
0001
1001
,
0001
0100
0020
0000
,
0130
0010
1000
1001
,
0001
0010
0002
0000
,
1003
0100
1000
0001
,
0100
0010
1000
0010
,
0100
0001
1000
0100
,
0010
0001
0010
0100
,
1000
0010
0100
1001
,
0000
0001
0000
1000
,
0100
1000
0001
0100
,
0110
0000
0000
0010
,
2002
0000
0000
0003
,
0020
0000
0000
3000
,
0200
0000
0000
0030
,
0002
0000
0000
0000
,
0010
0000
0000
0303
,
1000
0100
0010
0001
,
2002
0000
0000
0000
,
0000
3003
0000
0000
0000
0000
0000
0000
;

//---------------dance-single - M. Simmons----------------
#NOTES:
     dance-single:
     M. Simmons:
     Challenge:
     9:
     0.650,0.614,0.420,0.230,0.872:
0000
0000
0000
0000
,
0000
0000
0000
0000
,
0000
0000
0000
0000
,
0001
0000
0000
1000
0100
0000
0010
0100
0010
0000
0000
0100
1000
0000
0010
0001
,
0010
0000
0000
1000
0001
1000
0000
1000
0001
0000
0100
0000
1000
0000
0000
0000
,
0100
0000
0000
0000
0001
0010
0000
0010
1000
0000
0010
0000
0001
0000
0000
0000
,
1000
0000
0000
0000
0001
0010
0000
0010
1000
0000
0010
0000
0001
0000
0000
0000
,
1000
0000
0000
0000
0100
0001
0000
0001
0100
0000
1000
0000
0010
0000
0000
0000
,
0100
0000
0010
0100
0010
0100
0000
0010
1000
0000
1000
0001
0010
0000
0000
0000
,
0100
0000
1000
0001
1000
0010
0000
0010
0100
0000
0010
0000
1000
0000
0000
0000
,
0100
0000
0010
0001
0010
1000
0000
0010
0001
0000
0010
0100
1000
0000
0000
0000
,
1000
0000
0001
0100
0010
0001
0000
0010
1000
0000
0001
0000
1001
0000
0000
0000
,
0001
0000
1000
0100
0010
0001
0000
0010
0100
0000
1000
0001
1000
0000
0000
0000
,
0010
0000
0100
0010
1000
0010
0000
0100
0010
0000
1000
0000
0011
0000
0000
0000
,
0100
0000
1000
0001
0100
1000
0000
0100
0001
0000
1000
0100
0010
0000
0000
0000
,
0001
0000
1000
0100
1000
0001
0000
0100
0010
0000
0100
0000
1001
0000
0000
0000
,
0001
0000
0100
0010
1000
0010
0000
0100
0010
0000
1000
0001
1000
0000
0000
0000
,
0100
0000
0010
0001
0010
1000
0000
0010
0001
0000
1000
0000
0110
0000
0000
0000
,
1000
0000
0001
0100
0010
0100
0000
0001
0010
0000
0100
1000
0010
0000
0000
0000
,
0100
0000
0010
1000
0001
0010
0000
0100
0010
0000
0001
0000
1100
0000
0000
0000
,
0002
0000
0000
0000
0203
0000
0300
0020
2030
0000
0100
0000
3100
0000
0000
0000
,
0020
0000
0000
0000
0032
0000
0000
2003
3200
0000
0001
0000
0301
0000
0000
0000
,
0200
0000
0000
0000
2300
0000
0000
3020
0230
0000
0001
0000
0301
0000
0000
0000
,
2000
0000
0000
0000
3002
0000
0000
0023
0032
0000
0100
0000
0103
0000
0000
0000
,
0010
0001
0100
0000
0001
0010
1000
0010
0000
0011
0000
1010
0000
0000
0000
0100
,
0001
1000
0000
0000
0000
0100
0010
1000
0010
0000
0000
0001
1000
0000
0010
0001
,
0000
0010
1000
0000
0100
0010
0001
0010
0000
1010
0000
0101
0000
0000
0000
0001
,
0100
0010
0000
0000
0000
0001
0010
0100
1000
0000
0000
0010
0100
0001
0100
1000
,
0100
0001
0010
0000
0000
0100
0010
0001
0000
0011
0000
1001
0000
0000
0000
0010
,
0100
0010
0000
0000
0000
1000
0100
0010
0100
0000
0000
0100
0010
0000
0000
1000
,
0010
0001
1000
0000
0000
0010
0100
0010
0000
1001
0000
0110
0000
0000
0000
0010
,
1000
0100
0000
0000
0000
0010
0001
1000
0010
0000
0000
0100
0010
0000
0000
0100
,
0000
0001
1000
0000
0100
0010
1000
0010
0000
1010
0000
0011
0000
0000
0000
0001
,
1000
0010
0000
0000
0000
0100
0010
1000
0010
0000
0000
0100
0001
0010
0100
1000
,
0010
0000
0100
0000
0110
0000
0100
0001
1000
0000
0100
0000
0011
0000
0100
1000
,
0010
0000
0100
0000
1001
0000
0100
0010
1000
0000
0001
0000
1100
0000
1000
0010
,
0100
0000
0110
0000
1001
0000
0011
0000
1010
0000
0101
0000
1100
0000
0010
0001
,
1000
0010
0000
0100
0010
1000
0001
0000
1100
0000
0000
0000
0000
0000
0002
0000
,
1003
0010
0100
0000
0000
0010
1000
0100
0000
0011
0000
0110
0000
0000
0000
0100
,
1000
0010
0000
0000
0000
0100
0010
1000
0010
0000
0000
0100
0001
0000
0000
1001
,
0000
0001
1000
0000
0100
1000
0001
0100
0000
1010
0000
0110
0000
0000
0000
0100
,
0001
0010
0000
0000
0000
0100
1000
0010
0100
0000
0000
0010
1000
0001
0010
0100
,
1000
0010
0210
0000
0002
0000
1010
0303
,
0001
1000
1200
0000
0020
0000
1001
0330
,
0100
1000
2001
0000
0020
0000
0101
3030
,
0010
0100
0120
0000
0002
0000
1100
0033
,
0010
1000
0100
0000
0000
1000
0001
0010
0000
0011
0000
0101
0000
0000
0000
0010
,
0001
0010
0000
0000
0000
1000
0100
0010
0001
0000
0000
0010
0100
0000
0000
1001
,
0000
0100
0010
0000
0000
1000
0100
0001
0000
1001
0000
0011
0000
0000
0000
0010
,
0001
0010
0000
0000
0000
0100
0010
1000
0010
0000
0000
0010
0001
0010
0100
0010
,
0001
1000
0010
0000
0000
0100
0010
1000
0000
0110
0000
0110
0000
0000
0000
0010
,
1000
0100
0000
0000
0000
0100
0010
1000
0010
0000
0000
0100
0010
0000
0000
1100
,
0000
0010
0001
0000
1000
0010
0100
0010
0000
0101
0000
0011
0000
0000
0000
0100
,
1000
0010
0000
0000
0000
0100
0010
0100
0010
0000
0000
1000
0001
0010
0001
1000
,
0010
0100
1000
0000
0000
1000
0100
1000
0000
1100
0000
0110
0000
0000
0000
0001
,
0100
0010
0000
0000
0000
0100
0010
1000
0010
0000
0000
0100
0001
0000
0000
1100
,
0000
0010
0001
0000
0000
1000
0010
0001
0000
0010
0000
1000
0000
0000
0000
0001
,
0010
0001
0000
0000
0000
1000
0100
1000
0010
0000
0000
0100
0010
1000
0010
0200
,
0020
0000
0330
0000
,
0110
0000
0000
1000
0100
0000
0010
0001
0010
0000
0000
0001
1000
0000
0010
0200
,
0020
0000
0000
0000
,
0000
0000
0000
0000
,
0330
0000
0000
0000
;

//---------------dance-single - M. Simmons----------------
#NOTES:
     dance-single:
     M. Simmons:
     Beginner:
     1:
     0.082,0.143,0.048,0.000,0.000:
0000
0000
0000
0000
,
0000
0000
0000
0000
,
0000
0000
0000
0000
,
1000
0000
0000
0000
,
0100
0000
0000
0000
,
0010
0000
0000
0000
,
0100
0000
0000
0000
,
1000
0000
0000
0000
,
0001
0000
0001
0000
,
0100
0000
0100
0000
,
0010
0000
0010
0000
,
1000
0000
1000
0000
,
0001
0000
0000
0000
,
1000
0000
0000
0000
,
0100
0000
0000
0000
,
1000
0000
0000
0000
,
0001
0000
0000
0000
,
0100
0000
0000
0000
,
0010
0000
0000
0000
,
0100
0000
0000
0000
,
1001
0000
0000
0000
,
0110
0000
0000
0000
,
1001
0000
0000
0000
,
0110
0000
0000
0000
,
0001
0000
0000
0000
,
1000
0000
0000
0000
,
0100
0000
0000
0000
,
0010
0000
0000
0000
,
0100
0000
0000
0000
,
1000
0000
0000
0000
,
0001
0000
0000
0000
,
0100
0000
0000
0000
,
0010
0000
0000
0000
,
1000
0000
0000
0000
,
0010
0000
0000
0000
,
0100
0000
0000
0000
,
0110
0100
0100
0100
,
0001
0000
0000
0000
,
1000
0000
0000
0000
,
0100
0000
0000
0000
,
1000
0000
0000
0000
,
0001
0000
0000
0000
,
0100
0000
0000
0000
,
0010
0000
0000
0000
,
1000
0000
0000
0000
,
0001
0000
0000
0000
,
1000
0000
0000
0000
,
0100
0000
0000
0000
,
0010
0000
0000
0000
,
0001
0000
0000
0000
,
0010
0000
0000
0000
,
0100
0000
0000
0000
,
1000
0000
0000
0000
,
0001
0000
0000
0000
,
0100
0000
0000
0000
,
0010
0000
0000
0000
,
1000
0000
0000
0000
,
0010
0000
0000
0000
,
0100
0000
0000
0000
,
0010
0000
0100
0000
,
1001
0000
0000
0000
;

//---------------dance-double - M. Simmons----------------
#NOTES:
     dance-double:
     M. Simmons:
     Challenge:
     11:
     0.685,0.639,0.420,0.024,0.995:
00000000
00000000
00000000
00000000
,
00000000
00000000
00000000
00000000
,
00000000
00000000
00000000
00000000
,
00100000
00010000
00000000
01000000
00001000
00000000
00010000
00001000
00010000
00000010
00000000
00000100
00000010
00000000
00001000
00000001
,
00001000
00000000
00000100
00001000
00000100
00000000
00010000
00000000
00001000
00000000
01000000
00000000
00100000
00000000
00000000
00000000
,
10000000
00000000
01000000
00100000
01000000
00000000
00100000
00000000
00001000
00000000
00010000
00000000
00000010
00000000
00000000
00000000
,
00000100
00000000
00000010
00001000
00000001
00000000
00000100
00000000
00000001
00000000
00001000
00000000
00000100
00000000
00000000
00000000
,
00010000
00000000
00001000
00100000
00010000
00000000
10000000
00000000
00100000
00000000
01000000
00000000
00010000
00100000
00000000
00100000
,
00010000
00000000
01000000
00000000
00001000
00010000
00000000
00010000
00000100
00001000
00000010
00000000
00000100
00000000
00000010
00000000
,
00001000
00000000
00000001
00000000
00000010
00000100
00000000
00000100
00010000
00001000
00100000
00000000
00010000
00000000
10000000
00000000
,
00100000
00000000
01000000
00000000
00001000
00010000
00000000
00010000
00000100
00000010
00000001
00000000
00001000
00000000
00000010
00000000
,
00000100
00000000
00001000
00000000
00010000
01000000
00000000
01000000
00100000
00001000
00010000
00000000
00000100
00000000
00001000
00000000
,
00001001
00000000
00000001
00000100
00000010
00000000
00010000
00001000
00000000
00010000
00000010
00000100
00000010
00000000
00001010
00000000
,
00000100
00000000
00010000
00001000
01000000
00000000
00100000
01000000
00000000
01000000
00010000
01000000
00001000
00000000
00010000
00001000
,
00010000
00000000
00000100
00001000
00000000
00001000
00000001
00000010
00000100
00000000
00001100
00000000
00010100
00000000
00000000
00000000
,
00001000
00000000
01000000
00000000
00100000
10000000
01000000
00010000
00001000
00000000
00000100
00000000
00000010
00001000
00000000
00010000
,
01000000
00000000
10000000
00000000
00010000
00000000
01000000
00001000
00000000
00010000
00001000
00000000
00011000
00000000
00000000
00000000
,
00000100
00000000
00001000
00000010
00000100
00000000
00000010
00010000
00001000
01000000
00100000
00000000
10010000
00000000
00000000
00000000
,
01000000
00000000
00001000
00000000
00000100
00000010
00000000
00000010
00001000
00000000
00000001
00001000
00000001
00000000
00000000
00000000
,
00000010
00000000
00000100
00000000
00010000
00001000
00000000
00001000
01000000
00100000
00000000
01000000
00100000
00000000
00100000
00000000
,
00100000
01000000
00100000
00000000
01000000
00010000
01000000
00001000
00000000
00010000
00001000
00000000
01000000
00100000
01000000
00000000
,
00001000
00010000
00001000
00000000
00010000
00000100
00001000
00000010
00000000
00000100
00000010
00000000
00001000
00000001
00000010
00000000
,
00000100
00010000
00001000
00000000
01000000
00100000
01000000
00001000
00000000
00010000
00000100
00000000
00010000
00001000
01000000
00000000
,
00100000
10000000
00100000
00000000
01000000
00010000
10000000
01000000
00000000
00010000
00001000
00000000
00000100
00000010
00000001
00000000
,
00000010
00001000
00000001
00000000
00000000
00000100
00000010
00010000
00000000
00010100
00000000
01000100
00000000
0M000M00
00000000
00001000
,
01000000
00100000
00000000
01000000
00100000
00000000
10000000
01000000
00010000
00000000
00000000
00001000
00000100
00000000
01000000
00100000
,
00000000
01000000
00001000
00000000
00100000
10000000
00100000
00001000
00000000
00101000
00000000
00100010
00000000
00M000M0
00000000
00000001
,
00001000
00010000
00000000
00000000
00000000
00001000
00000001
00000010
00001000
00000000
00000000
00010000
00000010
00000100
00000010
00010000
,
00001000
01000000
10000000
00000000
00000000
01000000
00001000
00100000
00000000
11000000
00000000
00101000
00000000
00M0M000
00000000
00000100
,
00010000
00000001
00000000
00000000
00000000
00000100
00001000
00010000
01000000
00000000
00000000
10000000
00010000
00000000
00000000
01000000
,
00000100
00000010
00000001
00000000
00000100
00001000
00010000
00001000
00000000
00000110
00000000
00101000
00000000
00M0M000
00000000
00010000
,
00000010
00000100
00000000
00000000
00001001
00000000
00000001
00000100
00000010
00000000
00000000
01000000
00100000
00000000
00000100
00000010
,
00000000
00010000
00001000
00000000
00100000
01000000
00010000
00001000
00000000
00001100
00000000
00010001
00000000
000M000M
00000000
00000100
,
00010000
00100000
00000000
00000000
00000000
01000000
00010000
10000000
01000000
00000000
00000000
00010000
00001000
00000100
00000010
00000001
,
00000010
00000000
00001000
00000000
00011000
00000000
00010000
10000000
01000000
00000000
00010000
00000000
00011000
00000000
00001000
00000001
,
00000100
00000000
00001000
00000000
00011000
00000000
00010000
01000000
00100000
00000000
00010000
00000000
00011000
00000000
00000100
00000010
,
00011000
00000000
00001100
00000000
00000110
00000000
00001100
00000000
00011000
00000000
00110000
00000000
01100000
00000000
00100000
00001000
,
01000000
10000000
00000000
01000000
00001000
00100000
01000000
00000000
00011000
00000000
00000000
00000000
00000000
00001000
00010000
00000000
,
00001000
01000000
00100000
00000000
01000000
00010000
10000000
01000000
00000000
00110000
00000000
01001000
00000000
0M00M000
00000000
00000100
,
00010000
00000010
00000000
00000000
00000000
00000100
00000010
00010000
00001000
00000000
00000000
01000000
00100000
00000000
00000100
00000010
,
00000000
00000100
00000001
00000000
00001000
00000100
00010000
00001000
00000000
01010000
00000000
10100000
00000000
M0M00000
00000000
10000000
,
01000000
00010000
00000000
00000000
00000000
00001000
00000100
00000010
00001000
00000000
00000000
00000001
00001000
00000100
00000010
00000001
,
00000010
00000000
00000100
00000000
00001100
00000000
00010000
00001000
00100000
00000000
00010000
00000000
00110000
00000000
00000000
00000000
,
01000000
00000000
10000000
00000000
10010000
00000000
01000000
00001000
00010000
00000000
00000100
00000000
00000110
00000000
00000000
00000000
,
00000001
00000000
00000100
00000000
00001010
00000000
00000100
00000010
00010000
00000000
00001000
00000000
00101000
00000000
00000000
00000000
,
00001000
00000000
01000000
00000000
00110000
00000000
01000000
10000000
00010000
00000000
01000000
00000000
01001000
00000000
00000000
00000000
,
00000100
00001000
00000010
00000000
00000000
00000100
00000010
00001000
00000000
00000011
00000000
00001001
00000000
0000M00M
00000000
00000010
,
00010000
00001000
00000000
00000000
00000000
00100000
00010000
10000000
01000000
00000000
00000000
00010000
00001000
00000000
00000000
00020000
,
00000000
00031000
00000100
00000000
00000000
00000010
00001000
00000001
00000000
00001010
00000000
00011000
00000000
000MM000
00000000
00001000
,
01000000
10000000
00000000
00000000
00000000
01000000
00010000
10000000
01000000
00000000
00000000
00010000
00001000
01000000
00000010
00000100
,
00000001
00001000
00000100
00000000
00000000
00010000
00001000
01000000
00000000
01010000
00000000
11000000
00000000
MM000000
00000000
10000000
,
00010000
00001000
00000000
00000000
00000000
00010000
10000000
00001000
00100000
00000000
00000000
00000010
00000100
00000000
00000000
00001001
,
00000000
00000010
00010000
00000000
00000010
00100000
00001000
00010000
00000000
00011000
00000000
01000100
00000000
0M000M00
00000000
00001000
,
00100000
00010000
00000000
00000000
00000000
01000000
00100000
10000000
00100000
00000000
00000000
01000000
00010000
00100000
10000000
00100000
,
00010000
10000000
01000000
00000000
00000000
00010000
00001000
00000100
00000000
00000101
00000000
00000011
00000000
000000MM
00000000
00000100
,
00010000
00100000
00000000
00000000
00000000
01000000
00001000
00100000
01000000
00000000
00000000
00010000
00001000
00000000
00000000
00010100
,
00000000
00001000
00000100
00000000
00000010
00000001
00001000
00000010
00000000
00000100
00000000
00000010
00000000
00000000
00000000
00010000
,
00001000
00010000
00000000
00000000
00000000
01000000
10000000
01000000
00100000
00000000
00000000
00010000
00100000
00001000
00010000
00000100
,
00000020
00000000
00000000
00000030
,
00000100
00010000
00000000
00001000
00100000
00000000
01000000
10000000
00100000
00000000
00010000
00001000
00000000
00000100
00000010
00000001
,
00000020
00000000
00000000
00000000
,
00000000
00000000
00000000
00000000
,
00000030
00000000
00000000
00000000
;

//---------------dance-single - M. Simmons----------------
#NOTES:
     dance-single:
     M. Simmons:
     Medium:
     5:
     0.258,0.290,0.103,0.285,0.048:
0000
0000
0000
0000
,
0000
0000
0000
0000
,
0000
0000
0000
0000
,
1000
0000
0100
0010
0100
0000
1000
0000
,
1001
0001
0100
0010
,
1001
0100
0010
0100
,
1001
0010
0100
1000
,
1001
0000
0001
0100
0010
0100
0001
0000
,
0110
1000
0100
0010
,
0110
0100
1000
0001
,
0110
1000
0001
1000
,
0110
0000
0100
0001
0100
0010
0100
0000
,
2002
0000
0000
0000
,
0010
0000
0000
0000
,
0100
0000
0000
0000
,
3110
0000
2000
3003
,
0220
0000
0000
0000
,
1000
0000
0000
0000
,
0001
0000
0000
0000
,
1001
0300
0200
0330
,
1000
0000
0000
0100
0000
0000
0000
0010
0000
0001
0000
0000
0010
0000
0000
0000
,
0100
0000
0000
1000
0000
0000
0000
0010
0000
0100
0000
0000
0010
0000
0000
0000
,
1000
0000
0000
0001
0000
0000
0000
0010
0000
0100
0000
0000
1000
0000
0000
0000
,
0001
0000
0000
0010
0000
0000
0000
0001
0000
0100
0000
0000
0010
0000
0000
0000
,
1000
0100
0020
0000
,
0230
0000
1300
0001
,
0100
0010
0200
0000
,
0320
0000
1030
0100
,
0010
0001
0020
0000
,
0230
0000
1300
0001
,
0100
0010
0200
0000
,
0320
0000
1030
0001
,
0100
0001
2000
0000
,
3200
0000
0310
0001
,
0010
0000
0100
0000
1000
1000
1000
0000
,
0100
0000
0010
0000
0001
0001
0001
0000
,
1000
0010
1000
0010
1000
0010
1000
0010
,
1000
0100
0010
0001
,
1000
0100
0020
0000
,
0230
0000
1300
0001
,
0100
0010
2000
0000
,
3020
0000
0130
0010
,
1000
0010
0200
0000
,
0302
0000
2003
0000
,
3200
0000
0320
0000
,
0230
0000
2300
0000
,
3001
0100
0020
0000
,
0230
0000
0310
1000
,
0001
0100
0002
0000
,
2003
0000
3100
0010
,
0100
1000
0001
0000
,
1000
0000
0010
0100
,
0010
1000
0001
0000
,
0010
0000
0100
1000
,
0220
0000
0000
0000
,
1000
0000
0000
0000
,
0001
0000
0000
0000
,
1000
0300
0200
0030
,
2000
0000
0000
3300
,
1000
0100
0001
0010
,
2000
0000
0000
0000
,
3000
0000
0000
0000
;

//---------------dance-single - M. Simmons----------------
#NOTES:
     dance-single:
     M. Simmons:
     Hard:
     8:
     0.420,0.393,0.278,0.095,0.337:
0000
0000
0000
0000
,
0000
0000
0000
0000
,
0000
0000
0000
0000
,
1000
0000
0000
0100
0010
0000
0001
0000
1000
0000
0000
0010
0100
0000
0010
0000
,
1000
0100
0010
0100
1000
0001
0100
0000
,
0010
1000
0010
0100
0001
1000
0100
0000
,
0010
0001
0010
0100
1000
0001
0100
0000
,
0010
1000
0010
0100
0001
1000
0100
0000
,
0100
0011
1001
1010
,
0100
0011
1001
0110
,
0100
1001
0011
1010
,
0100
1010
0011
1001
,
2100
0001
0010
0001
,
0010
0100
0010
3100
,
0102
1000
0010
0103
,
0120
1000
0100
1030
,
0210
0010
1000
0001
,
0010
0001
0010
1300
,
1002
0010
0100
0013
,
2010
0100
0010
3100
,
1000
0000
0100
0000
0000
0010
0000
0000
0001
0000
0010
0000
0100
0000
0000
0000
,
1000
0000
0001
0000
0000
0100
0000
0000
0010
0000
1000
0000
0010
0000
0000
0000
,
0100
0000
0010
0000
0000
1000
0000
0000
0010
0000
0100
0000
0001
0000
0000
0000
,
1000
0000
0001
0000
0000
0100
0000
0000
0001
0000
1000
0000
0001
0000
0000
0000
,
2000
0000
0000
0000
0000
0000
0000
0010
0000
0001
0000
0010
3000
0000
0000
0010
,
0100
0000
0000
0000
0000
0010
1000
0000
0001
0000
0000
0000
0010
0000
0000
0100
,
0000
0000
1000
0000
0020
0000
0000
0100
0000
1000
0000
0001
0030
0000
0000
0010
,
1000
0000
0000
0000
0000
0001
1000
0000
0100
0000
0000
0010
0100
0010
0100
0000
,
2000
0000
0000
0000
0000
0000
0000
0010
0000
0001
0000
0010
3000
0000
0000
0010
,
0100
0000
0000
0000
0000
0010
1000
0000
0001
0000
0000
0000
0010
0000
0000
0000
,
0100
0000
1000
0000
0010
0000
0000
0100
0000
0010
0000
0100
0000
0000
0000
0000
,
0010
0000
1000
0000
0001
0000
0000
0000
1010
0000
0000
0000
0101
0000
0000
0011
,
0000
0000
0100
0000
1000
0000
0000
0010
0000
0100
0000
0001
0000
0000
0000
0000
,
1100
0000
0000
0000
0000
0000
0001
0000
0010
0000
0000
0000
0001
1000
0001
1000
,
0010
0100
0011
0000
0100
1000
1001
0000
,
0001
0100
0110
0000
0010
0100
0011
0000
,
0100
1000
0010
0001
0100
1000
0010
0001
,
0100
1000
0000
0011
0110
0000
0100
1000
,
0001
0000
0100
0000
0010
0000
0000
0100
0000
0010
0000
0100
0000
0000
0000
0000
,
0010
1000
0000
0000
0000
0000
0001
0010
0001
0000
0000
0000
1000
0000
0000
0100
,
0000
0000
0010
0000
0001
0000
0000
1000
0000
0010
0000
1000
0000
0000
0000
0000
,
0110
0000
0000
0000
0000
0000
0000
0000
0001
0000
0000
0000
1000
0001
1000
0001
,
1000
0000
0100
0000
0000
0010
0000
0000
0001
0000
1000
0000
0010
0000
0000
0000
,
0100
0000
0010
0000
0000
1000
0000
0000
0010
0000
0100
0000
0010
0000
0000
0000
,
1000
0000
0100
0000
0000
0010
0000
0000
0001
0000
0010
0000
0001
0000
0000
0000
,
1000
0000
0100
0000
0000
1000
0000
0000
0001
0000
0100
0000
0010
0000
0000
0000
,
1000
0000
0100
0000
0010
0000
0000
0001
0000
0010
0000
0001
0000
0000
0000
0000
,
1001
0000
0000
0000
0000
0000
0000
0000
0010
0000
0000
0000
0100
0000
0000
1001
,
0000
0000
0010
0000
0000
1000
0000
0100
0000
0010
0000
0100
0000
0000
0000
0000
,
1000
0000
0000
0000
0000
0000
0000
0000
1001
0000
0000
0000
0001
0010
0001
0010
,
0001
0000
1000
0000
0010
0000
0000
0100
0000
0010
0000
0100
0000
0000
0000
0000
,
0010
0100
0000
0000
0000
0000
0010
0000
1000
0000
0000
0000
0100
0000
0000
0110
,
0000
0000
0100
0000
0000
1000
0001
1000
0000
0010
0000
0100
0000
0000
0000
0000
,
0010
0000
0000
0000
0000
0000
0000
0000
0110
0000
0000
0000
0100
0001
0100
0001
,
1000
0000
0100
0000
0010
0000
0000
0100
0000
0010
0000
0001
0000
0000
0000
0000
,
1000
0000
0000
0000
0000
0000
0010
0000
0100
0000
0000
0000
0010
0000
0000
1001
,
0000
0000
0010
0000
0000
1000
0001
1000
0000
0100
0000
0010
0000
0000
0000
0000
,
0002
0000
0000
0000
0003
0000
1000
0001
1000
0000
0000
0010
0100
0010
0100
0010
,
0200
0000
0000
0300
,
0010
0000
0000
1000
0001
0000
0010
0100
0010
0000
0000
0001
1000
0000
0010
0100
,
0020
0000
0000
0000
,
0000
0000
0000
0000
,
0030
0000
0000
0000
;

//---------------dance-double - M. Simmons----------------
#NOTES:
     dance-double:
     M. Simmons:
     Hard:
     8:
     0.441,0.467,0.341,0.111,0.456,332.000,43.000,14.000,0.000,0.000,6.000: // measure 1
00000000
00000000
00000000
00000000
,  // measure 2
00000000
00000000
00000000
00000000
,  // measure 3
00000000
00000000
00000000
00000000
,  // measure 4
00001000
00010000
00000000
00010000
00001000
00000000
00100000
00000000
00010000
00000000
00000000
01000000
00010000
00000000
10000000
00000000
,  // measure 5
01000000
00100000
00001000
00000000
00010000
00000000
00000100
00000000
,  // measure 6
00000010
00000001
00001000
00000000
00000010
00000000
00010000
00000000
,  // measure 7
00001000
01000000
00010000
00000000
10000000
00000000
01000000
00000000
,  // measure 8
00100000
00001000
00010000
00000000
00000100
00000000
00000010
00000000
,  // measure 9
00000100
00000000
00000000
00000100
00010000
00000000
00001000
00000000
00100000
00000000
00000000
00000000
00101000
00000000
00000000
00000000
,  // measure 10
00001000
00000000
00000000
00010000
00001000
00000000
01000000
00000000
00100000
00000000
00000000
00000000
10010000
00000000
00000000
00000000
,  // measure 11
01000000
00000000
00000000
00010000
10000000
00000000
01000000
00000000
00100000
00000000
00000000
00000000
00101000
00000000
00000000
00000000
,  // measure 12
00001000
00000000
00000000
00010000
00000010
00000000
00000100
00000000
00000001
00000000
00000000
00000000
00001100
00000000
00000000
00000000
,  // measure 13
00000200
00000000
00000000
00000000
00001000
00000000
00000000
00010000
00000000
00010000
00000000
00000000
00010300
00000000
00000000
00000000
,  // measure 14
00002000
00000000
00000000
00000000
00010000
00000000
00000000
00100000
00000000
00100000
00000000
00000000
01003000
00000000
00000000
00000000
,  // measure 15
00200000
00000000
00000000
00000000
10000000
00000000
00000000
01000000
00000000
01000000
00000000
00000000
10300000
00000000
00000000
00000000
,  // measure 16
02000000
00000000
00000000
00000000
00010000
00000000
00000000
00100000
00000000
00100000
00000000
00000000
00010000
00000000
00000000
00000000
,  // measure 17
03200000
00000000
00000000
00000000
00001000
00000000
00000000
00010000
00000000
00010000
00000000
00000000
00302000
00000000
00000000
00000000
,  // measure 18
00023000
00000000
00000000
00000000
00000100
00000000
00000000
00000010
00000000
00000010
00000000
00000000
00032000
00000000
00000000
00000000
,  // measure 19
00003200
00000000
00000000
00000000
00000010
00000000
00000000
00001000
00000000
00001000
00000000
00000000
00000302
00000000
00000000
00000000
,  // measure 20
00002003
00000000
00000000
00000000
00000100
00000000
00000000
00000010
00000000
00000010
00000000
00000000
00003002
00000000
00000000
00000000
,  // measure 21
00001003
00000100
00010000
00001000
,  // measure 22
01000000
00000000
00100000
00000000
10000000
00010000
10000000
00000000
,  // measure 23
01000000
00100000
00010000
00100000
,  // measure 24
00001000
00000000
00010000
00000000
00000100
00010000
00000100
00000000
,  // measure 25
00001000
00000000
00000010
00000000
00000000
00000100
00000000
00000010
00000000
00001000
00000000
00000001
00000000
00000000
00000000
00000000
,  // measure 26
00011000
00000000
00000000
00000000
00000000
00000000
00001000
00000000
00100000
00000000
00000000
00000000
01000000
00000000
00000000
10000000
,  // measure 27
00000000
00000000
00010000
00000000
01000000
00000000
00000000
00001000
00000000
00000100
00000000
00000010
00000000
00000000
00000000
00000000
,  // measure 28
00001001
00000000
00000000
00000000
00000000
00000000
00000010
00000000
00000100
00000000
00000000
00000000
00040000
00004000
00000000
00000000
,  // measure 29
00033000
00000000
00000000
00000000
00000000
00001000
00000000
01000000
00000000
00100000
00000000
10000000
00000000
00000000
00000000
00000000
,  // measure 30
11000000
00000000
00000000
00000000
00000000
00000000
01000000
00000000
00100000
00000000
00000000
00000000
00001000
00000000
00000000
00010000
,  // measure 31
00001000
00000000
00010000
00000000
00010100
00000000
00000000
00001000
00000000
00000010
00000000
00000001
00000010
00000000
00000000
00000000
,  // measure 32
00001000
00000100
00000000
00000000
00011000
00000000
00000000
00001000
00100000
00000000
00000000
00000000
01100000
00000000
00000000
11000000
,  // measure 33
00000000
00000000
10010000
00000000
01000000
00000000
00000000
00001000
00000000
00010000
00000000
00000010
00000000
00000000
00000000
00000100
,  // measure 34
00000001
00000100
00000000
00000000
00000000
00000000
00000010
00001000
00000010
00000000
00000000
00000100
00000001
00001000
00000100
00000010
,  // measure 35
00000001
00001000
00001100
00000000
00000100
00010000
00101000
00000000
,  // measure 36
00010000
01000000
10100000
00000000
01000000
00010000
00101000
00000000
,  // measure 37
00001000
00000000
00010000
00000000
00000010
00000000
00000100
00000000
00001000
00000000
00010000
00000000
01000000
00000000
10000000
00010000
,  // measure 38
10000000
00100000
00000000
00000000
01000000
00010000
01000000
00000000
01001000
00000000
00000000
00000000
00001000
00000000
00010000
00000000
,  // measure 39
00001000
00010000
00001000
00000000
00000000
00000000
00000000
00100000
00000000
01000000
00000000
00010000
00000000
00000000
00000000
00000000
,  // measure 40
00001000
00000100
00000000
00000000
00000000
00000000
00000010
00000000
00001010
00000000
00000000
00000000
00000101
00000000
00000000
00000011
,  // measure 41
00000000
00000000
00000100
00000000
00000000
00010000
00000000
00001000
00000000
01000000
00000000
10000000
00000000
00000000
00000000
00000000
,  // measure 42
01010000
00000000
00000000
00000000
00000000
00000000
10000000
00000000
01000000
00000000
00000000
00000000
00400000
00040000
00000000
00000000
,  // measure 43
00330000
00110000
00001000
00101000
,  // measure 44
00001000
00101000
00010000
00010100
,  // measure 45
00000100
00000110
00000100
00010100
,  // measure 46
00010000
00010010
00001000
00001010
,  // measure 47
00000001
00000010
00000001
00000000
00000000
00000100
00000010
00001000
00000000
00001100
00000000
00001100
00000000
00000000
00000000
00000100
,  // measure 48
00001000
00000000
00000000
00000000
00000100
00000000
00000000
00010000
00001000
00000000
00000000
00100000
00010000
00000000
00000000
10010000
,  // measure 49
00000000
00000000
01000000
00000000
00100000
00000000
10000000
01000000
00000000
00100000
00000000
00001000
00000000
00000000
00000000
00010000
,  // measure 50
00000100
00001000
00000000
00000000
00000000
00000000
00000000
00000010
00000100
00000000
00000000
00000000
00000001
00001000
00000001
00001000
,  // measure 51
00000100
00000000
00000000
00000000
00010000
00001000
00000000
00100000
00000000
00010000
00000000
01000000
00000000
00000000
00000000
00100000
,  // measure 52
10000000
01000000
00000000
00000000
00000000
00000000
00100000
00000000
00101000
00000000
00000000
00000000
00011000
00000000
00000000
00010100
,  // measure 53
00000000
00000000
00001000
00000000
00000000
00000100
00000010
00000100
00000000
00001010
00000000
00001010
00000000
00000000
00000000
00000000
,  // measure 54
00000010
00000100
00000000
00000000
00000000
00000000
00000001
00001000
00000100
00000000
00000000
00000000
00004000
00000040
00000000
00000000
,  // measure 55
00003030
00000000
00000000
00000000
00000010
00001000
00000000
00000100
00000000
00010100
00000000
00011000
00000000
00000000
00000000
00000000
,  // measure 56
00001000
00000000
00000000
00000000
00000000
00000000
01000000
00100000
01000000
00000000
00000000
00000000
00100000
00000000
00000000
10010000
,  // measure 57
00000000
00000000
01000000
00000000
00000000
00100000
00010000
00100000
00000000
00110000
00000000
00110000
00000000
00000000
00000000
00000000
,  // measure 58
00010100
00000000
00000000
00000000
00000000
00000000
00001000
00000000
00010000
00000000
00000000
00000000
00000100
00001000
00000010
00001000
,  // measure 59
00000200
00000000
00000000
00000000
,  // measure 60
00001300
00000010
00000000
00000100
00000010
00000000
00001000
00000001
00001000
00000100
00000000
00000010
00000001
00000000
00001000
00000010
,  // measure 61
00002000
00000000
00000000
00000000
,  // measure 62
00000000
00000000
00000000
00000000
,  // measure 63
00003000
00000000
00000000
00000000
;

//---------------dance-double - M. Simmons----------------
#NOTES:
     dance-double:
     M. Simmons:
     Medium:
     5:
     0.293,0.293,0.056,0.151,0.044:
00000000
00000000
00000000
00000000
,
00000000
00000000
00000000
00000000
,
00000000
00000000
00000000
00000000
,
01000000
00100000
10000000
01000000
,
00010000
00001000
00000100
00000010
,
00001000
00000001
00000100
00000001
,
00001000
00000100
00000010
00000001
,
00000010
00001000
00010000
00100000
,
10000000
00010000
01000000
00010000
,
10000000
01000000
00100000
00001000
,
00010000
00000010
00000100
00000010
,
00001000
00000001
00000100
00000001
,
00002000
00000100
00000010
00000001
,
00000100
00000001
00000010
00003001
,
00000002
00000100
00000010
00001003
,
00000020
00010000
00001000
00010030
,
00002000
01000000
00100000
01000000
,
00010000
00100000
01000000
00103000
,
00020000
01000000
00100000
10030000
,
20000000
01000000
00100000
30010000
,
10000000
00000000
01000000
00000000
00000000
00100000
00000000
00000000
00010000
00000000
00000000
00000000
00110000
00000000
00000000
00000000
,
00100000
00000000
00001000
00000000
00000000
00010000
00000000
00000000
00000100
00000000
00000000
00000000
00001100
00000000
00000000
00000000
,
00001000
00000000
00000001
00000000
00000000
00000100
00000000
00000000
00000010
00000000
00000000
00000000
00001010
00000000
00000000
00000000
,
00000010
00000000
00010000
00000000
00000000
00001000
00000000
00000000
00010000
00000000
00000000
00000000
00011000
00000000
00000000
00000000
,
00001000
00000000
00010000
00000000
00000000
00002000
00000000
00000000
00000000
00000000
00000000
00000000
00103000
00000000
00000000
00000000
,
01000000
00000000
00000000
00000000
10010000
00000000
00000000
00000000
01000000
00000000
00000000
00000000
00100000
00000000
00000000
00010000
,
00000000
00000000
00100000
00000000
00000000
00000000
00000000
00002000
00000000
00000000
00000000
00000000
00000000
00000000
00000000
00000000
,
00013000
00000000
00000100
00002000
,
00003010
00000000
00000000
00000000
00000100
00000000
00000000
00000020
00000000
00000000
00000000
00000000
00001030
00000000
00000000
00000000
,
00000010
00010000
00001000
01000000
,
00100000
10000000
01000000
00100000
,
00002000
00000000
00000000
00000000
00013000
00000000
00000000
00000000
00010000
00000000
00000000
00000000
00000100
00000000
00000000
00000010
,
00000000
00000001
00001000
00000000
00000010
00000000
00000100
00000000
,
00000010
00010000
00001000
00200000
,
00310000
00010000
00010000
00000000
10000000
00000000
00100000
00000000
,
01000000
01000000
01000000
00000000
00100000
00000000
10000000
00000000
,
04000000
00000000
00000000
00000000
,
13000000
00000000
00010000
01000000
00010000
00000000
00000000
00100000
,
00001000
00010000
00000100
00000010
,
00000001
00000000
00000000
00000000
00001000
00000000
00000000
00000000
00000010
00000000
00000000
00000000
00000100
00000000
00000000
00000010
,
00000000
00001000
00000100
00000000
00010000
00000000
00001000
00000000
,
01000000
00100000
10000000
01000000
,
00010000
00001000
00000100
00000010
,
00001000
00000001
00000010
00001000
,
00010000
00100000
01000000
00001000
,
00010000
00000100
00000010
00000001
,
00001000
00000100
00010000
00001000
,
01000000
00000000
00000000
00000000
00100000
00000000
00000000
00000000
10000000
00000000
00000000
00000000
01000000
00000000
00000000
00100000
,
00000000
00010000
10000000
00000000
00010000
00000000
00100000
00000000
,
00001000
00000000
00010000
00000000
00000010
00000000
00000100
00000010
,
00000100
00000010
00010000
00001000
,
01000000
00100000
10000000
01000000
,
00010000
00001000
00000100
00000010
,
00001000
00000000
00000001
00000000
00001000
00000000
00000001
00001000
,
00000002
00000010
00001000
00000100
,
00000010
00000100
00001000
00000013
,
00000200
00001000
00000010
00001300
,
00002000
00000001
00000010
00003100
,
00002200
00000000
00000000
00000000
00000000
00000000
00000000
00003300
,
00000100
00010000
00001000
01000000
,
20020000
00000000
00000000
00000000
,
00000000
00000000
30030000
00000000
;

//---------------dance-double - M. Simmons----------------
#NOTES:
     dance-double:
     M. Simmons:
     Easy:
     1:
     0.165,0.193,0.095,0.230,0.000:
00000000
00000000
00000000
00000000
,
00000000
00000000
00000000
00000000
,
00000000
00000000
00000000
00000000
,
00000100
00000000
00000010
00000000
,
00000100
00000000
00010000
00000000
,
00001000
00000000
01000000
00000000
,
00100000
00000000
10000000
00000000
,
01000000
00000000
00100000
00000000
,
00001000
00000000
00010000
00000000
,
00000010
00000000
00000100
00000000
,
00000010
00000000
00001000
00000000
,
00000001
00000000
00000100
00000000
,
00002002
00000000
00000000
00000000
,
00000000
00000000
00000000
00003003
,
00000220
00000000
00000000
00000330
,
00002020
00000000
00000000
00003030
,
00020200
00000000
00000000
00000000
,
00000000
00000000
00000000
00030300
,
00202000
00000000
00000000
00303000
,
02020000
00000000
00000000
03030000
,
10000000
00000000
01000000
00000000
,
00100000
00000000
00010000
00000000
,
01000000
00000000
00001000
00000000
,
00010000
00000000
00000100
00000000
,
00000010
00000000
00000200
00000000
,
00001300
00000000
00000001
00000000
,
00000100
00000000
00000020
00000000
,
00010030
00000000
00001000
00000000
,
01000000
00000000
00200000
00000000
,
10300000
00000000
01000000
00000000
,
00100000
00000000
00002000
00000000
,
00013000
00000000
00000100
00000000
,
00010000
00000000
00002000
00000000
,
01003000
00000000
00100000
00000000
,
10000000
10000000
01000000
01000000
,
00100000
00100000
00001000
00001000
,
00022000
00000000
00000000
00033000
,
00001000
00000000
01000000
00000000
,
00100000
00000000
10000000
00000000
,
01000000
00000000
00100000
00000000
,
00010000
00000000
00100000
00000000
,
00001000
00000000
00010000
00000000
,
00000010
00000000
00000100
00000000
,
00000001
00000000
00001000
00000000
,
00000100
00000000
00000010
00000000
,
00000001
00000000
00000010
00000000
,
00000100
00000000
00010000
00000000
,
00001000
00000000
01000000
00000000
,
00100000
00000000
10000000
00000000
,
00100000
00000000
01000000
00010000
,
01000000
00000000
00001000
00000000
,
00010000
00000000
00010000
00000000
,
00000100
00000000
00000010
00000000
,
00000001
00000000
00001000
00000000
,
00002002
00000000
00000000
00000000
,
00000000
00000000
00000000
00003003
,
00000220
00000000
00000000
00000330
,
00020020
00000000
00000000
00030030
,
00020200
00000000
00000000
00030300
,
00000100
00010000
00001000
00100000
,
00022000
00000000
00000000
00000000
,
00033000
00000000
00000000
00000000
;
