#TITLE:Over the Rave;
#SUBTITLE:;
#ARTIST:Takoyaki;
#TITLETRANSLIT:;
#SUBTITLETRANSLIT:;
#ARTISTTRANSLIT:;
#GENRE:Happy Hardcore;
#CREDIT:Sync by HellRazoR;
#BANNER:Over the Rave-bn.png;
#BACKGROUND:Over the Rave-bg.png;
#LYRICSPATH:;
#CDTITLE:;
#MUSIC:Over The Rave.ogg;
#OFFSET:-0.765;
#SAMPLESTART:84.800;
#SAMPLELENGTH:12.000;
#SELECTABLE:YES;
#DISPLAYBPM:160.000;
#BPMS:0.000=159.972;
#STOPS:;
#BGCHANGES:0.000=Over the Rave-bg.png=1.000=0=0=1=====,
16.000=In The Groove Rebirth/264_JB_HD.mpg=1.000=0=0=1=====,
32.000=In The Groove Rebirth/216_JB_HD.mpg=1.000=0=0=1=====,
48.000=In The Groove Rebirth/210_JB_HD.mpg=1.000=0=0=1=====,
64.000=In The Groove Rebirth/166_JB_HD.mpg=1.000=0=0=1===SlideLeft==,
80.000=In The Groove Rebirth/172_JB_HD.mpg=1.000=0=0=1=====,
96.000=In The Groove Rebirth/170_JB_HD.mpg=1.000=0=0=1=====,
112.000=In The Groove Rebirth/258_JB_HD.mpg=1.000=0=0=1=====,
128.000=In The Groove Rebirth/219_JB_HD.mpg=1.000=0=0=1===SlideRight==,
144.000=In The Groove Rebirth/209_JB_HD.mpg=1.000=0=0=1=====,
160.000=In The Groove Rebirth/169_JB_HD.mpg=1.000=0=0=1=====,
176.000=In The Groove Rebirth/166_JB_HD.mpg=1.000=0=0=1=====,
192.000=In The Groove Rebirth/179_JB_HD.mpg=1.000=0=0=1=====,
208.000=In The Groove Rebirth/172_JB_HD.mpg=1.000=0=0=1=====,
224.000=In The Groove Rebirth/219_JB_HD.mpg=1.000=0=0=1=====,
240.000=In The Groove Rebirth/209_JB_HD.mpg=1.000=0=0=1=====,
255.000=Over the Rave-bg.png=1.000=0=0=1=====,
256.000=In The Groove Rebirth/264_JB_HD.mpg=1.000=0=0=1=====,
272.000=In The Groove Rebirth/258_JB_HD.mpg=1.000=0=0=1=====,
288.000=In The Groove Rebirth/210_JB_HD.mpg=1.000=0=0=1=====,
304.000=In The Groove Rebirth/209_JB_HD.mpg=1.000=0=0=1=====,
324.000=Over the Rave-bg.png=1.000=0=0=1=====,
324.250=Over the Rave-bg.png=1.000=0=0=1====0^0^1^1=,
324.750=Over the Rave-bg.png=1.000=0=0=1====0^1^0^1=,
325.250=Over the Rave-bg.png=1.000=0=0=1====1^0^0^1=,
325.750=Over the Rave-bg.png=1.000=0=0=1====0^1^0^1=,
326.000=Over the Rave-bg.png=1.000=0=0=1=====,
99999=-nosongbg-=1.000=0=0=0 // don't automatically add -songbackground-
;
#BGCHANGES2:16.000=white flash=2.000=0=0=1=====,
32.000=white flash=1.000=0=0=1=====,
56.000=white flash=1.000=0=0=1=====,
60.000=white flash=1.000=0=0=1=====,
96.000=flash=1.000=0=0=1====0^1^1^1=,
112.000=white flash=1.000=0=0=1=====,
160.000=white flash=1.000=0=0=1=====,
184.000=white flash=1.000=0=0=1=====,
188.000=yellow flash=1.000=0=0=1=====,
192.000=white flash=1.000=0=0=1=====,
216.000=white flash=1.000=0=0=1=====,
220.000=white flash=1.000=0=0=1=====,
224.000=flash=1.000=0=0=1====0^1^1^1=,
256.000=yellow flash=1.000=0=0=1=====,
326.000=flash=1.000=0=0=1====0^1^1^1=,
;
#KEYSOUNDS:;

//---------------dance-single - M. Simmons----------------
#NOTES:
     dance-single:
     M. Simmons:
     Challenge:
     12:
     1.000,1.000,0.495,0.738,1.000:
0000
0000
0000
0000
,
0000
0000
0000
0000
,
0000
0000
0000
0000
,
0000
0000
0000
0000
0000
0000
1000
0010
0000
0100
0001
0000
1000
0000
0010
0000
,
0011
0100
1000
0001
0100
0010
0100
0001
,
0010
0000
0100
0000
1000
0000
1001
0000
0000
1001
0000
0000
0010
0000
0010
0000
,
1010
0010
0100
0001
0010
0100
1000
0100
,
0010
0000
0001
0000
0010
0000
0100
0000
1000
0000
0001
0000
0100
0000
0010
0000
1000
0010
1000
0000
0001
0000
1000
0000
0100
1000
0100
0000
0010
0000
0001
0000
,
1000
0000
0001
0000
1100
0000
0010
0100
0000
0010
0000
1000
0001
0000
0010
0000
,
1100
0000
0010
0000
0101
0000
0010
1000
0000
0001
0000
0010
0001
0000
1000
0000
,
1010
0000
0100
0000
1001
0000
0001
0100
0000
0001
0000
0010
0001
0000
1000
0000
,
0110
0000
1000
0000
0110
0000
0001
1000
0000
0010
0000
0100
0001
0000
0010
0000
,
2100
0000
3010
0000
0011
0000
0100
1000
0000
0001
0000
0100
0010
0000
1000
0000
,
0101
0000
0010
0000
1100
0000
0001
0100
0000
0010
0000
0100
0001
0000
0010
0000
,
0021
0000
0031
0000
0110
0000
0010
0100
0000
1000
0000
0010
0100
0000
0010
0000
,
2001
0000
0000
0000
3010
0000
0000
0000
1002
0000
0000
0000
0013
0000
0100
0000
1000
0001
1000
0000
0010
0000
0100
0000
0001
0000
0100
0000
0010
0000
1000
0000
,
0001
0000
0010
0100
0010
0001
1000
0000
1010
0000
0010
0100
0000
0001
0100
0010
,
0100
0000
0001
0010
0001
1000
0100
0010
0001
1000
0020
0000
0130
0000
0100
0000
,
0020
0000
0230
0000
0302
0000
2003
0000
3200
0000
1300
0001
0100
0010
0100
0001
,
1000
0000
0100
0010
0001
0010
0001
1000
0001
1000
0100
0010
0001
0010
0001
0010
,
0200
0000
0310
0000
0001
0000
0100
0000
0020
0000
1030
0010
0000
0100
0001
0010
,
0001
0000
1000
0100
0010
0001
0100
0010
1000
0001
0200
0000
0310
0000
1000
0000
,
0002
0000
0023
0000
2030
0000
3020
0000
0032
0000
1003
0100
1000
0001
0010
0100
,
2000
0000
3001
0100
0001
0100
0010
1000
0001
0010
0001
0010
0200
0000
0000
0000
,
2300
0000
3020
0000
0230
0000
0320
0000
0230
0000
0301
0100
0000
0010
0100
0010
,
2000
0000
3001
0010
0001
1000
0001
0010
0001
1000
0010
0000
0110
0000
1001
0000
,
0020
0000
0230
0000
0302
0000
0023
0000
0130
1000
0001
0100
0001
1000
0010
0100
,
0010
1000
0010
1000
0010
0100
0010
1000
0010
1000
0010
0100
0001
0010
0001
0000
,
0012
0000
0013
0000
2100
0000
3010
0000
1000
0000
0010
0100
0000
0001
0100
0010
,
2000
0000
3001
0010
0001
1000
0010
0100
0001
0010
0100
0000
0011
0000
1010
0000
,
0002
0000
2003
0000
3002
0000
2003
0000
3010
0100
0010
1000
0001
0010
0001
1000
,
0100
0010
0001
0010
0100
0010
0001
1000
0010
0100
0010
1000
0020
0000
0000
0000
,
0230
0000
0000
0000
0300
0000
00M0
0M00
1001
0000
0000
0000
000M
0000
0000
0000
,
1001
0000
0110
0000
0001
0001
0001
0000
,
0000
1010
0101
1010
,
2001
0000
0000
3000
1002
0000
0000
0003
,
0110
0000
1001
0000
,
0011
0001
0110
0010
0100
0100
0100
0000
,
1000
0000
0010
0000
1000
0000
0001
0000
0010
0100
0000
0100
0010
0000
0001
0000
,
1000
0010
1000
0001
0100
0001
1000
0100
0020
0032
0023
0230
2300
3001
0100
0010
,
1000
0000
0001
0000
0100
0000
0010
1000
0000
0010
0100
0000
0001
0000
1000
0000
,
0100
0000
0010
0000
0100
0000
1000
0001
0000
0100
0001
0000
1010
0000
0100
0000
,
1010
0000
0001
0000
0100
0000
0001
1000
0000
0100
0010
0000
0100
0000
1000
0000
,
0001
0010
0000
0010
0001
0000
1000
0010
0000
0100
0000
0010
1000
0000
0001
0000
,
1001
0000
0100
0000
0001
0000
1000
0100
0000
0100
1000
0000
0010
0000
0100
0000
,
0001
0000
0010
0000
0001
0000
1000
0010
0000
0100
0001
0000
1000
0000
0100
0000
,
1100
0100
0011
0001
,
1001
0000
1001
0000
0001
0101
0201
0000
,
0310
0000
1000
0000
0010
0000
0100
0001
0100
0010
1000
0001
0010
0100
1000
0100
,
0010
0001
1000
0010
0100
0001
0100
0010
1000
0001
0100
0001
1000
0100
0010
0001
,
0010
0100
0010
0001
0010
0100
1000
0001
0100
0010
1000
0001
0100
0001
1000
0100
,
0010
0001
0010
0100
1000
0001
0100
0010
1000
0010
0100
0001
1000
0100
0010
0001
,
0020
0000
0130
1000
0001
0100
0001
1000
0010
0100
0001
1000
0100
0010
0001
0010
,
0100
1000
0100
0010
0001
1000
0010
0100
0001
1000
0010
1000
0001
0010
0001
1000
,
0100
0010
0110
1000
,
1001
0000
0000
0000
1001
0000
0000
0000
0002
0203
0320
2030
3002
0000
0000
0000
,
2003
0000
3200
0000
2300
0000
3002
0000
1003
0000
0100
1000
0000
0001
0100
0001
,
2000
0000
3010
0100
0010
1000
0001
0010
0100
0010
0001
0000
1001
0000
1001
0000
,
0020
0000
0230
0000
0320
0000
2030
0000
3001
0010
0001
1000
0001
0100
0010
1000
,
0010
1000
0001
1000
0010
1000
0001
0100
0001
0100
0010
0100
0001
0100
0001
0100
,
0020
0000
2030
0000
3002
0000
0023
0000
0032
0000
0103
0001
0000
0100
0001
1000
,
0020
0000
0130
0010
1000
0001
0010
0100
0010
0001
0010
0000
1100
0000
1100
0000
,
0020
0000
0032
0000
2003
0000
3020
0000
0230
0000
0301
0100
0010
1000
0001
0100
,
0001
1000
0100
0010
0001
0010
0100
1000
0001
0000
0000
0000
1001
0000
0000
0000
,
2010
0000
3020
0000
0230
0000
0320
0000
2030
0000
3001
0010
0000
0001
1000
0001
,
1000
0000
0100
1000
0001
0010
0100
1000
0010
0100
0010
0000
1001
0000
0110
0000
,
0020
0000
0230
0000
0320
0000
2030
0000
3001
0010
0001
1000
0001
0100
0010
1000
,
0010
0100
0001
1000
0100
0010
0001
0010
0100
1000
0001
0100
0010
1000
0001
0010
,
0002
0000
2003
0000
3200
0000
2300
0000
3020
0000
0130
0010
0000
0100
0010
0100
,
0001
0000
1000
0001
0100
0001
1000
0100
0010
0001
0010
0000
1100
0000
0011
0000
,
0020
0000
0230
0000
0320
0000
0032
0000
2003
0000
3010
0100
0010
1000
0001
0100
,
0001
0100
0010
1000
0010
0100
0010
1000
0001
0100
0001
1000
0200
0000
0000
0000
,
1300
0000
0001
0000
0100
0000
0001
0000
1000
0100
0000
0100
0000
1000
0001
0000
,
0101
0000
0010
0000
1000
0000
0010
0000
0100
0001
0000
1000
0000
0001
0010
0000
,
0110
0000
0100
0000
1000
0000
0100
0000
0010
0000
0001
1000
0001
0100
0010
0100
,
0010
1000
0001
0100
0001
1000
0100
0010
0001
0010
0001
1000
0010
0100
0001
0100
,
0010
0000
1000
0000
0001
0000
0010
0000
0100
1000
0000
0100
0000
0010
0001
0000
,
1000
0000
0010
0000
0100
0000
0010
0000
1000
0001
0000
0100
0000
0001
0010
0000
,
0100
0000
1000
0000
0001
0000
0100
0000
0010
0100
0010
1000
0001
0100
0001
1000
,
0100
0010
0001
0010
0100
0010
0001
1000
0010
0100
0010
1000
0010
0100
0001
0100
,
0010
1000
0010
0100
0001
0010
0100
1000
0010
0100
0010
1000
0001
0010
1000
0010
,
0001
1000
0000
0010
0000
0100
0000
0010
1002
0000
0000
0000
0000
0000
0003
0000
;

//---------------dance-double - M. Simmons----------------
#NOTES:
     dance-double:
     M. Simmons:
     Challenge:
     12:
     1.000,0.902,0.330,0.141,1.000:
00000000
00000000
00000000
00000000
,
00000000
00000000
00000000
00000000
,
00000000
00000000
00000000
00000000
,
00000000
00000000
00000000
00000000
00000000
00000000
00000010
00010000
00000000
00001000
01000000
00000000
00001000
00000000
00010000
00000000
,
00011000
00010000
00000100
00000010
00000100
00010000
00001000
01000000
,
00010000
00000000
10000000
00000000
01000000
00000000
00110000
00000000
00000000
01010000
00000000
00000000
00010000
00000000
00100000
00000000
,
00101000
00001000
00010000
00000010
00000100
00000010
00001000
00000100
,
00000010
00000001
00000010
00000100
00010000
00000010
00010000
00000100
00001000
00000001
00000010
00000100
00010000
00000100
00010000
00001000
,
01000000
00000000
00100000
00000000
10000000
00000000
01000000
00010000
00000000
00001000
00000000
00000100
00000010
00000000
00010000
00000000
,
00000100
00000000
00010000
00000000
00100000
00000000
01000000
00010000
00000000
10000000
00000000
01000000
00010000
00000000
01000000
00000000
,
00100000
00000000
00001000
00000000
00010000
00000000
00000010
00000100
00000000
00000010
00000000
00001000
00000100
00000000
00000010
00000000
,
00000100
00000000
00010000
00000000
00000001
00000000
00000100
00000010
00000000
00010000
00000000
00000100
00001000
00000000
00000010
00000000
,
00010010
00000000
00010000
00000000
00001000
00000000
01000000
00001000
00000000
00100000
00000000
01000000
00010000
00000000
00001000
00000000
,
01000000
00000000
00100000
00000000
00010000
00000000
00001000
00010000
00000000
00000010
00000000
00010000
00001000
00000000
00010000
00000000
,
00010100
00000000
00000010
00000000
00000001
00000000
00000100
00000001
00000000
00000010
00000000
00000100
00000001
00000000
00000100
00000000
,
00010000
00000100
00010000
00001000
00100000
01000000
00100000
00010000
10000000
00100000
01000000
00001000
00100000
01000000
00100000
00001000
,
00020000
00000000
00030100
00010000
00000000
00000000
00001000
00000000
00021000
00000000
00030010
00010000
00000000
00000100
00000010
00000001
,
00001000
00000000
00000010
00010000
00000100
00000010
00000001
00001000
00000010
00000100
00000010
00000000
00001010
00000000
00001100
00000000
,
00010000
00000000
00001000
00000000
00100000
00000000
01000000
00000000
10000000
00100000
01000000
00100000
10000000
01000000
00100000
00010000
,
01000000
00100000
01000000
00010000
01000000
00100000
01000000
00001000
00010000
00000100
00000010
00000100
00000010
00000001
00000100
00000010
,
00010000
00000000
00001000
00000000
00010000
00000000
00000100
00000000
00000010
00000000
00000100
00010000
00000000
00001000
01000000
00100000
,
02000000
00000000
03010000
00100000
01000000
00100000
00010000
10000000
00100000
10000000
01000000
00000000
01100000
00000000
10100000
00000000
,
00001000
00000000
00010000
00000000
00000010
00000000
00000100
00000000
00000001
00000000
00000010
00000100
00001000
00000010
00010000
00000001
,
00000010
00000100
00000010
00000001
00010000
00000010
00000100
00000001
00010000
00000100
00010000
00001000
00010000
00001000
00100000
01000000
,
00100000
00000000
01000000
00000000
10000000
00000000
00010000
00000000
01000000
00000000
00100000
00010000
00000000
00001000
00010000
00001000
,
00010000
00000000
00000100
00001000
00000010
00010000
00000100
00010000
00000010
00000100
00000001
00000000
00001010
00000000
00001100
00000000
,
00000100
00000000
00010000
00000000
00001000
00000000
01000000
00000000
00100000
00000000
00010000
00001000
00100000
00001000
00010000
00000100
,
00000010
00000100
00010000
00001000
01000000
00001000
00010000
00001000
00010000
00001000
00100000
01000000
00100000
00001000
00010000
00000100
,
00001000
00000000
00000010
00000000
00000100
00000000
00000001
00000000
00001000
00000000
00000100
00000010
00000000
00001000
00010000
00001000
,
00020000
00000000
00031000
01000000
00001000
00010000
00001000
00010000
00000100
00000010
00000001
00000000
00001100
00000000
00000011
00000000
,
00000001
00000000
00001000
00000000
00000100
00000000
00010000
00000000
00001000
00100000
00010000
01000000
00100000
10000000
00010000
01000000
,
00010000
10000000
01000000
00100000
00001000
01000000
00001000
00100000
01000000
00100000
00001000
00100000
00002000
00000000
00000000
00000000
,
01003000
00000000
00010000
00000000
00100000
00000000
01000000
00000000
00010000
00001000
00000000
00000100
00000000
00000010
00010000
00000000
,
00000100
00000000
00001000
00000000
00000010
00000000
00000100
00000000
00000001
00001000
00000000
00000100
00000000
00010000
00000010
00000000
,
00010000
00000000
00001000
00000000
01000000
00000000
00100000
00000000
10000000
01000000
00000000
10000000
00000000
00010000
00100000
00000000
,
00100000
00001000
01000000
00001000
00010000
00000000
00010000
00000100
00000000
00000010
00000000
00000001
00001000
00000000
00000010
00000000
,
00010010
00000000
00000010
00000000
00100000
00000000
00010000
00000000
10000000
01000000
00000000
00100000
00000000
00001000
01000000
00000000
,
00001000
00000000
00010000
00000000
00000100
00000000
00000010
00000000
00000001
00000100
00000000
00001000
00000000
00010000
00000100
00000000
,
00010000
00000000
00001000
00000000
01000000
00000000
00001000
00000000
00010000
00000100
00010000
00000010
00000000
00010000
00001000
00000000
,
00100000
00010000
01000000
00100000
01000000
00001000
00010000
00000100
00000020
00000032
00020003
00030020
00000230
00000000
00000000
00000000
,
00000310
00000000
00000100
00000000
00000001
00000000
00001000
00000100
00000000
00010000
00000010
00000000
00010000
00000000
00001000
00000000
,
01000000
00000000
00100000
00000000
10000000
00000000
01000000
00010000
00000000
01000000
00100000
00000000
00001000
00000000
01000000
00000000
,
01001000
00000000
00001000
00000000
00010000
00000000
00000100
00000010
00000000
00000100
00010000
00000000
00000010
00000000
00000100
00000000
,
00000001
00001000
00000000
00000001
00001000
00000000
00000100
00010000
00000000
00001000
00000000
01000000
00100000
00000000
00010000
00000000
,
00011000
00001000
00100000
01000000
00100000
00001000
00010000
00000010
,
00000100
00000000
00000001
00000000
00001000
00000000
00001100
00000000
00000000
00010010
00000000
00000000
00001000
00000000
00100000
00000000
,
00101000
00001000
01000000
00000000
00110000
00100000
00000100
00000000
,
00100010
00000000
01000100
00000000
00011000
00001100
00011000
00000000
,
00010000
00000000
00000100
00000000
00000010
00000000
00000001
00001000
00000000
00000010
00000000
00000100
00000010
00000000
00010000
00000000
,
00000100
00000000
00010000
00000000
00001000
00000000
01000000
00100000
00000000
00010000
00000000
00001000
00100000
00000000
01000000
00000000
,
00010000
00000000
00001000
00000000
10000000
00000000
00100000
10000000
00000000
01000000
00000000
10000000
00010000
00000000
01000000
00000000
,
00100000
01000000
00000000
00100000
01000000
00000000
00100000
10000000
00000000
01000000
00000000
10000000
00100000
00000000
00010000
00000000
,
00011000
00000000
00010000
00000000
00000100
00000000
00000010
00000001
00000000
00001000
00000000
00000010
00010000
00000000
00000100
00000000
,
00010000
00000000
00001000
00000000
01000000
00000000
00100000
00010000
00000000
00100000
00000000
10000000
01000000
00000000
10000000
00000000
,
10010000
01100000
00011000
00100010
,
00001000
00000001
00000010
00000100
00010000
00000010
00000100
00000001
00000200
00000320
00020030
00032000
00023000
00000000
00000000
00000000
,
00031000
00000000
00100000
00000000
00010000
00000000
10000000
00000000
01000000
00000000
00100000
01000000
00000000
10000000
00100000
01000000
,
00001000
00000000
00010000
00000100
00010000
00000010
00000100
00000001
00001000
00000100
00010000
00000000
00010010
00000000
00001010
00000000
,
00000001
00000000
00000100
00000000
00001000
00000000
00010000
00000000
01000000
10000000
00010000
01000000
00010000
01000000
00100000
10000000
,
01000000
00100000
00001000
00100000
01000000
00100000
00001000
00010000
00001000
00100000
01000000
00100000
00010000
00100000
01000000
00100000
,
00001000
00000000
00010000
00000000
00000010
00000000
00000100
00000000
00000001
00000000
00001000
00000100
00000000
00010000
00000010
00000100
,
00000010
00000000
00010000
00001000
01000000
00001000
00100000
01000000
00100000
00010000
10000000
00000000
01010000
00000000
00110000
00000000
,
00100000
00000000
00001000
00000000
00010000
00000000
00000010
00000000
00000100
00000001
00001000
00000100
00010000
00001000
00100000
01000000
,
10000000
00100000
01000000
00001000
00100000
00001000
10000000
00100000
01000000
00000000
00000000
00000000
00011000
00000000
00000000
00000000
,
00000100
00000000
01000000
00000000
00001000
00000000
00100000
00000000
01000000
00000000
10000000
00100000
00000000
01000000
00010000
00100000
,
01000000
00000000
00100000
00001000
00010000
00000010
00000100
00000001
00001000
00000100
00010000
00000000
00010010
00000000
00010100
00000000
,
00000100
00000000
00010000
00000000
00001000
00000000
01000000
00000000
00100000
00000000
00010000
00001000
00010000
00000100
00000010
00000001
,
00001000
00000010
00010000
00001000
00100000
01000000
00100000
00001000
01000000
00100000
10000000
00010000
10000000
01000000
10000000
00100000
,
01000000
00000000
00001000
00000000
00100000
00000000
01000000
00000000
00100000
00000000
00001000
00010000
00000000
00000100
00010000
00000010
,
00000100
00000000
00000001
00001000
00000100
00010000
00000010
00001000
00000100
00000010
00000001
00000000
00001010
00000000
00001100
00000000
,
00000100
00000000
00010000
00000000
00001000
00000000
01000000
00000000
00100000
00000000
01000000
00001000
00100000
01000000
00100000
00010000
,
00100000
01000000
00100000
00001000
00100000
01000000
10000000
01000000
00100000
01000000
10000000
00100000
02000000
00000000
00000000
00000000
,
03010000
00000000
00010000
00000000
01000000
00000000
01000000
00000000
00100000
10000000
00000000
01000000
00000000
10000000
00010000
00000000
,
00100000
00000000
01000000
00000000
10000000
00000000
01000000
00000000
10000000
00010000
00000000
01000000
00000000
00001000
00100000
00000000
,
01000000
00000000
00100000
00000000
01000000
00000000
00100000
00000000
00001000
00000000
00010000
00000100
00010000
00000010
00000100
00000001
,
00001000
00000100
00000010
00000001
00000010
00000100
00010000
00000010
00000100
00000001
00001000
00000100
00010000
00001000
00010000
00000100
,
00010000
00000000
00001000
00000000
01000000
00000000
00100000
00000000
01000000
00001000
00000000
01000000
00000000
00100000
10000000
00000000
,
01000000
00000000
00100000
00000000
00001000
00000000
00010000
00000000
00000010
00000100
00000000
00000001
00000000
00001000
00000100
00000000
,
00010000
00000000
00000010
00000000
00010000
00000000
00001000
00000000
01000000
00000000
00010000
10000000
01000000
00100000
00010000
00100000
,
01000000
00100000
00001000
00010000
00000010
00000100
00000001
00001000
00000100
00010000
00000010
00010000
00001000
00100000
01000000
10000000
,
00100000
01000000
00010000
00100000
01000000
00100000
00001000
00010000
00000010
00010000
00001000
00100000
00001000
00010000
00000100
00010000
,
00001000
01000000
00000000
00000100
00000000
00010000
00000000
00000010
00020020
00000000
00000000
00000000
00000000
00000000
00000000
00000000
,
00030030
00000000
00000000
00000000
;

//---------------dance-double - M. Simmons----------------
#NOTES:
     dance-double:
     M. Simmons:
     Hard:
     9:
     0.605,0.708,0.338,0.031,0.212:
00000000
00000000
00000000
00000000
,
00000000
00000000
00000000
00000000
,
00000000
00000000
00000000
00000000
,
00000000
00000000
00000000
00000000
00000000
00000000
10000000
01000000
00000000
00100000
00010000
00000000
10000000
00000000
10000000
00000000
,
10010000
00010000
00100000
00000000
01000000
00000000
00100000
00000000
,
00001000
00000000
00000000
00000000
01000000
00000000
00010000
00000000
00000000
00100000
00000000
00000000
00001000
00000000
00001000
00000000
,
00011000
00001000
00010000
00000000
00000100
00000000
00000010
00000000
,
00000001
00000010
00000001
00000010
00000001
00000010
00000001
00000010
00000100
00000010
00000100
00000010
00000100
00000010
00000100
00000010
,
00000100
00010000
00000010
00000100
00000010
00010000
00000100
00010000
,
00001000
01000000
00100000
00010000
00100000
10000000
01000000
00100000
,
00010000
10000000
00100000
01000000
00001000
00010000
00000100
00010000
,
00000010
00000100
00001000
00000100
00000010
00010000
00000100
00000010
,
00000001
00000010
00000100
00010000
00001000
00100000
00001000
01000000
,
00100000
01000000
10000000
01000000
00010000
10000000
00010000
01000000
,
01001000
00000000
00001000
00010000
00011000
00000000
00010000
00000100
,
00010100
00000000
00010010
00000000
00010000
00001000
00000100
00000001
,
00000010
00000000
00000100
00001000
00000000
00000000
00001000
00000000
00000010
00000000
00010000
00000010
00000000
00000000
00010000
00000000
,
00001000
00000000
00100000
00001000
00100000
00000000
01000000
00000000
10000000
00000000
00010000
00000000
01010000
00000000
01010000
00000000
,
00010000
00100000
01000000
00100000
00001000
01000000
00001000
00010000
,
00000400
00000000
00004300
00000000
,
00003001
00000010
00000100
00000000
00010000
00001000
01000000
00000000
,
00010000
00100000
01000000
00100000
00001000
00010000
00011000
00011000
,
00010000
00000100
00000010
00000001
00000100
00001000
00010000
00001000
,
04000000
00000000
03400000
00300000
,
10000000
00000000
01000000
00000000
00100000
00000000
00001000
00000000
01000000
00000000
00010000
00100000
00000000
00000000
00010000
00000000
,
01000000
00001000
00010000
00000100
00000010
00000001
00001000
00001000
,
00000010
00000100
00000001
00000100
00000010
00010000
00000100
00000010
,
00000400
00000000
00040300
00000000
,
00031000
00000000
01000000
00000000
00100000
00000000
00010000
00000000
00001000
00000000
00100000
01000000
00000000
00000000
00100000
00000000
,
00010000
00000000
10000000
00100000
10000000
00000000
00010000
00000000
00100000
00000000
01000000
00000000
00100000
00000000
00100000
00000000
,
00001000
00010000
00000010
00000100
00000010
00010000
00000100
00010000
,
00004000
00000000
00043000
00030000
,
00011000
00000000
00101000
00000000
,
00001100
00000000
00011000
00000000
00100000
00010000
00100000
00000000
,
00000000
00110000
11000000
10010000
,
02001000
00000000
00000000
00000000
20000000
00000000
00000000
33000000
,
11000000
00000000
00101000
00000000
,
00010100
00000000
00000011
00000000
00010000
00000100
00010000
00000000
,
00000000
00011000
00001100
00011000
,
00000110
00000000
01100000
00000000
,
10010000
00010000
00100000
01000000
,
00100000
00000000
00000000
00000000
00001000
00000000
00010000
00000000
00000000
00000100
00000000
00000000
00010000
00000000
00010000
00000000
,
00010010
00000010
00000100
00000001
,
00001000
00000100
00000000
00001000
00000100
00000000
00001000
00000100
00000000
00001000
00000000
00000100
00001000
00000000
00000100
00000000
,
00010100
00000100
00010000
00001000
,
01000000
00000000
00000000
00000000
00100000
00000000
00010000
00000000
00000000
00001000
00000000
00000000
00010000
00000000
00000010
00000000
,
00010010
00000000
01001000
00000000
,
00110000
00000000
00011000
00000000
00001100
00000100
00000110
00000000
,
00000001
00000010
00000001
00000000
00001000
00000010
00010000
00000000
,
00001000
01000000
00100000
00000000
10000000
01000000
10000000
01000000
,
10000000
01000000
00100000
00000000
00010000
01000000
00100000
00000000
,
01000000
00010000
00000000
01000000
00010000
00000000
01000000
00010000
00000000
01000000
00000000
00010000
01000000
00000000
00010000
00000000
,
00110000
00100000
00001000
00000000
00010000
00000100
00010000
00000000
,
00001000
01000000
00100000
00000000
01000000
00001000
01000000
00001000
,
01000000
00000000
00011000
00000000
,
00000110
00000000
00001001
00000000
00000110
00000010
00001010
00000000
,
00000010
00000000
00010000
00000000
00001000
00000000
00100000
00000000
00001000
00000000
00100000
01000000
00000000
00000000
00100000
00000000
,
00010000
00000000
10000000
00100000
10000000
00000000
01000000
00000000
00100000
00000000
00001000
00000000
01000000
00000000
01000000
00000000
,
00100000
00010000
00001000
00000100
00000010
00010000
00000100
00000010
,
00000400
00000000
00040300
00000000
,
00031000
00000000
01000000
00000000
00100000
00000000
00010000
00000000
00100000
00000000
10000000
01000000
00000000
00000000
00100000
00000000
,
01000000
10000000
00001000
01000000
00100000
00010000
00001000
00001000
,
00010000
01000000
00100000
00001000
00010000
00000010
00000100
00000010
,
00040000
00000000
00030100
00010100
,
00001000
00000000
01000000
00000000
00100000
00000000
00010000
00000000
00001000
00000000
00100000
01000000
00000000
00000000
00100000
00000000
,
01000000
00000000
10000000
00010000
10000000
00000000
00100000
00000000
01000000
00010000
01000000
00000000
00100000
00000000
00100000
00000000
,
01000000
00001000
00100000
01000000
00100000
00001000
00010000
00000010
,
00040000
00000000
00000000
00000000
00000400
00000000
00000000
00030300
,
00010000
00000000
00001000
00000000
00010000
00000000
00000010
00000000
00000100
00000000
00000001
00000010
00000000
00000000
00000100
00000000
,
00000001
00000000
00000100
00001000
00000010
00000000
00000100
00000000
00000001
00000000
00000010
00000001
00001000
00000000
00001000
00000000
,
00000100
00010000
00001000
01000000
00100000
00010000
00001000
00100000
,
04000000
00000000
43000000
30000000
,
10000000
00000000
00010000
00000000
01000000
00000000
00001000
00000000
00100000
01000000
00000000
00100000
00000000
00001000
01000000
00000000
,
00010000
00000000
00100000
00000000
00001000
00000000
00010000
00000000
00000010
00000100
00000000
00000001
00000000
00001000
00000100
00000000
,
00010000
00000010
00001000
00000100
00010000
00000010
00000100
00000001
,
00000040
00000000
00000034
00000000
,
00001003
00000000
00000100
00000000
00010000
00000000
00001000
00000000
01000000
00100000
00000000
00010000
00000000
00100000
01000000
00000000
,
00001000
00000000
01000000
00000000
00010000
00000000
00100000
00000000
00001000
00010000
00000000
00000010
00000000
00010000
00001000
00000000
,
01000000
00100000
01000000
00010000
00100000
00001000
00001000
00000100
,
00000040
00000000
00004030
00000000
,
00003400
00000000
00040000
00000300
00004000
00030000
04000000
03003000
,
00001000
01000000
00000000
00010000
00000000
00100000
00000000
02000000
00200000
00000000
00000000
00000000
00000000
00000000
00000000
00000000
,
03300000
00000000
00000000
00000000
;

//---------------dance-double - M. Simmons----------------
#NOTES:
     dance-double:
     M. Simmons:
     Easy:
     5:
     0.454,0.515,0.416,0.408,0.039:
00000000
00000000
00000000
00000000
,
00000000
00000000
00000000
00000000
,
00000000
00000000
00000000
00000000
,
00000000
00000000
00000000
00000000
,
00001000
00000000
00000000
00000000
,
00000000
00000000
00000000
00000000
00000000
00000000
00010000
00000000
00000000
00010000
00000000
00000000
00010000
00000000
00001000
00000000
,
00010000
00000000
00000000
00000000
,
00000000
00000000
00000000
00000000
00000000
00000000
00001000
00000000
00000000
00010000
00000000
00000000
00001000
00000000
00010000
00000000
,
00001000
00010000
00000100
00010000
,
00000010
00000100
00000001
00001000
,
00000100
00010000
00001000
01000000
,
00100000
10000000
01000000
00100000
,
01100000
00100000
00001000
00010000
,
00000010
00000100
00000001
00001000
,
00001100
00000100
00010100
00010000
,
00011000
00011000
00011000
00011000
,
00002000
00000000
02003000
00000000
,
03100000
00000000
10000000
00000000
01000000
10000000
01000000
10000000
,
01000000
00100000
00001000
01000000
,
02002000
00000000
00000000
03003000
00022000
00000000
00000000
00033000
,
00010000
00000100
00000010
00000001
,
00001000
00000000
00000010
00000000
00010000
00000010
00010000
00000010
,
00010000
00000100
00010000
00001000
,
00022000
00000000
00000000
00033000
00202000
00000000
00000000
00303000
,
00001000
01000000
00100000
10000000
,
01000000
00000000
00100000
00000000
01000000
00100000
01000000
00100000
,
01000000
00100000
00001000
00010000
,
00020020
00000000
00000000
00030030
00002020
00000000
00000000
00003030
,
00000010
00000100
00000001
00001000
,
00000100
00000000
00000010
00000000
00000100
00010000
00000100
00010000
,
00000100
00010000
00001000
01000000
,
01010000
00000000
00110000
00000000
,
01100000
00000000
01001000
00000000
,
00001000
00000000
00001000
00000000
00100000
00001000
00100000
00000000
,
01000000
00100000
00001000
01000000
,
01001000
00000000
00011000
00000000
,
00010100
00000000
00010010
00000000
,
00000010
00000000
00000100
00000000
00000001
00000100
00000001
00000000
,
00001000
00000100
00000010
00000001
,
00001001
00000000
00000110
00000000
,
00010010
00000010
00010000
00001000
,
00100000
00000000
00000000
00000000
01000000
00000000
00100000
00000000
00000000
00100000
00000000
00000000
00100000
00000000
01000000
00000000
,
00100000
01000000
10000000
00010000
,
02000000
00000000
00000000
03002000
00000000
00000000
00023000
00000000
00000000
00030200
00000000
00000000
00010300
00000000
00001000
00000000
,
00011000
00010000
00000100
00000010
,
00000100
00000000
00000000
00000000
00010000
00000000
00001000
00000000
00000000
00001000
00000000
00000000
00010000
00000000
00001000
00000000
,
00011000
00000000
00101000
00000000
,
01001000
01010000
01100000
10100000
,
10010000
00010000
00100000
01000000
,
00100000
00000000
00000000
00000000
00001000
00000000
00010000
00000000
00000000
00010000
00000000
00000000
00001000
00000000
00010000
00000000
,
00001000
00010000
00000100
00000010
,
00000002
00000000
00000000
00002003
00000000
00000000
00003002
00000000
00000000
00002003
00000000
00000000
00003010
00000000
00010000
00000000
,
00010010
00000010
00010000
00001000
,
00100000
00000000
00000000
00000000
00010000
00000000
01000000
00000000
00000000
01000000
00000000
00000000
00100000
00000000
01000000
00000000
,
00100000
00000000
01010000
00000000
,
00101000
00000000
00101000
00000000
00010000
00001000
00010000
00000000
,
00001000
00010000
00000100
00000010
,
00000001
00000000
00001000
00000000
00000010
00010000
00000010
00010000
,
00000010
00000100
00000010
00001000
,
00002200
00000000
00000000
00003300
00020200
00000000
00000000
00030300
,
00000100
00010000
00001000
01000000
,
00100000
00000000
10000000
00000000
01000000
00100000
01000000
00100000
,
01000000
00100000
00001000
00010000
,
00020200
00000000
00000000
00030300
00020020
00000000
00000000
00030030
,
00000010
00000100
00000001
00000010
,
00000100
00000000
00010000
00000000
00000010
00010000
00000010
00010000
,
00001000
00010000
00001000
01000000
,
02002000
00000000
00000000
03003000
02020000
00000000
00000000
03030000
,
00010000
10000000
01000000
00100000
,
00001000
00000000
01000000
00000000
00100000
00010000
00100000
00010000
,
00100000
01000000
00001000
00010000
,
00020200
00000000
00000000
00030300
00022000
00000000
00000000
00033000
,
00001000
00010000
00000100
00000010
,
00000001
00001000
00000010
00000100
,
00000010
00010000
00000100
00010000
,
00022000
00000000
00000000
00033000
00202000
00000000
00000000
00303000
,
00001000
01000000
00100000
01000000
,
00010000
10000000
01000000
00100000
,
00010000
10000000
01000000
10000000
,
20020000
00000000
00000000
30030000
00220000
00000000
00000000
00330000
,
00202000
00000000
00000000
00303000
00022000
00000000
00000000
00033000
,
00011000
00010100
00022000
00000000
,
00033000
00000000
00000000
00000000
;

//---------------dance-double - M. Simmons----------------
#NOTES:
     dance-double:
     M. Simmons:
     Medium:
     7:
     0.543,0.580,0.408,0.031,0.090:
00000000
00000000
00000000
00000000
,
00000000
00000000
00000000
00000000
,
00000000
00000000
00000000
00000000
,
00000000
00000000
00000000
00000000
,
00011000
00001000
01000000
00100000
,
10000000
00000000
00000000
00000000
01000000
00000000
00100000
00000000
00000000
00010000
00000000
00000000
00100000
00000000
00001000
00000000
,
00010000
00000100
00000010
00000001
,
00001000
00000000
00000010
00000000
00000100
00000000
00000010
00000000
00001000
00000000
00000100
00000000
00010000
00000100
00010000
00000100
,
00010000
00001000
00010000
00000000
00001000
00000000
01000000
00000000
,
00010000
01000000
00010000
00000000
10000000
00000000
01000000
00000000
,
00100000
01000000
00100000
00000000
00001000
00000000
01000000
00000000
,
00001000
00010000
00000100
00000000
00000010
00000000
00000001
00000000
,
00001001
00000001
00001000
00000000
00000010
00000000
00010000
00000000
,
00000100
00010000
00000010
00000000
00010000
00000000
00001000
00000000
,
00011000
00001000
00010000
00000000
00011000
00010000
00001000
00000000
,
00101000
00000000
00110000
00000000
00010000
01000000
00100000
10000000
,
01000000
00100000
00001000
01000000
00001000
00000000
00010000
00000000
,
00000100
00010000
00000010
00000100
00000010
00000000
00001000
00000000
,
00000100
00001000
00000100
00010000
00000010
00000000
00010000
00000000
,
00010010
00000000
00010100
00000000
,
00001000
00100000
00001000
01000000
00001000
00000000
00100000
00000000
,
00010000
10000000
00100000
01000000
00010000
00000000
10000000
00000000
,
01000000
00100000
00001000
00010000
00000010
00000000
00000100
00000000
,
00001001
00000001
00001010
00000010
,
00001000
00000100
00001000
00000000
00000010
00010000
00000010
00000000
,
00010000
00000100
00010000
00001000
00010000
00000000
00011000
00000000
,
00001000
01000000
00100000
00000000
01000000
00001000
00100000
00000000
,
01000000
01000000
11000000
10000000
,
10000000
00010000
01000000
00000000
00010000
00100000
01000000
00000000
,
00100000
00001000
00010000
00000010
00010000
00000100
00010000
00000000
,
00000010
00000100
00000001
00000000
00001000
00000100
00000010
00000000
,
00001001
00000001
00001000
00000001
00001000
00000000
00001001
00000000
,
00001001
00000000
00000110
00000000
,
00010010
00000000
00010010
00000000
00000010
00010000
00000010
00000000
,
00010000
00001000
00100000
00010000
,
10010000
00000000
01100000
00000000
,
01010000
00000000
00110000
00000000
,
00101000
00000000
00011000
00000000
00010000
00000100
00010000
00000000
,
00001000
00010000
00000010
00000100
,
00000110
00000000
00001001
00000000
,
00001001
00000001
00000010
00000100
,
00010000
00000000
00000000
00000000
00000010
00000000
00010000
00000000
00000000
00000100
00000000
00000000
00010000
00000000
00001000
00000000
,
00011000
00001000
00100000
01000000
,
20000000
00000000
00000000
00010000
00000000
00000000
00010000
00000000
00000000
00010000
00000000
00000000
00100000
00000000
00100000
00000000
,
30100000
01000000
00001000
00100000
,
01000000
00000000
00000000
00000000
00100000
00000000
00001000
00000000
00000000
00010000
00000000
00000000
00000100
00000000
00010000
00000000
,
00010010
00000000
00001100
00000000
,
00010010
00000000
00000110
00000000
00000001
00000001
00000001
00000000
,
00001000
00000100
00010000
00000010
00010000
00000100
00010000
00001000
,
00010000
00001000
00100000
00001000
00010000
00001000
01000000
00001000
,
00100000
00010000
00100000
01000000
00100000
00010000
10000000
00100000
,
01000000
00100000
10000000
00010000
01000000
00010000
10000000
00100000
,
01000000
00001000
00010000
00000100
00010000
00001000
00010000
00000010
,
00010000
00000100
00010000
00001000
00010000
00000010
00000100
00000001
,
00001001
00000000
00000110
00000000
,
00010010
00000000
00010010
00000000
00010000
00000100
00010000
00000000
,
00001000
00100000
00010000
01000000
00001000
00000000
00100000
00000000
,
01000000
10000000
00010000
01000000
00100000
01000000
00100000
01000000
,
00100000
01000000
00001000
00010000
00000100
00000000
00010000
00000000
,
00011000
00000000
00011000
00000000
,
00010000
00000010
00000100
00000010
00001000
00000000
00000001
00000000
,
00000010
00000100
00000010
00000001
00001000
00000001
00001000
00000001
,
00000100
00000010
00010000
00000010
00010000
00000000
00000100
00000000
,
00010100
00000000
00021000
00001000
,
00031000
01000000
00001000
00100000
01000000
00000000
00100000
00000000
,
01000000
10000000
00010000
01000000
00100000
01000000
00001000
01000000
,
00001000
00010000
00000100
00010000
00000010
00000000
00010000
00000000
,
00010100
00000000
00011000
00000000
,
00001000
01000000
00010000
00100000
01000000
00000000
00100000
00000000
,
00001000
00010000
00000100
00000010
00000001
00001000
00000010
00001000
,
00000010
00010000
00000100
00010000
00001000
00000000
00100000
00000000
,
00101000
00000000
01010000
00000000
,
10000000
00000000
01000000
00000000
10000000
00000000
00010000
00000000
01000000
00010000
00000000
01000000
00000000
00010000
01000000
00000000
,
00001000
00000000
00010000
00000000
00000100
00000000
00010000
00000000
00000010
00010000
00000000
00000010
00000000
00010000
00000010
00000000
,
00000100
00000001
00001000
00000100
00000010
00000100
00010000
00000010
,
00010010
00000000
00010100
00000000
,
00000100
00000000
00010000
00000000
00001000
00000000
01000000
00000000
00100000
10000000
00000000
00100000
00000000
10000000
00100000
00000000
,
10000000
00000000
00010000
00000000
01000000
00000000
00001000
00000000
00010000
00000100
00000000
00010000
00000000
00000100
00010000
00000000
,
00000010
00000100
00000001
00001000
00000100
00000010
00000100
00010000
,
00010010
00000000
00010100
00000000
,
00011000
00101000
00011000
00010100
,
00010000
00001000
00000000
00010000
00000000
00001000
00000000
00020000
00002000
00000000
00000000
00000000
00000000
00000000
00000000
00000000
,
00033000
00000000
00000000
00000000
;

//---------------dance-single - D. Bernardone----------------
#NOTES:
     dance-single:
     D. Bernardone:
     Beginner:
     1:
     0.121,0.384,0.094,0.000,0.000:
0000
0000
0000
0000
,
0000
0000
0000
0000
,
0000
0000
0000
0000
,
0000
0000
0000
0000
,
1001
0000
0000
0000
,
0000
0000
1000
0000
,
0001
0000
0000
0000
,
0000
0000
0010
0000
,
0100
0000
0000
0000
,
0100
0000
0000
0000
,
0100
0000
0000
0000
,
0100
0000
0000
0000
,
0110
0000
0000
0000
,
0010
0000
0000
0000
,
0010
0000
0000
0000
,
0100
0000
0010
0000
,
0001
0000
0000
0000
,
1000
0000
0000
0000
,
0010
0000
0000
0000
,
0100
0000
0000
0000
,
0001
0000
0001
0000
,
0001
0000
0001
0000
,
1000
0000
0000
0000
,
0100
0000
0000
0000
,
0010
0000
0000
0000
,
0001
0000
0000
0000
,
1000
0000
0000
0000
,
0010
0000
0000
0000
,
0100
0000
0100
0000
,
0100
0000
0100
0000
,
0001
0000
0000
0000
,
0010
0000
0000
0000
,
0100
0000
1000
0000
,
0001
0000
0000
0000
,
0000
0000
0100
0000
,
0100
0000
0100
0000
,
0001
0000
0010
0000
,
0100
0000
0000
0000
,
0000
0000
1000
0000
,
1000
0000
0010
0000
,
0100
0000
0000
0000
,
0000
0000
0000
0000
,
0000
0000
0000
0000
,
0000
0000
0000
0000
,
1001
0000
0000
0000
,
0000
0000
0000
0000
,
0110
0000
0000
0000
,
0110
0000
0000
0000
,
1001
0000
0000
0000
,
0000
0000
1000
0000
,
0100
0000
0000
0000
,
0010
0000
0000
0000
,
0001
0000
0000
0000
,
0000
0000
1000
0000
,
0010
0000
0010
0000
,
0100
0000
0000
0000
,
0001
0000
0000
0000
,
1000
0000
0000
0000
,
0100
0000
0000
0000
,
0010
0000
0001
0000
,
0100
0000
0000
0000
,
0010
0000
0000
0000
,
1000
0000
0000
0000
,
0100
0000
0010
0000
,
0001
0000
0001
0000
,
0000
1000
0000
0000
,
0000
1000
0000
0010
,
0000
0000
0100
0000
,
0001
0000
0001
0000
,
0000
1000
0000
0000
,
0000
0010
0000
0000
,
0100
0000
0001
0000
,
1000
0000
0000
0000
,
1000
0000
0000
0000
,
0100
0000
0010
0000
,
0001
0000
0000
0000
,
0100
0000
0000
0000
,
0100
0000
0000
0000
,
0010
0000
1000
0000
,
0001
0000
0000
0000
,
1001
1001
1001
1001
,
1001
0000
0110
0000
;

//---------------dance-single - D. Bernardone----------------
#NOTES:
     dance-single:
     D. Bernardone:
     Easy:
     5:
     0.342,0.448,0.243,0.000,0.000:
0000
0000
0000
0000
,
0000
0000
0000
0000
,
0000
0000
0000
0000
,
0000
0000
0000
0000
,
1010
0000
0000
0000
,
0000
0000
0010
0010
,
0100
0000
0000
0000
,
0000
0000
0010
1000
,
0001
1000
0001
0000
1000
0000
0001
0000
,
0010
0001
0010
0000
0001
0000
0010
0000
,
0100
0010
0100
0000
0010
0000
0100
0000
,
1000
0100
1000
0000
0100
0000
0010
0000
,
0100
0010
0100
0000
1000
0000
0001
0000
,
0100
0001
0100
0000
0001
0000
0010
0000
,
0110
0001
1001
0100
,
0110
1001
0110
1001
,
0100
0001
0100
0000
,
0010
0100
1000
0100
,
0001
0010
0100
0010
,
0001
0000
0100
0000
,
0010
0010
0010
0100
,
0001
1000
0100
0010
,
0001
1000
0100
1000
,
0010
0000
1001
0000
,
1000
1000
0100
0000
,
0010
0001
0100
0010
,
1000
0001
1000
0000
0010
0000
0100
0000
,
0010
0000
0110
0000
,
0001
0010
0100
1000
,
0010
0100
1000
0100
,
0001
0010
0001
0000
1000
0000
0100
0000
,
1000
0000
0100
0010
,
0001
0000
1000
0000
,
0010
0000
0100
0000
0001
1000
0100
0000
,
0000
0010
0100
1000
,
0001
0000
0100
0000
,
0010
0000
1000
0000
,
0100
0000
1000
0000
0001
0100
0010
0000
,
0000
0010
1000
0001
,
0010
0000
0100
0000
,
1001
0000
0000
0000
,
0000
0000
0100
0100
,
0100
0000
0000
0000
,
0010
0010
0100
0100
,
0110
0000
0000
0000
,
0000
0000
0001
0001
,
1001
0000
0110
0000
,
1001
1001
0110
0110
,
1000
0100
0001
0100
,
1000
0000
0100
1000
,
1001
0000
0000
0000
,
0100
0010
0100
0001
,
1000
0010
0001
0010
,
1000
0000
0001
0100
,
0110
0000
1001
0000
,
0110
0110
1001
1001
,
1000
0010
0100
0001
,
0010
0001
0100
1000
,
0100
0001
0001
0000
0010
0000
0100
0000
,
1000
0000
0100
0000
,
0010
0001
0100
0010
,
0100
1000
0100
0010
,
1000
0001
0001
0000
0100
0000
0010
0000
,
1000
0000
0100
0010
,
0001
1000
0100
0000
0100
0000
0000
0000
,
0010
0001
0100
0100
,
0010
1000
1000
0000
0001
0000
0100
0000
,
0010
0000
1000
0000
,
0001
1000
0010
0000
0100
0000
0100
0000
,
0010
1000
0001
0100
,
0010
1000
0010
1000
0010
0000
0100
0000
,
0001
0000
0010
0100
,
1000
0001
1000
0001
,
0100
0001
0100
0001
,
1000
0100
0001
0000
0001
0100
1000
0000
,
0010
0100
0010
0010
,
1000
0001
1000
0001
,
0010
0001
0010
0001
,
1000
0010
0001
0000
0001
0010
1000
0000
,
1100
0000
0011
0000
,
0110
0110
1001
1001
,
0010
0100
0010
1000
0101
0000
0000
0000
;

//---------------dance-single - D. Bernardone----------------
#NOTES:
     dance-single:
     D. Bernardone:
     Medium:
     6:
     0.432,0.480,0.456,0.000,0.000:
0000
0000
0000
0000
,
0000
0000
0000
0000
,
0000
0000
0000
0000
,
0000
0000
0000
0000
,
1001
0000
0001
0100
0001
0100
0001
0100
,
0001
0100
0000
1001
0001
0000
0110
0000
,
1001
0000
1000
0100
1000
0100
1000
0100
,
1000
0100
0000
1001
0000
0010
0110
0000
,
1000
0100
1000
0000
0110
0000
1100
0000
,
0010
0001
0010
0000
1001
0000
1010
0000
,
0010
1000
0010
0000
1100
0000
0011
0000
,
0001
1000
0001
1000
0100
0000
1010
0000
,
0001
0100
0001
0000
0110
0000
1001
0000
,
0010
1000
0010
0000
1100
0000
0101
0000
,
0010
0100
0010
0000
0011
0000
1010
0000
,
1000
0001
1000
0001
0010
0000
0100
0000
,
1000
0100
0001
0000
,
0100
0010
0110
1001
,
0001
0100
0001
0100
1000
0100
1000
0000
,
1001
0000
0110
0000
,
1000
0100
0010
0000
,
0001
0100
0101
0000
,
1000
0100
0010
0001
0100
1000
0001
0000
,
0011
0000
1010
0000
,
1000
0100
1000
0001
,
0100
0010
0010
0000
0110
0000
1000
0000
,
0001
0010
0010
0000
0110
0000
0110
0000
,
1000
0001
0101
0000
,
1000
0100
0010
0000
0100
1000
0100
0000
,
0010
0000
0001
0000
0100
0001
0010
0001
,
1000
1000
0100
0010
,
0001
0000
0101
0000
1000
0001
1000
0000
,
0100
0000
0010
0000
,
1001
0000
1001
0000
1000
0010
0100
0000
,
0000
1001
0010
0110
,
1000
0000
0100
0000
,
0011
0000
0001
0000
,
0110
0000
1010
0000
0001
0010
0100
0000
,
0000
1010
0100
0101
,
1000
0000
0000
0000
0100
0100
0110
0000
,
0010
0001
0010
0001
,
0010
0000
0001
1000
0000
1000
0000
1000
,
0100
0010
0100
0010
,
0001
0100
1000
0000
0100
0001
1000
0000
,
0010
1000
0010
1000
,
0010
0000
1000
0001
0000
0001
0000
0001
,
0010
0000
0110
0000
,
1100
0000
1100
0000
0001
0100
1000
0100
,
0001
0100
0010
1000
,
0100
0000
1000
0001
0000
0001
1000
0000
,
1001
1000
0010
0100
,
0001
0010
1000
0000
0010
0001
1000
0000
,
0100
1000
0001
0100
,
0001
0000
0010
0100
0000
0100
0010
0000
,
0110
0000
0011
0000
,
1001
0000
1001
0000
1000
0010
1010
0000
,
1000
0000
0100
0000
,
0010
0001
0100
0001
,
0010
0100
1000
0100
0010
0000
0010
0000
,
0001
0000
1000
0000
,
0010
0100
0001
1000
,
0010
0000
1000
0000
0100
1000
1000
0000
,
0001
0100
0010
0100
0001
0000
0001
0000
,
0010
0000
0100
0100
,
1000
0000
1100
0000
,
0001
0000
0100
0000
0001
0010
0100
0000
,
1000
1000
0010
0100
,
0001
0000
0011
0000
,
1000
0010
0100
0100
,
0001
1000
0001
0000
0010
0000
0100
0000
,
1000
0001
0100
0010
0100
0000
0100
0000
,
0001
0000
1001
0000
,
1000
0000
0000
0000
,
0100
0000
0000
0000
,
1000
0001
1000
0001
1000
0010
0100
0010
,
1000
0000
1001
0000
,
0001
0000
0000
0000
,
0100
0000
0000
0000
,
0001
1000
0001
1000
0001
0010
0100
0010
,
0001
0000
1001
0000
,
1000
0100
0110
0110
,
0001
0001
0001
0100
1010
0000
0000
0000
;

//---------------dance-single - D. Bernardone----------------
#NOTES:
     dance-single:
     D. Bernardone:
     Hard:
     9:
     0.708,0.640,0.730,0.000,0.373:
0000
0000
0000
0000
,
0000
0000
0000
0000
,
0000
0000
0000
0000
,
0000
0000
0000
0000
,
1001
0000
1000
0010
0100
0000
0100
0001
,
1000
0000
0000
0000
1000
0000
1100
0000
0000
0001
0000
0000
0100
0000
0001
0000
,
1100
0000
0010
0001
0100
0000
0100
0010
,
1000
0000
0000
0000
1000
0000
0001
0100
0000
0001
0000
0010
0100
0000
1000
0000
,
0001
0000
0001
0000
0001
0000
0100
0001
0000
0001
0000
0001
0100
0000
1010
0000
,
0001
0000
0001
0000
0001
0000
0100
0001
0000
0001
0000
0001
1000
0000
0110
0000
,
0001
0000
0001
0000
0001
0000
0100
0001
0000
0001
0000
0001
0100
0000
1010
0000
,
0001
0000
0001
0000
0001
0000
0100
0001
0000
0001
0000
0001
0010
0000
0100
1000
,
0001
0000
0001
0000
0001
0000
0100
0001
0000
0001
0000
0001
0100
0000
1010
0000
,
0001
0000
0001
0000
0001
0000
0100
0001
0000
0001
0000
0001
1000
0000
0110
0000
,
1001
0010
1001
0100
,
0110
0110
0110
0110
,
0001
0000
0100
0000
1000
0000
0100
0000
0001
0000
1000
0000
0001
0000
1000
0001
,
1000
0000
0100
0010
0100
0010
0001
0000
0100
0000
0100
0000
0010
0000
0010
0000
,
1000
0100
0001
0100
1000
0000
0010
0000
,
0101
0000
1001
0000
,
1000
0000
0100
0000
0010
0000
0100
0000
1000
0000
0001
0000
0100
0000
0010
0100
,
0010
0000
1000
0001
1000
0001
0100
0000
0010
0000
0010
0000
1000
0000
1000
0000
,
0100
0010
0001
0010
0100
0000
1100
0000
,
0011
0000
1100
1100
,
0001
0000
0100
0000
0010
0000
0100
0000
1000
0000
0100
0001
0000
0001
0010
0000
,
0100
0000
1000
0000
0010
0100
0010
0100
0001
0000
0001
0000
0010
0000
0010
0000
,
0100
1000
0010
1000
0100
0010
0001
0100
,
0110
1000
1001
0010
,
1000
0000
0100
0000
0001
0000
0100
0000
0010
0000
0001
1000
0000
1000
0010
0000
,
0100
0000
0001
0000
0010
0100
0010
0100
1000
0000
1000
0000
0001
0000
0001
0000
,
0100
0010
1000
0100
0001
0100
0010
0001
,
1001
0100
0110
0001
,
1100
1000
1000
0000
0101
0001
0001
0000
,
0110
0000
1010
0000
1001
0010
0100
0000
,
0001
0110
1100
0101
,
0110
0010
1000
0000
1100
1000
0001
0000
,
0101
0100
0100
0000
1010
1000
1000
0000
,
0110
0000
0011
0000
0101
1000
0010
0000
,
0100
1001
0110
1010
,
1001
0000
0001
0000
0100
0000
0000
0000
0010
1000
0010
1000
0100
0000
0000
0000
,
0010
0000
0001
1000
0001
0100
0001
0010
,
0100
0000
0000
0000
0000
0000
1100
0000
0000
1100
0000
0000
1100
0000
0011
0000
,
1100
0000
0000
0000
0001
0000
0100
0001
0100
0001
0100
0000
0001
0000
0000
0000
,
1000
0100
0000
1000
0100
0000
1000
0100
0000
1000
0000
0100
1000
0000
0100
0000
,
1001
0000
0000
0000
0001
0000
1000
0010
1000
0010
1000
0000
0001
0000
0100
0000
,
0010
0000
0000
0000
0000
0000
0101
0000
0000
0101
0000
0000
0101
0000
1010
0000
,
0110
0001
0110
1000
,
0011
0000
0011
0000
1000
1000
1000
1000
,
0010
0000
0100
0001
0010
1000
0010
0100
,
0010
0000
0001
0000
0000
0000
1001
0000
0000
1001
0000
0000
1001
0000
0110
0000
,
1001
0000
0000
0000
1000
0000
0001
0100
0001
1000
0001
0000
1000
0000
0000
0000
,
0100
0010
0000
0001
0010
0000
0100
0010
0000
0001
0000
0010
0100
0000
1000
0000
,
0110
0000
0000
0000
0001
0000
0100
0001
0100
0001
0100
0000
0010
0000
0010
0000
,
1000
0000
0100
0000
0000
0000
0110
0000
0000
0110
0000
0000
0110
0000
1001
0000
,
1100
0000
1100
0000
,
0110
0000
0000
0000
0110
0000
0000
0000
0010
0001
0010
0001
0100
0000
0000
0000
,
0010
0000
1000
0000
0100
0000
1000
0000
0001
0000
0100
0001
0010
0000
0100
1000
,
0001
0000
0100
0001
1000
0001
0100
0000
0010
0000
1000
0000
0100
0000
0010
0000
,
0001
0100
1000
0100
0110
0000
0101
0000
,
1001
0000
0110
0000
,
1000
0000
0100
0000
0010
0000
0001
0000
0100
0000
0010
1000
0100
0000
1000
0010
,
0100
0000
0001
1000
0010
1000
0001
0000
0010
0000
0100
0000
1000
0000
0010
0000
,
1000
0000
0100
0000
0001
0000
0100
0000
1000
0010
0100
0010
1000
0000
0001
0000
,
1001
0000
0101
0110
,
1000
0000
0100
0000
0011
0000
0000
0000
0101
0000
1000
0001
0000
0001
0100
0001
,
0100
0000
0010
0000
1000
0100
0010
0001
,
1000
0000
0100
0000
0001
0000
0100
0000
1000
0001
0100
0001
1000
0000
0010
0000
,
1010
0000
0101
0000
,
1000
0000
0010
0000
0101
0000
0000
0000
1100
0000
0001
1000
0000
1000
0100
1000
,
0100
0010
0001
0100
0010
1000
0001
0010
,
0001
0000
0100
0000
1000
0000
0100
0000
0001
0010
0100
0010
0001
0000
1000
0000
,
1001
0000
0011
0110
,
1000
0001
0100
0000
0010
0010
0010
0000
,
1000
0100
0010
0000
0001
0000
1000
0000
,
0010
0000
0100
0000
0001
0000
0010
0000
0100
1000
0100
1000
0100
1000
0100
0010
,
0001
0000
0101
0000
,
1000
0001
0010
0000
0100
0100
0100
0000
,
1000
0010
0100
0001
1000
0000
0100
0000
,
1000
0000
0010
0000
0100
0000
0001
0000
0010
0100
0010
0100
0010
0100
0010
0001
,
1000
0000
1010
0000
,
0101
0101
0110
0110
,
1000
0001
0000
0100
0000
0100
0000
0001
0010
0000
0000
0000
0000
0000
0000
0000
;
