#TITLE:One Thousand Cranes;
#SUBTITLE:;
#ARTIST:DJ Meas;
#TITLETRANSLIT:;
#SUBTITLETRANSLIT:;
#ARTISTTRANSLIT:;
#GENRE:Techno;
#CREDIT:Sync by HellRazoR;
#BANNER:One Thousand Cranes-bn.png;
#BACKGROUND:One Thousand Cranes-bg.png;
#LYRICSPATH:;
#CDTITLE:;
#MUSIC:One Thousand Cranes.ogg;
#OFFSET:-0.414;
#SAMPLESTART:42.234;
#SAMPLELENGTH:12.000;
#SELECTABLE:YES;
#DISPLAYBPM:143.000;
#BPMS:0.000=143.410;
#STOPS:;
#BGCHANGES:0.000=One Thousand Cranes-bg.png=1.000=0=0=1=====,
16.000=In The Groove Rebirth/164_JB_HD.mpg=1.000=0=0=1=====,
40.000=One Thousand Cranes-bg.png=1.000=1=0=1===CrossFade==,
44.000=In The Groove Rebirth/174_JB_HD.mpg=1.000=0=0=1=====,
60.000=In The Groove Rebirth/252_JB_HD.mpg=1.000=0=0=1===SlideRight==,
76.000=In The Groove Rebirth/243_JB_HD.mpg=1.000=0=0=1===SlideLeft==,
92.000=In The Groove Rebirth/169_JB_HD.mpg=1.000=1=0=1===CrossFade==,
104.000=In The Groove Rebirth/175_JB_HD.mpg=1.000=0=0=1=====,
120.000=In The Groove Rebirth/508_JB_HD.mpg=1.000=0=0=1===SlideUp==,
132.000=One Thousand Cranes-bg.png=1.000=1=0=1===CrossFade==,
136.000=In The Groove Rebirth/514_JB_HD.mpg=1.000=0=0=1=====,
152.000=In The Groove Rebirth/508_JB_HD.mpg=1.000=0=0=1===SlideDown==,
164.000=One Thousand Cranes-bg.png=1.000=0=0=1=====,
168.000=In The Groove Rebirth/164_JB_HD.mpg=1.000=0=0=1=Checkerboard2File2x2=One Thousand Cranes-bg.png=FadeRight==,
184.000=One Thousand Cranes-bg.png=0.600=0=0=1=Checkerboard2File2x2=In The Groove Rebirth/175_JB_HD.mpg=FadeLeft==,
200.000=In The Groove Rebirth/169_JB_HD.mpg=0.600=0=0=1=SongBgWithMovieViz==FadeUp==,
216.000=In The Groove Rebirth/252_JB_HD.mpg=0.400=0=0=1=SongBgWithMovieViz==FadeDown==,
228.000=One Thousand Cranes-bg.png=1.000=0=0=1=====,
232.000=In The Groove Rebirth/164_JB_HD.mpg=1.000=0=0=1=====,
248.000=In The Groove Rebirth/243_JB_HD.mpg=1.000=0=0=1=====,
264.000=In The Groove Rebirth/174_JB_HD.mpg=1.000=0=0=1=====,
280.000=In The Groove Rebirth/169_JB_HD.mpg=0.800=0=0=1=====,
300.000=One Thousand Cranes-bg.png=1.000=1=0=1===CrossFade==,
99999=-nosongbg-=1.000=0=0=0 // don't automatically add -songbackground-
;
#BGCHANGES2:104.000=white flash=1.000=0=0=1=====,
164.000=white flash=1.000=0=0=1=====,
228.000=white flash=2.000=0=0=1=====,
229.500=white flash=2.000=0=0=1=====,
232.000=white flash=1.000=0=0=1=====,
264.000=white flash=1.000=0=0=1=====,
;
#KEYSOUNDS:;

//---------------dance-single - J. Griep----------------
#NOTES:
     dance-single:
     J. Griep:
     Easy:
     3:
     0.202,0.000,0.100,0.254,0.000:
0000
0000
0000
0000
,
0000
0000
0000
0000
,
1000
0000
0001
0000
,
0100
0000
0010
0100
,
0001
0000
1000
0000
,
0010
0000
0100
0010
,
1001
0000
0000
0000
,
0110
0000
0010
0100
,
1000
0000
0100
0000
,
0001
0000
0100
1000
,
0000
0000
0000
0000
,
1000
0000
0001
0000
,
1000
0000
0001
0000
,
0010
0000
0100
0000
,
1000
0000
0010
0000
,
2002
0000
0000
3003
,
2002
0000
0000
3003
,
0020
0000
0030
0000
,
0200
0000
0300
0001
,
0220
0000
0000
0330
,
0010
0000
0100
0000
,
0001
0000
0000
0001
,
0020
0000
0030
0000
,
1001
0000
0000
0000
,
0100
0000
0010
0000
,
0001
0000
1000
0001
,
0020
0000
0000
0030
,
2000
0000
0000
3000
,
0200
0000
0000
0300
,
0002
0000
0000
0003
,
0010
0000
0100
0000
,
1000
0000
0010
0000
,
0100
0000
0001
0000
,
1000
0000
0010
0100
,
2002
0000
0000
3003
,
0200
0000
0000
0300
,
2002
0000
0000
3003
,
0020
0000
0000
0030
,
0001
0000
1000
0000
,
0010
0000
0100
0000
,
1001
0000
0100
0000
,
1001
0100
0100
0000
,
2000
0000
3000
0000
,
0002
0000
0003
0000
,
2000
0000
3000
0000
,
0002
0000
0003
0000
,
0200
0000
0300
0000
,
0020
0000
0030
0000
,
0200
0000
0300
0000
,
0020
0000
0030
0000
,
1000
0000
1000
0010
,
0001
0000
0001
0100
,
1000
0000
1000
0010
,
0001
0000
0001
0100
,
1000
0000
0100
0000
,
0010
0000
0001
0000
,
0001
0000
0100
0000
,
0010
0000
1000
0001
,
1001
0000
0001
0000
,
0100
0000
0010
0100
,
0001
0000
1000
0000
,
0010
0000
0100
0010
,
1001
0000
1000
0000
,
0010
0000
0100
0010
,
1000
0000
0001
0000
,
0100
0000
0010
0000
,
2000
0000
0000
3000
,
0002
0000
0000
0003
,
0020
0000
0000
0030
,
0200
0000
0000
0300
,
0010
0000
0100
0010
,
0001
0000
1000
0010
,
0001
0000
0001
0100
,
1000
0000
0010
0000
,
0100
0000
0010
0100
,
2002
0000
0000
3003
;

//---------------dance-single - D. Kincel----------------
#NOTES:
     dance-single:
     D. Kincel:
     Medium:
     6:
     0.391,0.000,0.239,0.162,0.008: // measure 1
0000
0000
0000
0000
,  // measure 2
0000
0000
0000
0000
,  // measure 3
0000
0000
0000
0000
,  // measure 4
0000
0000
0000
0000
,  // measure 5
1001
0000
0001
0100
0010
0000
0010
0000
,  // measure 6
1000
1000
0001
1001
,  // measure 7
0001
0100
0001
0000
0100
0000
1001
0000
,  // measure 8
1000
0100
1000
0000
0010
0000
1001
0000
,  // measure 9
0010
1000
0010
0000
0100
0000
0101
0000
,  // measure 10
0004
0000
0000
0003
,  // measure 11
1010
0000
0000
0000
0000
0100
0100
0000
,  // measure 12
0001
0010
0100
0010
0000
0000
0100
0000
,  // measure 13
2000
0000
0000
3100
0000
0000
0010
0000
,  // measure 14
0002
0000
0000
0103
0000
0000
0010
0000
,  // measure 15
2000
0000
0000
3001
1000
0100
0010
0000
,  // measure 16
0002
0000
1000
1003
0000
0000
0010
0000
,  // measure 17
0200
0000
0010
0000
0310
0000
0000
0100
,  // measure 18
0001
0000
0000
0101
0000
0000
0010
0000
,  // measure 19
1000
0000
0000
1010
0000
0000
0100
0000
,  // measure 20
0001
1000
0001
1000
0000
0000
0000
0000
,  // measure 21
0010
0100
0010
0100
0000
0000
0002
0000
,  // measure 22
0203
0000
0000
0310
0000
0000
0010
0000
,  // measure 23
1000
0000
0000
1000
0000
0000
0001
0000
,  // measure 24
0010
0100
0000
1001
0000
0000
0010
0000
,  // measure 25
1000
0100
0000
0011
0000
0000
0000
0000
,  // measure 26
0002
0000
0000
0103
0000
0010
0010
0010
,  // measure 27
1000
0000
0000
0001
0000
0000
0010
0000
,  // measure 28
0100
0000
1000
0001
1000
0000
1001
0000
,  // measure 29
0001
0000
0000
1000
0000
0000
0010
0000
,  // measure 30
0100
0001
0010
0100
0000
0000
0M00
0000
,  // measure 31
0010
0000
0000
0011
0000
0000
0100
0000
,  // measure 32
1000
0000
0001
0100
0000
0000
1010
0000
,  // measure 33
0200
0000
0000
0301
0000
0000
0000
0000
,  // measure 34
0020
0000
0000
0130
0000
0000
M00M
0000
,  // measure 35
1001
0000
0000
0101
0000
0000
1001
0000
,  // measure 36
1100
0000
0010
0001
0010
0000
0100
0000
,  // measure 37
1000
0000
0001
0100
0000
0010
0010
0000
,  // measure 38
1000
0000
0001
0010
0100
0000
1001
0000
,  // measure 39
0002
0000
0000
0023
0000
0000
0230
0000
,  // measure 40
2300
0000
3001
0200
0000
0000
0310
0000
,  // measure 41
0100
0001
1000
0000
0001
0000
0010
0000
,  // measure 42
2002
0000
0000
3003
,  // measure 43
0000
0010
0000
1000
0000
0001
0010
0000
,  // measure 44
0000
0100
0000
1000
0000
0001
0100
0000
,  // measure 45
0000
0010
1000
0000
0000
0001
0010
0001
,  // measure 46
0000
1000
0000
0001
0100
0010
0100
0000
,  // measure 47
0001
0010
0000
0100
0000
0010
0001
0000
,  // measure 48
0100
0010
0000
1000
0000
0010
0100
0000
,  // measure 49
0001
0000
1001
0000
0000
0100
0010
0000
,  // measure 50
1000
0000
1001
0000
0000
0010
0001
0001
,  // measure 51
0100
0000
0010
0020
0000
0000
1000
0000
,  // measure 52
1030
0000
0100
0200
0000
0000
0010
0000
,  // measure 53
0310
0000
0001
1000
0010
0000
0100
0000
,  // measure 54
0100
0001
0001
0010
,  // measure 55
0010
0000
0000
0000
0001
0000
0000
0000
1000
0000
0000
0010
0000
0000
0100
0000
,  // measure 56
0001
0000
0000
0000
0010
0000
0000
0000
0100
0000
0000
1000
0000
0000
0001
0000
,  // measure 57
1000
0010
1000
0001
,  // measure 58
1001
0000
0000
0110
0000
1000
0001
1000
,  // measure 59
1001
0001
0100
0100
,  // measure 60
0010
0000
0010
0000
1000
0001
0001
0000
,  // measure 61
0010
0000
0010
0000
0100
1000
0100
0000
,  // measure 62
0010
0000
0001
0000
0100
0010
0010
0000
,  // measure 63
1001
1000
0010
0010
,  // measure 64
0100
0000
0100
0000
0001
1000
1000
0000
,  // measure 65
0011
0000
0010
0000
0001
1000
0001
0000
,  // measure 66
0100
0010
0100
0000
0010
1000
1000
0000
,  // measure 67
2002
3003
0100
0000
0001
0000
0010
0000
,  // measure 68
0100
1000
0001
1000
0001
0000
0110
0000
,  // measure 69
1000
0000
0001
0010
0001
0010
0100
0000
,  // measure 70
1000
0000
0001
0000
0100
0010
0010
0000
,  // measure 71
1001
0000
0010
0000
1000
0100
1000
0000
,  // measure 72
0001
0000
1000
0000
0100
0010
0010
0000
,  // measure 73
0001
1000
0001
0100
0010
0000
0110
0000
,  // measure 74
1000
0001
0010
0000
0100
0010
0010
0000
,  // measure 75
1001
0000
0010
0001
1000
0000
0010
0000
,  // measure 76
4000
0000
0000
3000
;

//---------------dance-single - M. Hattersley----------------
#NOTES:
     dance-single:
     M. Hattersley:
     Hard:
     8:
     0.591,0.000,0.231,0.493,0.370:
0000
0000
0000
0000
,
0000
0000
0000
0000
,
0000
0000
0000
0000
,
0000
0000
0000
0000
,
1000
0000
0000
0000
0000
0000
0000
0000
0000
0000
0000
0000
0000
0000
0000
M000
0100
0000
0000
0000
0000
0000
0000
0000
0001
0000
0000
0000
0000
0000
0000
0000
0100
0000
0000
0000
0000
0000
0000
0000
0010
0000
0000
0000
0000
0000
0000
0000
1000
0000
0000
0000
0000
0000
0000
0000
0100
0000
0000
0000
0000
0000
0000
0000
,
1000
0000
0000
0000
0000
0000
0000
0000
0000
0000
0000
0000
0000
0000
0000
0000
0000
0000
0000
0000
0000
0000
0000
0000
0010
0000
0000
0000
0000
0000
0000
0000
0000
0000
0000
0000
0000
0000
0000
0000
0000
0000
0000
0000
0000
0000
0000
0000
0100
0000
0000
0000
0000
0000
0000
0000
0000
0000
0000
0000
0000
0000
0000
0000
0000
0000
0000
0000
0000
0000
0000
0000
0001
0000
0000
0000
0000
0000
0000
0000
0000
0000
0000
0000
0000
0000
0000
0000
0000
0000
0000
0000
0000
0000
0000
0000
1000
0000
0000
0000
0000
0000
0000
0000
0000
0000
0000
0000
0000
0000
0000
0000
0000
0000
0000
0000
0000
0000
0000
0000
0001
0000
0000
0000
0000
0000
0000
0000
0000
0000
0000
0000
0100
0000
0000
0000
0000
0000
0000
0000
0000
0000
0000
0000
0001
0000
0000
0000
0000
0000
0000
0000
0000
0000
0000
0000
0000
0000
0000
0000
0000
0000
0000
0000
0000
0000
0000
0000
0000
0000
0000
0000
0000
0000
0000
0000
0000
0000
0000
0000
0000
000M
0000
0000
0000
0000
0000
0000
0000
0000
0000
0000
,
0010
0100
0010
1000
0100
0000
0110
0000
,
0010
0001
1000
0100
0010
0000
0011
0000
,
0010
1000
0100
0010
0001
0000
1000
0010
,
0M00
000M
0M00
000M
0M00
000M
0M00
000M
0M00
000M
0M00
000M
0000
0000
0000
0000
,
0011
0000
0000
0000
0000
0000
0000
0000
0000
0000
0000
0000
0000
0000
0000
0000
0000
0000
0000
0000
0000
0000
0000
0000
0000
0000
0000
0000
0000
0000
0000
0000
0000
0000
0000
0000
0110
0000
0000
0000
0000
0000
0000
0000
0000
0000
0000
0000
0000
0000
0000
0000
0000
0000
0000
0000
0000
0000
0000
0000
0000
0000
0000
0000
0000
0000
0000
0000
0000
0000
0000
0000
0101
0000
0000
0000
0000
0000
0000
0000
0000
0000
0000
0000
0000
0000
0000
0000
0000
0000
0000
0000
0000
0000
0000
0000
0000
0000
0000
0000
0000
0000
0000
0000
0000
0000
0000
0000
0000
0000
0000
0000
0000
0000
0000
0000
0000
0000
0000
0000
1000
0000
0000
0000
0M00
0000
0000
0000
0000
0000
0000
0000
0000
0000
0000
0000
000M
0000
0000
0000
0000
0000
0000
0000
1000
0000
0000
0M00
0000
0000
0000
0000
0000
0000
0000
0000
0000
0000
0000
0000
0000
0000
0000
0000
0000
0000
0000
0000
0000
0000
0000
0000
0000
0000
0000
0000
0000
0000
0000
0000
0000
0000
0000
0000
0000
0000
0000
0000
0000
0000
0000
0000
,
0020
0000
0130
02M0
0000
0301
0010
0100
,
2000
0000
3010
M020
0000
0031
0010
0100
,
0001
0000
0010
0011
0000
0010
0100
0000
,
2100
0000
0000
3010
0001
0010
0100
0001
,
2000
0000
3100
M200
0000
0301
0100
0010
,
0002
0000
0103
020M
0000
1300
0100
0001
,
0010
0000
0001
0100
0020
0000
2000
0030
,
3100
0000
0010
0001
2000
0000
0002
3000
,
0013
0000
1000
0010
0002
0000
0200
0003
,
0310
0000
1000
0100
1100
0000
0110
0000
,
0101
0000
0100
0010
0000
0001
1000
0000
,
0020
0000
1000
1030
0000
0100
0000
0010
,
0002
0000
0103
1000
0000
0100
0000
0000
,
0101
0000
0000
0010
0000
0100
0000
1000
,
0100
0000
0000
0000
0000
0000
0000
0000
0000
0000
0000
0000
0000
0000
0000
0000
0000
0000
0000
0000
0000
0000
0000
0000
M000
0000
0000
0000
0000
0000
0000
0000
0000
0000
0000
0000
00M0
0000
0000
0000
0000
0000
0000
0000
0000
0000
0000
0000
0000
0000
0000
0000
0000
0000
0000
0000
0000
0000
0000
0000
000M
0000
0000
0000
0000
0000
0000
0000
0000
0000
0000
0000
0M00
0000
0000
0000
0000
0000
0000
0000
0000
0000
0000
0000
0000
0000
0000
0000
0000
0000
M000
0000
0000
0000
0000
0000
0000
0000
0000
0000
0000
0000
0000
0000
0000
0000
0000
0000
0000
0000
0000
0000
0000
0000
00M0
0000
0000
0000
0000
0000
0M00
0000
0000
0000
0000
0000
000M
0000
0000
0000
0000
0000
M000
0000
0000
0000
0000
0000
0000
0000
0000
0000
0000
0000
0M00
0000
0000
0000
0000
0000
0000
0000
0000
0000
0000
0000
0000
0000
0000
0000
00M0
0000
0000
0000
0000
0000
0000
0000
0M00
0000
0000
0000
0000
0000
0000
0000
M00M
0000
0000
0000
0000
0000
0000
0000
0000
0000
0000
0000
0000
0000
0000
0000
,
0010
0000
0000
0001
0010
0000
0100
0000
0000
0010
0001
0000
0100
0000
0100
0000
,
0010
0000
0000
1000
0000
0000
0100
0000
0000
0001
0000
0000
0100
0000
0010
0000
,
0001
0000
0000
0100
0010
0000
1000
0000
0000
0100
1000
0000
0010
0000
0010
0000
,
0100
0001
0010
0200
0000
1000
1300
0000
,
0100
0000
0000
0010
0001
0000
1000
0000
0000
0100
1000
0000
0001
0000
0001
0000
,
0100
0000
0000
0010
0000
0000
0001
0000
0000
0010
0000
0010
1000
0000
0100
0000
,
0010
0000
0000
0010
0001
0000
1000
0000
0000
0100
0000
0010
0001
0000
0001
0000
,
2000
0000
0000
0000
0M00
0000
0200
0000
0000
0000
0000
0000
00M0
330M
0000
0000
,
0011
0000
0000
0100
0001
0000
0001
0010
0000
0100
1000
0000
0100
0000
1000
0000
,
0001
0000
0000
0100
0000
0000
1000
0000
0100
0000
0000
0001
0000
0000
0010
0000
,
1000
0000
0000
0010
0001
0000
0101
0000
0000
0010
1000
0000
0100
0000
0100
0000
,
0010
0000
0000
0000
0100
0000
1000
0000
0010
0100
0000
0100
0001
0000
1000
0000
,
0100
0000
0000
0010
0001
0000
1000
0000
0000
0010
0100
0000
0001
0000
0001
0000
,
1000
0000
0000
0100
0000
0000
0001
0000
0000
0100
0000
0000
1000
0000
0010
0000
,
0101
0000
0000
0010
1000
0000
1000
0100
0000
1001
0000
0000
0001
0000
0010
0000
,
0012
0000
0000
00M0
0000
0000
00M0
0000
0000
0000
0000
0000
0000
0000
0003
0000
,
0020
0000
2030
0000
3200
0000
0320
0000
MM00
0000
0001
0000
0000
0002
0000
0030
,
2003
0000
3200
0000
0320
0000
0032
0000
0MM0
0000
0100
0000
0000
2000
0000
0003
,
3200
0000
0302
0000
0203
0000
2300
0000
0M0M
0000
0010
0000
3010
0200
0000
0000
,
0302
0023
2030
3020
0230
2300
3020
0032
,
0023
0000
0230
0000
0302
0000
0023
0000
0M0M
0000
1000
0000
0000
0200
0000
0030
,
0302
0000
0203
0000
2300
0000
3020
0000
MM00
0000
0001
0000
0031
0020
0000
0000
,
2030
0000
3200
0000
0302
0000
0203
0000
000M
0000
0001
0000
0000
0020
0000
0300
,
0032
0000
0000
0000
0203
0000
0000
0000
2300
0000
0000
0000
3200
0000
0000
0000
0310
0000
000M
0000
0001
0000
0MM0
0000
0010
000M
0000
0000
2000
0000
0000
0000
,
3100
0000
0000
0000
0010
0000
0001
0000
0M00
00M0
0M00
00M0
0M00
00M0
0M00
00M0
,
0001
0000
0100
0000
0010
0000
1000
0000
0010
0000
0100
0001
0100
0000
0000
0000
,
0011
0000
0000
0000
0001
0000
0010
0000
000M
M000
000M
M000
000M
M000
000M
M000
,
0010
0000
0001
0000
0100
0000
0010
0000
0100
0000
0001
0010
0001
0000
0000
0000
,
1010
0000
0000
0000
0100
0000
0001
0000
0M00
M000
0M00
M000
0M00
M000
0M00
M000
,
0100
0000
1000
0000
0010
0000
0100
0000
0001
0000
1000
0001
1000
0000
0000
0000
,
0011
0000
0000
0000
0100
0000
1000
0000
0M00
00M0
0M00
00M0
0M00
00M0
0M00
00M0
,
1100
0000
0000
0000
0000
0000
0110
0000
0000
0000
0101
0000
0110
0000
0100
1000
,
0001
0000
001M
1000
0010
0100
0001
0010
,
0001
0000
0100
0000
1000
0000
0100
0000
0010
0000
1000
0100
1000
0000
0000
0000
,
0110
0000
0000
0000
0001
0000
0010
0000
0100
0000
1000
0010
1000
0000
0000
0000
,
M100
0001
0100
0010
0100
1000
1000
0000
,
0101
0000
001M
1000
0100
1000
0001
0010
,
0001
0000
1000
0000
0010
0000
0100
0000
0001
0000
0010
0001
0010
0000
0000
0000
,
1100
0000
0000
0000
M100
0000
0001
0000
0100
0000
0010
1000
0010
0000
0000
0000
,
0001
0010
0100
1000
0010
0100
0100
0000
,
0011
0000
0000
0000
1000
0000
0010
0000
1000
0000
0001
0010
0001
0000
0010
0001
,
0010
0000
0100
0000
1000
0000
0010
0000
1000
0000
0001
0100
0001
0000
0000
0000
,
0100
0000
0000
0000
1M00
0000
0100
0000
1000
0000
0001
1000
0001
0000
0000
0000
,
001M
1000
0100
0010
0001
0100
0100
0000
,
0110
0000
0000
0000
1000
0000
0001
0000
0010
0000
0100
1000
0100
0000
1000
0001
,
1000
0000
0010
0000
0100
0000
0010
0000
1000
0000
0001
0010
0001
0000
0000
0000
,
001M
0100
0001
0010
0100
0000
1100
0000
,
0010
0000
0100
0001
0100
0000
0001
0000
0010
0000
0000
0000
0011
0000
0000
0000
,
001M
0000
1000
0000
0100
0000
1000
0000
0010
0000
0000
0000
1000
0100
1000
0000
,
0000
0000
0000
0000
,
0000
MM00
0000
0000
0000
0000
0000
0000
0000
0000
0000
0000
0000
0000
0000
0000
;

//---------------dance-double - Oren G.----------------
#NOTES:
     dance-double:
     Oren G.:
     Challenge:
     11:
     0.727,0.000,0.262,0.108,0.740:
00000000
00000000
00000000
00000000
,
00000000
00000000
00000000
00000000
,
00000000
00000000
00000000
00000000
,
00000000
00000000
00000000
00000000
,
00011000
00000000
00000000
00000000
00010000
00000000
00100000
00000000
01000000
00000000
00010000
00100000
01000000
00000000
00010000
01000000
,
10000000
00000000
00100000
00000000
00010000
00000000
00001000
00000000
00000100
00000000
00000001
00001000
00000010
00000000
00000000
00000000
,
00000100
00000001
00000010
00001000
00010000
00000000
10010000
00000000
,
00100000
00000000
01000000
10000000
00100000
00000000
00010000
00000000
00001000
00000000
00000000
00000000
00001001
00000000
00000000
00000000
,
00000010
00000000
00001000
00000000
00010000
00000000
00000100
00000000
00001000
00000000
00000000
00000000
00000001
00000010
00000100
00001000
,
00000040
00040000
00000000
00000000
00000000
00000000
00000000
00000000
00000000
00000000
00000000
00000000
00030030
00000000
00000000
00000000
,
00000101
00000000
00000000
00010010
00000000
00000000
00001100
00000000
00000000
00000000
01000000
00000000
01000000
00000000
00000000
00000000
,
00001000
00010000
00100000
01000000
00010000
00100000
01000000
10000000
,
00040000
04000000
00000000
00030000
03004000
00400000
00000000
00003000
00310000
00000000
00000000
00000000
10000000
00000000
00100000
00000000
,
00010000
00001000
00000100
00000001
00000010
00000001
00000100
00001000
,
00010000
00000000
00100000
00010000
00001000
00000010
00000001
00000000
,
00000400
00000040
00000000
00000300
00004030
00000400
00000000
00003000
00040300
00004000
00000000
00030000
00403000
04000000
00000000
00300000
,
43000000
00040000
00000000
30000000
01030000
00000000
00100000
00000000
00000000
00000000
00010000
00000000
00011000
00000000
00000000
00100000
,
01000000
00000000
00010000
00001000
00000020
00000000
00000001
00000000
,
00001030
00000000
00010000
01000000
10000000
00000000
00000000
00100000
,
04000000
00040000
00000000
03000000
00430000
00004000
00000000
00300000
40003000
00040000
00000000
30000000
01030000
00000000
00100000
00000000
,
00010000
00000000
00001000
00010000
01000000
00000000
00020000
00000000
,
02000000
00000000
00000000
00001000
03030000
00010000
00002000
00000000
,
02000000
00000000
00000000
00010000
03003000
00000000
00000000
10000000
,
00001000
00010000
01000000
10000000
00000000
00010000
01001000
00000000
,
00010000
00000001
00000100
00001000
00000000
00000100
00000110
00001000
,
00000100
00000000
00000010
00000000
00001000
00000000
00010000
00000000
00000000
00001000
00010000
00001000
00010000
00000100
00001000
00000000
,
00000001
00000010
00000000
00000100
00010000
00000000
00000010
00001000
00000000
00000100
00000000
00010000
00001000
00000000
01000000
00010000
,
00100000
00000000
00000000
00010000
00100000
00001000
00100000
00010000
00000000
10000000
00000000
00100000
10000000
00100000
01000000
00100000
,
10000000
00000000
00000000
00010000
00100000
00000000
00001000
00010000
00000000
00000100
00000000
00010000
00001000
00000000
01000000
00001000
,
00010000
00000000
00000000
00000000
00000000
00000000
00000000
00000000
00000000
00000010
00000000
00000000
00001000
00000000
00000000
00000000
00000000
00000000
00001000
00000000
00000000
00000100
00000000
00000000
00000000
00000000
00000000
00000100
00000000
00000000
00000000
00000000
00000000
00010000
00000000
00000000
00001000
00000000
00000000
00010000
00000000
00000000
00000100
00000000
00010000
00000000
00000100
00000000
,
00001000
00000000
00000000
00000001
00000010
00000000
00000100
00001000
00000000
00000010
00000000
00010000
00001000
00000000
01000000
00000000
,
00001000
00000000
00000000
00010000
00000010
00000000
00010000
00001000
00000000
01000000
00000000
00100000
10000000
00010000
10000000
00100000
,
01000000
00000000
00000000
00010000
00100000
00000000
01000000
10000000
00000000
00010000
00000000
01000000
00001000
00000000
00010000
00001000
,
00100000
00000000
00000000
00010000
10000000
00000000
10000000
00010000
00000000
01000000
00000000
00100000
01000000
00000000
00000000
00000000
,
00010000
00000000
00100000
00001000
00100000
00000000
00010000
01000000
00000000
00100000
00000000
00010000
00001000
00000000
00000100
00000010
,
00000100
00000000
00000000
00000010
00000000
00000000
00000000
00000000
00000000
00000100
00000000
00000000
00000001
00000000
00000000
00000000
00000000
00000000
00000010
00000000
00000000
00000100
00000000
00000000
00000000
00000000
00000000
00010000
00000000
00000000
00000010
00000000
00000000
00010000
00000000
00000000
00000010
00000000
00000000
00010000
00000000
00000000
00001000
00000000
00010000
00000000
00001000
00000000
,
01000000
00000000
00000000
00100000
00010000
00000000
00001000
00000000
00000000
00000100
00000000
00000001
00000010
00000000
00001000
00000000
,
00010000
00000000
00000000
00001000
00000000
00000000
00010000
00000000
00000000
00001000
00000000
00000000
01000000
00000000
00000000
00001000
00000000
00000000
01000000
00000000
00000000
00010000
00000000
00000000
00000000
00000000
00000000
00100000
00000000
00000000
00000000
00000000
00000000
01000000
00000000
00000000
10000000
00000000
00000000
01000000
00000000
00000000
10000000
00000000
00010000
00000000
10000000
00000000
,
00010000
00000000
00000000
00100000
01000000
00000000
10000000
00000000
00000000
00010000
00000000
10000000
01000000
00100000
00010000
00000000
,
01000000
00000000
00000000
00001000
00010000
00000000
00000100
00001000
00000000
00000010
00000100
00000010
00001000
00000010
00000100
00000001
,
00000100
00000000
00000010
00000000
00010000
00001000
00000000
01000000
00000000
00010000
10000000
01000000
10000000
00010000
00100000
00000000
,
01000000
10000000
00010000
00100000
00001000
00010000
00000100
00001000
00000040
00000400
00000000
00000000
00000000
00000000
00000330
00000000
,
00001000
00000100
00010000
00001000
00010000
00000000
00000100
00010000
00001000
01000000
00001000
00010000
00000000
00000010
00001000
00000000
,
00000100
00010000
00001000
00100000
00010000
00000000
01000000
00010000
10000000
01000000
00100000
00010000
00100000
00000000
00100000
00000000
,
00001000
00010000
00001000
00100000
00010000
00000000
10000000
01000000
00100000
01000000
10000000
00010000
00000000
00100000
00010000
01000000
,
00001000
00000000
00010000
00000000
00001000
00000000
00010000
00000000
00000010
00000000
00000000
00000000
00001000
00000000
00000100
00000000
00000000
00000000
00000000
00000000
00010000
00000000
00001000
00000000
00000000
00000000
00100000
00000000
00001000
00000000
00010000
00001000
,
00010000
00001000
00010000
00000100
00001000
00000000
00000010
00000100
00000001
00000100
00000010
00001000
00000000
00000100
00010000
00001000
,
00010000
00000010
00010000
00001000
00100000
00000000
00010000
00100000
00001000
00010000
00001000
00010000
00000010
00000000
00000010
00000000
,
00010000
00001000
00100000
00010000
10000000
00000000
00100000
01000000
00010000
01000000
00001000
00010000
00000000
00000100
00001000
00000001
,
00001000
00000100
00010000
00001000
00100000
00000000
00001000
00010000
00000010
00000000
00000010
00000000
00000100
00000000
00000100
00000000
,
00001002
00000000
00000003
00000000
00000010
00000000
00000100
00000000
00001000
00000004
00000010
00000000
00001000
00000000
00000100
00000000
,
00001000
00010000
00001000
00000010
00001000
00010000
00100003
00000000
,
00011000
00000000
00000000
00000000
00001000
00000000
00100000
00000000
00010000
40000000
01000000
00000000
00010000
00000000
00100000
00000000
,
00010000
00000000
00001000
00000000
00000010
00000000
00001000
00000000
00010000
30000000
01000000
00000000
00000000
00100000
00010000
00000000
,
00011000
00000000
00000000
00000000
00000000
00000000
00000000
00000000
00000000
00000000
00000000
00000000
000M0000
00000000
00000000
0000M000
00000000
00000000
00000000
00000000
00000000
00000000
00100000
00000000
00000000
00000000
00000000
00000000
00000000
00000000
00000010
00000000
00000000
00000000
00000000
00000000
00000000
00000000
01000000
00000000
00000000
00000000
00000000
00000000
00000000
00000400
00000000
00000000
,
00400000
00000000
00000000
00300300
,
01010000
00000000
00000000
00000000
00100000
00000000
10000000
00000000
00001000
10000000
00001000
00000000
00040000
00000004
00000000
00030003
,
00010001
00000000
00000000
00000000
00000000
00000000
00000000
00000000
00000000
00011000
00000000
00000000
00000000
00000000
00000000
00100000
00000000
00000000
10010000
00000000
00000000
01000000
00010000
01000000
,
00010000
00000000
00000000
00000000
00100000
00000000
01000000
00000000
10000000
00000000
00100000
00010000
00001000
00000000
00010000
00001000
,
00000010
00000000
00000100
00000000
00001000
00000000
00000001
00000000
00000100
00000000
00000010
00010000
00000100
00000000
00000000
00000000
,
00001002
00000000
00000000
00000000
00000003
00000000
00000000
00000000
00000000
00000000
00000000
00000000
00000010
00000000
00000000
00000000
00000000
00000000
00000001
00000000
00000000
00000000
00000000
00000000
00000100
00000000
00000000
00000000
00000000
00000000
00000010
00000000
00000000
00001000
00000000
00000000
00000100
00000000
00000000
00000000
00000000
00000000
00000000
00000000
00000000
00000000
00000000
00000000
,
00011000
00100000
01000000
10000000
10010000
00010000
01000000
00000000
,
00021000
00000000
00030000
00000000
00100000
00000000
10000000
00000000
00010000
00000000
00100000
00010000
01000000
00000000
00010000
01000000
,
10000000
00000000
00010000
00000000
00100000
00000000
10000000
00000000
01000000
00000000
00100000
00001000
01000000
00000000
00000000
00000000
,
00012000
00000000
00003000
00000000
00100000
00000000
00010000
00000000
10000000
00000000
01000000
00100000
00010000
00000000
00000000
00000000
,
01001000
00010000
00000010
00001000
00001100
00000100
00001000
00000000
,
00102000
00000000
00003000
00000000
00010000
00000000
01000000
00000000
00010000
00000000
00001000
00000100
00000010
00000000
00001000
00000100
,
00000010
00000000
00001000
00000000
00010000
00000000
01000000
00000000
00100000
00000000
00001000
01000000
00010000
00000000
00000000
00000000
,
00101000
00000000
00000000
00000000
00010000
00000000
00000100
00000000
00001000
00000000
00000010
00000100
00000001
00000000
00000000
00000000
,
00001010
00010000
00001000
00100000
01010000
00010000
01000000
00000000
,
00011000
00000000
00000000
00000000
01000000
00000000
00010000
00000000
00100000
00000000
01000000
00010000
00001000
00000000
00010000
00001000
,
00000010
00000000
00000001
00000000
00000010
00000000
00001000
00000000
00010000
00000000
01000000
10000000
00010000
00000000
00000000
00000000
,
00110000
00000000
00001000
00000000
00010000
00000000
00000010
00000000
00002200
00000000
00000000
00003300
00000011
00000000
00000000
00000000
,
00001100
00000000
00001000
00000100
00010000
00000000
00001000
00000000
00220000
00000000
00000000
00330000
01001000
00000000
00000000
00000000
,
01000000
00010000
01000000
00001000
00010000
00000000
00000010
00001000
00000001
00001000
00000010
00010000
00001000
00000000
00100000
00010000
,
40000000
00004000
00000000
00000000
00000000
00000000
00000000
00000000
00000000
00000000
00000000
00000000
00000000
00000000
00000000
00000000
,
30003000
00000000
00000000
00000000
;

//---------------dance-double - Oren G.----------------
#NOTES:
     dance-double:
     Oren G.:
     Hard:
     8:
     0.493,0.000,0.254,0.077,0.139:
00000000
00000000
00000000
00000000
,
00000000
00000000
00000000
00000000
,
00000000
00000000
00000000
00000000
,
00000000
00000000
00000000
00000000
,
00110000
00000000
00000000
00000000
00001000
00000000
01000000
00000000
00010000
00000000
10000000
00100000
10000000
00000000
00010000
10000000
,
00010000
00000000
01000000
00000000
00100000
00000000
00010000
00000000
00001000
00000000
01000000
00001000
01000000
00000000
00000000
00000000
,
00001000
00010000
01000000
00010000
00001000
00000000
00001010
00000000
,
00000100
00000000
00000001
00001000
00000001
00000000
00000010
00000000
00000100
00000000
00000000
00000000
00001100
00000000
00000000
00000000
,
00000010
00000000
00001000
00000000
00010000
00000000
01000000
00000000
10000000
00000000
00000000
00000000
00010000
00000000
00100000
00004000
,
00400000
00000000
00000000
00303000
,
00110000
00000000
00000000
00011000
00000000
00000000
00020100
00000000
00000000
00000000
00001000
00000000
00031000
00000000
00000000
00000000
,
00000010
00001000
00010000
01000000
00000000
00000000
00100000
00010000
,
01000000
00100000
00010000
00001000
00000000
00000000
00000010
00000001
,
00000100
00000000
00001000
00010000
00000000
00000000
00100000
00010000
,
00001000
00000000
00000000
00100000
01000000
10000000
00010000
00000000
,
01000000
00100000
00010000
00001000
00000000
00000000
00001000
00010000
,
01000000
10000000
00000000
00100000
00000000
00000000
00010000
00001000
,
00100000
00000000
01000000
00010000
00002000
00000000
00000100
00000000
,
00013000
00000000
00100000
00010000
00001000
00000000
00000000
00010000
,
00000010
00001000
00000001
00000010
00000000
00000000
00000000
00001000
,
00010000
00000000
00000100
00000010
00002000
00000000
00010000
00000000
,
00003100
00000000
00000000
00000010
00000000
00010000
00001000
00000000
,
01000000
00100000
00010000
00001000
00000000
00000000
00000000
00100000
,
01000000
00010000
00001000
01000000
00000000
00010000
10000000
00000000
,
01000000
00010000
00001000
00000100
00000000
00001000
00000100
00000001
,
00000010
00001000
00000000
00010000
00000000
00000000
00000010
00000000
,
00002002
00000000
00000000
00000010
00000000
00000000
00010000
00003003
,
00000100
00000000
00000010
00001000
00000100
00000000
00000010
00000000
,
00022000
00000000
00000000
00100000
00000000
00000000
00000010
00033000
,
00100000
00010000
01000000
10000000
00000000
00000000
00000000
00000000
,
01000000
00100000
00010000
00001000
00000000
00000000
00100000
00000000
,
01000000
00010000
00001000
00000010
00000001
00000000
00000100
00000000
,
00001000
00000000
00010000
00000000
00100000
00000000
10000000
00010000
00000000
00000000
00000000
00000000
00100000
00000000
00000000
00000000
,
01000000
00010000
00001000
00000200
00000000
00000000
00000300
00000000
,
00000010
00001000
00000100
00000010
00001000
00010000
00000100
00000000
,
00001000
00000001
00000100
00001000
00010000
00000000
00001010
00000000
,
00010000
00001000
00100000
01000000
00010000
00001000
00100000
00000000
,
00010000
01000000
10000000
00010000
00100000
00000000
01010000
00000000
,
10000000
01000000
00010000
00001000
00000000
00000000
00000100
00000001
,
00000100
00001000
00010000
01000000
00000000
00000000
00100000
00010000
,
01000000
00100000
00010000
00001000
00100000
01000000
10000000
00010000
,
02020000
00000000
00000000
03030000
,
00011000
00000000
00000000
00000000
00100000
00000000
00010000
00000000
00000000
00000000
01000000
00000000
00001000
00010000
00000000
00000000
,
00001010
00000000
00000100
00000001
00000000
00001000
00000100
00000000
,
00011000
00000000
00000000
00000000
00100000
00000000
00010000
00000000
00000000
00000000
10000000
00000000
01000000
00100000
00000000
00000000
,
00110000
00000000
00000000
00000000
10000000
00000000
00100000
00000000
00000000
00000000
01000000
00000000
00010000
00000000
00100000
00010000
,
00100000
00000000
00000000
00000000
01000000
00000000
10000000
00000000
00000000
00000000
00010000
00000000
01000000
00001000
00000000
00000000
,
00011000
00000000
00000010
00001000
00000000
00000100
00000010
00000000
,
00000011
00000000
00000000
00000000
00001000
00000000
00000010
00000000
00000000
00000000
00010000
00000000
00001000
01000000
00000000
00000000
,
01010000
00000000
10000000
01000000
00000000
00100000
00010000
01000000
,
01001000
00000000
00000000
00000000
00040000
00000040
00000000
00000000
00000000
00000000
00000000
00000000
00000000
00000000
00000000
00030000
,
00004000
00000000
00003030
00000000
,
00011000
00000000
00000000
00000000
00400000
00040000
00000000
00000000
00000000
00000000
00000000
00000000
00000000
00000000
00000000
00300000
,
04000000
00000000
00000000
03030000
,
00011000
00000000
00000000
00000000
00000000
00000000
00000000
00000000
00000000
00000000
00000000
00000000
00000000
00000000
00000000
00000000
00000000
00000000
00000000
00000000
000M000M
00000000
00000000
00000000
00000000
00000000
00000000
00000000
M000M000
00000000
00000000
00000000
00000000
00000000
00000000
00000000
00M000M0
00000000
00000000
00000000
00000000
00000000
00000000
00000000
00000000
04000000
00000000
00000000
,
00000400
00000000
00000000
03000300
,
01000100
00000000
00000000
00000000
00040000
00004000
00000000
00000000
00000000
00000000
00000000
00000000
00033000
00000000
00000000
00000000
,
00011000
00000000
00000000
01010000
00000000
00100000
00100000
01000000
,
10010000
00000000
00000000
00000000
01000000
00000000
00010000
00000000
00100000
00000000
00010000
00100000
00010000
00000000
10000000
00010000
,
10000000
00000000
00100000
00000000
00010000
00000000
00001000
00000000
00100000
00000000
00001000
00010000
00001000
00000000
00000000
00000000
,
00011000
00000000
00000000
00000000
00000100
00000000
00001000
00000000
00000001
00000000
00000010
00000001
00000010
00000000
00000000
00000000
,
00001000
00010000
01000000
00100000
00010000
01000000
01000000
00000000
,
10100000
00000000
00000000
00000000
01000000
00000000
00010000
00000000
00100000
00000000
00001000
00100000
00001000
00000000
00010000
00001000
,
00010000
00000000
00000010
00000000
00001000
00000000
00000100
00000000
00000010
00000000
00000001
00001000
00000001
00000000
00000000
00000000
,
00001001
00000000
00000000
00000000
00000100
00000000
00001000
00000000
00010000
00000000
00000010
00001000
00000010
00000000
00000000
00000000
,
00000100
00001000
00010000
00100000
10000000
01000000
01000000
00000000
,
01010000
00000000
00000000
00000000
10000000
00000000
01000000
00000000
00100000
00000000
00010000
00100000
00010000
00000000
01000000
00010000
,
01000000
00000000
00001000
00000000
00010000
00000000
00000100
00000000
00001000
00000000
00000001
00000010
00000001
00000000
00000000
00000000
,
00000011
00000000
00000000
00000000
00001000
00000000
00000010
00000000
00010000
00000000
00001000
01000000
00001000
00000000
00000000
00000000
,
00100000
01000000
00010000
00001000
00000010
00000001
00000001
00000000
,
00001010
00000000
00000000
00000000
00000100
00000000
00000001
00000000
00000010
00000000
00000100
00001000
00000100
00000000
00010000
00000100
,
00010000
00000000
00001000
00000000
00100000
00000000
00010000
00000000
01000000
00000000
00010000
10000000
00010000
00000000
00000000
00000000
,
00010000
00100000
01000000
00010000
00001000
00000000
00011000
00000000
,
00000010
00000000
00001000
00000010
00001000
00000000
00000100
00000000
00010000
00000000
00000000
00000000
00011000
00000000
00000000
00000000
,
01000000
00000000
00100000
00000000
00010000
00000000
00001000
00000000
00000100
00000000
00000000
00000000
00000010
00000000
00010000
00001000
,
00040000
00004000
00000000
00000000
00000000
00000000
00000000
00000000
00000000
00000000
00000000
00000000
00000000
00000000
00000000
00000000
,
00033000
00000000
00000000
00000000
;

//---------------dance-double - Oren G.----------------
#NOTES:
     dance-double:
     Oren G.:
     Medium:
     5:
     0.307,0.000,0.069,0.031,0.000:
00000000
00000000
00000000
00000000
,
00000000
00000000
00000000
00000000
,
00000000
00000000
00000000
00000000
,
00000000
00000000
00000000
00000000
,
01000000
00000000
00100000
10000000
00100000
00000000
01000000
00000000
,
00001000
00000000
00010000
00000000
00001000
00100000
00001000
00000000
,
00010000
00000010
00010000
00000000
00001000
00000000
01000000
00000000
,
00010000
10000000
00010000
00000000
00100000
00000000
00001000
00000000
,
00010000
00000100
00010000
00000000
00001000
00000000
01000000
00000000
,
00040000
00000000
00000000
00030000
,
00100000
00000000
00000000
00001000
00000000
00010000
00001000
00000000
,
01000000
00000000
00000000
00010000
00000000
00000000
00100000
00001000
,
00010000
00000000
00000000
00000100
00000000
00000000
00001000
00000000
,
00000010
00000000
00000000
00000100
00000000
00000000
00001000
00000000
,
00000100
00000000
00000000
00000001
00001000
00000000
00000100
00000000
,
00000010
00000000
00000000
00001000
00000000
00000000
00010000
00000000
,
00001000
00000000
00000000
01000000
00000000
00000000
00000000
00000000
,
00010000
00000000
00100000
01000000
10000000
00000000
00000000
00000000
,
00010000
00000000
01000000
00001000
00010000
00000000
00000000
00000000
,
00010000
00000100
00010000
00000000
00000000
00000000
00000000
00000000
,
00001000
00000000
00010000
00000010
00001000
00000000
00000001
00000000
,
00000100
00000000
00000000
00001000
00000000
00000000
00010000
00000000
,
01000000
00000000
00000000
10000000
00000000
00000000
00000000
00000000
,
00100000
00000000
01000000
00001000
00000000
00000000
00100000
00000000
,
00010000
00000000
10000000
01000000
00000000
00000000
00100000
00000000
,
00001000
00000000
00010000
00000100
00000000
00000000
00000000
00000000
,
00001000
00000000
00000000
00000010
00000000
00000000
00010000
00000000
,
00001000
00100000
01000000
10000000
,
00010000
00000000
00000000
00100000
00000000
00000000
00001000
00000000
,
00010000
00000100
00001000
00000000
,
00000010
00000000
00000000
00000100
00000000
00000000
00001000
00000000
,
00010000
00000000
00000000
00100000
10000000
00000000
00010000
00000000
,
00100000
00000000
00000000
00001000
00000000
00000000
00000000
00000000
,
00010000
00000000
00000000
00010000
00000000
00000000
00000000
00000000
,
00010000
00001000
00100000
01000000
,
00010000
00000000
00001000
00010000
00001000
00000000
00000100
00000000
,
00000001
00000000
00001000
00000010
,
00010000
00000000
00001000
00100000
00001000
00000000
00000000
00000000
,
01000000
00010000
10000000
01000000
,
00010000
00001000
00000010
00000001
,
00000200
00000000
00000000
00000300
,
00022000
00000000
00000000
00033000
,
00001000
00000000
00100000
00010000
00000000
10000000
01000000
00000000
,
00100000
00000000
00000000
00010000
00000000
01000000
00001000
00000000
,
00010000
00000000
00000100
00001000
00000000
00000001
00000010
00000000
,
00000100
00000000
00000000
00001000
00000000
00000010
00010000
00000000
,
00001000
00000000
01000000
00010000
00000000
10000000
01000000
00000000
,
00100000
00000000
00000000
00010000
00000000
01000000
00001000
00000000
,
00010000
00000000
00000100
00001000
00000000
00000001
00000100
00000000
,
00000010
00000000
00000000
00001000
00000000
00000100
00010000
00000000
,
00011000
00044000
00000000
00000000
,
00000000
00000000
00033000
00010000
,
00101000
00404000
00000000
00000000
,
00000000
00000000
00303000
00010000
,
10010000
00000000
40000000
00000000
,
00040000
00000000
30030000
01000000
,
00110000
00440000
00000000
00330000
,
00011000
00000000
00000000
00000010
00000000
00000000
00001000
00000000
,
00001000
00000000
00000001
00000100
00000001
00000000
00000010
00000000
,
00001000
00000000
00010000
00000000
00000100
00010000
00000100
00000000
,
00010000
00000000
00001000
00010000
00001000
00000000
01000000
00000000
,
00010000
10000000
00010000
00000000
00100000
00000000
00000000
00000000
,
00010000
00000000
01000000
00010000
01000000
00000000
00001000
00000000
,
00010000
00000000
00000100
00000000
00001000
00000100
00001000
00000000
,
00000001
00000000
00000010
00000100
00001000
00000000
00000010
00000000
,
00010000
00001000
00010000
00000000
00000100
00000000
00000000
00000000
,
00001000
00000000
00000010
00010000
00001000
00000000
01000000
00000000
,
00010000
00000000
00100000
00000000
00001000
00010000
00000100
00000000
,
00001000
00000000
00000010
00000100
00000001
00000000
00001000
00000000
,
00000100
00010000
00001000
00000000
01000000
00000000
00000000
00000000
,
00010000
00000000
10000000
01000000
00100000
00000000
00010000
00000000
,
01000000
00000000
00001000
00000000
00010000
00000100
00001000
00000000
,
00000010
00010000
00001000
00000000
00100000
00000000
01000000
00000000
,
10000000
00010000
00100000
00000000
00001000
00000000
00010000
00000000
,
00000100
00001000
00000001
00000000
00000100
00000000
00000010
00010000
,
00002000
00000000
00000000
00003000
;

//---------------dance-single - D. Runberg----------------
#NOTES:
     dance-single:
     D. Runberg:
     Challenge:
     10:
     0.713,0.000,0.324,0.293,0.493:
0000
0000
0000
0000
,
0000
0000
0000
0000
,
0000
0000
0000
0000
,
0000
0000
0000
0000
,
2000
0000
0000
0000
3001
0000
0100
0000
0010
1000
0100
0010
0001
0000
0000
0001
,
0100
0000
0100
0000
0010
0000
1000
0000
0100
0000
0100
0010
0100
0000
M0M0
0000
,
1000
1000
0001
0100
0020
0M00
1030
0000
,
0010
0010
0100
0001
0020
0000
0130
0000
,
0010
0010
0001
1000
0200
0000
0310
0000
,
0004
4000
0000
0000
0000
0000
0000
0000
0000
0000
3003
0000
0000
0000
0000
0000
,
100M
0000
0000
1M00
0000
0000
10M0
0000
0000
0000
0101
0000
0101
0000
0000
0000
,
0002
0000
0100
0203
0000
0301
0020
0000
,
1000
0000
0000
0000
0100
0000
0130
0000
0000
0000
0010
0000
0022
0000
0000
0033
,
2002
0000
0000
3003
0001
0000
0100
0000
0000
0000
0002
0000
2000
0000
0000
0000
,
0010
0000
0000
3003
0000
0000
0001
0000
0100
0000
1000
0000
0100
0000
0001
0000
,
0020
0000
0100
0130
0010
0001
1000
0010
,
02M0
0000
0310
1000
0100
0100
1000
0001
,
002M
0000
0031
0010
0100
1000
0001
0100
,
0M20
0000
1030
1000
0100
0001
0100
1000
,
1001
0000
0000
1000
0010
0000
0100
0000
0001
0000
0010
0000
0001
0000
0100
0000
,
0101
0000
0000
0100
0010
0000
0100
0000
1000
0000
0000
0100
0001
0000
0010
0000
,
0100
0000
0000
1000
0100
0000
1000
0000
0001
0000
0010
0000
0001
0000
0100
0000
,
0001
0100
0001
0100
0010
0100
0010
0100
,
1000
0100
1000
0100
0001
0100
0001
1000
,
0002
0000
0000
0000
1003
0000
0000
0100
0010
0000
0100
0000
1001
0000
0000
0000
,
2000
0000
0000
0000
0000
0000
3001
0000
0100
0010
0100
0010
1000
0001
1000
0001
,
0020
0000
0000
0031
0100
0000
0010
1000
0100
0000
1000
0001
0100
0000
0000
0000
,
0020
0000
0000
0000
1030
0000
0100
1000
0000
0001
0100
0000
0010
1000
0001
0000
,
0010
0000
0100
0010
0000
0100
0000
1000
0001
0000
0100
0000
0010
0000
0100
0010
,
1000
0000
0100
0000
0010
0000
0002
0000
0000
0000
0013
0000
0001
0000
1000
0001
,
1000
0000
0000
0001
0100
0000
0010
0000
0000
1000
0001
0000
0010
0000
0100
0000
,
1000
0000
0000
0001
0100
0000
0010
0000
0000
0100
0001
0000
1000
0000
0100
0000
,
0010
0000
0000
0001
0010
0000
0001
0000
0000
0010
0100
0000
0010
0000
0001
0000
,
2002
0000
0000
0010
0000
0000
3003
0000
,
1001
0000
0001
0100
0010
0000
0010
1000
0000
1000
0100
0000
1000
0000
0001
0000
,
0100
0000
0001
1000
0100
0000
0100
0010
0000
0010
0001
0100
0010
0000
1000
0010
,
1000
0001
0010
0200
0000
1300
0010
0100
,
0001
0000
0010
0000
0100
0000
1000
0100
0000
1000
0000
0001
0100
0000
0010
0000
,
1000
0010
0100
0002
0000
0013
0100
0010
,
0001
0000
1000
0000
0010
0000
0100
0001
0000
1000
0000
0001
1000
0000
0100
0000
,
1000
0000
0100
0000
0010
0000
0001
1000
0000
0010
0000
0100
0001
0000
0010
0000
,
0004
4000
0000
0000
0000
0000
0000
0000
0000
0000
0000
0000
3003
0000
0000
0000
,
0001
0100
0001
0100
0010
0000
0100
0000
0001
1000
0001
1000
0100
0000
0000
0000
,
1000
0100
1000
0100
0010
0000
0100
0000
0010
0001
0010
0001
1000
0000
1000
0000
,
0001
1000
0001
1000
0010
0000
0100
0000
0010
0100
0010
0100
0001
0000
0000
0000
,
1000
0001
1000
0100
0010
0000
0100
0000
0010
0100
1000
0100
0010
0001
1000
0000
,
0001
0100
0010
1000
0010
0000
1000
0000
0010
1000
0100
1000
0001
0000
0000
0000
,
1000
0001
0100
0010
1000
0000
0001
0010
0100
1000
0100
0010
0001
0000
0001
0000
,
1000
0001
0100
0001
0010
0000
0001
0010
0001
0100
0010
1000
0100
0000
0000
0000
,
1000
0010
0100
0010
1000
0100
1000
0001
0100
0000
0100
0000
0001
0000
0001
0000
,
1001
0000
1000
0000
0004
0400
0000
0000
0000
0000
0000
0000
0303
0000
0000
0000
,
0001
0100
0010
0100
0001
0000
0100
0000
0010
1000
0100
1000
0010
0000
0010
0000
,
0110
0000
0100
0000
0004
4000
0000
0000
0000
0000
0000
0000
3003
0000
0000
0000
,
1000
0010
0100
0010
1000
0000
0010
0000
1000
0100
0010
0001
0010
0100
1000
0000
,
1002
0000
0000
0000
0000
0203
0000
0000
0320
0000
0000
2030
0000
0000
3001
0000
,
1000
0001
1000
0010
0100
0000
0010
0100
0001
1000
0001
0010
0100
0000
0100
0000
,
1100
1000
0001
1000
0001
0100
0010
0100
,
0101
0000
0000
0MMM
0000
0000
1001
0000
MMM0
0000
1100
0000
1001
0000
1000
0001
,
2000
0000
0000
0000
3001
0000
0100
0000
0010
1000
0010
1000
0001
0000
00M0
1000
,
0100
0010
0001
0001
1000
1100
0101
0000
,
020M
0000
0000
0000
0310
0000
1000
0000
0001
0000
0001
0010
0001
0000
0000
0000
,
1000
1000
0010
0100
0001
0011
1010
0000
,
M020
0000
0000
0000
0130
0000
0001
0000
0010
0001
0010
0100
0010
M000
0000
0100
,
1000
1000
0001
0100
0010
0110
1001
0000
,
M002
0000
0000
0000
0103
0000
0010
0000
1000
0100
0010
0001
0010
0000
0M00
0001
,
0100
0100
0010
1000
0100
1100
0011
0000
,
2002
0000
0000
0000
0000
0000
0000
0000
3000
0000
0000
0000
1003
0000
0000
0000
0000
0000
0010
0000
0000
0000
0000
0000
0100
0000
0000
0001
0000
0000
0010
0000
0000
0001
0000
0000
1000
0000
0000
00M0
0000
0000
0000
0000
0000
0001
0000
0000
,
0010
0010
0001
1000
0010
1010
0011
0000
,
0202
0000
0000
0000
0000
0000
0000
0000
0003
0000
0000
0000
0301
0000
0000
0000
0000
0000
1000
0000
0000
0000
0000
0000
0100
0000
0000
0010
0000
0000
0001
0000
0000
1000
0000
0000
0010
0000
0000
0000
0000
0000
0M00
0000
0000
1000
0000
0000
,
0100
0100
1000
0001
0100
0101
1010
0000
,
1001
0000
0000
0000
0110
0000
0100
0000
0010
0000
1000
0001
1000
0000
0M00
0001
,
0010
0010
0100
0100
1001
0100
M11M
0000
,
M1M1
0001
0100
1000
11MM
0000
M11M
0000
,
M1M1
0001
0010
1000
1M1M
0000
M11M
0000
,
MM11
0000
0001
0000
0100
0000
0010
0000
1000
0000
0001
0000
1000
0001
0010
0100
,
4000
0004
0000
0000
0000
0000
0000
0000
0000
0000
0000
0000
0000
0000
0000
0000
,
3003
0000
0000
0000
;

//---------------dance-double - D. D'Amato----------------
#NOTES:
     dance-double:
     D. D'Amato:
     Easy:
     3:
     0.243,0.000,0.039,0.069,0.000:
00000000
00000000
00000000
00000000
,
00000000
00000000
00000000
00000000
,
00000000
00000000
00000000
00000000
,
00000000
00000000
00000000
00000000
,
01000000
00000000
00100000
10000000
,
01000000
00000000
00100000
00001000
,
00010000
00000000
00000010
00010000
,
00001000
00000000
01000000
00001000
,
00010000
00000100
00001000
00000001
,
00000200
00000000
00000000
00000300
,
00000010
00000000
00001000
00001000
,
00000100
00000000
00000000
00010000
,
00001000
00000000
00100000
01000000
,
00100000
00000000
00010000
01000000
,
00010000
00000000
10000000
00100000
,
10000000
00000000
01000000
00100000
,
01000000
00000000
10000000
00000000
,
00100000
00000000
00010000
00001000
,
00010000
00000000
00000100
00001000
,
00000100
00000000
00001000
00000001
,
00000100
00000000
00000010
00000100
,
00000001
00000000
00000000
00001000
,
00000100
00000000
00000010
00000000
,
00000001
00000100
00000000
00000010
,
00010000
00001000
00000000
00100000
,
00001000
00000000
00020000
00000000
,
00031000
01000000
00010000
00000000
,
10000000
00000000
10000000
01000000
,
00010000
00000000
00000000
00001000
,
00100000
00010000
01000000
00000000
,
00001000
00010000
00000010
00000100
,
00000001
00000000
00000001
00000100
,
00001000
00000000
00001000
00000000
,
00010000
00000000
00010000
00000000
,
01000000
00000000
00100000
00010000
,
01000000
00001000
00001000
00000100
,
00000001
00000000
00001000
00000010
,
00010000
00001000
00000100
00000000
,
00000100
00000000
00000010
00001000
,
00000100
00010000
00010000
01000000
,
10000000
00000000
01000000
00010000
,
00022000
00000000
00000000
00033000
,
00001000
00000000
00100000
00000000
,
01000000
00000000
10000000
00100000
,
01000000
00000000
00010000
00000000
,
00100000
00000000
00000000
00001000
,
00010000
00000000
00000010
00000000
,
00000100
00000000
00000001
00000010
,
00000100
00000000
00001000
00000000
,
00000010
00000000
00010000
00010000
,
00002000
00000000
00000000
00000000
,
00100000
00000000
00013000
00000100
,
00020000
00000000
00000000
00000000
,
00001000
00000000
00030010
00001000
,
00000200
00000000
00000000
00000000
,
00000010
00000000
00001300
00000010
,
00020000
00000000
00000000
00000000
,
00031000
00000000
00000000
00011000
00000000
00011000
00000000
00000000
,
00011000
00001000
00010000
00010000
,
01000000
00010000
00001000
00001000
,
00000100
00000001
00000001
00000010
,
00000100
00001000
00000100
00000000
,
00010000
00010000
00001000
00001000
,
00000100
00001000
00010000
00010000
,
01000000
10000000
10000000
00100000
,
01000000
00010000
01000000
00000000
,
00011000
00001000
00010000
00010000
,
00100000
00010000
00001000
00001000
,
00000010
00000001
00000001
00000100
,
00001000
00010000
00001000
00000000
,
00010000
00010000
00001000
00001000
,
00000010
00001000
00010000
00010000
,
00100000
10000000
10000000
01000000
,
00010000
00001000
00001000
00000100
,
00000001
00000001
00000010
00001000
,
00000020
00000000
00000000
00000000
,
00000030
00000000
00000000
00000000
;

//---------------dance-single - R. Woods----------------
#NOTES:
     dance-single:
     R. Woods:
     Beginner:
     1:
     0.093,0.000,0.015,0.000,0.000:
0000
0000
0000
0000
,
0000
0000
0000
0000
,
0000
0000
0000
0000
,
0000
0000
0000
0000
,
0001
0000
0000
0000
,
0100
0000
0000
0000
,
0010
0000
0000
0000
,
1000
0000
0000
0000
,
0001
0000
0000
0000
,
1000
0000
0000
0000
,
0000
0000
0000
0000
,
0100
0000
0000
0000
,
0010
0000
0000
0000
,
0001
0000
0000
0000
,
1000
0000
0000
0000
,
0010
0000
0000
0000
,
1000
0000
0000
0000
,
0100
0000
0000
0000
,
0010
0000
0000
0000
,
0001
0000
0000
0000
,
0100
0000
0000
0000
,
0010
0000
0000
0000
,
1000
0000
0000
0000
,
1000
0000
0000
0000
,
0100
0000
0000
0000
,
0010
0000
0000
0000
,
0001
0000
0000
0000
,
0010
0000
0000
0000
,
0100
0000
0000
0000
,
1000
0000
0000
0000
,
0010
0000
0000
0000
,
0100
0000
0000
0000
,
0001
0000
0000
0000
,
1000
0000
0000
0000
,
0100
0000
0000
0000
,
0010
0000
0000
0000
,
0001
0000
0000
0000
,
1000
0000
0000
0000
,
0010
0000
0000
0000
,
0100
0000
0000
0000
,
0001
0000
0000
0000
,
1000
0000
0000
0000
,
0001
0000
0000
0000
,
0001
0000
0000
0000
,
1000
0000
0000
0000
,
1000
0000
0000
0000
,
0001
0000
0000
0000
,
0001
0000
0000
0000
,
1000
0000
0000
0000
,
1000
0000
0000
0000
,
0100
0000
0100
0000
,
0100
0000
0000
0000
,
0010
0000
0010
0000
,
0010
0000
0000
0000
,
0001
0000
0001
0000
,
0001
0000
0000
0000
,
1000
0000
0000
0000
,
1000
0000
0001
0000
,
1001
0000
0000
0000
,
0100
0100
0000
0000
,
0010
0010
0000
0000
,
1000
1000
0000
0000
,
0100
0000
0000
0000
,
0010
0000
0000
0000
,
0001
0000
0000
0000
,
1000
0000
0000
0000
,
0001
0000
0001
0000
,
0001
0000
0000
0000
,
1000
0000
1000
0000
,
1000
0000
0000
0000
,
0001
0000
0001
0000
,
0001
0000
0000
0000
,
0100
0000
0100
0000
,
0100
0000
0000
0000
,
0010
0000
0000
0000
,
1001
0000
0000
0000
;
