#TITLE:Ode to Dragon;
#SUBTITLE:;
#ARTIST:Sanxion7;
#TITLETRANSLIT:;
#SUBTITLETRANSLIT:;
#ARTISTTRANSLIT:;
#GENRE:Techno;
#CREDIT:Sync by HellRazor;
#BANNER:Ode to Dragon-bn.png;
#BACKGROUND:Ode to Dragon-bg.png;
#LYRICSPATH:;
#CDTITLE:;
#MUSIC:Ode to Dragon.ogg;
#OFFSET:-0.076;
#SAMPLESTART:99.987;
#SAMPLELENGTH:12.000;
#SELECTABLE:YES;
#DISPLAYBPM:145.000:120.000;
#BPMS:0=145,32=120,36=123.2,40=127.6,44=131.2,48=134.2,52=137.3,56=140.4,60=143.4,64=145;
#STOPS:;
#BGCHANGES:0.000=Ode to Dragon-bg.png=1.000=0=0=1=====,
16.000=In The Groove Rebirth/215_JB_HD.mpg=1.000=1=0=1===CrossFade==,
32.000=In The Groove Rebirth/875_JumpBack.mpg=1.000=0=0=1=SongBgWithMovieViz====,
48.000=In The Groove Rebirth/419_JB_HD.mpg=1.000=1=0=1=SongBgWithMovieViz==CrossFade==,
64.000=In The Groove Rebirth/415_JB_HD.mpg=1.000=0=0=1=====,
80.000=In The Groove Rebirth/800_JumpBack.mpg=1.000=0=0=1===SlideDown==,
96.000=In The Groove Rebirth/1124_JumpBack.mpg=1.000=0=0=1=====,
112.000=In The Groove Rebirth/255_JB_HD.mpg=1.000=0=0=1===SlideUp==,
128.000=In The Groove Rebirth/163_JB_HD.mpg=1.000=0=0=1=====,
144.000=In The Groove Rebirth/215_JB_HD.mpg=1.000=0=0=1===SlideDown==,
160.000=In The Groove Rebirth/308_JB_HD.mpg=1.000=0=0=1=====,
176.000=In The Groove Rebirth/1154_JumpBack.mpg=1.000=0=0=1===SlideRight==,
192.000=In The Groove Rebirth/875_JumpBack.mpg=1.000=0=0=1=====,
208.000=In The Groove Rebirth/419_JB_HD.mpg=1.000=0=0=1===SlideLeft==,
224.000=In The Groove Rebirth/1124_JumpBack.mpg=1.000=0=0=1=====,
240.000=In The Groove Rebirth/800_JumpBack.mpg=1.000=0=0=1=====,
256.000=In The Groove Rebirth/255_JB_HD.mpg=1.000=0=0=1=====,
264.000=In The Groove Rebirth/215_JB_HD.mpg=1.000=1=0=1===CrossFade==,
280.000=In The Groove Rebirth/824_JumpBack.mpg=1.000=0=0=1=====,
296.000=Ode to Dragon-bg.png=1.000=0=0=1=====,
99999=-nosongbg-=1.000=0=0=0 // don't automatically add -songbackground-
;
#BGCHANGES2:32.000=white flash=1.000=0=0=1=====,
96.000=white flash=1.000=0=0=1=====,
160.000=white flash=1.000=0=0=1=====,
224.000=flash=1.000=0=0=1====0^0^1^1=,
280.000=white flash=1.000=0=0=1=====,
296.000=flash=0.500=0=0=1====0^0^1^1=,
;
#KEYSOUNDS:;

//---------------dance-single - D. Bernardone----------------
#NOTES:
     dance-single:
     D. Bernardone:
     Easy:
     3:
     0.238,0.264,0.039,0.196,0.000:
0000
0000
0000
0000
,
0000
0000
0000
0000
,
0000
0000
0000
0000
,
0000
0000
0000
0000
,
1000
0000
0000
0000
,
0001
0000
0000
0000
,
0100
0000
0000
0000
,
0010
0000
1000
0001
,
1002
0000
0003
0000
,
0200
0000
0300
0000
,
0020
0000
0030
0000
,
2000
0000
3000
0000
,
0200
0000
0300
0000
,
2000
0000
3000
0000
,
0002
0000
0003
0000
,
0200
0000
0300
0000
,
0010
0010
0000
1000
,
0100
1000
0000
0001
,
0010
0001
0000
0100
,
0010
0100
0000
0001
,
1000
0001
0000
1000
,
0100
1000
0000
0010
,
1000
0010
0000
0100
,
0010
0100
0000
0001
,
0002
0000
1003
0000
,
2000
0000
3010
0000
,
0020
0000
0130
0000
,
0200
0000
0301
0000
,
0002
0000
0013
0000
,
0020
0000
0130
0000
,
0200
0000
1300
0000
,
2000
0000
3001
0000
,
0002
0000
0103
0000
,
0200
0000
1300
0000
,
2000
0000
3100
0000
,
0200
0000
0301
0000
,
0002
0000
0013
0000
,
0020
0000
1030
0000
,
2000
0000
3010
0000
,
0010
0001
0000
1000
,
1001
0000
0001
0000
,
0100
0000
0010
0000
,
0100
0000
0001
0000
,
0010
0000
0100
0000
,
1000
0000
0010
0000
,
0100
0000
0010
0000
,
1000
0000
0100
0000
,
0010
0000
0001
0000
,
1000
0100
1000
0100
,
1000
0001
1000
0001
,
0100
0010
0100
0010
,
1000
0010
1000
0010
,
0100
0001
0100
0001
,
0010
0001
0010
0001
,
1000
0001
1000
0001
,
0100
0100
0000
0010
,
0110
0100
0001
0001
,
1000
1000
0100
0100
,
1000
1000
0001
0001
,
0100
0100
0010
0010
,
1000
1000
0010
0010
,
1000
1000
0100
0100
,
0010
0010
0001
0001
,
0100
0100
0010
0010
,
1000
1000
0001
0001
,
0010
0010
0100
0100
,
1001
0000
1000
1000
,
1000
0000
0010
0010
,
0010
0000
0100
0100
,
0100
0000
0010
0010
,
1000
0000
0001
0001
,
0001
0000
0010
0010
,
0010
0000
0100
0100
,
0100
0000
1000
1000
,
2002
0000
0000
0000
,
3003
0000
0000
0000
;

//---------------dance-single - D. Bernardone----------------
#NOTES:
     dance-single:
     D. Bernardone:
     Beginner:
     1:
     0.097,0.116,0.024,0.000,0.000:
0000
0000
0000
0000
,
0000
0000
0000
0000
,
0000
0000
0000
0000
,
0000
0000
0000
0000
,
1000
0000
0000
0000
,
1000
0000
0000
0000
,
0010
0000
0000
0000
,
0100
0000
0000
0000
,
0110
0000
0000
0000
,
0000
0000
0000
0000
,
0001
0000
0000
0000
,
0000
0000
0000
0000
,
1000
0000
0000
0000
,
0000
0000
0000
0000
,
0100
0000
0000
0000
,
0000
0000
0000
0000
,
0010
0000
0000
0000
,
0001
0000
0000
0000
,
0100
0000
0000
0000
,
0010
0000
0000
0000
,
1000
0000
0000
0000
,
0100
0000
0000
0000
,
0010
0000
0000
0000
,
0001
0000
1000
0000
,
0001
0000
0000
0000
,
0100
0000
0000
0000
,
0001
0000
0000
0000
,
0010
0000
0000
0000
,
0100
0000
0000
0000
,
1000
0000
0000
0000
,
0001
0000
0000
0000
,
0100
0000
0000
0000
,
0010
0000
0000
0000
,
0100
0000
0000
0000
,
0001
0000
0000
0000
,
0010
0000
0000
0000
,
0100
0000
0000
0000
,
1000
0000
0000
0000
,
0010
0000
0000
0000
,
0100
0000
0000
0000
,
0001
0000
0100
0000
,
0100
0000
0010
0000
,
0010
0000
1000
0000
,
1000
0000
0100
0000
,
0100
0000
1000
0000
,
1000
0000
0010
0000
,
0010
0000
0100
0000
,
0100
0000
0001
0000
,
0001
0000
0010
0000
,
0010
0000
0001
0000
,
0001
0000
1000
0000
,
1000
0000
0100
0000
,
0100
0000
1000
0000
,
1000
0000
0001
0000
,
0001
0000
0100
0000
,
0100
0000
0001
0000
,
1001
0000
0000
0000
,
1000
0000
0000
0000
,
0100
0000
0000
0000
,
0001
0000
0000
0000
,
0100
0000
0000
0000
,
1000
0000
0000
0000
,
0001
0000
0000
0000
,
0010
0000
0000
0000
,
1000
0000
0000
0000
,
0010
0000
0000
0000
,
0001
0000
0000
0000
,
0001
0000
0000
0000
,
0001
0000
0000
0000
,
1000
0000
0000
0000
,
1000
0000
0000
0000
,
1000
0000
0000
0000
,
0010
0000
0000
0000
,
0010
0000
0000
0000
,
0110
0000
0000
0000
;

//---------------dance-single - D. Bernardone----------------
#NOTES:
     dance-single:
     D. Bernardone:
     Medium:
     5:
     0.421,0.382,0.172,0.188,0.000:
0000
0000
0000
0000
,
0000
0000
0000
0000
,
0000
0000
0000
0000
,
0000
0000
0000
0000
,
1000
0001
0200
0000
0010
0000
0010
0000
,
0310
1000
0002
0000
0100
0000
0100
0000
,
0103
0010
2000
0000
0001
0000
0001
0000
,
3001
0100
0020
0000
0100
0000
0100
0100
,
0130
0100
0100
0100
,
0001
0001
0001
0001
,
0010
0010
0010
0000
0100
0000
0100
0000
,
0100
0100
0100
0000
0010
0000
0010
0000
,
0010
0010
0010
0000
0001
0000
0001
0000
,
0001
0001
0001
0000
1000
0000
1000
0000
,
1000
1000
1000
0000
0010
0000
0010
0000
,
0010
0010
0010
0000
0100
0000
0001
0000
,
0101
1000
0100
0001
,
0100
1000
0010
0100
,
0001
0010
0100
1000
,
0010
0100
0001
0010
,
0100
1000
0001
0100
,
0010
1000
0100
1000
,
0001
0010
1000
0010
,
0001
0100
0001
0010
,
0200
1000
1000
1000
,
2300
0001
0001
0001
,
3002
0010
0010
0010
,
0023
0100
0100
0100
,
0230
1000
1000
1000
,
2300
0010
0010
0010
,
3020
0100
0100
0100
,
0230
0001
1000
0001
,
0320
1000
0100
1000
,
0230
0010
0001
0010
,
0302
1000
0100
1000
,
0203
1000
0010
1000
,
0320
0001
0100
0001
,
0230
0001
0010
0001
,
0320
1000
0100
1000
,
0230
1000
0001
1000
,
0310
0000
0100
0000
0100
0010
0100
0010
,
1000
0000
0100
0000
0010
0001
0010
0001
,
1000
0000
0010
0000
0100
0001
0100
0001
,
0010
0000
0100
0000
1000
0001
1000
0001
,
0010
0000
0100
0000
1000
0010
1000
0010
,
0100
0000
0001
0000
0010
0100
0010
0100
,
1000
0000
0010
0000
0110
0000
0100
0001
,
1000
0000
0100
0000
0110
0000
0010
0001
,
1000
0000
0010
0000
0100
0001
0100
0001
,
0010
0000
0100
0000
0010
0001
0010
0001
,
1000
0000
0010
0000
0100
0001
0100
0001
,
1000
0000
0100
0000
1000
0010
1000
0010
,
0100
0000
0001
0000
0010
0100
0010
0100
,
1000
0000
0001
0000
1001
0000
1000
0010
,
0100
0000
0001
0000
1001
0000
0001
0010
,
0100
0100
0000
0000
1000
0000
0001
0000
,
1001
0000
0100
0010
,
0100
0000
0000
0000
0001
1000
0001
0000
,
1000
0001
1000
0000
0001
1000
0001
0000
,
0100
0010
0100
0000
0010
0100
0010
0000
,
0100
0010
0100
0000
0010
0100
0010
0000
,
1000
0010
1000
0000
0010
1000
0010
0000
,
1000
0100
1000
0000
0100
1000
0100
0000
,
1000
0001
1000
0000
0001
1000
0001
0000
,
0100
0001
0100
0000
0001
0100
0001
0000
,
0010
0001
0010
0000
0001
0010
0001
0000
,
2002
0000
0000
3003
,
0001
0110
1000
0110
,
0001
1100
0010
1100
,
0001
1010
0100
1010
,
0001
0110
1000
0101
,
0010
0101
1000
0011
,
0100
0011
1000
1001
,
0001
1001
1000
1001
,
0220
0000
0000
0000
,
0330
0000
0000
0000
;

//---------------dance-single - D. Bernardone----------------
#NOTES:
     dance-single:
     D. Bernardone:
     Hard:
     7:
     0.485,0.558,0.290,0.157,0.208:
0000
0000
0000
0000
,
0000
0000
0000
0000
,
0000
0000
0000
0000
,
0000
0000
0000
0000
,
0001
0000
0010
0000
0100
0000
0000
0000
1000
0000
0000
1000
0000
0000
0010
0000
,
0100
0000
0001
0000
0010
0000
0000
0000
0100
0000
0000
0100
0000
0000
1000
0000
,
0010
0000
0100
0000
0001
0000
0000
0000
0010
0000
0000
0010
0000
0000
0100
0000
,
1000
0000
0010
0000
0100
0000
0000
0000
0001
0000
0000
0001
0000
0000
1000
0000
,
1001
0100
0010
0100
,
0001
1000
0001
0100
,
0001
1000
0001
1000
0001
1000
0001
0000
,
0110
0000
1000
0100
1000
0000
0101
0000
,
1000
0100
1000
0001
,
0100
0010
0100
0010
0100
0010
0100
0000
,
0001
0010
0001
0010
0001
0010
0001
0000
,
1010
0100
0001
1000
,
1001
0000
0001
0000
0010
0001
0100
0000
,
1001
0000
0000
0000
1000
0000
0000
0000
0010
1000
0000
0000
1000
0000
0000
0000
,
0001
0100
0001
0010
0001
0100
0001
0000
,
1100
0000
0000
0000
0010
0000
0100
0000
0001
0100
0000
0000
0100
0000
0000
0000
,
1010
0000
1000
0100
0010
0000
0001
0000
,
1000
0100
1000
0010
1000
0100
1000
0000
,
0010
1000
0010
0100
0010
1000
0010
0000
,
1100
0000
0100
1000
0001
0000
0010
0000
,
1002
0000
0103
0000
0110
0000
1000
0100
,
0002
0000
0013
0000
0110
0000
1000
0010
,
0002
0000
0103
0000
1010
0000
0001
0100
,
2000
0000
3010
0000
0011
0000
0001
0010
,
2000
0000
3100
0000
0001
0001
0100
1000
,
0020
0000
0031
0000
1000
1000
0010
0001
,
0200
0000
1300
0000
1001
0000
0010
1000
,
0200
0000
0301
0000
0110
0000
0100
0001
,
0020
0000
0000
0000
1030
0000
0000
0000
0100
0000
0000
0000
1000
0000
0000
0010
,
0100
0000
0000
0000
0001
0000
0000
0000
1000
0000
0000
0000
0100
0000
0000
0010
,
0001
0000
0000
0000
1000
0000
0000
0000
0010
0000
0000
0000
0001
0000
0000
1000
,
0100
0000
0000
0000
0010
0000
0000
0000
1000
0000
0000
0000
0001
0000
0000
0100
,
0010
0000
1000
0000
0001
0000
0000
0000
1000
0000
0000
0000
0100
0000
0000
0010
,
0001
0000
1000
0000
0010
0000
0000
0000
1000
0000
0000
0000
0100
0000
0000
0001
,
1000
0000
0010
0000
0001
0000
0000
0000
0100
0000
0000
0000
0010
0000
0000
1000
,
0100
0000
0010
0000
0001
0000
0000
0000
1000
0000
0000
0000
0010
0000
0000
0001
,
0100
0000
0010
0000
0100
0000
0000
0000
0001
0000
0000
0001
0000
0000
1000
0000
,
0100
0000
0010
0000
0100
0000
0000
0000
1000
0000
0000
1000
0000
0000
0010
0000
,
0100
0000
0001
0000
0100
0000
0000
0000
0010
0000
0000
0010
0000
0000
1000
0000
,
0001
0000
0010
0000
0001
0000
0000
0000
0100
0000
0000
0100
0000
0000
0010
0000
,
1000
0000
0100
0000
1000
0000
0000
0000
0001
0000
0000
0101
0000
0000
1000
0001
,
0000
0000
0010
0000
0100
0000
0000
0000
1000
0000
0000
1010
0000
0000
0001
1000
,
0000
0000
0100
0000
0010
0000
0000
0000
0001
0000
0000
1010
0000
0000
1000
0100
,
0000
0000
0010
0000
0001
0000
0000
0000
0100
0000
0000
0110
0000
0000
0001
0010
,
0100
0000
0000
0000
0110
0000
0000
0000
1000
0000
0001
0100
0000
0000
0001
0000
,
0100
0000
0010
0000
1010
0000
0000
0000
1000
0000
0100
0010
0000
0000
0100
0000
,
0010
0000
0001
0000
0011
0000
0000
0000
0100
0000
1000
0001
0000
0000
1000
0000
,
0001
0000
1000
0000
1100
0000
0000
0000
0010
0000
0001
1000
0000
0000
0001
0000
,
1000
0000
0001
0000
0101
0000
0000
0000
0001
0000
1000
0100
0000
0000
1000
0010
,
0100
0000
0001
0000
0101
0000
0000
0000
0001
0000
1000
0010
0000
0000
1000
0100
,
0010
0000
0001
0000
1001
0000
0000
0000
1000
0000
0001
0010
0000
0000
0001
0100
,
0010
0000
1000
0000
1001
0000
0000
0000
0001
0000
0100
0010
0000
0000
1000
0200
,
2000
3300
1000
0100
,
1000
M0MM
0010
0001
,
0010
MMM0
0100
0010
,
0100
MM0M
1000
0100
,
1000
MMM0
0010
0100
,
0010
M0MM
1000
0001
,
1000
MMM0
0100
0001
,
0100
MM0M
1000
0100
,
1000
MMM0
0100
0001
,
0100
0010
1000
M0MM
0010
0001
1000
0010
,
0110
0000
0000
0000
0000
0000
0000
0000
0002
0000
0000
0000
0100
00M0
0000
00M0
,
0103
0000
0000
0000
0011
0000
0000
0000
0020
0000
0000
0000
1000
0M00
0000
0M00
,
1030
0000
0000
0000
1100
0000
0000
0000
0200
0000
0000
0000
0010
000M
0000
000M
,
0310
0000
0000
0000
0011
0000
0000
0000
0002
0000
0000
0000
1000
0M00
0003
0M00
,
1001
0000
0000
0000
1100
0000
0000
0000
0200
0000
0000
0000
1000
000M
0000
000M
,
1300
0000
0000
0000
1001
0000
0000
0000
0002
0000
0000
0000
0010
0M00
0000
0M00
,
0013
0000
0000
0000
0110
0000
0000
0000
0200
0000
0000
0000
1000
000M
0000
000M
,
1300
0000
0010
0000
0100
0000
0000
M000
0001
0000
0010
0000
0100
0000
1000
0000
,
2002
0000
0000
0000
,
3003
0000
0000
0000
;

//---------------dance-single - D. Bernardone----------------
#NOTES:
     dance-single:
     D. Bernardone:
     Challenge:
     10:
     0.811,0.798,0.282,0.227,0.866:
0000
0000
0000
0000
,
0000
0000
0000
0000
,
0000
0000
0000
0000
,
0000
0000
0000
0000
0000
0000
0000
0110
,
1001
0000
0100
1000
0001
0000
0010
0100
0000
0100
1000
0001
0100
0010
0100
0001
,
1000
0000
0100
0010
0001
0000
0100
0010
0000
0010
1000
0010
0100
0001
0100
0001
,
0010
0000
0100
1000
0010
0000
0100
0001
0000
0001
1000
0100
0010
0001
0010
0001
,
0100
0000
0010
1000
0001
0000
0010
0001
0100
0000
0010
1000
0000
0001
1000
0001
,
0020
0100
1000
0001
,
0230
1000
0001
0010
,
2300
0001
0100
0001
0010
0001
0100
0100
,
3020
0001
0100
1000
,
0230
0010
1000
0010
,
0302
1000
0010
1000
0100
1000
0010
1000
,
0203
0010
1000
0010
0001
0010
1000
1000
,
0320
0001
1000
0130
,
2001
0010
0100
0010
,
3002
0100
0010
1000
,
0023
0100
1000
0100
0001
0100
1000
0100
,
0032
1000
0100
0010
,
2003
0010
0100
0010
,
3002
0010
1000
0100
0010
1000
0100
0010
,
2003
0100
0001
0010
0100
0001
0010
0001
,
3200
0000
0000
0000
1300
0000
0010
0100
0001
0000
0010
0100
0000
0000
0100
0000
,
1001
0000
1000
0100
1000
0000
0001
0100
0001
0000
1000
0100
1000
0001
1000
0000
,
0010
0000
0100
0001
0100
0000
0001
0010
0001
0000
0100
0001
0100
0010
0100
0000
,
0001
0000
0010
0001
0010
0000
0100
0010
0100
0000
0010
0001
0010
0100
1000
0000
,
0010
0000
0100
0001
2000
0000
0100
3000
1001
0000
0000
0000
0110
0000
0000
0000
,
1000
0000
0100
0010
0100
0000
1000
0010
1000
0000
0100
0000
1010
0000
0001
0000
,
0001
0000
0010
0100
0010
0000
0001
0100
0001
0000
0010
0000
0101
0000
1000
0000
,
1000
0000
0100
0001
0100
0000
0010
0100
0010
0000
0100
1000
0100
0000
1000
0000
,
0002
0000
0100
0003
2010
0000
0001
3000
0011
0000
0000
0000
1100
0000
0000
0000
,
0001
0000
0100
0001
0100
0000
0010
0100
0010
1000
0010
0100
0010
0000
1000
0000
,
0100
0000
1000
0100
1000
0000
0001
0010
0001
1000
0001
0100
0001
0000
0100
0000
,
0010
0000
1000
0100
1000
0000
0001
0100
0001
1000
0100
1000
0001
0000
0100
0000
,
0010
0000
1000
0100
0010
0000
0100
1000
0020
0000
0000
0030
0201
0000
0000
0300
,
0010
0000
1000
0010
0100
0000
0001
0010
0100
0010
0001
1000
0100
0000
0010
0000
,
0001
0000
0100
0010
0100
0000
0010
1000
0010
0100
0001
0100
0010
0000
1000
0000
,
0100
0000
1000
0010
0100
0000
0001
0010
0001
1000
0010
1000
0001
0000
0010
0000
,
0100
0000
1001
0000
0000
0000
0000
0001
0100
0000
0000
0100
0000
0000
0010
0000
,
1000
0100
1000
0100
0010
0001
0000
0000
0101
0000
0010
0100
0000
0100
1000
0000
,
0001
0100
0001
0100
0010
1000
0000
0000
1100
0000
0010
0100
0000
0100
0001
0000
,
1000
0010
1000
0010
0100
0001
0000
0000
0011
0000
0100
0010
0000
0010
1000
0000
,
0001
0010
0001
0010
0100
1000
0000
0000
1010
0000
0100
0010
0000
0010
0001
0000
,
1000
0000
0101
0000
0100
0010
0000
0000
2000
0000
0000
0001
0000
0000
3100
0010
,
0001
0000
1010
0000
0010
0100
0000
0000
0002
0000
0000
1000
0000
0000
0103
0010
,
1000
0000
1001
0000
0100
0010
0000
0000
0200
0000
0000
0010
0000
0000
0301
1000
,
0010
0000
0101
0000
0001
1000
0000
0000
0200
0000
0000
0010
0000
0000
1300
0001
,
0010
0000
0010
0000
0100
1000
0010
1000
0100
0000
1000
0100
0000
0100
0010
0001
,
0010
0000
0010
0000
0001
0100
1000
0100
0001
0000
0100
0001
0000
0001
0010
0100
,
1000
0000
1000
0000
0010
0100
0001
0100
0010
0000
0100
0010
0000
0010
1000
0001
,
1000
0000
1000
0000
0100
0010
0001
0010
0100
0000
0010
0100
0000
0100
1000
0001
,
0100
0000
0100
0000
0001
0010
1000
0010
0001
0000
1000
0001
0000
0000
0010
0001
,
0100
0000
0100
0000
0010
1000
0000
0000
0101
0000
1000
0100
0000
0000
0100
1000
,
0010
0000
0010
0000
1000
0001
0000
0000
0110
0000
0001
1000
0000
0000
0010
1000
,
0100
0000
0110
0000
0000
MMMM
0000
0000
0011
0000
0001
0010
0000
0000
0100
0000
,
1001
0000
0000
0000
0001
0000
0000
0010
0000
0000
0100
0010
0100
0010
0100
0010
,
0100
0000
0000
0000
1000
0000
0000
0001
0000
0000
1000
0010
1000
0010
1000
0010
,
1000
0000
0100
0010
0100
0000
1000
0001
0000
0001
1000
0000
0010
0100
0010
0100
,
0010
0000
1000
0001
1000
0000
0100
1000
0000
1000
0100
0000
1000
0001
1000
0001
,
1000
0000
0001
0100
0001
0000
0010
0100
0000
0100
1000
0000
0001
0100
0001
0100
,
0001
0000
1000
0010
1000
0000
0100
1000
0000
1000
0001
0000
0010
0001
0010
0001
,
0010
0000
0100
1000
0100
0000
1000
0010
0000
0010
0100
0000
0001
1000
0001
1000
,
0001
0000
0010
0001
0010
0000
0001
0100
0000
0100
0010
0000
1000
0100
1000
0100
,
1000
0000
0010
0100
0010
0000
1000
0001
0000
0001
1000
0000
0001
0100
0001
0100
,
0001
0000
1000
0100
1000
0000
0010
0100
0000
0100
0010
0000
1000
0100
0010
0001
,
2000
0000
0000
0000
3100
0000
0000
0010
0001
0100
0001
0000
0100
0010
0000
0100
,
0001
0010
0000
0000
1001
0000
0000
1000
0010
0100
0001
0000
1000
0010
0000
0100
,
0001
1000
0000
0000
0110
0000
0000
0100
0001
1000
0010
0000
0100
0001
0000
0100
,
0010
1000
0000
0000
1010
0000
0000
0001
0010
0100
1000
0000
0110
0000
0000
1MM0
,
1002
0000
0000
0000
0013
0000
0000
0100
1000
0010
0100
0000
0010
0100
0000
0001
,
1000
0100
0000
0000
1010
0000
0000
0010
0100
0001
1000
0000
0010
0100
0000
0001
,
0010
0100
0000
0000
1001
0000
0000
0100
0001
0010
0100
0000
1000
0010
0000
0100
,
0001
1000
0000
0000
1010
0000
0000
1000
0100
0010
0001
0000
0110
0000
0000
0MM1
,
2002
0000
0000
0000
,
0000
0000
3003
0000
;

//---------------dance-double - D. Bernardone----------------
#NOTES:
     dance-double:
     D. Bernardone:
     Easy:
     4:
     0.271,0.263,0.133,0.188,0.000:
00000000
00000000
00000000
00000000
,
00000000
00000000
00000000
00000000
,
00000000
00000000
00000000
00000000
,
00000000
00000000
00000000
00000000
,
10000000
00000000
01000000
00000000
,
00010000
00000000
00001000
00000000
,
00000100
00000000
00000001
00000000
,
00000010
00000000
00000100
00000000
,
00000110
00000000
00000000
00000000
,
00000002
00000000
00000000
00000000
,
00000203
00000000
00000000
00000000
,
00002300
00000000
00000000
00000000
,
00023000
00000000
00000000
00000000
,
02030000
00000000
00000000
00000000
,
23000000
00000000
00000000
00000000
,
30100000
00000000
01000000
00000000
,
01100000
01000000
00010000
00000000
,
10000000
00100000
01000000
00000000
,
01000000
00001000
00010000
00000000
,
00010000
00000100
00001000
00000000
,
00001000
00000010
00000100
00000000
,
00000100
00000001
00000010
00000000
,
00000010
00000100
00010000
00000000
,
00010000
00001000
00010000
00000000
,
00011000
00001000
01000000
01000000
,
00010000
00100000
01000000
01000000
,
10000000
00010000
00100000
00100000
,
00001000
01000000
00010000
00010000
,
00100000
00001000
00010000
00010000
,
00000100
00010000
00001000
00001000
,
00010000
00000010
00001000
00001000
,
00000100
00000010
00000001
00000100
,
00001001
00001000
00000010
00000100
,
00000001
00000010
00000100
00010000
,
00001000
00010000
00001000
00100000
,
00010000
01000000
00010000
00100000
,
01000000
10000000
00100000
01000000
,
00001000
00100000
00010000
01000000
,
00001000
00010000
00000100
00001000
,
00000010
00010000
00001000
00010000
,
00021000
00000000
00031000
00001000
,
02000000
00000000
03100000
00100000
,
20000000
00000000
31000000
01000000
,
00200000
00000000
00310000
00010000
,
02000000
00000000
03001000
00001000
,
00020000
00000000
00031000
00001000
,
00020000
00000000
00030100
00000100
,
00020000
00000000
00030010
00000010
,
00002000
00000100
00003001
00000000
,
00000200
00001000
00000310
00000000
,
00020000
00000100
00031000
00000000
,
02000000
00001000
03010000
00000000
,
00200000
00010000
01300000
00000000
,
20000000
00100000
30010000
00000000
,
00200000
00001000
00310000
00000000
,
02000000
00001000
00010000
03100000
,
01100000
00000000
10000000
00000000
,
00010000
00000000
00110000
00000000
,
00100000
00000000
00101000
00000000
,
00001000
00000000
00011000
00000000
,
00010000
00000000
00010100
00000000
,
00000100
00000000
00001100
00000000
,
00001000
00000000
00001010
00000000
,
00000010
00000000
00000110
00000000
,
00000100
00000000
00000101
00000000
,
00000001
00000000
00000100
00000010
,
00001001
00000000
00001000
00000100
,
00001000
00000000
00000010
00000100
,
00000010
00000000
00010000
00001000
,
00010000
00000000
00001000
00010000
,
00011000
00000000
00100000
01000000
,
00100000
00000000
00010000
10000000
,
00010000
00000000
10000000
00010000
,
10000000
00100000
01000000
00100000
,
20020000
00000000
30030000
00000000
;

//---------------dance-double - D. Bernardone----------------
#NOTES:
     dance-double:
     D. Bernardone:
     Medium:
     6:
     0.392,0.410,0.125,0.016,0.035:
00000000
00000000
00000000
00000000
,
00000000
00000000
00000000
00000000
,
00000000
00000000
00000000
00000000
,
00000001
00000000
00000100
00000000
00001000
00000000
00001000
00010000
,
00010000
00000000
00010000
00000000
01000000
00000000
10000000
00010000
,
10000000
00000000
01000000
00000000
00010000
00000000
00001000
00010000
,
00001000
00000000
00001000
00000000
00000100
00000000
00000001
00001000
,
00000001
00000000
00000010
00000000
00000100
00000000
00010000
00001000
,
00010000
00001000
01000000
00100000
,
10000000
01000000
00100000
00001000
,
00010000
00010000
00001000
00000000
00000100
00000000
00000010
00000000
,
00001000
00000100
00000001
00000100
,
00001000
00000010
00010000
00001000
,
01000000
01000000
10000000
00000000
01000000
00000000
00010000
00000000
,
00100000
01000000
10000000
00010000
,
01000000
00001000
00010000
00000100
,
00001100
00000000
00000010
00000000
00000001
00000100
00000001
00000000
,
00000010
00000000
00000100
00000000
00010000
00010000
00010000
00000000
,
00011000
00000000
00100000
00000000
00010000
01000000
00010000
00000000
,
10000000
00000000
01000000
00000000
00100000
00100000
00100000
00000000
,
00110000
00000000
01000000
00000000
00001000
00010000
00001000
00000000
,
00010000
00000000
00000010
00000000
00000100
00000100
00000100
00000000
,
00000101
00000000
00000010
00000000
00000100
00001000
00000100
00000000
,
00010000
00000000
00000010
00000000
00001000
00001000
00001000
00000000
,
00001100
00000000
00000000
00000000
00010000
00000000
00000000
00000000
00001000
00000000
00000000
00000000
01000000
00000000
00000000
00010000
,
00100000
00000000
00000000
00000000
01000000
00000000
00000000
00000000
10000000
00000000
00000000
00000000
00010000
00000000
00000000
01000000
,
00001000
00000000
00000000
00000000
00010000
00000000
00000000
00000000
00000010
00000000
00000000
00000000
00001000
00000000
00000000
00000100
,
00000010
00000000
00000000
00000000
00000001
00000000
00000000
00000000
00000100
00000000
00000000
00000000
00000010
00000000
00000000
00001000
,
00000100
00000000
00000000
00000000
00010000
00000000
00000000
00000000
00001000
00000000
00000000
00000000
00100000
00000000
00000000
00010000
,
01000000
00000000
00000000
00000000
00100000
00000000
00000000
00000000
10000000
00000000
00000000
00000000
01000000
00000000
00000000
00100000
,
00010000
00000000
00000000
00000000
10000000
00000000
00000000
00000000
01000000
00000000
00000000
00000000
00100000
00000000
00000000
00001000
,
00010000
00000000
00000000
00000000
00001000
00000000
00000000
00000000
00010000
00000000
00000000
00000000
00000010
00000000
00000000
00001000
,
00000100
00000000
00000010
00000000
00000001
00000000
00000100
00000010
,
00000010
00000000
00001100
00000000
00000100
00000000
00010000
00001000
,
00001000
00000000
01010000
00000000
00010000
00000000
00100000
01000000
,
01000000
00000000
10100000
00000000
00100000
00000000
01000000
00010000
,
00010000
00000000
00101000
00000000
00001000
00000000
00010000
00000100
,
00000100
00000000
00000011
00000000
00000001
00000000
00000100
00000010
,
00000010
00001100
00000100
00010000
,
00001000
00001000
00000000
00000000
01000000
00000000
00010000
00000000
,
10000000
01000000
00000000
01000000
00010000
00000000
00001000
00000000
,
00010000
00000010
00000000
00000010
00000100
00000000
00000001
00000000
,
00000010
00000100
00000000
00000100
00001000
00000000
00000010
00000000
,
00010000
00001000
00000000
00001000
01000000
00000000
00010000
00000000
,
00100000
01000000
00000000
01000000
10000000
00000000
00010000
00000000
,
00100000
01000000
00000000
01000000
00010000
00000000
00001000
00000000
,
00010000
00000010
00000000
00000010
00001000
00000000
00000100
00000000
,
00000010
00000001
00000000
00000001
00000100
00000000
00000010
00000000
,
00001000
00000100
00001000
00000100
00010000
00000000
00001000
00000000
,
01000000
00010000
01000000
00010000
00100000
00000000
01000000
00000000
,
10000000
00100000
10000000
00100000
01000000
00000000
00010000
00000000
,
00100000
00001000
00100000
00001000
00010000
00000000
00000010
00000000
,
00001000
00000100
00001000
00000100
00000010
00000000
00000001
00000000
,
00000100
00000010
00000100
00000010
00001000
00000000
00000100
00000000
,
00010000
00001000
00010000
00001000
00100000
00000000
00010000
00000000
,
01000000
01000000
00000000
00000000
00010000
00000000
10000000
00000000
,
10010000
00000000
10000000
01000000
,
00010000
00010000
00001000
00000100
,
00000001
00000001
00000010
00000100
,
00001000
00001000
00000100
00010000
,
01000000
01000000
10000000
00100000
,
00010000
00010000
00001000
00000010
,
00000001
00000001
00000100
00000010
,
00001000
00001000
00000100
00010000
,
00100000
00100000
10000000
01000000
,
00010000
00010000
00001000
00000010
,
00000001
00000000
00000000
00000000
00000100
000000M0
00000100
00000000
,
00001000
00000000
00000000
00000000
00010000
00000M00
00010000
00000000
,
00100000
00000000
00000000
00000000
10000000
000M0000
10000000
00000000
,
00010000
00000000
00000000
00000000
00100000
M0000000
00100000
00000000
,
01000000
00000000
10000000
00010000
,
01000000
00001000
00010000
00010100
,
00001000
00000110
00000100
00001001
,
00000010
00000000
00000000
00000000
00001100
00000000
00000000
00000000
00010000
00000000
00001000
00000000
00010000
00000000
00000000
00002000
,
00020000
00000000
00000000
00033000
;

//---------------dance-double - D. Bernardone----------------
#NOTES:
     dance-double:
     D. Bernardone:
     Hard:
     8:
     0.533,0.558,0.259,0.102,0.262:
00000000
00000000
00000000
00000000
,
00000000
00000000
00000000
00000000
,
00000000
00000000
00000000
00000000
,
00000000
00000000
00000000
00000000
00000000
00000000
00000000
10000000
,
01000000
00010000
00001000
00000100
00001000
00001000
00000000
00100000
,
00010000
01000000
00001000
00100000
01000000
01000000
00000000
10000000
,
00100000
00010000
00001000
00000010
00000001
00000001
00000000
00000100
,
00000010
00000000
00010000
00000000
00000010
00000000
00001000
00000000
00000100
00000000
00000100
00010000
00000000
00000100
00010000
00000000
,
00012000
00100000
01000000
00100000
,
20003000
00010000
00001000
00010000
,
31000000
00010000
00001000
00010000
01000000
00000000
01100000
00000000
,
10000000
00100000
00010000
00000000
00011000
00000000
00010100
00000000
,
00000010
00000001
00000100
00001000
00010000
01000000
10000000
00000000
,
00100000
00010000
00001000
00000010
00001000
00010000
00001000
00000000
,
01000000
00100000
00010000
00001000
00010000
00100000
01000000
00000000
,
10000000
01000000
00001000
00000000
00011000
00000000
00000110
00000000
,
00000001
00000000
00001000
00000000
00010000
00001000
00010000
00000000
,
10000000
00000000
00010000
00000000
00001000
00010000
00001000
00000000
,
00000001
00000100
00000010
00000100
00000001
00001000
00010000
00000000
,
00011000
01010000
01100000
10010000
,
10000000
00100000
01000000
00100000
10000000
01000000
00010000
00000000
,
00001000
00000100
00000001
00000010
00000100
00000010
00000001
00000000
,
00000100
00001000
01000000
00100000
,
10000000
00010000
00001000
00000000
00011000
00000000
00001010
00000000
,
00000001
00000000
00000000
00000100
00001000
00000000
00000000
00000100
00000001
00000000
00000000
00000000
00001000
00000000
00000000
00000000
,
00000100
00000000
00000000
00010000
00001000
00000000
00000000
00010000
00100000
00000000
00000000
00000000
01000000
00000000
00000000
00000000
,
00010000
00000000
00000000
00100000
01000000
00000000
00000000
01000000
00010000
00000000
00000000
00010000
00001000
00000000
00000000
00000000
,
00000010
00000000
00000000
00000100
00001000
00000000
00000000
00001000
00000010
00000000
00000000
00000010
00010000
00000000
00000000
00000000
,
01000000
00000000
00000000
10000000
00100000
00000000
00000000
10000000
00010000
00000000
00000000
00000000
00100000
00000000
00000000
00000000
,
01000000
00000000
00000000
00010000
00001000
00000000
00000000
00010000
00000100
00000000
00000000
00000000
00001000
00000000
00000000
00000000
,
00000010
00000000
00000000
00000100
00000001
00000000
00000000
00000001
00000010
00000000
00000000
00000010
00000100
00000000
00000000
00000000
,
00010000
00000000
00000000
00001000
00010000
00000000
00000000
00010000
00100000
00000000
00000000
00100000
10000000
00000000
00000000
00000000
,
00010000
00000000
00000000
10000000
01000000
00000000
00000000
01000000
00100000
00000000
00000000
00100000
00001000
00000000
00000000
00000000
,
00010000
00000000
00000000
00000010
00001000
00000000
00000000
00001000
00000100
00000000
00000000
00000100
00000010
00000000
00000000
00000000
,
00000100
00000000
00000000
00001000
00000001
00000000
00000000
00000001
00001000
00000000
00000000
00000000
00010000
00000000
00000000
00000000
,
00100000
00000000
00000000
00010000
10000000
00000000
00000000
10000000
00010000
00000000
00000000
00000000
00001000
00000000
00000000
00000000
,
00000010
00000000
00000000
00000100
00001000
00000000
00000000
00001000
00010000
00000000
00000000
00010000
01000000
00000000
00000000
00000000
,
00100000
00000000
00000000
01000000
10000000
00000000
00000000
10000000
00010000
00000000
00000000
00010000
01000000
00000000
00000000
00000000
,
00100000
00000000
00000000
10000000
00010000
00000000
00000000
00010000
00001000
00000000
00000000
00000000
00000010
00000000
00000000
00000000
,
00000100
00000000
00000000
00000001
00001000
00000000
00000000
00001000
00010000
00000000
00000000
00000000
01000000
00000000
00000000
00000000
,
00100000
00000000
10000000
00000000
01000000
00000000
00100000
00000000
00001000
00000000
00000000
00000100
00000000
00000000
00000010
00000000
,
00000000
00000000
00001000
00000000
00000001
00000000
00000100
00000000
00000010
00000000
00000000
00000100
00000000
00000000
00001000
00000000
,
00000000
00000000
00010000
00000000
01000000
00000000
00100000
00000000
01000000
00000000
00000000
00100000
00000000
00000000
00010000
00000000
,
00000000
01000000
00100000
00010000
00001000
00000000
00011000
00000000
,
00000010
00000000
00000001
00000000
00000100
00000000
00000001
00000000
00001000
00000000
00000000
00010000
00000000
00000000
10000000
00000000
,
00000000
00000000
10000000
00000000
00100000
00000000
10000000
00000000
00010000
00000000
00000000
00001000
00000000
00000000
00000001
00000000
,
00000000
00000000
00000100
00000000
00000010
00000000
00000100
00000000
00001001
00000000
00000000
00011000
00000000
00000000
10010000
00000000
,
00000000
00000000
00100000
00000000
10000000
00000000
01000000
00000000
10010000
00000000
00000000
00011000
00000000
00000000
00000110
00000000
,
00000001
00001000
00000001
00001000
00020000
00000000
01000000
00000000
,
10030000
00010000
10000000
00010000
00002000
00000000
00000010
00000000
,
00003001
00000010
00000100
00000000
00001000
00000000
00010100
00000000
,
00010000
00001000
01000000
00100000
01000000
00000000
10010000
00000000
,
00100000
00010000
01000000
00010000
00002000
00000000
00000001
00000000
,
00003100
00001000
00000010
00001000
00020000
00000000
10000000
00000000
,
00130000
01000000
00010000
00001000
00010000
00100000
01000000
00010000
,
00100000
00001000
00000010
00000100
00010000
00010000
00001000
00001000
,
02000000
00100000
00100000
03100000
,
20000000
00010000
00010000
30010000
,
00002000
00000001
00000001
00003001
,
00000200
00000010
00000010
00000310
,
00000020
00000100
00000100
00000130
,
00000001
00000010
00000100
00000000
00000001
00000000
00000001
00000000
,
00000100
00000010
00001000
00000000
00010000
00000000
00010000
00000000
,
00100000
01000000
00010000
00000000
00100000
00000000
00100000
00000000
,
10000000
00100000
01000000
00000000
10000000
00000000
10000000
00000000
,
10000000
00010000
00001000
00000000
00000001
00001000
00010000
10000000
,
01000000
00000000
00000000
00000000
10010000
00000000
00000000
10000000
00100000
00000000
00010000
00000000
00001000
00010000
00000000
00010000
,
00000100
00000000
00000000
00000000
00001001
00000000
00000000
00000001
00000100
00000000
00000010
00000000
00000100
00001000
00000000
00001000
,
00010000
00000000
00000000
00000000
00001010
00000000
00000000
00000001
00000010
00000000
00001000
00000000
00000010
00000100
00000000
00000100
,
00010000
00000000
00110000
00000000
01000000
00010000
10010000
00000000
,
00011000
00000000
00000000
00000000
00001001
00000000
00000000
00001000
00000010
00000000
00000100
00000000
00000001
00000010
00000000
00000100
,
00001000
00000000
00000000
00000000
00010010
00000000
00000000
00000010
00000100
00000000
00001000
00000000
00010000
00001000
00000000
01000000
,
00010000
00000000
00000000
00000000
00101000
00000000
00000000
00100000
01000000
00000000
10000000
00000000
00010000
01000000
00000000
01000000
,
00001000
00000000
00001100
00000000
00000010
00001000
00001001
00000000
,
20020000
00000000
00000000
00000000
,
30030000
00000000
00000000
00000000
;

//---------------dance-double - D. Bernardone----------------
#NOTES:
     dance-double:
     D. Bernardone:
     Challenge:
     10:
     0.585,0.732,0.227,0.321,0.223:
00000000
00000000
00000000
00000000
,
00000000
00000000
00000000
00000000
,
00000000
00000000
00000000
00000000
,
00000000
00000000
00000000
00000000
,
10000000
00000000
00100000
01000000
00010000
00000000
00100000
00001000
00000000
00100000
00001000
00000000
00010000
00000100
00001000
00000100
,
00001000
00000000
00000010
00000100
00000001
00000000
00001000
00000100
00000000
00001000
00000100
00000000
00001000
00000010
00010000
00000010
,
00010000
00000000
00001000
00100000
00010000
00000000
01000000
00001000
00000000
01000000
00001000
00000000
00010000
00000010
00001000
00000010
,
00001000
00000000
00000001
00000100
00000010
00000000
00010000
00001000
00100000
00000000
00010000
01000000
00010000
00100000
00001000
00010000
,
00002000
00000000
02000000
00000000
00200000
00000000
20000000
03003000
,
01000000
00001000
01000000
30310000
,
10000000
01000000
00010000
00001000
00010000
01000000
00010000
00001000
,
00000100
00001000
00010000
00000010
,
00001020
00010000
00000100
00010030
,
00000001
00000100
00001000
00010000
00001000
00000100
00001000
00010000
,
01000000
00010000
00001000
00010000
01000000
10000000
01000000
00100000
,
00002000
01000000
00100000
01000000
,
00023000
00000000
00000200
00000000
00000020
00000000
00000002
00030300
,
00000100
00010000
00000100
00001033
,
00000001
00000010
00001000
00010000
00100000
00010000
00001000
00000010
,
00001000
00010000
00000100
00010000
,
00020010
00001000
00000001
00001000
,
00030001
00000010
00001000
00010000
00100000
00010000
00001000
00000010
,
00001000
00010000
00100000
10000000
00010000
10000000
01000000
00100000
,
00002000
00010000
10000000
00010000
,
20003000
00000000
02000000
00000000
00200000
00000000
00002000
33000000
,
01000000
10000000
00010000
10303000
,
01000000
00100000
00010000
00000000
01000000
00000000
00001000
00000000
,
00020010
00000100
00001000
00000001
,
00030100
00000010
00000001
00000100
00001000
00010000
00001000
00000000
,
00000010
00000001
00000100
00001000
00010000
00001000
00100000
00000000
,
01000000
00010000
00001000
00000010
00000100
00010000
00001000
01000000
,
00100000
00100000
10000000
01000000
00010000
00001000
00000100
00000001
,
00000002
00000000
00000200
00000000
00000020
00000000
00020000
00000303
,
00000100
00000001
00001000
00030031
,
00001000
00000100
00010000
00000010
00000100
00001000
00010000
00000000
,
01000000
10000000
01000000
00010000
00001000
00000000
00101000
00000000
,
00002000
00000000
00020000
00000000
00200000
00000000
00000020
00033000
,
01000000
00000100
00010000
00301030
,
00011000
00000000
00001000
00100000
01000000
00000000
11000000
00000000
,
10000000
00100000
00010000
00001000
00000010
00000000
00000011
00000000
,
00010100
00000000
00010000
00000000
00001000
00000000
01000000
00000000
10000000
00000000
00000000
10000000
00000000
10000000
01000000
00000000
,
00100000
00000000
10000000
00000000
01000000
00000000
00010000
00000000
00001000
00000000
00000000
00001000
00000000
01000000
00010000
00000000
,
00100000
00000000
01000000
00000000
00010000
00000000
00001000
00000000
00010000
00000000
00000000
00000100
00000000
00001000
00000010
00000000
,
00000100
00000000
00000001
00000000
00000010
00000000
00001000
00000000
00010000
00000000
00000000
00000010
00000000
00000000
00000100
00000001
,
00000100
00000000
00000010
00000000
00001000
00000100
00000000
00000000
00010000
00000000
00000000
00101000
00000000
00000000
01000000
00010000
,
10000000
00000000
01000000
00000000
00100000
00010000
00000000
00000000
01000000
00000000
00000000
00101000
00000000
00000000
00010000
00000100
,
00000010
00000000
00000001
00000000
00000100
00000010
00000000
00000000
00010000
00000000
00000000
00001001
00000000
00000000
00001000
00000010
,
00000001
00000000
00000010
00000000
00010000
00001000
00000000
00000000
00100000
00000000
00000000
10010000
00000000
00000000
01000000
00100000
,
10000000
00000000
00010000
00000000
10000000
00010000
01000000
00010000
00200000
00000000
00000000
00000000
00000100
00000000
00000000
00000000
,
00301000
00000000
00011000
00000000
00010000
00000010
00001000
00000010
00000200
00000000
00000000
00000000
00010000
00000000
00000000
00000000
,
00000310
00000000
00000010
00000000
00010000
00001000
00100000
00010000
20000000
00000000
00000000
00000000
00001000
00000000
00000000
00000000
,
31000000
00000000
01100000
00000000
00100000
00010000
01000000
00001000
00020000
00000000
00000000
00000000
00000001
00000000
00000001
00000000
,
00030010
00000000
00000100
00000000
00000010
00000000
00000010
00000000
00001000
00000000
00000100
00010000
00000000
00001000
00010000
00000000
,
01000000
00000000
00100000
00000000
00010000
00000000
00010000
00000000
10000000
00000000
00100000
01000000
00000000
00001000
01000000
00000000
,
00010000
00000000
00100000
00000000
00001000
00000000
00001000
00000000
00010000
00000000
00000010
00001000
00000000
00000001
00001000
00000000
,
00000100
00000000
00000010
00000000
00000001
00000000
00000100
00000000
00001000
00000000
00001000
00000000
00010000
00001000
00100000
00010000
,
02000000
00100000
00100000
00000000
10000000
00000000
03010000
00000000
,
00100000
00001000
00101000
00000000
00010000
00000000
00010100
00000000
,
00000001
00000010
00001001
00000000
00000100
00000010
00010010
00000000
,
01000000
00010000
00101000
00000000
10000000
00010000
10001000
00000000
,
00001000
01000000
10010000
00000000
00010000
00100000
01000000
00100000
,
01000000
00010000
00001000
00010000
01000000
00010000
00001000
00000100
,
00000010
00000100
00001000
00000100
00000010
00000100
00001000
00100000
,
01000000
00000000
10000000
01000000
10000000
00000000
01000000
00000000
00100000
00000000
01000000
00000000
10000000
00000000
01000000
00000000
,
00100000
00001000
00000100
00000010
00010000
00001000
00000100
00000010
,
00001000
00000100
00010000
01000000
00100000
00001000
10000000
00100000
,
02000000
00000000
00010000
00001000
,
00102000
03003000
00001000
00010000
,
00000200
00000000
00100000
00010000
,
00021000
00030300
02001000
00000000
,
00112000
03000000
10000000
00010000
,
00120000
00033000
00010000
00000100
,
00020000
00000000
00001000
00000001
,
00000012
00030003
00012000
00000000
,
00020110
00003000
00000000
00030000
;
