#TITLE:Nights In Heaven - Days In Hell;
#SUBTITLE:;
#ARTIST:Missing Heart;
#TITLETRANSLIT:;
#SUBTITLETRANSLIT:;
#ARTISTTRANSLIT:;
#GENRE:Dance;
#CREDIT:Sync by HellRazor;
#BANNER:Nights In Heaven - Days In Hell-bn.png;
#BACKGROUND:Nights In Heaven - Days In Hell-bg.png;
#LYRICSPATH:;
#CDTITLE:;
#MUSIC:Nights In Heaven - Days In Hell.ogg;
#OFFSET:-0.483;
#SAMPLESTART:35.154;
#SAMPLELENGTH:12.000;
#SELECTABLE:YES;
#BPMS:0.000=170.000;
#STOPS:;
#BGCHANGES:0.000=Nights In Heaven - Days In Hell-bg.png=1.000=0=0=1=====,
16.000=In The Groove Rebirth/164_JB_HD.mpg=1.000=1=0=1===CrossFade==,
32.000=In The Groove Rebirth/161_JB_HD.mpg=1.000=0=0=1=====,
64.000=In The Groove Rebirth/166_JB_HD.mpg=1.000=0=0=1=====,
80.000=In The Groove Rebirth/201_JB_HD.mpg=1.000=0=0=1=====,
96.000=Nights In Heaven - Days In Hell-bg.png=1.000=0=0=1=====,
100.000=In The Groove Rebirth/218_JB_HD.mpg=1.000=0=0=1=====,
116.000=In The Groove Rebirth/1358_JumpBack.mpg=1.000=0=0=1===SlideRight==,
132.000=In The Groove Rebirth/179_JB_HD.mpg=1.000=0=0=1=====,
148.000=In The Groove Rebirth/164_JB_HD.mpg=1.000=0=0=1===SlideDown==,
164.000=In The Groove Rebirth/255_JB_HD.mpg=1.000=0=0=1=====,
180.000=In The Groove Rebirth/161_JB_HD.mpg=1.000=0=0=1=====,
196.000=In The Groove Rebirth/166_JB_HD.mpg=1.000=1=0=1=SongBgWithMovieViz==CrossFade==,
212.000=In The Groove Rebirth/201_JB_HD.mpg=1.000=0=0=1=====,
228.000=Nights In Heaven - Days In Hell-bg.png=1.000=0=0=1=====,
232.000=In The Groove Rebirth/201_JB_HD.mpg=1.000=1=0=1=SongBgWithMovieViz==CrossFade==,
248.000=In The Groove Rebirth/1358_JumpBack.mpg=1.000=1=0=1=SongBgWithMovieViz==CrossFade==,
260.000=Nights In Heaven - Days In Hell-bg.png=1.000=0=0=1=====,
264.000=In The Groove Rebirth/179_JB_HD.mpg=1.000=0=0=1=====,
280.000=In The Groove Rebirth/201_JB_HD.mpg=1.000=0=0=1===SlideUp==,
296.000=In The Groove Rebirth/218_JB_HD.mpg=1.000=0=0=1=====,
312.000=In The Groove Rebirth/1358_JumpBack.mpg=1.000=0=0=1===FadeDown==,
328.000=Nights In Heaven - Days In Hell-bg.png=1.000=1=0=1===CrossFade==,
99999=-nosongbg-=1.000=0=0=0 // don't automatically add -songbackground-
;
#BGCHANGES2:32.000=white flash=1.000=0=0=1=====,
48.000=white flash=1.000=0=0=1=====,
96.000=white flash=1.000=0=0=1=====,
100.000=yellow flash=1.000=0=0=1=====,
212.000=white flash=1.000=0=0=1=====,
228.000=flash=1.000=0=0=1====1^0^1^1=,
260.000=flash=1.000=0=0=1====0.5^0.5^0.5^1=,
;
#KEYSOUNDS:;

//---------------dance-single - D. Bernardone----------------
#NOTES:
     dance-single:
     D. Bernardone:
     Challenge:
     9:
     0.788,0.833,0.382,0.732,0.100,529.000,46.000,88.000,0.000,0.000,0.000:
0000
0000
0000
0000
,
0000
0000
0000
0000
0000
0000
1000
0001
,
0100
0000
0110
0000
0010
1000
0100
1000
,
0020
0000
0230
0000
0301
0011
0010
0100
,
1000
1000
0100
0010
0001
0001
0010
0100
,
0010
0010
0100
1000
0010
0010
0100
0001
,
0010
0010
0001
1000
0010
0010
0100
0001
,
1000
0000
1000
0000
0010
0000
0100
0000
0002
0000
1000
0000
1000
0000
1000
0003
,
1001
1000
0100
0010
0001
0100
0001
0010
,
0100
0000
1000
0000
0010
0000
1000
0000
0001
0000
0010
0000
0100
0000
1000
0001
,
0010
0000
0100
0000
1000
0000
0010
0000
0100
0000
0001
0000
1000
0000
0100
0010
,
0001
0000
0100
0000
0010
0000
1000
0001
0100
0000
0010
0000
1000
0000
0001
0010
,
0100
1000
0001
0010
0100
1000
0010
0100
,
0010
0000
1000
0000
0001
0000
0010
0000
0100
0000
1000
0000
0010
0000
1000
0001
,
1000
0000
0010
0000
0100
0000
0001
0000
0010
0000
0001
0000
1000
0000
0100
0010
,
0100
0000
0010
0000
0001
0000
0100
0010
1000
0000
0100
0000
1000
0000
0010
1000
,
0001
0100
0010
1000
0100
0001
0100
0010
,
0001
0100
1000
0100
0010
1000
0001
0100
,
0010
0001
0010
1000
0001
1000
0100
0010
,
1000
0010
0001
0000
0101
0000
1001
0000
,
1000
0001
1000
0100
0010
1000
0010
0001
,
1000
0001
0100
0010
0001
0010
1000
0001
,
1001
0000
1000
0010
0100
0001
1000
0100
,
0110
0000
0000
0000
0100
0000
0010
0000
0001
0100
0001
0000
0100
0010
0100
0000
,
2002
0000
0000
0000
3003
0000
0100
0010
,
1010
0000
1100
0000
0100
0010
0001
0100
,
0110
0000
1001
0000
0101
0000
0001
0010
,
0110
0000
1001
0000
0001
0010
0100
1000
,
1010
0000
0101
0000
1001
0100
0010
1000
,
1001
0000
0011
0000
0010
0100
1000
0010
,
0110
0000
1001
0000
1100
0000
1000
0010
,
0110
0000
0101
0000
0001
0010
0100
1000
,
1010
0000
0110
0000
1001
0100
0010
0001
,
2000
0000
3200
0000
0310
0001
0100
0001
,
0020
0000
0000
0000
0230
0000
0000
1300
0002
0000
0000
0000
0103
0000
0010
0000
,
2000
0000
3002
0000
1003
0010
1000
0100
,
2000
0000
3002
0000
0023
0130
1000
0001
,
0020
0000
0230
0000
1300
0001
0100
0001
,
0020
0000
0000
0000
0230
0000
0000
1300
0002
0000
0000
0000
0103
0000
0010
0000
,
2000
0000
3002
0000
0013
0100
1000
0010
,
0200
0302
0023
0030
,
0100
1000
0001
0010
0001
1000
0010
1000
,
0001
0000
0100
0000
0001
0000
1000
0000
0010
0000
0100
0000
0001
0000
1000
0100
,
1000
0000
0010
0000
0100
0000
0001
0000
0010
0000
0100
0000
1000
0000
0001
0100
,
0001
0000
0010
0000
0100
0000
1000
0010
1000
0000
0001
0000
0010
0000
0001
1000
,
0001
0100
0010
1000
0100
0001
0100
1000
,
0001
0000
1000
0000
0010
0000
0001
0000
0010
0000
1000
0000
0001
0000
1000
0010
,
1000
0000
0100
0000
0010
0000
0001
0000
0010
0000
0100
0000
1000
0000
0001
1000
,
0001
0000
0100
0000
0001
0000
1000
0100
1000
0000
0001
0000
0010
0000
0001
1000
,
0002
0000
0010
0000
,
0200
0300
0000
1000
,
2003
0000
0010
0000
,
3100
0000
0000
0000
1001
0000
0101
0110
,
0010
1000
0100
1000
0010
0100
0001
0010
,
0001
0100
0010
1000
0100
0001
0100
1000
,
0001
1000
0010
0001
0010
1000
0001
0100
,
1000
0000
0100
0000
0001
0000
1000
0000
0001
0010
0001
0000
0010
0100
0010
0000
,
2200
0000
0000
0000
3300
0000
0100
0010
,
0002
0000
0000
0000
0000
0000
0200
0003
2000
0300
0200
3000
0020
0300
2000
0030
,
0002
0000
0000
3000
2000
0003
0200
3000
0002
0000
0000
0300
0200
0003
0020
0300
,
0002
0000
0000
0000
0000
0030
0020
0003
2000
0030
0020
3000
0200
0030
2000
0300
,
0002
0000
0000
0000
0000
3000
2000
0003
0020
3000
0002
0030
0020
0003
0200
0030
,
0002
0000
0000
0000
0000
0300
0020
0003
2000
0030
0020
3000
0200
0030
2000
0300
,
0002
0000
0000
3000
2000
0003
0200
3000
0002
0000
0000
0300
0200
0003
0020
0300
,
0002
0000
0000
0000
0000
0030
0200
0003
2000
0300
0200
3000
0002
0300
0020
0033
,
2002
0000
0000
0000
3003
0000
1000
0100
,
0110
0000
0001
0000
0100
0010
1000
0001
,
0101
0000
0100
0000
0110
0000
1000
0100
,
1000
0000
0110
0000
0100
0010
0001
1000
,
1010
0000
1000
0000
1001
0000
0001
0010
,
0001
0000
0100
0000
0010
1000
0001
0010
,
0110
0000
1000
0000
0101
0000
0100
0010
,
1000
0000
1100
0000
0100
0010
0001
0100
,
0110
0000
0010
0000
1010
0000
1000
0001
,
0020
0000
0130
0000
1000
0010
0001
0010
,
2000
0000
0000
0000
3002
0000
0000
0013
0100
0000
0000
0000
1000
0000
0100
0000
,
0020
0000
0130
0000
1000
0010
0001
0010
,
2000
0000
3001
0000
0101
0100
0010
1000
,
0200
0000
0310
0000
0001
0100
1000
0100
,
0002
0000
0000
0000
0023
0000
0000
0031
1000
0000
0000
0000
0100
0000
1000
0000
,
0020
0000
0130
0000
0001
0010
1000
0010
,
0002
0000
2003
0000
3200
0000
0310
0001
,
2002
0000
0000
0000
,
0000
0000
3003
0000
;

//---------------dance-single - D. Bernardone----------------
#NOTES:
     dance-single:
     D. Bernardone:
     Beginner:
     1:
     0.127,0.136,0.083,0.000,0.000,97.000,10.000,0.000,0.000,0.000,0.000:
0000
0000
0000
0000
,
0000
0000
0000
0000
,
0000
0000
0000
0000
,
0000
0000
0000
0000
,
1001
0000
0000
0000
,
1000
0000
1000
0000
,
1000
0000
0000
0000
,
0001
0000
0001
0000
,
0001
0000
0000
0000
,
0001
0000
0000
0000
,
0100
0000
0000
0000
,
0010
0000
0000
0000
,
0110
0000
0000
0000
,
1000
0000
0000
0000
,
0001
0000
0000
0000
,
0100
0000
0100
0000
,
0010
0000
0010
0000
,
0010
0000
0000
0000
,
1000
0000
1000
0000
,
1000
0000
0000
0000
,
1001
0000
0000
0000
,
0001
0000
0000
0000
,
1001
0000
0000
0000
,
0110
0000
0000
0000
,
1001
0000
0000
0000
,
0001
0000
0000
0000
,
0001
0000
0100
0000
,
0100
0000
0000
0000
,
0010
0000
1000
0000
,
1000
0000
0000
0000
,
0001
0000
0001
0000
,
0100
0000
0000
0000
,
0100
0000
0000
0000
,
0010
0000
0000
0000
,
1000
0000
1000
0000
,
1000
0000
0000
0000
,
0001
0000
0001
0000
,
0001
0000
0000
0000
,
0100
0000
0100
0000
,
0100
0000
0010
0000
,
1000
0000
0000
0000
,
0001
0000
0000
0000
,
0010
0000
0000
0000
,
0100
0000
0000
0000
,
1000
0000
0001
0000
,
1001
0000
0000
0000
,
0100
0000
0000
0000
,
0010
0000
0000
0000
,
1000
0000
0001
0000
,
0100
0000
0000
0000
,
0000
0000
0000
0000
,
0010
0000
0000
0000
,
0000
0000
1000
0000
,
0001
0000
0000
0000
,
0100
0000
0000
0000
,
0110
0000
0000
0000
,
1001
0000
0000
0000
,
0110
0000
0000
0000
,
1000
0000
0000
0000
,
0001
0000
0000
0000
,
0010
0000
0010
0000
,
0100
0000
0000
0000
,
1000
0000
0000
0000
,
0001
0000
0000
0000
,
0100
0000
0100
0000
,
0000
0000
0000
0000
,
1000
0000
0000
0000
,
0001
0000
0001
0000
,
0000
0000
0000
0000
,
0010
0000
0010
0000
,
0000
0000
0000
0000
,
0001
0000
0001
0000
,
0000
0000
0000
0000
,
0100
0000
0000
0000
,
1000
0000
0000
0000
,
0001
0000
1000
0000
,
0001
0000
0000
0000
,
0100
0000
0010
0000
,
0100
0000
0000
0000
,
0001
0000
1000
0000
,
0100
0000
0000
0000
,
0010
0000
0001
0000
,
1000
0000
0000
0000
;

//---------------dance-single - D. Bernardone----------------
#NOTES:
     dance-single:
     D. Bernardone:
     Easy:
     3:
     0.259,0.311,0.033,0.108,0.000,201.000,4.000,13.000,0.000,0.000,0.000:
0000
0000
0000
0000
,
0000
0000
0000
0000
,
0000
0000
0000
0000
,
0000
0000
0000
0000
,
0010
0001
1000
0000
,
1000
0001
0010
0000
,
0100
0100
1000
0000
,
0010
0100
0002
0003
,
1000
0000
0100
0000
,
0010
0000
0001
0000
,
1000
0000
0010
0000
,
0100
0000
0001
0010
,
0100
0000
0100
0000
,
1000
0000
0001
0000
,
0100
0000
0010
0000
,
1000
0000
0001
0010
,
0100
0100
1000
1000
,
0001
0001
0000
0000
,
0010
0010
0100
0100
,
1000
0001
0010
0010
,
0001
0001
0100
0010
,
1000
0000
0100
0010
,
0001
0000
0100
0010
,
1000
0000
0002
0000
,
1003
0000
0000
0000
,
1000
1000
0100
0010
,
0001
0001
0010
0000
,
0100
1000
0001
0000
,
0100
0100
0100
0000
,
0010
0010
1000
0001
,
0100
0100
0100
0000
,
0010
1000
0001
0000
,
1000
0100
1000
0000
,
0001
0000
0100
0000
,
0010
0010
0010
0000
,
1000
0000
0001
0000
,
0100
0100
0100
0000
,
0010
0000
0010
0000
,
1000
0001
1000
0000
,
0010
0000
0010
0000
,
0010
0000
0010
0000
,
1000
1000
0001
0000
,
0001
0001
0100
0000
,
0010
0010
1000
0000
,
0001
0001
0010
0100
,
1000
1000
0001
0000
,
0001
0001
0010
0000
,
0010
0010
0100
0000
,
1000
0000
0001
1000
,
0002
0000
0000
0000
,
0003
0000
0000
0000
,
2000
0000
0000
0000
,
3000
0000
0110
0110
,
0110
0001
1000
0010
,
0100
0000
0000
0000
,
0010
0000
1000
0000
,
0001
0000
0200
0000
,
0310
0000
0000
0000
,
2000
0000
0000
0000
,
0002
0000
3000
0000
,
0020
0000
0003
0000
,
0200
0030
0000
1000
,
2000
0000
0300
0000
,
0002
0000
3000
0000
,
0200
0000
0003
0000
,
0310
0000
0000
0000
,
1001
0001
0001
0100
,
0010
1000
1000
0000
,
0001
1000
0100
0000
,
0010
0010
0010
0000
,
0001
0001
1000
0010
,
0010
0100
0001
0000
,
0001
0100
0010
0000
,
0010
1000
0001
0000
,
1000
1000
1000
0100
,
0010
0010
0010
0001
,
0100
0100
0100
0010
,
1000
1000
1000
0001
,
0100
0000
0100
0000
,
0010
0000
0010
0000
,
1000
0000
1000
0000
,
1000
0000
0010
0000
,
0002
0000
0000
0000
,
0003
0000
0000
0000
;

//---------------dance-single - D. Bernardone----------------
#NOTES:
     dance-single:
     D. Bernardone:
     Medium:
     6:
     0.447,0.409,0.349,0.116,0.000,320.000,42.000,14.000,0.000,0.000,0.000:
0000
0000
0000
0000
,
0000
0000
0000
0000
,
2000
0100
3001
0000
,
0002
0010
1003
0000
,
1000
0100
0010
0001
,
0100
0000
0001
1000
0001
0000
0200
0000
,
0310
1000
0100
0010
,
0100
1000
0002
0003
,
0001
0100
0010
1000
,
0001
0000
0010
0000
0001
0000
0100
0001
,
0100
0000
0001
0000
1000
0000
0100
1000
,
0100
0000
1000
0001
1000
0000
0001
0100
,
0001
0010
0100
1000
,
0100
0000
0010
0000
0001
0000
1000
0100
,
1000
0000
0001
0000
0010
0000
0001
0100
,
0001
0000
0100
0010
0100
0000
0010
1000
,
0010
1000
0100
0001
,
0100
1000
0010
0001
,
0010
1000
0100
0001
,
0100
1000
1001
0110
,
0100
0001
0010
1000
,
0010
0001
0100
1000
,
0100
0001
0010
1000
,
0010
0000
0001
0000
0100
0010
0100
0010
,
2000
0000
3000
0000
,
0001
0100
0001
0010
,
0001
0000
1000
0000
0100
0000
1000
0001
,
1000
0000
0010
0000
0100
0000
0001
1000
,
0001
0000
1000
0000
0001
0000
0100
0010
,
0100
0001
1000
0100
,
0010
0000
0001
0000
1000
0000
0010
0100
,
0010
0000
0100
0000
0001
0000
1000
0001
,
1000
0000
0001
0000
0100
0000
0010
0100
,
0020
1000
0130
0000
,
0001
0000
0010
0100
0010
0000
0001
0000
,
0200
0010
0301
0000
,
1000
0000
0100
0010
0100
0000
1000
0000
,
0002
0010
0103
0000
,
2000
0100
3010
0000
,
0002
0100
0013
0000
,
2000
0010
3100
0000
,
0001
1000
0001
0000
0100
0000
0100
0000
,
0010
1000
0010
0000
0100
0000
0100
0000
,
0001
1000
0001
0000
0010
0000
0010
0000
,
0100
1000
0100
0000
0010
0000
0010
0000
,
0001
0100
0001
0000
0010
0000
0010
0000
,
0001
0010
0001
0000
0100
0000
0100
0000
,
0010
1000
0010
0000
0100
0000
0100
0000
,
0010
0100
0010
0000
1000
0000
1000
0000
,
0001
0010
0100
0000
,
1100
0000
0000
0000
,
1000
0010
0100
0000
,
0101
0000
0110
1001
,
1000
0001
0100
0010
,
1000
0010
0100
0001
,
1000
0100
0010
0001
,
0010
0000
0100
0000
1000
0001
1000
0001
,
0020
0000
0030
0000
,
0001
0100
0010
0000
,
1010
1001
1010
0000
,
1000
0100
0010
0000
,
0011
1001
0011
0000
,
0001
1000
0100
0000
,
0110
0011
0110
0000
,
1000
0001
0100
0000
,
0110
1010
1001
0000
,
0001
0010
0100
1000
,
1001
0000
0110
0000
1001
0000
0001
0010
,
0001
0100
0010
1000
,
1001
0000
0110
0000
1001
0000
1000
0010
,
1000
0100
0010
0001
,
1001
0000
0110
0000
1001
0000
1000
0001
,
1000
0010
0100
0001
,
1001
0110
1001
0110
,
0001
0100
0010
1000
,
1100
0100
0110
0010
,
0011
0001
0100
0010
,
1010
1000
1001
0001
,
0101
0010
1000
0000
,
1100
0010
0001
0000
,
1001
0010
0100
0000
,
0101
1001
2020
3030
,
0100
0000
0000
0000
;

//---------------dance-single - D. Bernardone----------------
#NOTES:
     dance-single:
     D. Bernardone:
     Hard:
     8:
     0.565,0.524,0.441,0.233,0.012,395.000,53.000,28.000,4.000,0.000,0.000:
0000
0000
0000
0000
,
0000
0000
0000
0000
0000
0000
0001
1000
,
0010
0000
0100
0000
0001
0010
0001
0100
,
0001
0000
1000
0000
0100
0010
0001
0010
,
0100
0000
1000
0000
0010
0000
0100
0001
,
1000
0000
0000
0000
0100
0000
0000
0100
0010
0000
0000
0000
0001
0000
0100
0000
,
0010
0000
1000
0000
0100
0010
0001
1000
,
0001
0100
0020
0030
,
0010
0000
1000
0000
0001
0000
0010
0100
,
1000
0000
0010
0000
0100
0000
0010
1000
,
0001
0000
0100
0000
0001
0000
0010
0100
,
1000
0000
0001
0000
0100
0010
1000
0100
,
0010
0000
0001
0000
1000
0000
0010
0100
,
0001
0000
1000
0000
0100
0000
0010
0100
,
1000
0000
0001
0000
0010
0000
0100
1000
,
0001
0000
0000
0000
0001
0000
1000
0001
1000
0000
0100
0000
1000
0000
1000
0000
,
0010
0100
0001
0010
0000
0010
0100
1000
,
0000
1000
0000
0000
0000
0001
0100
0010
,
0100
0001
1000
0100
0000
0100
0010
0001
,
0000
0001
1000
0000
1100
0000
1001
0000
,
0001
0100
0001
0010
0000
0010
0100
0010
,
0000
0000
0000
0000
0110
0000
1000
0001
,
0000
0000
0000
0000
0110
0000
0001
1000
,
0000
0000
0000
0000
0001
0010
0100
1000
,
2002
0000
0000
0000
3003
0000
1000
0001
,
2000
3020
0230
0301
,
0101
0000
1010
0000
0101
0000
0001
1000
,
0002
0023
0230
1300
,
1100
0000
0011
0000
1100
0000
1000
0001
,
2000
3200
0320
0031
,
0011
0000
1100
0000
0011
0000
0001
1000
,
0002
0203
0320
1030
,
1010
0000
0101
0000
1010
0000
0010
0100
,
0020
0000
1030
0000
0100
1000
0200
0000
,
0310
0000
0000
0000
0001
0000
0000
0001
1000
0000
0000
0000
0100
0000
1000
0000
,
0200
0000
0310
0000
0001
1000
0002
0000
,
0103
0000
0010
0000
1010
0000
1000
0001
,
0100
0000
0001
0000
1000
0100
0000
0000
,
1000
0000
0001
0000
0010
0000
0100
1000
,
0010
0000
0110
0000
0101
0000
0001
0010
,
0100
0000
1100
0000
1001
0000
0001
0010
,
0100
1000
0010
1000
,
0100
1000
0001
0010
,
0001
0100
0001
0010
,
0001
0000
1000
0000
0010
0100
0001
0010
,
0100
1000
0010
0001
,
0100
1000
0001
1000
,
0001
0010
1000
0100
,
0001
0000
1000
0001
1000
0001
1000
0100
,
0010
0001
0100
0001
0000
0001
0010
0100
,
2200
3300
0000
0000
0000
1000
0010
0100
,
0001
0010
0001
0100
0000
0100
0010
1000
,
0000
1000
0100
0000
0110
0000
1001
0000
,
0001
0010
0100
0010
0000
0010
0001
0100
,
0020
0000
0030
0000
0000
0000
1000
0100
,
0000
1100
0000
0000
0110
0000
0001
0100
,
0000
0101
0000
0000
1000
0010
0100
0001
,
2002
0000
0000
0000
3003
0000
0001
1000
,
0001
0000
0010
0000
0001
0100
0001
0010
,
0100
0000
0100
0000
0100
0000
1000
0010
,
0100
0000
0110
0000
0010
0000
1000
0100
,
0010
0000
0010
0000
0010
0010
0001
1000
,
0100
0000
1000
0000
0010
0100
0001
1000
,
0100
0000
0100
0000
0100
0000
0010
0001
,
1000
0000
1010
0000
0010
0100
0001
1000
,
0010
0000
0010
0000
0010
0010
0100
0010
,
0100
0001
0010
0001
,
0101
0000
1010
0000
1001
0000
1000
1000
,
0100
1000
0010
1000
,
1100
0000
0011
0000
1001
0000
0001
0001
,
0010
0001
0100
0001
,
0011
0000
1100
0000
1001
0000
1000
1000
,
0010
1000
0100
1000
,
1010
0000
0101
0000
1001
0010
0001
0010
,
0200
0000
1300
0000
0001
1000
0001
0000
,
1001
0000
0100
0000
0110
0000
0010
1000
,
0001
0000
0010
0000
0100
0000
1000
0001
,
1000
0001
0101
0100
,
0110
0000
1000
0000
0001
0010
0000
0000
,
1100
0000
1010
0000
0110
0000
0001
1000
,
1001
0000
0000
0000
1000
0001
1001
0000
,
0200
0302
0023
0030
,
1100
0000
M000
0000
,
0M00
0000
00M0
0000
,
000M
0000
0000
0000
;

//---------------dance-double - D. Bernardone----------------
#NOTES:
     dance-double:
     D. Bernardone:
     Easy:
     4:
     0.355,0.345,0.283,0.150,0.000,247.000,34.000,18.000,0.000,0.000,0.000:
00000000
00000000
00000000
00000000
,
00000000
00000000
00000000
00000000
,
10000000
00000000
00010000
00000000
,
01000000
00001000
00010000
00000000
,
00001000
00010000
00000100
00001000
,
00000010
00000010
00000010
00000100
,
00000001
00001000
00000100
00000010
,
00000100
00000100
00000100
00000000
,
00011000
00000000
00022000
00000000
,
00000000
00033000
00000000
00001000
,
00001000
00010000
00100000
10000000
,
00010000
00100000
01100000
10010000
,
01100000
00100000
01000000
10000000
,
00010000
01000000
00001000
00010000
,
00001000
00000100
00000001
00001000
,
00000100
00000000
00000110
00000110
,
00001001
00000001
00001000
00000010
,
00010000
00010000
00000000
00001000
,
00001000
00100000
00010000
01000000
,
00100000
10000000
10010000
10010000
,
01100000
10000000
01000000
00100000
,
00001000
00000000
00010000
00000100
,
00001000
00000000
00000010
00000100
,
00000001
00000000
00001000
00000100
,
00002200
00000000
00003300
00000000
,
00000100
00010000
00001000
00100000
,
00010000
00010000
00010000
01000000
,
01100000
10000000
01000000
10000000
,
00010000
00010000
00010000
01000000
,
01001000
00010000
00001000
00010000
,
00000010
00000010
00000010
00001000
,
00001001
00000010
00000001
00000010
,
00000100
00000100
00000100
00010000
,
00011000
00000000
00001000
00000000
,
01001000
00000000
01010000
00000000
,
10010000
00000000
10000000
00000000
,
11000000
00000000
01100000
00000000
,
00100000
00010000
01000000
00000000
,
00001000
00010000
00001000
00000000
,
00010000
00010000
00000010
00001000
,
00000100
00001000
00000001
00000010
,
00000110
00000000
00000100
00000000
,
00010000
00000000
00001000
00000000
,
01000000
00000000
00010000
00000000
,
00100000
00000000
01000000
10000000
,
10010000
00000000
00010000
00000000
,
01000000
00000000
00001000
00000000
,
00010000
00000000
00000010
00000010
,
00001000
00000000
00001001
00001001
,
00000110
00001000
00000200
00000000
,
00020300
00000000
00000000
00000000
,
00031000
01000000
00020000
00000000
,
20030000
00000000
31000000
01100000
,
10010000
01000000
00010000
00100000
,
02000000
00000000
03000000
10000000
,
00010000
00000000
01000000
00001000
,
00010000
00001000
00010000
00000010
,
00010010
00000000
00000000
00000000
,
00001000
00000100
00001000
00000000
,
00000010
00010000
00001000
00000000
,
01000000
00001000
00010000
00000000
,
00001000
00100000
00010000
00000000
,
01000000
00100000
10000000
00000000
,
01000000
00100000
00010000
00000000
,
01000000
00001000
00010000
00000000
,
00011000
00000000
00000000
00000000
,
00010000
00000010
00001000
00000100
,
00001000
00001000
00001000
00000002
,
00000013
00000100
00010000
00001000
,
00010000
00010000
00010000
00002000
,
00103000
00010000
10000000
00100000
,
01000000
01000000
01000000
00020000
,
10030000
01000000
00100000
00010000
,
01000000
01000000
01000000
00020000
,
00130000
00000000
00001000
00000000
,
00010000
00001000
00000100
00000000
,
00000110
00000000
00001001
00000000
,
00001000
00000100
00000010
00000000
,
00000001
00000000
00000100
00000000
,
00000010
00010000
00001000
00000000
,
00011000
00000000
01000000
00000000
,
00020000
20030000
30020000
00030000
,
02200000
00000000
00000000
00000000
,
03300000
00000000
00000000
00000000
;

//---------------dance-double - D. Bernardone----------------
#NOTES:
     dance-double:
     D. Bernardone:
     Medium:
     6:
     0.481,0.486,0.283,0.333,0.000,331.000,34.000,40.000,5.000,0.000,0.000:
00000000
00000000
00000000
00000000
,
00000000
00000000
00000000
00000000
,
00000000
00000000
00000000
00000000
,
00000100
00000000
00010000
00000000
00001000
00010000
00001000
00010000
,
00001000
00100000
00010000
01000000
,
00001000
00000000
00010000
00000000
01000000
00000000
10000000
00010000
,
10000000
00000000
01100000
00000000
00010000
01000000
00010000
01000000
,
00020000
00000000
00200000
00030000
,
00301000
00010000
00000010
00001000
,
00000100
00000000
00000010
00000000
00000001
00000000
00001000
00000010
,
00001000
00000000
00000010
00000000
00010000
00000000
00001000
00010000
,
00001000
00000000
00100000
00000000
00010000
01000000
00010000
10000000
,
00010000
00100000
01000000
10000000
,
01000000
00000000
00100000
00000000
00010000
00000000
01000000
00001000
,
01000000
00000000
00001000
00000000
00010000
00000000
00000100
00001000
,
00000100
00000000
00001100
00000110
,
00000011
00000001
00000100
00001000
,
00010000
01000000
10000000
00010000
,
00100000
00001000
01000000
00010000
,
00100000
01000000
01100000
11000000
,
10010000
10000000
00100000
00010000
,
00001000
00000010
00000001
00001000
,
00001100
00000000
00000100
00000000
00010100
00000000
00010000
00001000
,
00010000
00000000
00001000
00000000
01000000
00010000
01000000
00010000
,
00200000
00000000
00300000
00000000
,
01000000
10000000
00010000
00100000
,
00110000
00010000
01010000
01000000
,
01001000
00001000
00010000
00000100
,
00001100
00001000
00001001
00000001
,
00000011
00000010
00000100
00001000
,
00001010
00000010
00010010
00010000
,
00011000
00001000
00010000
00001000
,
00101000
00000000
01100000
00000000
10010000
00000000
10000000
00010000
,
10000000
00010000
00100000
00001000
,
00010000
00000000
00001000
00010000
00000100
00000000
00001000
00000010
,
00000100
00000000
00000010
00000000
00001000
00000000
00000001
00000010
,
00000100
00000000
00001000
00000001
00000100
00000000
00000010
00000000
,
00001010
00000000
00001000
00000000
00000100
00010000
00001000
00000000
,
00010000
00001000
00100000
00000000
00010000
00000000
01000000
00000000
,
01100000
00000000
10000000
00000000
00010000
00100000
01000000
00000000
,
10000000
00010000
01010000
00000000
,
00010000
00000000
00100000
00000000
00001000
00000000
00010000
00001000
,
00010000
00000000
00000010
00000000
00001000
00000000
00000100
00001000
,
00000100
00000000
00000010
00000000
00000001
00000000
00001000
00000010
,
00001000
00000000
00000010
00000000
00010000
00000000
00001000
00010000
,
00001000
00000000
00100000
00000000
00010000
00000000
01000000
00010000
,
01000000
00000000
00100000
00000000
10000000
00000000
01000000
10000000
,
01000000
00000000
00100000
00000000
00010000
00000000
01000000
00001000
,
01000000
00000000
01010000
01001000
,
00021000
00030200
00002300
00003020
,
00000230
00000000
00000300
00000000
,
00000002
00000023
00000230
00020300
,
00000000
00000000
00030000
00000000
00011000
00000000
00001000
00001000
,
01000000
00000000
00010000
00000000
00100000
00000000
01000000
10000000
,
00020000
00000000
00130000
00000000
01000000
00000000
00100000
00100000
,
00001000
00000000
00010000
00000000
00001000
00000000
00010000
00010000
,
00000010
00000000
00001000
00000000
00000100
00000000
00000010
00000010
,
00000200
00000000
000000M0
00000300
,
00002000
00003002
00000023
00000230
,
00020300
00000000
00032000
00000000
,
02003000
00000000
03200000
00000000
,
02300000
03002000
00023000
00000000
,
00030020
00002030
00003200
00002300
,
00003020
00000000
00002030
00000000
,
00003002
00000000
00000203
00000000
,
00000310
00000000
00000MM0
00000000
,
00000001
00000100
00001000
00010000
,
01000000
01000000
01000000
12000000
,
13000000
00100000
00010000
00001000
,
00000010
00000010
00000010
00000021
,
00000031
00000100
00001000
00010000
,
00100000
00100000
00100000
10200000
,
10300000
01000000
00010000
00001000
,
00000010
00000001
00001000
00002001
,
00003100
00000000
00010000
00000000
00001000
00010000
00001000
00010000
,
00001000
00000000
00100000
00000000
01000000
00000000
01000000
10000000
,
00010000
00000000
10000000
00000000
01000000
00000000
00010000
00001000
,
00010000
00000000
00000100
00000000
00001000
00000000
00000010
00000100
,
00000001
00000000
00001000
00000000
00000100
00010000
00000100
00010000
,
00000100
00010000
00001000
00100000
,
00010000
00000000
01000000
00000000
00100000
10000000
00100000
10000000
,
00100000
01010000
00002000
00003000
,
00022000
00000000
00000000
00000000
,
00033000
00000000
000MM000
00000000
;

//---------------dance-double - D. Bernardone----------------
#NOTES:
     dance-double:
     D. Bernardone:
     Hard:
     9:
     0.671,0.587,0.632,0.274,0.008,456.000,76.000,33.000,18.000,0.000,4.000: // measure 1
00000000
00000000
00000000
00000000
,  // measure 2
00000000
00000000
00000000
00000000
,  // measure 3
00000000
00000000
00000000
00000000
,  // measure 4
00000000
00000000
00000000
00000000
,  // measure 5
00011000
00000000
00010100
00000000
00002200
00000000
00003300
0000MM00
,  // measure 6
00000011
00000000
00001001
00000000
00000220
00000000
00000330
00000MM0
,  // measure 7
00011000
00000000
00010010
00000000
00022000
00000000
00033000
000MM000
,  // measure 8
01100000
00000000
00110000
00000000
02020000
00000000
03030000
0M0M0000
,  // measure 9
10000000
00010000
00100000
00001000
00010000
00001000
01000000
00010000
,  // measure 10
00100000
00001000
00010000
00001000
00000100
00000001
00001000
00000010
,  // measure 11
00010000
00001000
00010000
01000000
10000000
00010000
01000000
00100000
,  // measure 12
10000000
00010000
01000000
00010000
10000000
01000000
00100000
00010000
,  // measure 13
01000000
00001000
00010000
00000100
00010000
00000010
00001000
00000100
,  // measure 14
00000010
00000001
00000100
00000010
00001000
00000010
00010000
00001000
,  // measure 15
00100000
00010000
10000000
01000000
10000000
00100000
01000000
00010000
,  // measure 16
00110000
00100000
00000000
01100000
01000000
00000000
11000000
01000000
,  // measure 17
00100000
00001000
00010000
01000000
00010000
00001000
00000010
00000001
,  // measure 18
00001000
00000000
00000010
00001000
00000100
00000000
00010000
00010000
,  // measure 19
00001000
01000000
00100000
10000000
01000000
00010000
00001000
00010000
,  // measure 20
01000000
10000000
00010000
00000000
01010000
00000000
00010000
00010000
,  // measure 21
00100000
00001000
00010000
00001000
00000100
00000001
00001000
00000100
,  // measure 22
00000110
00000000
00000MM0
00000000
00000001
00000100
00001000
00010000
,  // measure 23
00011000
00000000
000MM000
00000000
00001000
00010000
01000000
10000000
,  // measure 24
11000000
00000000
00000000
00000000
MM100000
00000000
00000000
00000000
00040000
04000000
00000000
00000000
00000000
00000000
00000000
00000000
,  // measure 25
03030000
00000000
0M0M0000
00000000
00000000
00000000
00010000
00100000
,  // measure 26
00001000
00010000
00000010
00000100
00000001
00001000
00000100
00000010
,  // measure 27
00000011
00000000
00000101
00000000
00001010
00000000
00001100
00000100
,  // measure 28
00010000
00001000
00100000
00010000
10000000
00100000
01000000
00010000
,  // measure 29
00110000
00000000
01010000
00000000
10100000
10000000
01000000
00100000
,  // measure 30
00010000
01000000
00001000
00010000
00000100
00001000
00000010
00000100
,  // measure 31
00000101
00000000
00000011
00000000
00001100
00000000
00000100
00010000
,  // measure 32
00001000
00100000
00010000
10000000
01000000
10000000
00100000
01000000
,  // measure 33
01010000
00000000
00110000
00000000
11000000
10000000
00100000
01000000
,  // measure 34
02010000
00000000
03001000
00000000
00010000
00001000
00000100
00000010
,  // measure 35
00001020
00000000
00010030
00000000
00011000
00000000
00001000
00100000
,  // measure 36
00210000
00000000
00301000
00000000
00010000
00001000
00000010
00000100
,  // measure 37
00001200
00000000
00010300
00000000
00011000
00010000
00001000
00000100
,  // measure 38
00000002
00000000
00000013
00000000
00000100
00010000
00001000
00010000
,  // measure 39
00200000
00000000
20300000
00000000
32000000
00000000
03100000
00010000
,  // measure 40
01010000
00000000
01000000
00001000
00011000
00000000
00010000
00000100
,  // measure 41
00001100
00000000
00000010
00000000
00000002
00000000
00000103
00000010
,  // measure 42
00001010
00001000
00000100
00010000
00001000
00100000
00001000
00010000
,  // measure 43
02000000
00000000
13000000
00000000
00100000
01000000
00001000
00010000
,  // measure 44
00021000
00000000
00030100
00000000
00001000
00000010
00000100
00000001
,  // measure 45
00002001
00000000
00003100
00000000
00000010
00001000
00010000
00100000
,  // measure 46
01100000
00000000
10000000
00010000
00100000
00001000
00010000
01000000
,  // measure 47
01100000
00000000
00100000
00001000
00010000
00000010
00001000
00000100
,  // measure 48
00000110
00000000
00000010
00000001
00001000
00000100
00000010
00000100
,  // measure 49
00010100
00010000
00000000
00011000
00001000
00000000
00101000
00100000
,  // measure 50
00010000
01000000
00001000
00000100
,  // measure 51
00000020
00000000
00000030
00000100
,  // measure 52
00000100
00010000
01000000
00200000
,  // measure 53
00010000
00000000
10300000
00000000
11000000
00000000
10010000
10000000
,  // measure 54
00010000
01000000
00001000
00010000
00000010
00010000
00001000
00001000
,  // measure 55
00000200
00000000
00010000
00000000
00001000
00000000
00000310
00001000
,  // measure 56
00000000
00001000
00000100
00000010
00000011
00000000
00000001
00001000
,  // measure 57
00000000
00000000
00000001
00000000
00000100
00000000
00000010
00000000
00040000
00004000
00000000
00000000
00000000
00000000
00000000
00000000
,  // measure 58
00033000
00000000
000MM000
00000000
00000000
00000000
00001000
00100000
,  // measure 59
02000000
00010000
00100000
13000000
,  // measure 60
10010000
00000000
01010000
00000000
01001000
00000000
00001000
00010000
,  // measure 61
00000020
00000001
00000100
00001030
,  // measure 62
00000101
00000000
00001001
00000000
00001010
00000010
00010000
00001000
,  // measure 63
00200000
01000000
00010000
01300000
,  // measure 64
11000000
00000000
10010000
00000000
00110000
00000000
00100000
00001000
,  // measure 65
00010000
00000000
00010010
00000000
00000010
00000100
00000001
00001000
,  // measure 66
00000200
00000000
00001000
00000000
00000310
00000000
00000001
00000100
,  // measure 67
00000010
00010000
00001000
00000000
00010000
01000000
00100000
00010000
,  // measure 68
10000000
00000000
00100000
00000000
01100000
00000000
01000000
00001000
,  // measure 69
00010000
00000010
00000100
00000000
00000001
00001000
00000010
00000100
,  // measure 70
00000001
00000000
00000011
00000000
00000110
00000100
00010000
00001000
,  // measure 71
00010000
00100000
01000000
00000000
00010000
10000000
01000000
00100000
,  // measure 72
00001000
00000000
00011000
00000000
00010100
00000000
00000100
00001000
,  // measure 73
00000010
00000100
00000001
00000000
00000010
00000100
00010000
00001000
,  // measure 74
00010000
00000000
00011000
00000000
00101000
00100000
01000000
10000000
,  // measure 75
00200000
00000000
01300000
00000000
00010000
00100000
00001000
00010000
,  // measure 76
00000100
00000000
00000010
00000010
00000001
00000000
00000001
00000100
,  // measure 77
00000101
00000000
00010010
00000000
00010000
00001000
00010000
01000000
,  // measure 78
20000000
00000000
30100000
00000000
01100000
01000000
00001000
00010000
,  // measure 79
00200000
00000000
01300000
00000000
00001000
00010000
00001000
00000010
,  // measure 80
00000100
00000000
00001000
00000100
00010000
00000000
00010000
00000100
,  // measure 81
00010100
00000000
00000011
00000000
00000001
00000100
00001000
00010000
,  // measure 82
00002000
00000000
00010000
00000000
10003000
00000000
00100000
01000000
,  // measure 83
02200000
00000000
00000000
00000000
,  // measure 84
03300000
00000000
00000000
00000000
;

//---------------dance-double - D. Bernardone----------------
#NOTES:
     dance-double:
     D. Bernardone:
     Challenge:
     10:
     0.778,0.766,0.191,0.050,0.274,626.000,23.000,6.000,0.000,0.000,0.000:
00000000
00000000
00000000
00000000
,
00000000
00000000
00000000
00000000
,
00000000
00000000
00000000
00000000
,
00000000
00000000
00000000
00000000
00000000
00000000
00001000
00100000
,
00010000
00000000
10010000
00000000
10000000
01000000
00010000
00001000
,
00000100
00000000
00000101
00000000
00000011
00000000
00000001
00001000
,
00000100
00000000
00000000
00000000
00000110
00000000
00000000
00000000
00000100
00001000
00000100
00010000
00001000
00010000
00000010
00001000
,
00000010
00010010
00020100
00000000
,
00031000
00010000
00100000
00010000
00001000
00010000
01000000
00010000
,
00001000
00000000
00000010
00000000
00001000
00000000
00010000
00000000
00000100
00000000
00010000
00000000
00001000
00000000
00010000
00001000
,
01000000
00000000
00100000
00000000
10000000
00000000
00010000
00000000
01000000
00000000
00010000
00000000
00100000
00000000
01000000
10000000
,
00010000
00000000
00100000
00000000
00010000
00000000
01000000
00100000
10000000
00000000
01000000
00000000
00100000
00000000
00010000
00100000
,
01000000
00100000
00001000
00010000
00001000
00000010
00000001
00000100
,
00000010
00000000
00010000
00000000
00001000
00000000
00000100
00000000
00001000
00000000
00010000
00000000
00001000
00000000
00100000
00010000
,
01000000
00000000
00100000
00000000
10000000
00000000
01000000
00000000
10000000
00000000
00010000
00000000
01000000
00000000
00100000
10000000
,
00100000
00000000
01000000
00000000
00000000
00000000
00001000
00010000
00001000
00000000
00100000
00000000
00000000
00000000
00001000
00010000
,
00000100
00000010
00000001
00001000
00000100
00010000
00001000
00100000
,
00010000
00100000
10000000
00100000
00010000
01000000
00001000
00010000
,
00001000
00000100
00000001
00000010
00000001
00000100
00001000
00010000
,
00100000
00010000
00001000
00000100
00000001
00000010
00000100
00001000
,
00000001
00000010
00001000
00010000
01000000
00010000
00001000
00010000
,
00100000
10000000
01000000
00010000
00001000
00010000
01000000
10000000
,
00100000
00010000
00001000
00010000
00100000
01000000
00001000
00100000
,
00001000
00000000
00010000
00000000
00000100
00000000
00010000
00000000
00000010
00001000
00000010
00010000
00001000
00010000
00001000
00100000
,
00020000
00000000
00030000
00000000
,
00010000
10000000
00100000
01000000
00001000
00010000
01000000
00010000
,
00001000
00000000
00000100
00000000
00000010
00000000
00000100
00000000
00000001
00000000
00001000
00000000
00000100
00000000
00010000
00001000
,
00010000
00000000
00000010
00000000
00010000
00000000
00001000
00000000
01000000
00000000
00100000
00000000
10000000
00000000
01000000
00100000
,
01000000
00000000
10000000
00000000
00010000
00000000
01000000
00000000
00001000
00000000
00010000
00000000
00000100
00000000
00001000
00000010
,
00001000
00000001
00000010
00000100
00010000
00001000
00100000
00010000
,
01000000
00000000
00100000
00000000
10000000
00000000
01000000
00000000
00100000
00000000
00001000
00000000
00010000
00000000
00000100
00001000
,
00000100
00000000
00001000
00000000
00000010
00000000
00000100
00000000
00000001
00000000
00000010
00000000
00000100
00000000
00001000
00000010
,
00001000
00000000
00000100
00000000
00010000
00000000
00001000
00100000
00001000
00010000
00001000
01000000
00010000
01000000
00100000
10000000
,
00100000
01000000
00010000
00100000
00001000
00010000
00000100
00001000
,
00000010
00000000
00000100
00000000
00000001
00000000
00001000
00000100
00010000
00000000
00001000
00000000
00100000
00000000
00010000
10000000
,
00010000
00000000
01000000
00000000
00001000
00000000
00010000
00000000
00000010
00000000
00001000
00000000
00000100
00000000
00000010
00000001
,
00000010
00000000
00000001
00000000
00000100
00000000
00000010
00001000
00000010
00000000
00001000
00000000
00000100
00000000
00010000
00001000
,
00010000
00001000
00100000
01000000
00100000
00010000
10000000
01000000
,
00100000
00000000
00010000
00000000
01000000
00000000
00001000
00010000
00000100
00000000
00001000
00000000
00000010
00000000
00000100
00000001
,
00000100
00000000
00000010
00000000
00001000
00000000
00000100
00000000
00010000
00000000
00001000
00000000
00010000
00000000
00001000
00100000
,
00001000
00000000
00100000
00000000
01000000
00000000
10000000
00000000
00010000
00000000
01000000
00000000
00100000
10000000
00010000
00100000
,
01000000
01000000
10000000
00100000
10000000
01000000
00100000
00001000
,
00010000
00010000
00001000
00100000
00001000
00010000
00001000
00000100
,
00000010
00000010
00000100
00001000
00000100
00000010
00001000
00000100
,
00000010
00000010
00000001
00001000
00000010
00010000
00001000
01000000
,
00100000
00000000
10000000
00000000
01000000
00000000
00010000
00000000
00001000
00000000
00000100
00000000
00000001
00000000
00000010
00000100
,
00001000
00000000
00000010
00000000
00010000
00000000
00001000
00000000
00100000
00000000
00010000
00000000
10000000
00000000
01000000
00100000
,
00010000
00000000
10000000
00000000
00100000
00000000
00010000
00000000
00001000
00000000
00000010
00000000
00000001
00000000
00000100
00000010
,
00001000
00000000
00000001
00000000
00000010
00000000
00000001
00001000
00000100
00000000
00010000
00000000
00001000
00000000
00100000
00001000
,
00020000
01000000
00001000
00100000
,
00031000
00000000
00000000
00001000
,
00002000
00000100
00010000
00000010
,
00013000
00000000
00000010
00000000
00010010
00000000
00000100
00010000
,
00001000
01000000
10000000
01000000
00010000
00100000
00001000
00010000
,
00000010
00000001
00000010
00001000
00000100
00010000
00011000
01000000
,
00000000
10010000
01000000
00000000
10100000
00000000
11000000
00010000
,
00000000
00000000
01100000
00000000
10000000
00000000
01000000
00000000
00100000
00010000
00100000
00001000
00010000
00001000
00010000
00000100
,
00002000
00000000
00003000
00000000
,
00000110
00000000
00000101
00000000
00000001
00001000
00000100
00010000
,
00001000
00000000
00101000
00000000
11000000
00000000
10000000
00010000
,
00100000
00000000
00101000
00000000
00001000
00010000
00000010
00000100
,
00000001
00000000
00000110
00000000
00010000
00000010
00001000
00000100
,
00010000
00000000
00011000
00000000
00001000
00100000
00010000
10000000
,
01000000
00000000
10010000
00000000
01001000
00000000
00001000
00010000
,
00000100
00000000
00000011
00000000
00000001
00000100
00001000
00010000
,
00001000
00000000
00011000
00000000
00010000
00001000
01000000
00001000
,
00010000
00001000
00100000
00010000
01000000
00100000
10000000
01000000
,
00100000
00000000
00001000
00000000
00010000
00000000
00001000
00000000
00000100
00000000
00000001
00000000
00000010
00000000
00000100
00010000
,
00000100
00000000
00010000
00000000
00001000
00000000
01000000
00000000
00010000
00000000
00100000
00000000
01000000
00000000
10000000
00010000
,
10000000
00000000
00100000
00000000
01000000
00000000
00001000
00010000
00001000
00000000
00010000
00000000
00000100
00000000
00001000
00000010
,
00001000
00000010
00000100
00000001
00000010
00001000
00010000
00001000
,
01000000
00000000
00100000
00000000
10000000
00000000
01000000
00000000
00100000
00000000
00010000
00000000
01000000
00000000
00001000
00010000
,
00001000
00000000
00100000
00000000
00001000
00000000
00010000
00000000
00000010
00000000
00000100
00000000
00000001
00000000
00001000
00000100
,
00001000
00000000
00000010
00000000
00010000
00000000
00001000
01000000
00001000
00010000
00001000
00100000
00010000
00100000
00010000
10000000
,
01000000
00100000
00001000
00010000
00000010
00000100
00000001
00000010
,
00001000
00000000
00000010
00000000
00000001
00000000
00001000
00000100
00010000
00000000
00001000
00000000
01000000
00000000
00010000
00100000
,
00010000
00000000
01000000
00000000
00100000
00000000
10000000
00000000
01000000
00000000
00010000
00000000
00001000
00000000
00010000
00000100
,
00010000
00000000
00001000
00000000
00000010
00000000
00000001
00001000
00000001
00000000
00000100
00000000
00000010
00000000
00010000
00001000
,
00010000
00001000
00100000
01000000
00010000
01000000
10000000
00100000
,
01000000
00000000
00010000
00000000
00100000
00000000
00001000
00010000
00000100
00000000
00001000
00000000
00000010
00000000
00000100
00000001
,
00000100
00000000
00000010
00000000
00010000
00000000
00001000
00000000
01000000
00000000
00010000
00000000
00100000
00000000
01000000
10000000
,
01000000
00000000
10000000
00000000
00010000
00000000
01000000
00000000
00001000
00000000
00010000
00000000
00000010
00001000
00000001
00000010
,
00000200
00000000
00000000
00000000
,
00000000
00000000
00000000
00000300
;
