#TITLE:Night Time Story;
#SUBTITLE:;
#ARTIST:Jack-in-the-Box;
#TITLETRANSLIT:;
#SUBTITLETRANSLIT:;
#ARTISTTRANSLIT:;
#GENRE:Dance;
#CREDIT:Sync by HellRazoR;
#BANNER:Night Time Story-bn.png;
#BACKGROUND:Night Time Story-bg.png;
#LYRICSPATH:;
#CDTITLE:;
#MUSIC:Night Time Story.ogg;
#OFFSET:-0.034;
#SAMPLESTART:49.760;
#SAMPLELENGTH:11.700;
#SELECTABLE:YES;
#DISPLAYBPM:132.000:91.000;
#BPMS:0.000=132.000,120.000=91.080,136.000=132.000;
#STOPS:120=0.65898,135.333=0.65898;
#BGCHANGES:0.000=fadetoblack.png=0.400=1=0=1===CrossFade==,
0.500=Night Time Story-bg.png=1.000=1=0=1===CrossFade==,
8.000=In The Groove Rebirth/1342_JumpBack.mpg=1.000=0=0=1=====,
10.000=In The Groove Rebirth/1344_JumpBack.mpg=1.000=0=0=1=====,
12.000=In The Groove Rebirth/1345_JumpBack.mpg=1.000=0=0=1=====,
14.000=In The Groove Rebirth/1352_JumpBack.mpg=1.000=0=0=1=====,
16.000=In The Groove Rebirth/1358_JumpBack.mpg=1.000=0=0=1=====,
18.000=In The Groove Rebirth/1364_JumpBack.mpg=1.000=0=0=1=====,
20.750=Night Time Story-bg.png=1.000=1=0=1===CrossFade==,
24.000=In The Groove Rebirth/1150_JumpBack.mpg=1.000=0=0=1=====,
40.000=In The Groove Rebirth/1358_JumpBack.mpg=1.000=0=0=1===SlideRight==,
56.000=In The Groove Rebirth/1342_JumpBack.mpg=1.000=0=0=1===SlideLeft==,
72.000=In The Groove Rebirth/1352_JumpBack.mpg=1.000=0=0=1===SlideRight==,
88.000=In The Groove Rebirth/1144_JumpBack.mpg=1.000=0=0=1=====,
104.000=In The Groove Rebirth/1345_JumpBack.mpg=1.000=0=0=1=====,
120.000=fadetoblack.png=0.200=1=0=1===CrossFade==,
121.000=In The Groove Rebirth/1344_JumpBack.mpg=1.000=1=0=1===CrossFade==,
135.333=Night Time Story-bg.png=1.000=0=0=1=====,
136.000=In The Groove Rebirth/1358_JumpBack.mpg=1.000=0=0=1=====,
152.000=In The Groove Rebirth/1345_JumpBack.mpg=1.000=0=0=1=====,
168.000=In The Groove Rebirth/1144_JumpBack.mpg=1.000=0=0=1=====,
184.000=In The Groove Rebirth/1150_JumpBack.mpg=1.000=0=0=1===SlideDown==,
200.000=Night Time Story-bg.png=0.400=0=0=1=====,
201.000=fadetoblack.png=1.000=1=0=1===CrossFade==,
99999=-nosongbg-=1.000=0=0=0 // don't automatically add -songbackground-
;
#BGCHANGES2:8.000=flash=1.000=0=0=1====0.5^0.5^0.5^1=,
10.000=flash=1.000=0=0=1====0.5^0.5^0.5^1=,
12.000=flash=1.000=0=0=1====0.5^0.5^0.5^1=,
14.000=flash=1.000=0=0=1====0.5^0.5^0.5^1=,
16.000=flash=1.000=0=0=1====0.5^0.5^0.5^1=,
18.000=flash=1.000=0=0=1====0.5^0.5^0.5^1=,
36.000=white flash=1.000=0=0=1=====,
38.000=white flash=1.000=0=0=1=====,
108.000=white flash=1.000=0=0=1=====,
110.000=white flash=1.000=0=0=1=====,
135.333=white flash=1.000=0=0=1=====,
156.000=white flash=1.000=0=0=1=====,
158.000=white flash=1.000=0=0=1=====,
;
#KEYSOUNDS:;

//---------------dance-single - Necrosis----------------
#NOTES:
     dance-single:
     Necrosis:
     Challenge:
     10:
     0.785,0.000,0.200,0.752,0.967:
0000
0000
0000
0000
,
0000
0000
0000
0000
,
1100
0010
0100
0000
0011
0100
0010
0000
,
1010
0001
0100
0010
1100
0001
0100
0000
,
0011
0000
1000
0000
0100
0000
1000
0000
1010
0000
0100
0000
0001
1000
0000
0001
,
0010
0000
0000
0000
0100
0000
1000
0000
0000
0000
0010
0000
0001
0000
0000
0000
0010
0000
0100
0000
0000
0000
0001
0000
0010
0000
0000
0000
010M
M0M0
0000
0000
,
1001
0000
0000
0000
0000
0000
0000
0000
0100
0000
0000
0000
0000
0010
0000
0000
1000
0000
0000
0000
0000
0100
0000
0000
1000
0000
0000
0000
0000
0000
0000
0000
0100
0000
0000
0000
0000
0010
0000
0000
0001
0000
0000
0000
0000
1000
0000
0000
0000
0000
0000
0000
0000
0100
0000
0000
1000
0000
0000
0000
0000
0100
0000
0000
,
1000
0000
0000
0000
0000
0000
0000
0000
0010
0000
0000
0000
0000
0100
0000
0000
0001
0000
0000
0000
0000
0010
0000
0000
0001
0000
0000
0000
0000
0000
0000
0000
0010
0000
0000
0000
0000
0100
0000
0000
1000
0000
0000
0000
0000
0010
0000
0000
0000
0000
0000
0000
0000
0100
0000
0000
0001
0000
0000
0000
0000
1000
0000
0000
,
0001
0000
0000
0000
0000
0000
0000
0000
0100
0000
0000
0000
0000
0010
0000
0000
0100
0000
0000
0000
0000
1000
0000
0000
0100
0000
0000
0000
0000
0000
0000
0000
0001
0000
0000
0000
0000
0000
0000
0000
0010
0000
0000
0000
0000
0100
0000
0000
0000
0000
0000
0000
0000
1000
0000
0000
0100
0000
0000
0000
0000
1000
0000
0000
,
001M
0000
0000
0000
0000
0000
0000
0000
0100
0000
0000
0000
0000
0001
0000
0000
0000
0000
0000
0000
0000
0010
0000
0000
0100
0000
0000
0000
0000
0000
0000
0000
100M
0000
0000
0000
0000
0000
0000
0000
0100
0000
0000
0000
0000
0010
0000
0000
0000
0000
0000
0000
0000
0001
0000
0000
0010
0000
0000
0000
0000
0100
0000
0000
,
2000
0000
0000
0000
0000
0000
0000
0000
0000
0000
0000
0000
0000
0000
0000
0000
0000
0000
0000
0000
0000
0000
0000
0000
0020
0000
0000
0000
0000
0000
0000
0000
3000
0000
0000
0000
0000
0000
0000
0000
0000
0000
0000
0000
0000
0000
0000
0000
0002
0000
0000
0000
0000
0000
0000
0000
0000
0000
0000
0000
0030
0000
0000
0000
0000
0000
0000
0000
0000
0000
0000
0000
0010
0000
0000
0000
0000
0000
0000
0000
0003
0000
0000
0000
0000
0000
0000
0000
0000
0000
0000
0000
0000
0000
0000
0000
0100
0000
0000
0000
0000
0000
0000
0000
0000
0000
0000
0000
00M0
0000
0000
0000
0000
0000
0000
0000
0000
0000
0000
0000
1000
0000
0000
0000
0000
0000
0000
0000
0000
0000
0000
0000
0000
0000
0000
0100
0000
0000
0000
0000
0000
0000
0000
0000
0000
0000
0000
0000
0000
0000
0000
0000
0000
0000
0000
0000
0000
0000
0000
1000
0000
0000
0000
0000
0000
0000
0000
0000
0100
0000
0000
0000
0000
0000
0000
0000
0000
0000
0000
0000
0000
0000
0000
0001
0000
0000
0000
0000
0000
0000
0000
0000
,
0100
0000
0000
0020
0000
0000
2000
0030
0000
0200
3000
0000
0310
0000
0001
0000
0100
0000
0010
0000
1000
0000
0100
0000
,
0020
0000
0000
0000
0000
0000
0000
0000
0000
0000
0000
0000
0000
0000
0000
0000
0000
0000
0000
0000
0000
0000
0000
0000
0002
0000
0000
0000
0000
0000
0000
0000
0030
0000
0000
0000
0000
0000
0000
0000
0000
0000
0000
0000
0000
0000
0000
0000
0200
0000
0000
0000
0000
0000
0000
0000
0000
0000
0000
0000
0000
0000
0000
0000
0003
0000
0000
0000
0000
0000
0000
0000
1000
0000
0000
0000
0000
0000
0000
0000
0300
0000
0000
0000
0000
0000
0000
0000
0000
0000
0000
0000
0000
0000
0000
0000
0100
0000
0000
0000
0000
0000
0000
0000
0000
0000
0000
0000
0000
0000
0000
0000
0000
0000
0000
0000
0000
0000
0000
0000
0010
0000
0000
0000
0000
0000
0000
0000
0000
0000
0000
0000
0000
0000
0000
1000
0000
0000
0000
0000
0000
0000
0000
0000
0000
0000
0000
0000
0000
0000
0000
0000
0000
0000
0000
0000
0000
0000
0000
0001
0000
0000
0000
0000
0000
0000
0000
0000
0010
0000
0000
0000
0000
0000
0000
0000
0000
0000
0000
0000
0000
0000
0000
0001
0000
0000
0000
0000
0000
0000
0000
0000
,
2000
0000
0000
0000
0000
0000
0200
0000
3000
0000
0000
0000
0302
0000
0000
0000
0000
0000
0200
0000
0003
0000
0000
0000
0310
0000
0000
0001
0000
0000
0100
0000
0000
1000
0000
0000
0100
0000
0000
0001
0000
0000
0010
0000
0000
0100
0000
0000
,
2000
0000
0000
0000
0000
0000
0000
0000
0000
0000
0000
0000
0000
0000
0000
0000
0000
0000
0000
0000
0000
0000
0000
0000
0002
0000
0000
0000
0000
0000
0000
0000
3000
0000
0000
0000
0000
0000
0000
0000
0000
0000
0000
0000
0000
0000
0000
0000
0020
0000
0000
0000
0000
0000
0000
0000
0000
0000
0000
0000
0003
0000
0000
0000
0000
0000
0000
0000
0000
0000
0000
0000
1000
0000
0000
0000
0000
0000
0000
0000
0030
0000
0000
0000
0000
0000
0000
0000
0000
0000
0000
0000
0000
0000
0000
0000
0M1M
0000
0000
0000
0000
0000
0000
0000
0000
0000
0000
0000
0000
0000
0000
0000
0000
0000
0000
0000
0000
0000
0000
0000
0001
0000
0000
0000
0000
0000
0000
0000
0000
0000
0000
0000
0000
0000
0000
0010
0000
0000
0000
0000
0000
0000
0000
0000
0000
0000
0000
0000
0000
0000
0000
0000
0000
0000
0000
0000
0000
0000
0000
0100
0000
0000
0000
0000
0000
0000
0000
0000
1000
0000
0000
0000
0000
0000
0000
0000
0000
0000
0000
0000
0000
0000
0000
0100
0000
0000
0000
0000
0000
0000
0000
0000
,
1000
0000
0000
0000
0000
0000
0000
0000
0000
0000
0000
0000
0000
0000
0000
0000
0000
0000
0000
0000
0000
0000
0000
0000
0020
0000
0000
0000
0000
0000
0000
0000
0000
0000
0000
0000
0000
0000
0000
0000
0000
0000
0000
0000
0000
0000
0000
0000
1000
0000
0000
0000
0000
0000
0000
0000
0000
0000
0000
0000
0000
0000
0000
0000
0000
0000
0000
0000
0000
0000
0000
0000
2000
0000
0000
0000
0000
0000
0030
0000
0000
0000
0000
0000
0000
0000
0000
0000
0000
0000
0000
0000
0000
0000
0000
0000
3001
0000
0000
0000
0000
0000
0000
0000
0000
0000
0000
0000
0000
0000
0000
0000
0100
0000
0000
0000
0000
0000
0000
0000
0000
0000
0000
0000
0000
0000
0000
0000
0001
0000
0000
0000
0000
0000
0000
0000
0000
0000
0000
0000
0000
0000
0000
0000
1000
0000
0000
0000
0000
0000
0000
0000
0000
0000
0000
0000
0000
0000
0000
0000
0010
0000
0000
0000
0000
0000
0000
0000
0000
0000
0000
0000
0000
0000
0000
0000
1000
0000
0000
0000
0000
0000
0000
0000
0000
0000
0000
0000
0000
0000
0000
0000
,
0200
0000
0000
0000
0000
0000
0000
0000
0000
0000
0000
0000
0000
0000
0000
0000
0000
0000
0000
0000
0000
0000
0000
0000
0020
0000
0000
0000
0000
0000
0000
0000
0300
0000
0000
0000
0000
0000
0000
0000
0000
0000
0000
0000
0000
0000
0000
0000
0002
0000
0000
0000
0000
0000
0000
0000
0000
0000
0000
0000
0030
0000
0000
0000
0000
0000
0000
0000
0000
0000
0000
0000
2000
0000
0000
0000
0000
0000
0000
0000
0003
0000
0000
0000
0000
0000
0000
0000
0000
0000
0000
0000
0000
0000
0000
0000
3100
0000
0000
0000
0000
0000
0000
0000
0000
0000
0000
0000
0000
0000
0000
0001
0000
0000
0000
0000
0000
0000
0000
0000
0100
0000
0000
0000
0000
0000
0000
0000
0000
0000
0000
0000
0000
0000
0000
0000
0000
0000
0000
0000
0000
0000
0000
0000
1100
0000
0000
0000
0000
0000
0000
0000
0000
0000
0000
0000
0000
0000
0000
0000
0000
0000
0000
0000
0000
0000
0000
0000
0000
0000
0000
0000
0000
0000
0000
0000
0000
0000
0000
0000
0000
0000
0000
0010
0000
0000
0000
0000
0000
0000
0000
0000
,
0002
0000
0000
0000
0000
0000
0000
0000
0000
0000
0000
0000
0000
0000
0000
0000
0000
0000
0000
0000
0000
0000
0000
0000
0000
0000
0000
0000
0000
0000
0000
0000
0000
0000
0000
0000
0000
0000
0000
0000
0000
0000
0000
0000
0000
0000
0000
0000
0203
0000
0000
0000
000M
0000
0000
0000
0000
0000
0000
0000
0000
0000
0000
0000
0000
0000
0000
0000
0000
0000
0000
0000
0000
0000
0000
0000
0000
0000
0000
0000
0000
0000
0000
0000
0000
0000
0000
0000
0000
0000
0000
0000
0000
0000
0000
0000
1300
0000
0000
0000
0000
0000
0000
0000
0M00
0000
0000
0000
0000
0000
0000
0000
0000
0000
0000
0000
0000
0000
0000
0000
0100
0000
0000
0000
0000
0000
0000
0000
0000
0000
0000
0000
0000
0000
0000
0001
0000
0000
0000
0000
0000
0000
0000
0000
0000
0000
0000
0000
0000
0000
0000
0000
0000
0000
0000
0000
0000
0000
0000
0010
0000
0000
0000
0000
0000
0000
0000
0000
0100
0000
0000
0000
0000
0000
0000
0000
0000
0000
0000
0000
0000
0000
0000
0000
0000
0000
000M
0000
M000
0000
0000
0000
,
00M0
0000
0000
0000
0M00
0000
0000
0000
0000
0000
0000
0000
0000
0000
0000
0000
0000
0000
0000
0000
0000
0000
0000
0000
1000
0000
0000
0000
0000
0000
0000
0000
0000
0000
0000
0000
0000
0000
0000
0010
0000
0000
0000
0000
0000
0000
0000
0000
0000
0000
0000
0000
0000
0000
0000
0000
0000
0000
0000
0000
0000
0000
0000
0000
0000
0000
0000
0000
0000
0000
0000
0000
0110
0000
0000
0000
0000
0000
0000
0000
0000
0000
0000
0000
0000
0000
0000
0000
0000
0000
0000
0000
0000
0000
0000
0000
1000
0000
0000
0000
0000
0000
0000
0000
0000
0000
0000
0000
0000
0000
0000
0001
0000
0000
0000
0000
0000
0000
0000
0000
0010
0000
0000
0000
0000
0000
0000
0000
0000
0000
0000
0000
0000
0000
0000
1000
0000
0000
0000
0000
0000
0000
0000
0000
000M
0000
0000
0000
0000
0000
0000
0000
0000
0000
0000
0000
0000
0000
0000
0010
0000
0000
0000
0000
0000
0000
0000
0000
0000
0000
0000
0000
0000
0000
0000
0000
0000
0000
0000
0000
0000
0000
0000
0001
0000
0000
0000
0000
0000
0000
0000
0000
,
0100
0000
0000
0010
0000
0000
1000
0000
0000
0001
0000
0000
2100
0000
0000
3010
0000
0000
0100
0000
0000
0001
0000
0M00
,
M000
0000
0000
0000
0000
0000
0000
0000
0000
0000
0000
0000
0000
0000
0000
0000
0000
0000
0000
0000
0000
0000
0000
0000
0001
0000
0000
0000
0000
0000
0000
0000
0000
0000
0000
0000
0000
0000
0000
0010
0000
0000
0000
0000
0000
0000
0000
0000
0000
0000
0000
0000
0000
0000
0000
0000
0000
0000
0000
0000
0000
0000
0000
0000
0000
0000
0000
0000
0000
0000
0000
0000
1010
0000
0000
0000
0000
0000
0000
0000
0000
0000
0000
0000
0000
0000
0000
0000
0000
0000
0000
0000
0000
0000
0000
0000
0100
0000
0000
0000
0000
0000
0000
0000
0000
0000
0000
0000
0000
0000
0000
1000
0000
0000
0000
0000
0000
0000
0000
0000
0010
0000
0000
0000
0000
0000
0000
0000
0000
0000
0000
0000
0000
0000
0000
0001
0000
0000
0000
0000
0000
0000
0000
0000
0000
0000
0000
0000
0000
0000
0000
0000
M000
0000
0000
0000
0000
0000
0000
0010
0000
0000
0000
0000
0000
0000
0000
0000
0000
0000
0000
0000
0000
0000
0000
0000
0000
0000
0000
0000
0000
0000
0000
1000
0000
0000
0000
0000
0000
0000
0000
0000
,
0100
0010
0001
0100
1200
0310
1000
0001
,
1000
0000
0000
0000
0000
0000
0000
0000
0100
0000
0000
0000
0000
0000
0000
0000
M0M2
0000
0M00
0000
0000
0000
0003
0000
0000
0000
0000
0000
0000
0000
0000
0000
0100
0000
0000
0000
0000
0000
0000
0000
0100
0000
0000
0000
0000
1000
0000
0000
0000
0000
0000
0000
0000
0010
0000
0000
0100
0000
0000
0000
0000
0000
0000
0000
,
0001
0000
0000
0000
0000
0000
0000
0000
0010
0000
0000
0000
0000
0000
0000
0000
M200
0000
00MM
0000
0000
0000
0300
0000
1000
0000
0000
0000
0000
0100
0000
0000
0010
0000
0000
0000
0000
0000
0000
0000
0001
0000
0000
0000
0000
0000
0000
0000
M200
0000
00MM
0000
0000
0000
0300
0000
1000
0000
0000
0000
0000
0100
0000
0000
,
0010
0000
0000
0000
0000
0000
0000
0000
1000
0000
0000
0000
0000
0000
0000
0000
02MM
0000
M000
0000
0000
0000
0300
0000
0001
0000
0000
0000
0000
0100
0000
0000
1000
0000
0000
0000
0000
0000
0000
0000
0010
0000
0000
0000
0000
0000
0000
0000
MM02
0000
00M0
0000
0000
0000
0003
0000
0010
0000
0000
0000
0000
0100
0000
0000
,
1000
0000
0000
0000
0000
0000
0000
0000
0100
0000
0000
0000
0000
0000
0000
0000
M02M
0000
0M00
0000
0000
0000
0030
0000
0100
0000
0000
0000
0000
0010
0000
0000
0001
0000
0000
0000
0000
0000
0000
0000
0010
0000
0000
0000
0000
0000
0000
0000
2M0M
0000
00M0
0000
0000
0000
3000
0000
0100
0000
0000
0000
0000
0010
0000
0000
,
0001
0000
0000
0000
0000
0000
0000
0000
0010
0000
0000
0000
0000
0100
0000
0000
1000
0000
0000
0000
0000
0010
0000
0000
1000
0000
0000
0000
0000
0000
0000
0000
0010
0000
0000
0000
0000
0000
0000
0000
0100
0000
0000
0000
0000
0001
0000
0000
0010
0000
0000
0000
0000
0001
0000
0000
0100
0000
0000
0000
0000
0010
0000
0000
,
1000
0000
0000
0000
0000
0000
0000
0000
0100
0000
0000
0000
0000
0010
0000
0000
0001
0000
0000
0000
0000
1000
0000
0000
0001
0000
0000
0000
0000
0000
0000
0000
1000
0000
0000
0000
0000
0000
0000
0000
0001
0000
0000
0000
0000
0010
0000
0000
0100
0000
0000
0000
0000
1000
0000
0000
0010
0000
0000
0000
0000
0100
0000
0000
,
0002
0000
0000
0000
0000
0000
0000
0000
0000
0000
0000
0000
0000
0000
0000
0000
0203
000M
0000
0000
0000
0000
0000
0000
0000
0000
0000
0000
0000
0000
0000
0000
0310
0000
0000
0000
0000
0000
0000
0000
0010
0000
0000
0000
0000
1000
0000
0000
0000
0000
0000
0000
0000
0100
0000
0000
0010
0000
0000
0000
0000
0000
0000
0000
,
0010
0000
0000
0000
0002
0000
0000
0000
0013
0000
0000
0000
0200
0000
0000
0000
1300
0000
0000
0000
0020
0000
0000
0000
0130
0000
0000
0000
2000
0000
0000
3000
,
0101
0000
0000
0000
M000
0000
001M
0M00
0000
0000
100M
0000
0M10
0000
000M
0000
M100
0000
0010
0000
M000
0000
0M00
0000
,
10MM
0000
0000
0000
0100
M000
0010
0000
0M01
0000
1000
00M0
0100
0000
0000
M000
0010
0M00
0001
M000
0000
0000
01M0
0000
,
100M
0000
0100
000M
0010
0000
1M00
000M
0000
0000
0100
000M
M010
0000
0000
MM00
0001
0000
0010
MM00
0000
0000
00M0
0000
,
1100
000M
0000
0000
01M0
0000
1000
000M
0010
0000
0100
M000
00M1
0000
0M00
M000
001M
0000
0100
0000
2002
0000
3003
0000
,
0110
0000
0000
0000
0000
0000
0000
0000
0001
0000
0000
0000
0000
0000
0000
0000
1000
0000
0000
0000
0000
0000
0000
0000
0100
0000
0000
0000
0000
0010
0000
0000
1000
0000
0000
0000
0000
0010
0000
0000
0001
0000
0000
0000
0000
0000
0000
0000
0201
0000
0000
0000
0000
0000
0000
0000
001M
0000
0000
0000
0300
0100
0000
0000
,
0001
0000
0000
0000
0000
0000
0000
0000
0010
0000
0000
0000
0000
0000
0000
0000
0110
0000
0000
0000
0000
0000
0000
0000
0100
0000
0000
0000
0000
1000
0000
0000
0100
0000
0000
0000
0000
0001
0000
0000
0100
0000
0000
0000
0000
0000
0000
0000
1200
0000
0000
0000
0000
0000
0000
0000
M010
0000
0000
0000
0300
0100
0000
0000
,
2000
0000
0000
0000
0000
0000
0000
0000
0000
0000
0000
0000
0000
0000
0000
0000
3020
0000
M000
0000
0000
0000
0000
0000
1030
0000
0000
0000
0000
0100
0000
0000
0001
0000
0000
0000
0000
0100
0000
0000
0010
0000
0000
0000
0000
0000
0000
0000
0012
0000
0000
0000
0000
0000
0000
0000
01M0
0000
0000
0000
0003
0001
0000
0000
,
1000
0000
0000
0000
0000
0000
0000
0000
0100
0000
0000
0000
0000
0000
0000
0000
0001
0000
0000
0000
0000
0000
0000
0000
0100
0000
0000
0000
0000
1000
0000
0000
0010
0000
0000
0000
0000
0100
0000
0000
0001
0000
0000
0000
0000
0000
0000
0000
0210
0000
0000
0000
0000
0000
0000
0000
10M0
0000
0000
0000
0300
0100
0000
0000
,
0010
0000
0000
0000
0000
0000
0000
0000
1000
0000
0000
0000
0000
0001
0000
0000
0000
0000
0000
0000
0000
0100
0000
0000
0000
0000
0000
0000
0000
0010
0000
0000
1000
0000
0000
0000
0000
0100
0000
0000
0010
0000
0000
0000
0000
0001
0000
0000
0000
0000
0000
0000
0000
0010
0000
0000
0001
0000
0000
0000
0000
0010
0000
0000
,
0002
0000
0000
0000
0000
00M0
0000
0000
1003
0000
0000
0000
0000
0010
0000
0000
0000
0000
0000
0000
0000
0100
0000
0000
0001
0000
0000
0000
0000
0000
0000
0000
0010
0000
0000
0000
0000
0100
0000
0000
1000
0000
0000
0000
0000
0100
0000
0000
0000
0000
0000
0000
0000
0100
0000
0000
0010
0000
0000
0000
0000
0200
0000
0000
,
0000
0000
0000
00M0
0000
0000
0000
0000
0310
0000
0000
0000
0000
0000
0000
0000
MM02
0000
00M0
0000
0000
0000
0003
0000
0100
0000
0000
0000
0000
1000
0000
0000
0100
0000
0000
0000
0000
0010
0000
0000
1000
0000
0000
0000
0000
0000
0000
0000
02MM
0000
M000
0000
0000
0000
0300
0000
0000
0000
0000
0000
0000
0010
0000
0000
,
0001
0000
0000
0000
0000
0000
0000
0000
0100
0000
0000
0000
0000
0000
0000
0000
M02M
0000
0M00
0000
0000
0000
0030
0000
1000
0000
0000
0000
0000
0100
0000
0000
0001
0000
0000
0000
0000
0100
0000
0000
0010
0000
0000
0000
0000
0000
0000
0000
MM02
0000
00M0
0000
0000
0000
0003
0000
1000
0000
0000
0000
0000
0000
0000
0000
,
0200
0000
0000
0000
0000
0000
0000
0000
0000
0000
0000
0000
0000
0000
0000
0000
0000
0000
0000
0000
0000
0000
0000
0000
2000
0000
0000
0000
0000
0000
0000
0000
0300
0000
0000
0000
0000
0000
0000
0000
0000
0000
0000
0000
0000
0000
0000
0000
0M20
0000
0000
0000
0000
0000
0000
0000
0000
0000
0000
0000
3000
0000
0000
0000
0000
0000
0000
0000
0000
0000
0000
0000
0100
0000
0000
0000
0000
0000
0000
0000
0030
0000
0000
0000
0000
0000
0000
0000
0000
0000
0000
0000
0000
0000
0000
0000
0M01
0000
0000
0000
0000
0000
0000
0000
0000
0000
0000
0000
0000
0000
0000
0000
0000
0000
0000
0000
0000
0000
0000
0000
0010
0000
0000
0000
0000
0000
0000
0000
0000
0000
0000
0000
0000
0000
0000
0100
0000
0000
0000
0000
0000
0000
0000
0000
0000
0000
0000
0000
0000
0000
0000
0000
0000
0000
0000
0000
0000
0000
0000
1000
0000
0000
0000
0000
0000
0000
0000
0000
0100
0000
0000
0000
0000
0000
0000
0000
0000
0000
0000
0000
0000
0000
0000
1000
0000
0000
0000
0000
0000
0000
0000
0000
,
0200
0000
0000
M000
0000
0000
0020
0000
0300
0000
0000
0000
0M02
0000
0000
0030
0000
0000
0200
0000
0003
0000
0000
0000
0310
0000
0000
0000
1000
0000
0000
0000
0001
0000
0000
0000
0100
0000
0000
0000
0001
0000
0000
0000
0010
0000
0000
0000
,
0002
0000
0000
0000
0000
0000
0000
0000
0000
0000
0000
0000
0000
0000
0000
0000
0000
0000
0000
0000
0000
0000
0000
0000
0020
0000
0000
0000
0000
0000
0000
0000
0003
0000
0000
0000
0000
0000
0000
0000
0000
0000
0000
0000
0000
0000
0000
0000
200M
0000
0000
0000
0000
0000
0000
0000
0000
0000
0000
0000
0030
0000
0000
0000
0000
0000
0000
0000
0000
0000
0000
0000
0010
0000
0000
0000
0000
0000
0000
0000
3000
0000
0000
0000
0000
0000
0000
0000
0000
0000
0000
0000
0000
0000
0000
0000
M001
0000
0000
0000
0000
0000
0000
0000
0000
0000
0000
0000
0000
0000
0000
0000
0000
0000
0000
0000
0000
0000
0000
0000
0010
0000
0000
0000
0000
0000
0000
0000
0000
0000
0000
0000
0000
0000
0000
1000
0000
0000
0000
0000
0000
0000
0000
0000
0000
0000
0000
0000
0000
0000
0000
0000
0000
0000
0000
0000
0000
0000
0000
0010
0000
0000
0000
0000
0000
0000
0000
0000
0001
0000
0000
0000
0000
0000
0000
0000
0000
0000
0000
0000
0000
0000
0000
0010
0000
0000
0000
0000
0000
0000
0000
0000
,
0002
0000
0000
0000
0000
0000
0200
0000
0003
0000
0000
0000
200M
0000
0000
0300
0000
0000
0100
0000
3000
0000
0000
0000
0010
0000
0000
1000
0000
0000
0100
0000
0000
0001
0000
0000
0100
0000
0000
0010
0000
0000
0001
0000
0000
0100
0000
0000
,
2000
0000
0000
0000
0000
0000
0000
0000
0000
0000
0000
0000
0000
0000
0000
0000
0000
0000
0000
0000
0000
0000
0000
0000
0200
0000
0000
0000
0000
0000
0000
0000
3000
0000
0000
0000
0000
0000
0000
0000
0000
0000
0000
0000
0000
0000
0000
0000
M002
0000
0000
0000
0000
0000
0000
0000
0000
0000
0000
0000
0300
0000
0000
0000
0000
0000
0000
0000
0000
0000
0000
0000
0020
0000
0000
0000
0000
0000
0000
0000
0003
0000
0000
0000
0000
0000
0000
0000
0000
0000
0000
0000
0000
0000
0000
0000
0031
0000
0000
0000
0000
0000
0000
0000
0000
0000
0000
0000
0000
0000
0000
0000
0000
0000
0000
0000
0000
0000
0000
0000
100M
0000
0000
0000
0000
0000
0000
0000
0000
0000
0000
0000
0000
0000
0000
0100
0000
0000
0000
0000
0000
0000
0000
0000
0000
0000
0000
0000
0000
0000
0000
0000
0000
0000
0000
0000
0000
0000
0000
0001
0000
0000
0000
0000
0000
0000
0000
0000
0100
0000
0000
0000
0000
0000
0000
0000
0000
0000
0000
0000
0000
0000
0000
0001
0000
0000
0000
0000
0000
0000
0000
0000
,
0200
0000
0000
0000
0000
0000
2000
0000
0300
000M
0000
0000
0M20
0000
0000
3000
0000
0000
0002
0000
0030
0000
0000
0000
0013
0000
0000
0000
0100
0000
0000
0000
1000
0000
0000
0000
0100
0000
0000
0000
0001
0000
0000
0000
0010
0000
0000
0000
,
0200
0000
0000
0000
0000
0000
0000
0000
0000
0000
0000
0000
0000
0000
0000
0000
0000
0000
0000
0000
0000
0000
0000
0000
0002
0000
0000
0000
0000
0000
0000
0000
0300
0000
0000
0000
0000
0000
0000
0000
0000
0000
0000
0000
0000
0000
0000
0000
2M00
0000
0000
0000
0000
0000
0000
0000
0000
0000
0000
0000
0003
0000
0000
0000
0000
0000
0000
0000
0000
0000
0000
0000
0010
0000
0000
0000
0000
0000
0000
0000
3000
0000
0000
0000
0000
0000
0000
0000
0000
0000
0000
0000
0000
0000
0000
0000
M001
0000
0000
0000
0000
0000
0000
0000
0000
0000
0000
0000
0000
0000
0000
0000
0000
0000
0000
0000
0000
0000
0000
0000
0010
0000
0000
0000
0000
0000
0000
0000
0000
0000
0000
0000
0000
0000
0000
1000
0000
0000
0000
0000
0000
0000
0000
0000
0000
0000
0000
0000
0000
0000
0000
0000
0000
0000
0000
0000
0000
0000
0000
0010
0000
0000
0000
0000
0000
0000
0000
0000
0100
0000
0000
0000
0000
0000
0000
0000
0000
0000
0000
0000
0000
0000
0000
0010
0000
0000
0000
0000
0000
0000
0000
0000
,
0200
0000
0000
0000
00M0
0000
0000
0000
0310
0000
0000
0000
0000
0001
0000
0000
0100
0000
0000
0000
0000
1000
0000
0000
0100
0000
0000
0000
0000
0000
0000
0000
0001
0000
0000
0000
0010
0000
0000
0000
1000
0000
0000
0000
0010
0000
0000
0000
0001
0000
0000
0000
0100
0000
0000
0000
0010
0000
0000
0000
0100
0000
0000
0000
,
0002
0M00
0000
0000
0000
0000
0000
0000
,
0003
0000
0000
0000
;

//---------------dance-double - J. Gowen----------------
#NOTES:
     dance-double:
     J. Gowen:
     Hard:
     9:
     0.543,0.000,0.429,0.438,0.267:
00000000
00000000
00000000
00000000
,
00000000
00000000
00000000
00000000
,
00000000
00000000
00000000
00000000
,
00000000
00000000
00000000
00000000
,
00020010
00030100
00120000
02030000
,
00001000
0000M000
00010000
000M0000
00100000
00M00000
00010000
000M0000
,
03001000
00100000
00010000
01000000
00100000
10000000
01000000
00100000
,
00010000
01000000
00001000
00010000
00000010
00000100
00000001
00000000
,
00002200
00000000
00003300
00000000
00000022
00000000
00000033
00000000
00001000
00000100
00000000
00000101
00000000
00000000
00000000
00000000
,
00001020
00010030
00001000
00000000
00102000
00013000
00000100
00000000
,
00000010
00000001
00000100
00001000
00000000
00000110
00000000
00010010
,
00000000
00011000
00000000
00100000
01000000
00100000
00010000
00000000
,
01000000
00100000
00010000
00001000
00000000
00001100
00000000
00000010
,
00000001
00000000
00001000
00000000
00000010
00000000
00000001
00000000
00000010
00000100
00000000
00000010
00001000
00000000
00000010
00000100
,
00000001
00001000
00000010
00010000
00000000
00011000
00000000
00101000
,
00000000
01100000
00000000
10000000
00100000
00010000
00100000
00000000
,
01000000
00001000
00100000
01000000
00000000
11000000
00000000
00100000
,
00220000
00000000
00330000
00000000
00202000
00000000
00303000
00000000
00010000
00000100
00000000
00001100
00000000
00000000
00000000
00000000
,
00000000
00000000
00000001
00000100
00000000
00000000
00000010
00000000
00010000
00001000
00010000
00001000
00000000
00100000
00000000
01000000
,
00000000
10000000
00100000
00010000
00100000
10000000
01000000
00000000
,
00000000
00000000
00100000
00010000
00000000
00000000
01000000
00000000
00001000
00010000
00001000
00010000
00000000
00000100
00000000
00000010
,
00000000
00000001
00000100
00001000
00000100
00000001
00000010
00000000
,
00002020
00000000
00003030
00000000
00022000
00000000
00033000
00000000
00100000
00010000
00000000
11000000
00000000
00000000
00000000
00000000
,
00100000
00000000
00001000
00000000
00020000
00030000
00000100
00000000
00000010
00000000
00001000
00000000
00020000
00030000
01000000
00000000
,
00100000
00000000
00001000
00000000
00020000
00030000
00000100
00000000
00000010
00000000
00001000
00000000
00020000
00030000
01000000
00000000
,
00010000
00000000
00001000
00000000
00020000
00030000
00100000
00000000
00010000
00000000
00001000
00000000
02000000
03000000
00000000
00000000
,
00010000
00000000
00100000
00010000
00000000
10000000
00010000
00000000
01000000
00000000
00001000
01000000
00000000
00001000
00010000
00000000
,
00020010
00031000
00100000
00000000
00020100
00031000
01000000
00000000
,
00220000
00000000
00330000
00000000
00022000
00000000
00033000
00000000
00000100
00001000
00000000
00000101
00000000
00000000
00000000
00000000
,
00000000
00000000
00000000
00000000
00000100
00000000
00000100
00000010
00000000
00000010
00010000
00000000
00010000
00001000
00000000
00000000
,
20020000
00030000
00000000
31000000
00000000
00100000
00010000
00000000
01000000
00001000
00000000
00000000
,
00010000
00000000
00000100
00000010
00000001
00000100
00001000
00000000
00010000
00001000
00000000
00100000
,
00010000
10000000
01000000
00010000
00000000
00001000
00010000
00000000
00000100
00000010
00000000
00000000
,
00000001
00000000
00000100
00000010
00010000
00001000
00100000
00000000
01000000
00100000
00101000
00000000
,
00102000
00013000
00001020
00000130
,
00002001
00003100
00021000
01030000
,
00220000
00000000
00330000
00000000
22000000
00000000
33000000
00000000
00100000
00010000
00000000
01001000
00000000
00000000
00000000
00000000
,
00100000
01000000
00010000
00001000
00100000
01000000
10000000
00010000
,
00100000
00000000
01000000
00100000
00000000
00001000
00010000
00000000
00000100
00000000
00001000
00000100
00000000
00000010
00000001
00000000
,
00001020
00010030
00000100
00000000
00102000
00013000
00000100
00000000
,
00000010
00001000
00020000
00031000
00000100
00001000
00020000
01030000
,
00100000
00001000
00020000
00030100
00000010
00001000
00020000
00030000
,
00000010
00000100
00000001
00000010
00000000
00000110
00000000
00001010
,
00000000
00011000
00000000
00100000
01000000
00100000
00001000
00000000
,
00010000
00100000
00010000
00001000
00000000
01001000
00000000
00010000
,
10000000
00000000
00100000
00000000
00010000
00000000
00100000
00000000
01000000
00010000
00000000
10000000
01000000
00000000
00100000
00010000
,
10000000
00100000
01000000
00010000
00000000
00101000
00000000
00010100
,
00000000
00001010
00000000
00000100
00001000
00000100
00000001
00000000
,
00000010
00001000
00010000
01000000
00000000
01100000
00000000
10000000
,
00100000
00000000
01000000
00000000
00010000
00000000
00100000
00000000
00001000
00010000
00000000
00010000
00000100
00000000
00000010
00000001
,
00002000
00000000
00000000
00000000
,
00000000
00000000
00000000
00000000
,
00000000
00003000
00000000
00000000
;

//---------------dance-double - Oren G.----------------
#NOTES:
     dance-double:
     Oren G.:
     Challenge:
     10:
     0.642,0.000,0.343,0.286,0.800:
00000000
00000000
00000000
00000000
,
00000000
00000000
00000000
00000000
,
00200010
00301000
00020001
00031000
,
01000200
00010300
10002000
00013000
,
00001001
00000000
0000M00M
00000000
00000100
00000000
00000010
00001000
00000000
00000100
00010000
00000000
00001000
01000000
00000000
00010000
,
00100000
0000MMMM
00100000
00000010
MMMMM00M
00000010
00010000
M000MMMM
00010000
00000100
MMMMM00M
00000100
M1000000
0000MMMM
MM010000
00000000
,
00100000
00000000
00000000
00000000
00000000
00000000
00000000
00000000
01000000
00000000
00000000
00000000
00000000
10000000
00000000
00000000
01000000
00000000
00000000
00000000
00000000
00000000
00000000
00000000
00100000
00000000
00000000
00000000
00000000
00000000
00000000
00000000
00001000
00000000
00000000
00000000
00000000
00000000
00000000
00000000
00010000
00000000
00000000
00000000
00000000
00000010
00000000
00000000
00001000
00000000
00000000
00000000
00000000
00000010
00000000
00000000
00000100
00000000
00000000
00000000
00000000
00000000
00000000
00000000
,
00000001
00000000
00000000
00000000
00000000
00000000
00000000
00000000
00000010
00000000
00000000
00000000
00000000
00000100
00000000
00000000
00001000
00000000
00000000
00000000
00000000
00000000
00000000
00000000
00000010
00000000
00000000
00000000
00000000
00000000
00000000
00000000
00010000
00000000
00000000
00000000
00000000
00001000
00000000
00000000
00100000
00000000
00000000
00000000
00000000
00001000
00000000
00000000
00000000
00000000
00000000
00000000
00000000
00010000
00000000
00000000
00000010
00000000
00000000
00000000
00000000
00000100
00000000
00000000
,
00000001
00000000
0000000M
00000000
00010010
00000000
000M0000
00000000
01000000
00001000
00000000
10010000
00000000
00000000
M00M0000
00000000
,
00100000
00000000
00000000
00000000
00000000
00010000
00000000
00000000
01000000
00000000
00000000
00000000
00000000
00001000
00000000
00000000
00000000
00000000
00000000
00000000
00000000
00010000
00000000
00000000
00000000
00000000
00000000
00000000
00000000
00000000
00000000
00000000
00000010
00000000
00000000
00000000
00000000
00001000
00000000
00000000
00000100
00000000
00000000
00000000
00000000
00010000
00000000
00000000
00000000
00000000
00000000
00000000
00000000
00001000
00000000
00000000
00100000
00000000
00000000
00000000
00000000
00001000
00000000
00000000
,
00010000
00000100
0000M020
00001000
00M0M000
00100000
00M0M000
00001000
,
0000M00M
00000000
00000032
00000003
00000000
00000000
00000100
00000000
00000010
00000000
00100000
00000000
00010000
00000000
10000000
00100000
,
01000000
00000000
00001000
00000000
000002M0
00000000
00000010
00000000
00M000M0
00000000
00200000
00300000
00000300
00000000
00001000
00000000
,
00000010
00000000
00000100
00000000
00001000
00000000
00010000
00000000
00000100
00001000
00000010
00010000
00000100
00001000
00000010
00010000
,
00001000
00100000
020M0000
00010000
000M0M00
00000100
000M0M00
00010000
,
M00M0000
00000000
23000000
30000000
00000000
00000000
00010000
00000000
01000000
00000000
00000100
00000000
00010000
00000000
00001000
00100000
,
01000000
00000000
10000000
00000000
0M200000
00000000
01000000
00000000
0M000M00
00000000
00000200
00000300
00300000
00000000
00010000
00000000
,
00011000
00000000
00000000
00000000
00000000
00000000
00000000
00000000
000MM000
00000000
00000000
00000000
00100100
00000000
00000000
00000000
00000000
00000000
00000000
00000000
00M00M00
00000000
00000000
00000000
00010000
00000000
00000000
00001000
00000000
00000000
00000000
00000000
00000000
01000010
00000000
00000000
00000000
00000000
00000000
00010000
00000000
00000000
00001000
00000000
00000000
00100000
00000000
00000000
,
00010000
00000000
00000000
00000000
00000000
00000000
00000000
00000000
01000000
00000000
00000000
00000000
00000000
00001000
00000000
00000000
00000000
00000000
00000000
00000000
00000000
00000000
00000000
00000000
00100000
00000000
00000000
00000000
00000000
00000000
00000000
00000000
01000000
00000000
00000000
00000000
00000000
00010000
00000000
00000000
00001000
00000000
00000000
00000000
00000000
00010000
00000000
00000000
00000000
00000000
00000000
00000000
00000000
00000010
00000000
00000000
00000000
00000000
00000000
00000000
00000000
00000100
00000000
00000000
,
00000000
00000000
00000000
00000000
00000000
00000000
00000000
00000000
00000001
00000000
00000000
00000000
00000000
00000000
00000000
00000000
00000010
00000000
00000000
00000000
00000000
00000000
00000000
00000000
00001000
00000000
00000000
00000000
00000000
00010000
00000000
00000000
00000100
00000000
00000000
00000000
00000000
00000000
00000000
00000000
00001000
00000000
00000000
00000000
00000000
00000000
00000000
00000000
00000001
00000000
00000000
00000000
00000000
00000000
00000000
00000000
00000010
00000000
00000000
00000000
00000000
00000000
00000000
00000000
,
00000101
00000000
00000000
00000000
00000000
00000000
00000000
00000000
00000010
00000000
00000000
00000000
00000000
00001000
00000000
00000000
00000000
00000000
00000000
00000000
00000000
00000000
00000000
00000000
00000100
00000000
00000000
00000000
00000000
00000000
00000000
00000000
00000010
00000000
00000000
00000000
00000000
00001000
00000000
00000000
00010000
00000000
00000000
00000000
00000000
00001000
00000000
00000000
00000000
00000000
00000000
00000000
00000000
00100000
00000000
00000000
00000000
00000000
00000000
00000000
00000000
01000000
00000000
00000000
,
00000000
00000000
00000000
00000000
00000000
00000000
00000000
00000000
10000000
00000000
00000000
00000000
00000000
00000000
00000000
00000000
00010000
00000000
00000000
00000000
00000000
00000000
00000000
00000000
00100000
00000000
00000000
00000000
00000000
00001000
00000000
00000000
00010000
00000000
00000000
00000000
00000000
01000000
00000000
00000000
00010000
00000000
00000000
00000000
00000000
00000000
00000000
00000000
00001000
00000000
00000000
00000000
00000000
00000000
00000000
00000000
01000000
00000000
00000000
00000000
00000000
00000100
00000000
00000000
,
00010000
00000000
000M0000
00000000
00002001
00000000
0000300M
00000000
00000010
00010000
00000000
00101000
00000000
00000000
00M0M000
00000000
,
M100000M
00000000
00000000
00000000
00000000
00000000
00000000
00000000
00010000
00000000
00000000
00000000
00000000
00000000
00000000
00000000
M011000M
00000000
00000000
00000000
00000000
00000000
00000000
00000000
00001000
00000000
00000000
00000000
00000000
00010000
00000000
00000000
M000010M
00000000
00000000
00000000
00000000
00000000
00000000
00000000
00001000
00000000
00000000
00000000
00000000
00000000
00000000
00000000
M000101M
00000000
00000000
00000000
00000000
00000000
00000000
00000000
00010000
00000000
00000000
00000000
00000000
00001000
00000000
00000000
,
M100000M
00000000
00000000
00000000
00000000
00000000
00000000
00000000
00010000
00000000
00000000
00000000
00000000
00000000
00000000
00000000
M011000M
00000000
00000000
00000000
00000000
00000000
00000000
00000000
00001000
00000000
00000000
00000000
00000000
00010000
00000000
00000000
M000010M
00000000
00000000
00000000
00000000
00000000
00000000
00000000
00001000
00000000
00000000
00000000
00000000
00000000
00000000
00000000
M000101M
00000000
00000000
00000000
00000000
00000000
00000000
00000000
00000100
00000000
00000000
00000000
00000000
00001000
00000000
00000000
,
M001000M
00000000
00000000
00000000
00000000
00000000
00000000
00000000
00100000
00000000
00000000
00000000
00000000
00000000
00000000
00000000
M110000M
00000000
00000000
00000000
00000000
00000000
00000000
00000000
00010000
00000000
00000000
00000000
00000000
00100000
00000000
00000000
M000100M
00000000
00000000
00000000
00000000
00010000
00000000
00000000
00000100
00000000
00000000
00000000
00000000
00000000
00000000
00000000
00000110
00000000
00000000
00000000
00000000
00000000
00000000
00000000
00000001
00000000
00000000
00000000
00000000
00000100
00000000
00000000
,
00001000
00000000
00000000
00000000
00000000
00000000
00000000
00000000
00000100
00000000
00000000
00000000
00000000
00000001
00000000
00000000
00000000
00000000
00000000
00000000
00000000
00000010
00000000
00000000
00001000
00000000
00000000
00000000
00000000
00000000
00000000
00000000
00010000
00000000
00000000
00000000
00000000
00001000
00000000
00000000
00100000
00000000
00000000
00000000
00000000
00010000
00000000
00000000
00000000
00000000
00000000
00000000
00000000
01000000
00000000
00000000
10000000
00000000
00000000
00000000
00000000
01000000
00000000
00000000
,
00010000
00000000
00000000
00000000
00000000
00000000
00000000
00000000
00100000
00000000
00000000
00000000
00000000
00010000
00000000
00000000
00000000
00000000
00000000
00000000
00000000
10000000
00000000
00000000
00010000
00000000
00000000
00000000
00000000
00000000
00000000
00000000
01010000
00000000
00000000
00000000
00000000
00000000
00000000
00000000
01000000
00000000
00000000
00000000
00000000
00001000
00000000
00000000
00000000
00000000
00000000
00000000
00000000
00010000
00000000
00000000
00000010
00000000
00000000
00000000
00000000
00001000
00000000
00000000
,
00000001
00000000
0000000M
00000000
00011000
00000000
000MM000
00000000
00100000
00010000
00000000
11000000
00000000
MM000000
00000000
00000000
,
00000000
00000000
00000000
00000000
00100000
00000000
00010000
01000000
00000000
00001000
00010000
00000000
00000010
00001000
00000000
00000000
,
00000202
00000000
00000000
00000303
M0000000
00000000
0M000000
00000000
00000000
M0000000
00000000
00000000
0M000010
00000000
00000000
M0000000
00000000
00000000
0M000000
00000000
00010000
M0000000
00000000
00000000
00001000
00000000
00000000
00000000
00000000
00000000
00000000
00000000
001000M0
00000000
00000000
00000000
01000M0M
00000000
00000000
000000M0
00000000
00000000
00000000
00000000
00000000
00000000
00000000
00000000
,
10010M00
00000000
00000000
0000M000
00000000
00000000
00000000
00000000
01000000
000000M0
00000000
00000000
00100M0M
00000000
00000000
000000M0
00010000
00000000
00000000
00000000
00001000
M0000000
00000000
00000000
0M000010
00000000
00000000
00M00000
00000000
00000000
00000000
00000000
00000100
MM000000
00000000
00000000
0M010000
00000000
00000000
M0M00000
00000000
00000000
0M000000
00000000
00001000
M0M00000
00000000
00000000
,
00000010
00000000
00000000
MM000000
00001000
00000000
0M000000
00000000
00010000
00000000
00000000
00000000
01000M00
00000000
00000000
00000MM0
00000000
00000000
00000000
00000000
00100000
000000MM
00000000
00000000
00001M00
00000000
00000000
000000M0
00000000
00000000
0000000M
00000000
00010000
00000M00
00000000
00000000
001000M0
00000000
00000000
0000000M
00000000
00000000
00000M00
00000000
00000000
00000000
00000000
00000000
,
100000M0
00000000
00000000
00000M0M
00000000
00000000
00000000
00000000
01000000
000000M0
00000000
00000000
0001000M
00000000
00000000
00000000
00001000
00000000
0M000000
00000000
00000100
M0M00000
00000000
00000000
00000001
00000000
00000000
0M000000
00000000
00000000
00M00000
00000000
00000010
M0000000
00000000
00000000
00001000
00000000
00000000
00000000
MMMMMMMM
00000000
00000000
00000000
00000000
00000000
00000000
00000000
,
M020100M
0031M000
M100000M
00000100
M001002M
001M0030
M000100M
01000000
,
M002001M
000310M0
M100000M
00000100
M020100M
0030M010
M001000M
00000100
,
00002010
00000000
00000000
00000000
00000000
00000000
00000000
00000000
00003000
00000000
00000000
00000000
00000000
00000000
00000000
00000000
002010M0
00000000
00000000
00000000
00000000
00000000
00000000
00000000
00300000
00000000
00000000
00000000
00000000
00000000
00000000
00000000
00M10000
00000000
00000000
00000000
00000100
00000000
00000000
00000000
00000000
00000000
00000000
00000000
00001001
00000000
00000000
00000000
00000000
00000000
00000000
00000000
00000000
00000000
00000000
00000000
00000010
00000000
00000000
00000000
00000000
00001000
00000000
00000000
,
00010000
00000000
00000000
00000000
00000000
00000000
00000000
00000000
00000100
00000000
00000000
00000000
00000000
00000000
00000000
00000000
00001000
00000000
00000000
00000000
00000000
00000000
00000000
00000000
00000010
00000000
00000000
00000000
00000000
00010000
00000000
00000000
00001000
00000000
00000000
00000000
00000000
00100000
00000000
00000000
00010000
00000000
00000000
00000000
00000000
00000000
00000000
00000000
10000000
00000000
00000000
00000000
00000000
00000000
00000000
00000000
00100000
00000000
00000000
00000000
00000000
01000000
00000000
00000000
,
00001000
00000000
00000000
00000000
00000000
00000000
00000000
00000000
00100000
00000000
00000000
00000000
00000000
00010000
00000000
00000000
00000000
00000000
00000000
00000000
00000000
10000000
00000000
00000000
00100000
00000000
00000000
00000000
00000000
00000000
00000000
00000000
01000000
00000000
00000000
00000000
00000000
00010000
00000000
00000000
00100000
00000000
00000000
00000000
00000000
00001000
00000000
00000000
00000000
00000000
00000000
00000000
00000000
00010000
00000000
00000000
00000100
00000000
00000000
00000000
00000000
00000010
00000000
00000000
,
00000001
00000000
00000000
00000000
00000000
00000000
00000000
00000000
00000100
00000000
00000000
00000000
00000000
00000010
00000000
00000000
00000000
00000000
00000000
00000000
00000000
00010000
00000000
00000000
00001000
00000000
00000000
00000000
00000000
00000000
00000000
00000000
00110000
00000000
00000000
00000000
00000000
00000000
00000000
00000000
10000000
00000000
00000000
00000000
00000000
01000000
00000000
00000000
00000000
00000000
00000000
00000000
00000000
00010000
00000000
00000000
01000000
00000000
00000000
00000000
00000000
00100000
00000000
00000000
,
M0010000
00000000
00000000
00000000
00000000
00000000
00000000
00000000
01000000
00000000
00000000
00000000
00000000
00000000
00000000
00000000
M0011000
00000000
00000000
00000000
00000000
00000000
00000000
00000000
00000010
00000000
00000000
00000000
00000000
00001000
00000000
00000000
M0000100
00000000
00000000
00000000
00000000
00000000
00000000
00000000
00000010
00000000
00000000
00000000
00000000
00000000
00000000
00000000
M0001001
00000000
00000000
00000000
00000000
00000000
00000000
00000000
00000100
00000000
00000000
00000000
00000000
00000010
00000000
00000000
,
M000100M
00000000
00000000
00000000
00000000
00000000
00000000
00000000
00000100
00000000
00000000
00000000
00000000
00000000
00000000
00000000
0001100M
00000000
00000000
00000000
00000000
00000000
00000000
00000000
00100000
00000000
00000000
00000000
00000000
01000000
00000000
00000000
0001000M
00000000
00000000
00000000
00000000
01000000
00000000
00000000
00100000
00000000
00000000
00000000
00000000
00000000
00000000
00000000
1001000M
00000000
00000000
00000000
00000000
00000000
00000000
00000000
01000000
00000000
00000000
00000000
00000000
00100000
00000000
00000000
,
10000000
01000000
0002M000
00001000
00M0M000
00100000
M0M00000
10000000
,
M000M000
00000000
00032000
00003000
00000000
00000000
00100000
00000000
00010000
00000000
00000010
00000000
00000100
00000000
00001000
00000010
,
00000100
00000000
00000001
00000000
0000M020
00000000
00001000
00000000
0M00M000
00000000
02000000
03000000
00000030
00000000
00010000
00000000
,
00001000
00000000
00100000
00000000
01000000
00000000
10000000
00000000
00010000
01000000
00001000
00100000
00010000
01000000
00001000
00100000
,
01000000
00010000
000020M0
00000010
00M000M0
00100000
00M00M00
00000100
,
00M00M00
00000000
00203000
00300000
00000000
00000000
00010000
00000000
01000000
00000000
00000100
00000000
00010000
00000000
00000010
00000100
,
00000001
00000000
00000010
00000000
000M2000
00000000
00010000
00000000
000M000M
00000000
00003002
00000003
00000000
00000000
00000100
00000000
,
00000010
00000000
00001000
00000000
00010000
00000000
00100000
00000000
01000000
00001000
00100000
00010000
01000000
00001000
00100000
00010000
,
20000000
00000000
0MMM0000
0M0M0000
0M0M0M00
0M0M0000
00000M00
00000M00
00M00M00
0MMM0M00
00M00000
00M00000
00M00000
00000M00
0000M0M0
0000MMM0
,
0000M000
00000M00
00M00000
0MMM0000
00M00000
00M00M00
00M00000
00000M00
00000M00
00000M00
00000M00
00MMM000
00MMM000
00M0M000
00M0M0M0
00000M0M
,
00000MMM
00000M00
000000M0
00000000
30000000
00000000
00000000
00000000
00000000
00000000
00000000
00000000
00000000
00000000
00000000
00000000
;

//---------------dance-double - J. Frederick----------------
#NOTES:
     dance-double:
     J. Frederick:
     Easy:
     3:
     0.203,0.000,0.124,0.152,0.000:
00000000
00000000
00000000
00000000
,
00000000
00000000
00000000
00000000
,
10000000
00000000
01000000
00000000
,
00010000
00000000
00001000
00000000
,
00000010
00000000
00001000
00000000
,
00022000
00000000
00033000
00000000
,
00100000
01000000
10000000
00000000
,
00010000
01000000
00001000
00000000
,
00010000
00000010
00010000
00001000
,
01000000
00000000
10010000
00000000
,
01000000
01000000
00010000
00000000
,
00100000
00001000
00010000
00000000
,
00000100
00000100
00001000
00000000
,
00000010
00000100
00000101
00000000
,
00001000
00001000
00000010
00000000
,
00010000
00001000
01000000
00000000
,
00010000
00010000
10000000
00000000
,
00100000
01000000
00001000
00010000
,
01000000
00000000
00100000
00000000
,
00110000
00000000
10000000
00000000
,
01000000
00000000
00010000
00000000
,
01010000
00000000
00001000
00000000
,
00010000
00000020
00000030
00002000
,
00003000
00000200
00000300
00020000
,
00030000
00002000
00003000
00200000
,
00300000
02000000
03000000
10000000
,
10010000
00000000
00000000
00000000
,
00101000
00000000
00011000
00000000
,
00000100
00001000
00000001
00000001
,
00000000
00000100
00000010
00000100
,
00000202
00000000
00000000
00000000
,
00000000
00000000
00000000
00000000
,
00000000
00000000
00000000
00000000
,
00M00000
00000000
00000000
0M000000
00000000
00000000
M0MMM000
00000000
00000000
0M000000
00000000
00000000
00M00000
00000000
00000000
00000000
00000000
00000000
00000000
00000000
00000303
00000000
00000000
00000000
,
10000000
01000000
00010000
00000000
,
00001000
00000100
00000001
00000000
,
00000001
00001000
00000010
00000010
,
00000000
00001000
00000000
00001000
,
00000100
00010000
00001000
00000000
,
00101000
00000000
10010000
00000000
,
10000000
02000000
03000000
00020000
,
00030000
00002000
00003000
00000010
,
00000001
00000001
00001000
00000000
,
00000010
00010000
00001000
00000000
,
00100000
00100000
00010000
00000000
,
00010000
10000000
11000000
00000000
,
00010000
00010000
01000000
00000000
,
00001000
00010000
00000100
00000000
,
00000010
00000010
00000001
00000000
,
00000100
00001000
00010000
00001000
,
00202000
00000000
00000000
00000000
,
00303000
00000000
00000000
00000000
;

//---------------dance-double - J. Gowen----------------
#NOTES:
     dance-double:
     J. Gowen:
     Medium:
     6:
     0.367,0.000,0.400,0.210,0.000:
00000000
00000000
00000000
00000000
,
00000000
00000000
00000000
00000000
,
00000000
00000000
00000000
00000000
,
00000000
00000000
00000000
00000000
,
00011000
00100000
00110000
10000000
,
01000000
00010000
00001000
00000100
,
00000010
00000100
00000001
00000000
00000100
00000001
00001000
00000000
,
00000001
00001000
00000010
00000000
00001000
00000010
00010000
00000000
,
00011000
00101000
00110000
10010000
,
00200000
00000000
00010000
00300000
00200000
00000000
10000000
00300000
,
01000000
00100000
01000000
10000000
00000000
00010000
01000000
00001000
,
00000000
00010000
00000010
00000100
00000000
00000001
00000100
00000000
,
00000010
00001000
00000010
00010000
00000000
00000100
00000000
00001000
,
00000010
00001000
00000100
00000000
00010000
00000000
00011000
00000000
,
00001000
00010000
00001000
01000000
00000000
00010000
10000000
00100000
,
00000000
01000000
00010000
00100000
00000000
01000000
00100000
00000000
,
00010000
10000000
00010000
01000000
00000000
00100000
00000000
00010000
,
00001000
00011000
00010100
00001100
,
00001001
00000100
00000010
00001000
,
00001100
00000001
00000010
00001000
,
00011000
00100000
01000000
10000000
,
01010000
00100000
00010000
00001000
,
00000200
00000000
00000000
00000300
00001010
00000000
00000000
00000000
00000200
00000000
00000000
00000300
00011000
00000000
00000000
00000000
,
00200000
00000000
00000000
00000000
00000000
00000000
00300000
00000000
01010000
00000000
00000000
00000000
00000000
00000000
00000000
00000000
00200000
00000000
00000000
00000000
00000000
00000000
00000000
00300000
11000000
00000000
00000000
00000000
00000000
00000000
00000000
00000000
,
00020000
00000000
00000000
00030000
01001000
00000000
00000000
00000000
00020000
00000000
00000000
00030000
00001010
00000000
00000000
00000000
,
00000200
00000000
00000000
00000000
00000000
00000000
00000300
00000000
00000011
00000000
00000000
00000000
00000000
00000000
00000000
00000000
00000200
00000000
00000000
00000000
00000000
00000000
00000000
00000300
00001010
00000000
00000000
00000000
00000000
00000000
00000000
00000000
,
00000010
00000100
00000010
00001000
00000100
00010000
00001000
00000000
,
00000020
00001030
00020000
00031000
,
00101000
00110000
10010000
11000000
,
00000000
00100000
00010000
01000000
,
00022000
00000000
00000000
00000000
,
00000000
00000000
00000000
00000000
,
00000000
00000000
00000000
00000000
,
00000000
00000000
00000000
00000000
00000000
00000000
00000000
00000000
00000000
00000000
00033000
00000000
,
00101000
00010000
10100000
01000000
,
00110000
00001000
00011000
01000000
,
00011000
00010010
00001010
00001001
,
00000100
00000010
00001000
00000001
,
00000010
00000100
00001000
00000000
00000010
00010000
00001000
00000000
,
02000000
00000000
00100000
03000000
02000000
00000000
00001000
03000000
,
00020000
00000000
00000000
00030000
00101000
00000000
00000000
00000000
00020000
00000000
00000000
00030000
00001100
00000000
00000000
00000000
,
00000020
00000000
00000000
00000030
00011000
00000000
00000000
00000000
00200000
00000000
00000000
00300000
10010000
00000000
00000000
00000000
,
00010000
00100000
00010000
01000000
00000000
00001000
00010000
00000010
,
00000000
00001000
00000100
00010000
00000000
00001000
00010000
00000000
,
00000010
00001000
00000010
00000100
00000000
00000001
00000000
00000010
,
00000100
00000010
00001000
00000000
00010000
00000000
00011000
00000000
,
00001000
00100000
00001000
01000000
00000000
00010000
10000000
00100000
,
00000000
01000000
00010000
00100000
01000000
00000000
10000000
00000000
,
00100000
01000000
00100000
00010000
00000000
00001000
00000000
00100000
,
00001000
00000000
00011000
00000000
00000010
00010000
00001000
01000000
,
02020000
00000000
00000000
00000000
,
03030000
00000000
00000000
00000000
;

//---------------dance-single - D. Bernardone----------------
#NOTES:
     dance-single:
     D. Bernardone:
     Beginner:
     1:
     0.080,0.000,0.019,0.000,0.000:
0000
0000
0000
0000
,
0000
0000
0000
0000
,
1000
0000
0000
0000
,
0001
0000
0000
0000
,
0100
0000
0000
0000
,
0001
0000
0000
0000
,
1000
0000
0000
0000
,
0001
0000
0000
0000
,
1000
0000
1000
0000
,
0100
0000
0000
0000
,
0010
0000
0000
0000
,
0001
0000
0000
0000
,
1000
0000
0000
0000
,
0001
0000
0000
0000
,
1000
0000
0000
0000
,
0010
0000
0000
0000
,
0100
0000
0000
0000
,
0010
0000
0010
0000
,
1000
0000
0000
0000
,
0001
0000
0000
0000
,
1000
0000
0000
0000
,
0100
0000
0000
0000
,
0010
0000
0010
0000
,
0001
0000
0000
0000
,
1000
0000
0000
0000
,
0001
0000
0000
0000
,
0100
0000
0000
0000
,
0001
0000
0000
0000
,
1000
0000
1000
0000
,
0100
0000
0000
0000
,
1001
0001
0000
0000
,
0000
0010
0000
0000
,
0000
0100
0000
0000
,
0000
1000
0000
0001
,
1000
0000
0000
0000
,
0001
0000
0000
0000
,
0100
0000
0100
0000
,
0010
0000
0000
0000
,
1000
0000
0000
0000
,
0010
0000
0000
0000
,
1000
0000
0000
0000
,
0001
0000
0000
0000
,
1000
0000
0000
0000
,
0100
0000
0000
0000
,
1000
0000
0000
0000
,
0001
0000
0000
0000
,
0100
0000
0000
0000
,
0001
0000
0000
0000
,
1000
0000
0000
0000
,
0010
0000
0010
0000
,
0110
0000
0000
0000
;

//---------------dance-single - D. Bernardone----------------
#NOTES:
     dance-single:
     D. Bernardone:
     Easy:
     2:
     0.178,0.000,0.019,0.067,0.000:
0000
0000
0000
0000
,
0000
0000
0000
0000
,
1000
0000
0001
0000
,
0100
0000
0001
0000
,
0010
0000
0100
0000
,
2000
0000
0000
3000
,
1000
1000
0000
0010
,
0000
0100
0000
0001
,
0001
1000
0001
1000
,
0001
0001
0000
0100
,
0000
0010
0000
0100
,
0000
0001
0000
1000
,
0000
0001
0000
0010
,
0000
0001
0000
0010
,
0000
0001
0000
1000
,
0000
0001
0000
1000
,
0000
0100
0000
1000
,
1000
0001
1000
0001
,
1000
1000
0000
0100
,
0000
1000
0000
0001
,
0000
0100
0000
0010
,
0000
1000
0000
0001
,
0001
1000
0001
1000
,
0001
0001
0000
0100
,
0000
0001
0000
1000
,
0000
0001
0000
1000
,
1000
0000
0001
0000
,
0200
0300
0020
0030
,
1000
0001
1000
0001
,
1000
0000
0001
0000
,
2001
3001
0001
0001
,
0001
0100
0100
0100
,
0100
0010
1000
1000
,
1000
0100
0010
0020
,
0031
0001
0000
0100
,
0000
0001
0000
1000
,
1000
0001
1000
0001
,
1000
1000
0000
0010
,
0000
1000
0000
0001
,
0000
0100
0000
0001
,
0000
1000
0000
0100
,
0000
1000
0000
0001
,
0000
0010
0000
0001
,
0000
1000
0000
0001
,
0000
1000
0000
0010
,
0000
0100
0000
0010
,
0000
1000
0000
0001
,
0000
1000
0000
0001
,
0000
0100
0000
0010
,
0010
0100
0010
0100
,
0220
0000
0000
0000
,
0330
0000
0000
0000
;

//---------------dance-single - D. Bernardone----------------
#NOTES:
     dance-single:
     D. Bernardone:
     Medium:
     4:
     0.320,0.000,0.219,0.267,0.024: // measure 1
0000
0000
0000
0000
,  // measure 2
0000
0000
0000
0000
,  // measure 3
1001
0010
1001
0100
,  // measure 4
0110
1000
0110
0001
,  // measure 5
0101
1000
0101
0010
,  // measure 6
1000
0001
1000
0000
0010
0000
0100
0000
,  // measure 7
0001
0010
0001
1000
,  // measure 8
0100
1000
0010
0100
,  // measure 9
0001
0000
1001
0000
1000
1000
1000
0000
,  // measure 10
0002
0003
0200
0300
,  // measure 11
0010
0100
0001
0000
,  // measure 12
1000
1000
0002
0000
,  // measure 13
0103
0010
1000
0000
,  // measure 14
0100
0010
0001
0010
,  // measure 15
0100
1000
0001
0000
,  // measure 16
0100
0100
0020
0000
,  // measure 17
1030
0100
1000
0001
,  // measure 18
1000
0000
1001
0000
0001
0001
0001
0000
,  // measure 19
0200
0310
2000
3001
,  // measure 20
0020
0031
1000
1001
,  // measure 21
0002
0103
0200
0310
,  // measure 22
2000
3010
0100
0110
,  // measure 23
0100
0000
0101
0000
0001
0001
0001
0000
,  // measure 24
2000
3100
0200
0310
,  // measure 25
0020
0031
0002
1003
,  // measure 26
2000
3001
0100
0110
,  // measure 27
0010
0000
0010
0000
1000
0001
1000
0000
,  // measure 28
0200
0300
2000
3000
,  // measure 29
0001
0000
0011
0000
0010
0010
0010
0000
,  // measure 30
0000
0100
0100
0100
,  // measure 31
2001
3010
0100
0001
,  // measure 32
1000
0000
1000
0001
0000
0000
0001
0000
0000
0100
0000
0000
,  // measure 33
0010
0000
1000
0001
0000
0000
0001
0000
0000
0100
0000
0000
,  // measure 34
0010
0000
1000
0100
0000
0000
0010
0000
0001
1000
0001
0000
,  // measure 35
1000
1000
0001
0001
,  // measure 36
0100
0100
0001
0001
,  // measure 37
1000
0000
1010
0000
0010
0010
0010
0000
,  // measure 38
0100
0100
0110
1001
,  // measure 39
0001
0001
0010
0010
,  // measure 40
0200
0300
2000
3000
,  // measure 41
0000
0101
0000
1010
,  // measure 42
0000
1100
0000
0011
,  // measure 43
0002
0100
1003
0000
,  // measure 44
0002
0000
0013
0100
,  // measure 45
2000
0010
3001
0000
,  // measure 46
1000
0100
0010
0001
,  // measure 47
0020
0100
0031
0000
,  // measure 48
2000
0000
3010
0100
,  // measure 49
0020
1000
0130
0000
,  // measure 50
0001
0000
1001
0000
1000
1000
1000
0000
,  // measure 51
2200
0000
0000
0000
,  // measure 52
3300
0000
0000
0000
;

//---------------dance-single - D. Bernardone----------------
#NOTES:
     dance-single:
     D. Bernardone:
     Hard:
     7:
     0.442,0.000,0.171,0.219,0.081:
0000
0000
0000
0000
,
0000
0000
0000
0000
,
0001
1000
0100
0000
0001
1000
0100
0000
,
0001
1000
0100
0000
0001
0010
1000
0010
,
0001
0100
0010
0000
0001
0100
0010
0000
,
0004
4000
0000
0000
0000
0000
0000
0000
0000
0000
0000
0000
0000
0000
3003
0000
,
0100
0010
1000
0000
0100
0010
1000
0000
,
0100
0010
1000
0000
1001
0000
0110
0000
,
0002
0000
1003
0000
0010
1000
0100
0000
,
0001
0100
0010
0000
0100
1000
0010
0000
,
1000
0001
0010
0200
1000
0000
0010
0000
,
0001
0000
0010
0000
1300
0001
1000
0000
,
0001
1000
0010
0200
0001
0000
0010
0000
,
0301
0100
1000
0100
0010
0000
1100
0000
,
1000
0001
0100
0020
1000
0000
0100
0000
,
0001
0000
0100
0000
1030
0001
1000
0000
,
0001
1000
0100
0020
0001
0000
0100
0000
,
0032
0000
1003
0000
0100
1000
0010
0000
,
0100
0001
0010
0001
0100
1000
0100
0001
,
1000
0100
0010
0100
0010
0000
0011
0000
,
0010
0100
1000
0010
0001
0010
1000
0001
,
0100
0001
1000
0001
0010
0000
0110
0000
,
2000
0000
3001
0000
0100
0001
0010
0000
,
1000
0010
0100
0000
0110
0000
1001
0000
,
0001
1000
0010
0000
0010
1000
0001
0000
,
0001
0010
0100
0000
1100
0000
0011
0000
,
0001
0100
0100
0000
0010
1000
1000
0000
,
0010
1000
0010
0000
0100
0001
0100
0010
,
2000
0000
3001
0000
0010
0001
0100
0000
,
0001
0020
0230
2300
,
3002
0000
0000
1003
0000
0010
0100
0000
0010
0100
0000
0000
,
0110
0000
1000
0001
1000
0001
1000
0000
0100
0010
0000
0001
,
0100
0001
0100
0001
0000
1000
0010
0000
1000
0010
0000
0000
,
1010
0000
1000
0100
1000
0100
1000
0000
0001
0010
0002
0000
,
1003
0001
0100
0001
1000
0000
1100
0000
,
0001
1000
0100
1000
0001
0000
0101
0000
,
2000
0000
3100
0000
0001
0100
1000
0000
,
0010
0101
0002
2003
,
3001
0100
1000
0100
0010
0000
1001
0000
,
1000
0100
1000
0000
0001
0100
0001
0000
,
1000
0010
0001
0010
0100
0000
1010
0000
,
0001
0010
1000
0010
0100
0010
0011
0000
,
0001
1000
0100
2000
0001
0000
0010
0000
,
0100
0000
0010
0000
3001
1000
0001
0000
,
1000
0001
0100
0002
1000
0000
0010
0000
,
0103
0010
0100
0000
0010
1000
0100
0001
,
1000
0010
0100
2000
0001
0000
0100
0000
,
0010
0000
0100
0000
3001
0100
1000
0000
,
0100
0010
0100
0002
1000
0000
0100
0000
,
0023
0000
0130
0000
1000
0100
0001
0000
,
0220
0000
0000
0000
,
0000
0000
0000
0000
,
0330
0000
0000
0000
;
