#TITLE:Necropolis;
#SUBTITLE:;
#ARTIST:Banzai;
#TITLETRANSLIT:;
#SUBTITLETRANSLIT:;
#ARTISTTRANSLIT:;
#GENRE:Drum & Bass;
#CREDIT:Sync by HellRazor;
#BANNER:Necropolis-bn.png;
#BACKGROUND:Necropolis-bg.png;
#LYRICSPATH:;
#CDTITLE:;
#MUSIC:Necropolis.ogg;
#OFFSET:0.0075;
#SAMPLESTART:46.265;
#SAMPLELENGTH:14.000;
#SELECTABLE:YES;
#BPMS:0.000=83.000;
#STOPS:;
#BGCHANGES:0.000=Necropolis-bg.png=1.000=0=0=1=====,
8.000=In The Groove Rebirth/401_JB_HD.mpg=1.000=1=0=1===CrossFade==,
16.000=In The Groove Rebirth/1150_JumpBack.mpg=1.000=0=0=1=====,
24.000=In The Groove Rebirth/262_JB_HD.mpg=1.000=0=0=1===FadeRight==,
32.000=In The Groove Rebirth/250_JB_HD.mpg=1.000=0=0=1===FadeLeft==,
40.000=In The Groove Rebirth/888_JumpBack.mpg=1.000=0=0=1===FadeUp==,
48.000=In The Groove Rebirth/410_JB_HD.mpg=0.400=0=0=1=Kaleidoscope2x2====,
64.000=In The Groove Rebirth/249_JB_HD.mpg=1.000=0=0=1=====,
72.000=In The Groove Rebirth/821_JumpBack.mpg=1.000=0=0=1===FadeUp==,
80.000=In The Groove Rebirth/262_JB_HD.mpg=1.000=0=0=1=====,
88.000=In The Groove Rebirth/401_JB_HD.mpg=1.000=0=0=1===FadeDown==,
96.000=In The Groove Rebirth/888_JumpBack.mpg=0.300=1=0=1=Kaleidoscope2x2==CrossFade==,
104.000=In The Groove Rebirth/1150_JumpBack.mpg=0.300=1=0=1=Kaleidoscope2x2==CrossFade==,
112.000=Necropolis-bg.png=1.000=1=0=1===CrossFade==,
99999=-nosongbg-=1.000=0=0=0 // don't automatically add -songbackground-
;
#BGCHANGES2:16.000=yellow flash=1.000=0=0=1=====,
48.000=yellow flash=1.000=0=0=1=====,
64.000=yellow flash=1.000=0=0=1=====,
80.000=white flash=1.000=0=0=1=====,
;
#KEYSOUNDS:;

//---------------dance-single - D. Bernardone----------------
#NOTES:
     dance-single:
     D. Bernardone:
     Easy:
     2:
     0.172,0.192,0.055,0.088,0.000,96.000,5.000,8.000,0.000,0.000,0.000:
0000
0000
0000
0000
,
0000
0000
0000
0000
,
1000
1001
0001
1001
,
0100
0110
0010
0110
,
2000
0100
0100
3100
,
0020
0001
0001
0031
,
2000
0010
0010
3010
,
0200
0001
0001
0301
,
1000
0100
0010
0010
,
0001
0100
0010
0010
,
1000
0001
0100
0100
,
0010
1000
0001
0001
,
0010
0000
0100
0000
,
1000
0000
0001
1000
,
0001
0000
0010
0000
,
0100
0000
1000
0001
,
1001
0010
0100
0100
,
0100
1000
0001
0001
,
0001
0100
0010
0010
,
0010
1000
0100
0100
,
0100
0010
0001
0001
,
0001
1000
0010
0010
,
0010
0100
0001
0001
,
0001
0010
0100
0100
,
0100
2000
3000
0001
,
0000
0020
0030
0100
,
0000
1000
0001
0001
,
0001
0100
0010
1000
,
0002
0000
2003
0000
,
3000
0000
0000
0000
;

//---------------dance-double - D. Bernardone----------------
#NOTES:
     dance-double:
     D. Bernardone:
     Easy:
     1:
     0.104,0.095,0.000,0.022,0.000,64.000,0.000,2.000,0.000,0.000,0.000:
00000000
00000000
00000000
00000000
,
00000000
00000000
00000000
00000000
,
00000002
00000000
00000000
00000000
,
00001003
00000000
00000100
00000000
,
00010000
00000000
00001000
00001000
,
00001000
00000000
01000000
00000000
,
00010000
00000000
00100000
00100000
,
00100000
00000000
01000000
00000000
,
10000000
00000000
00010000
00010000
,
00010000
00000000
01000000
00000000
,
00001000
00000000
00010000
00010000
,
00010000
00000000
00000100
00001000
,
00000001
00000000
00000100
00000000
,
00001000
00000000
00010000
00001000
,
01000000
00000000
00010000
00000000
,
00100000
00000000
01000000
10000000
,
00010000
00000000
01000000
01000000
,
01000000
00000000
00001000
00000000
,
00010000
00000000
00000100
00000100
,
00000100
00000000
00001000
00000000
,
00000010
00000000
00000100
00000100
,
00000100
00000000
00000001
00000000
,
00001000
00000000
00000010
00000010
,
00000010
00000000
00010000
00001000
,
00100000
00000000
00000000
01000000
,
01000000
00000000
00000000
10000000
,
10000000
00000000
00000000
00010000
,
00010000
00000000
00000000
00100000
,
02000000
00000000
03000000
00000000
;

//---------------dance-single - D. Bernardone----------------
#NOTES:
     dance-single:
     D. Bernardone:
     Beginner:
     1:
     0.084,0.093,0.066,0.000,0.000,47.000,6.000,0.000,0.000,0.000,0.000:
0000
0000
0000
0000
,
0000
0000
0000
0000
,
1000
0000
0000
0000
,
0001
0000
0001
0000
,
0001
0000
0000
0000
,
0010
0000
0010
0000
,
0010
0000
0000
0000
,
0100
0000
0100
0000
,
0100
0000
1000
0000
,
0010
0000
0010
0000
,
0100
0000
0001
0000
,
0010
0000
0010
0000
,
1001
0000
0000
0000
,
1001
0000
1001
0000
,
0110
0000
0000
0000
,
0110
0000
0000
0000
,
0110
0000
1000
0000
,
0100
0000
1000
0000
,
0010
0000
0100
0000
,
0001
0000
0010
0000
,
0100
0000
0010
0000
,
0001
0000
0100
0000
,
0010
0000
0100
0000
,
0001
0000
0010
0000
,
0100
0000
1000
0000
,
0010
0000
0001
0000
,
0010
0000
1000
0000
,
0100
0000
0010
0000
,
0001
0000
0000
0000
;

//---------------dance-single - D. Bernardone----------------
#NOTES:
     dance-single:
     D. Bernardone:
     Medium:
     4:
     0.295,0.273,0.299,0.188,0.000,143.000,27.000,17.000,0.000,0.000,0.000:
0000
0000
0000
0000
,
0000
0000
0000
0000
,
1000
0000
0100
0000
0010
0001
0100
0000
,
1000
0000
0100
0000
0001
0010
0100
0000
,
1001
0000
0100
0000
1001
0110
1001
0000
,
0001
0000
1000
0000
1010
0101
1010
0000
,
1000
0000
0001
0000
0011
1100
0011
0000
,
1000
0000
0001
0000
0101
1010
0101
0000
,
0001
0000
1000
0000
1100
0011
1100
0000
,
1000
0000
0010
0000
0110
1001
0110
0000
,
1000
0000
0100
0000
0110
0011
0101
0000
,
0001
0000
0010
0000
0110
1100
1010
0000
,
0020
0100
0000
0030
0200
0001
0000
0300
,
0002
0010
0000
0003
0200
0310
0002
0103
,
0020
1000
0000
0030
2000
0100
0000
3000
,
0020
0100
0000
0030
0002
1003
0200
1300
,
1010
0010
0100
0000
0001
1000
0100
0000
,
0010
0010
0001
0000
0100
0010
1000
0000
,
0100
0100
0010
0000
0001
1000
0100
0000
,
0010
0010
0100
0000
1000
0010
0100
0000
,
0102
0000
0023
0000
0100
0001
0130
0000
,
1000
1000
0020
0000
0100
1000
0130
0000
,
0001
0001
0200
0000
0010
1000
0310
0000
,
1000
1000
0200
0000
0010
0001
0310
0000
,
0001
0001
0001
0000
0100
0010
0100
0000
,
1000
1000
1000
0000
0100
0010
0100
0000
,
0001
0001
0001
0000
0010
0100
0010
0000
,
1000
1000
1000
0000
0010
0100
0010
0000
,
0002
0000
2000
0000
,
3003
0000
0000
0000
;

//---------------dance-single - D. Bernardone----------------
#NOTES:
     dance-single:
     D. Bernardone:
     Hard:
     7:
     0.458,0.449,0.332,0.387,0.277,225.000,30.000,35.000,0.000,0.000,0.000:
0000
0000
0000
0000
,
0000
0000
0000
0000
,
1000
0000
0100
0000
0010
0000
0000
0001
0100
0000
1000
0000
0100
0000
0010
0010
,
1000
0000
0001
0000
0100
0000
0000
1000
0100
0000
0010
0000
1000
0000
0001
0001
,
0020
0000
0100
0000
0230
0000
1000
1000
2300
0000
0001
0000
3002
0000
0100
0100
,
0203
0000
0010
0000
0320
0000
0100
0100
0230
0000
0001
0000
0302
0000
0010
0010
,
0023
0000
0100
0000
0230
0000
1000
1000
2300
0000
0001
0000
3002
0000
0010
0010
,
0023
0000
0100
0000
0230
0000
1000
1000
2300
0000
0010
0000
3020
0000
0100
0100
,
0230
0000
1000
0000
0302
0000
0010
0010
1003
0000
0101
0000
1100
0000
0100
0010
,
0002
0000
1000
0000
0203
0000
0010
0010
0301
0000
1010
0000
0011
0000
0010
0100
,
2000
0000
0010
0000
3200
0000
1000
1000
0310
0000
1001
0000
0101
0000
0100
0010
,
2000
0000
0001
0000
3020
0000
0100
0100
1030
0000
0110
0000
1010
0000
0010
0100
,
0002
1000
0003
0000
1020
0100
0030
0000
,
1002
0010
0003
0000
0201
1300
1200
0301
,
1002
0010
0003
0000
0210
1000
0300
0000
,
0120
0001
0030
0000
1020
0031
0021
1030
,
1001
0000
1000
0100
0100
0000
0000
0000
0010
0000
0001
0000
0100
0010
0000
0010
,
1000
0000
0100
0010
0010
0000
0000
0000
0001
0000
0100
0000
0010
1000
0000
1000
,
0100
0000
0010
0001
0001
0000
0000
0000
0100
0000
0010
0000
1000
0100
0000
0100
,
0010
0000
0001
0100
0100
0000
0000
0000
1000
0000
0100
0000
0001
0010
0000
0010
,
0100
0000
0001
0100
1000
0000
0010
0000
0110
0000
0001
0000
1100
1000
0000
1000
,
0001
0000
0100
0010
1000
0000
0001
0000
0011
0000
0100
0000
1001
0001
0000
0001
,
0010
0000
0100
1000
0010
0000
0100
0000
0101
0000
1000
0000
0110
0010
0000
0010
,
1000
0000
0100
0001
0100
0000
0010
0000
1001
0000
0100
0000
1010
1000
0000
1000
,
0001
0000
0010
0000
0011
0000
0000
0000
0100
0000
1000
0000
0010
0010
0000
0100
,
0100
0000
0001
0000
0101
0000
0000
0000
0001
0000
0010
0000
0100
0100
0000
1000
,
1000
0000
0001
0000
1001
0000
0000
0000
1000
0000
0100
0000
0010
0010
0000
0100
,
0100
1000
1100
0000
0001
0100
0010
0000
,
2000
0000
0000
0000
,
3000
0000
0000
0000
;

//---------------dance-single - D. Bernardone----------------
#NOTES:
     dance-single:
     D. Bernardone:
     Challenge:
     9:
     0.569,0.545,0.642,0.343,0.542,271.000,58.000,31.000,35.000,0.000,0.000:
0000
0000
0000
0000
,
0000
0000
0000
0000
,
1000
0000
0100
0000
0001
0010
1000
0000
0001
0000
0100
0000
1000
0010
0001
0000
,
1000
0000
0010
0000
0001
0100
1000
0000
0001
0000
0010
0000
1000
0100
0001
0000
,
0110
0000
0001
1000
0100
0000
0010
0001
0101
0000
100M
0000
1100
0100
0010
0001
,
0100
0000
0010
1000
0100
0000
1000
0010
0110
0000
00M1
0000
0101
0100
0010
1000
,
0100
0000
0010
0001
0100
0000
0001
1000
1100
0000
0M10
0000
1001
0001
0100
0010
,
1000
0000
0100
0010
0001
0000
0010
0100
1100
0000
0M01
0000
1010
1000
0100
1000
,
0001
0000
0010
0001
0101
1000
0001
0000
1000
0100
M0M1
0100
1000
0000
0010
0100
,
0001
0000
0010
0100
1100
0001
1000
0000
0001
0010
1M0M
0010
0001
0000
0100
0010
,
1000
0000
0001
0010
0110
1000
0100
0000
1000
0010
MM01
0010
1000
0000
0100
1000
,
0001
0000
0100
0010
1010
0001
1000
0000
0001
0100
10MM
0100
0001
0000
0010
0001
,
1000
0000
1001
0100
0000
0010
0000
0000
0100
0000
0110
1000
0000
0001
0000
0000
,
1000
0000
1100
0010
0000
0001
0000
0000
1000
0000
1010
1000
0010
0100
0110
0010
,
0100
0000
0101
0010
0000
1000
0000
0000
0001
0000
0011
0100
0000
1000
0000
0000
,
0010
0000
1010
0001
0000
0100
0000
0000
0001
0000
0011
0001
0010
0100
0110
0010
,
2001
0000
3001
0100
2020
0000
3030
0000
1200
0000
0301
0000
0110
1000
0MM0
0001
,
0120
0000
1030
0100
0022
0000
0033
0000
0201
0000
1300
0000
0011
0100
00MM
0100
,
0012
0000
0013
0100
2002
0000
3003
0000
1200
0000
0301
0000
1010
0100
M0M0
0100
,
2010
0000
3001
0010
2200
0000
3300
0000
0021
0000
1030
0000
0101
0010
0M0M
0010
,
0102
0000
1003
0010
0202
0000
0303
0000
0021
0000
0130
0000
1000
0010
0001
1000
,
2001
0000
3001
1000
0220
0000
0330
0000
1020
0000
0031
0000
1000
0010
0001
1000
,
1200
0000
1300
0001
0110
1000
0100
0000
0011
0000
0100
0010
1010
1000
00M0
0001
,
0101
0000
1000
0010
0101
1000
0100
0000
0011
0000
0001
1000
1100
0100
M000
0010
,
0011
0000
0001
0000
0200
0000
0000
0000
1000
0000
0001
0000
0310
0010
0000
0100
,
1001
0000
1000
0000
0200
0000
0000
0000
0001
0000
1000
0000
0310
0010
0000
0001
,
0101
0000
0001
0000
0020
0000
0000
0000
1000
0000
0001
0000
0130
0100
0000
1000
,
1001
0000
1000
0000
0020
0000
0000
0000
0001
0000
1000
0000
0130
0100
0000
0010
,
2002
0000
00M0
0000
0MM0
0000
0M00
00M0
0M00
00M0
0M00
0000
00M0
0M00
00M0
0M00
,
30M3
0000
0000
0000
;

//---------------dance-double - D. Bernardone----------------
#NOTES:
     dance-double:
     D. Bernardone:
     Medium:
     4:
     0.242,0.221,0.155,0.111,0.000,129.000,14.000,10.000,0.000,0.000,0.000:
00000000
00000000
00000000
00000000
,
00000000
00000000
00000000
00000000
,
10000000
00000000
01000000
00000000
00100000
00010000
01000000
00000000
,
00001000
00000000
00010000
00000000
00000010
00001000
00000100
00000000
,
00000110
00002002
00003003
00000000
,
00001100
00020020
00030030
00000000
,
00101000
02020000
03030000
00000000
,
01100000
20020000
30030000
00000000
,
10000000
00000000
00100000
00000000
01000000
01000000
01000000
00000000
,
00010000
00000000
00100000
00000000
00001000
00001000
00001000
00000000
,
00010000
00000000
00000010
00000000
00000100
00000100
00000100
00000000
,
00000001
00000000
00000010
00000000
00000100
00000100
00000100
00000000
,
00010000
00001000
00000000
00000000
00100000
00010000
00000000
00000000
,
01000000
00010000
00000000
00000000
10000000
01000000
00100000
01000000
,
00010000
01000000
00000000
00000000
00100000
00001000
00000000
00000000
,
00010000
00001000
00000000
00000000
00010000
00000010
00001000
00000010
,
00000110
00000100
00000001
00000000
00000100
00001000
00010000
00000000
,
00001000
00001000
00100000
00000000
01000000
00010000
01000000
00000000
,
10000000
10000000
00100000
00000000
01000000
10000000
01000000
00000000
,
00010000
00010000
00100000
00000000
01000000
00010000
00001000
00000000
,
00021000
00000010
00000100
00001000
,
00030100
00000100
00001000
00000000
00000010
00000001
00000010
00000000
,
00001000
00001000
00000100
00000000
00010000
00001000
00000010
00000000
,
00000100
00000100
00001000
00000000
00000100
00000001
00000100
00000000
,
00010000
00010000
00001000
00000000
01000000
01010000
00010000
00000000
,
10000000
10000000
00100000
00000000
01000000
01010000
00010000
00000000
,
00100000
00100000
00001000
00000000
00010000
00011000
00001000
00000000
,
00010000
00010000
00000010
00000000
00001000
00001100
00000100
00000000
,
00000020
00000000
00000030
00000000
;

//---------------dance-double - D. Bernardone----------------
#NOTES:
     dance-double:
     D. Bernardone:
     Hard:
     7:
     0.362,0.410,0.055,0.299,0.254,197.000,5.000,27.000,0.000,0.000,0.000: // measure 1
00000000
00000000
00000000
00000000
,  // measure 2
00000000
00000000
00000000
00000000
,  // measure 3
10010000
00000000
01000000
00100000
00001000
00001000
00001000
00000000
00011000
00000000
00010000
00000010
00000100
00000100
00000100
00000000
,  // measure 4
00000101
00000000
00000000
00000011
00000000
00000000
00010100
00000000
00010000
00000000
00001000
01000000
00100000
00100000
00100000
00000000
,  // measure 5
20000000
32000000
03020000
00030200
,  // measure 6
00002300
00003020
00020030
00230000
,  // measure 7
20300000
30020000
00032000
00003020
,  // measure 8
00000230
00002300
00023000
02030000
,  // measure 9
13000000
00000000
00000000
10000000
01000000
00000000
00010000
00000000
00001000
00010000
00001000
00000010
00000001
00000000
00000000
00000000
,  // measure 10
00000100
00000000
00000000
00000010
00010000
00000000
00001000
00000000
00010000
00001000
00000100
00001000
00010000
00000000
00000000
00000000
,  // measure 11
01000000
00000000
00000000
00100000
00010000
00000000
01000000
00000000
00001000
00010000
00001000
00000010
00000100
00000000
00000000
00000000
,  // measure 12
00001000
00000000
00000000
00000001
00000010
00000000
00001000
00000000
00010000
00001000
00010000
01000000
00100000
00000000
00000000
00000000
,  // measure 13
00020000
01000000
00000000
00030000
00002000
00000100
00000000
00003000
,  // measure 14
00000020
00001000
00000000
00000030
00100000
01000000
00001000
00010000
,  // measure 15
00000200
00001000
00000000
00000300
00000020
00010000
00000000
00000030
,  // measure 16
02000000
00100000
00000000
03000000
00010000
01000000
00001000
00010000
,  // measure 17
00000010
00000000
00000010
00000100
00000001
00000000
00000001
00000000
00000010
00000000
00001000
00000000
00010000
00001000
00000000
00001000
,  // measure 18
01000000
00000000
01000000
00010000
10000000
00000000
10000000
00000000
01000000
00000000
00010000
00000000
00001000
00010000
00000000
00010000
,  // measure 19
00000100
00000000
00000100
00000010
00000001
00000000
00000001
00000000
00000010
00000000
00001000
00000000
00010000
00001000
00000000
00001000
,  // measure 20
00100000
00000000
00100000
00010000
10000000
00000000
10000000
00000000
00100000
00000000
00010000
00000000
00001000
00010000
00000000
00010000
,  // measure 21
00000010
00000000
00000010
00000100
00000001
00000000
00001000
00000000
00000010
00000000
00000100
00000000
00001000
00010000
00000000
00010000
,  // measure 22
00100000
00000000
01000000
01000000
00010000
00000000
10000000
00010000
00100000
00000000
01000000
00000000
00010000
00001000
00000000
00001000
,  // measure 23
00000010
00000000
00000001
00000001
00001000
00000000
00000001
00000010
00000100
00000000
00000010
00000000
00001000
00010000
00000000
00010000
,  // measure 24
01000000
00000000
00100000
00100000
00010000
00000000
10000000
00100000
01000000
00000000
00100000
00000000
00010000
00001000
00000000
00001000
,  // measure 25
00000100
00000000
00000020
00000000
00000001
00000100
00001000
00000000
,  // measure 26
00010030
00000000
00002000
00000000
00100000
01000000
00010000
00000000
,  // measure 27
01003000
00000000
00020000
00000000
10000000
00100000
01000000
00000000
,  // measure 28
10030000
00000000
02000000
00000000
00010000
00100000
10000000
00000000
,  // measure 29
03200000
00000000
00300000
00000000
;

//---------------dance-double - D. Bernardone----------------
#NOTES:
     dance-double:
     D. Bernardone:
     Challenge:
     9:
     0.428,0.465,0.254,0.520,0.199,201.000,23.000,47.000,0.000,50.000,0.000:
00000000
00000000
00000000
00000000
,
00000000
00000000
00000000
00000000
,
10010000
00000000
10000000
10000000
01000000
00010000
00001000
00001000
00000100
00000000
00000001
00000001
00000010
00001000
00010000
00100000
,
01000000
00000000
00010000
00010000
10000000
01000000
00010000
00001000
00000010
00000000
00000001
00000001
00000100
00001000
00010000
00001000
,
00012000
00000000
02000000
00000000
00100000
00010000
03103000
00000000
,
00000200
00000000
00020000
00000000
00000010
00001000
00030310
00000000
,
00002000
00000000
00000002
00000000
00000010
00010000
00003013
00000000
,
00002000
00000000
00000200
00000000
00000010
00010000
00003310
00000000
,
00010000
00000000
00001000
00000000
01010000
00000000
10000000
00000000
00100000
10000000
01000000
00010000
00001000
00001000
00000100
00000001
,
00000001
00000000
00000010
00000000
00000110
00000000
00001000
00000000
00000001
00000100
00001000
00010000
01000000
01000000
10000000
00010000
,
00010000
00000000
01000000
00000000
01100000
00000000
00010000
00000000
10000000
00100000
00010000
00001000
00000010
00000010
00000001
00001000
,
00001000
00000000
00000010
00000000
00000110
00000000
00001000
00000000
00000001
00000010
00001000
00010000
00100000
00100000
01000000
00001000
,
00002000
02000000
00000000
00000000
00010000
10000000
03003000
00000000
,
00020000
00000020
00000000
00030000
00002030
00003200
00200300
00302000
,
00023000
00000200
00000000
00000000
00001000
00000001
00030300
00000000
,
00002000
00200000
00000000
00003000
00320000
02030000
03000020
00001030
,
00001100
00000000
00000010
00000001
00000202
00000000
00000000
00000000
00010000
00000000
00001000
00000000
00010303
00000000
00000000
00000000
,
00000110
00000000
00000010
00010000
00022000
00000000
00000000
00000000
10000000
00000000
00100000
00000000
10033000
00000000
00000000
00000000
,
00101000
00000000
00100000
01000000
22000000
00000000
00000000
00000000
00001000
00000000
00010000
00000000
33001000
00000000
00000000
00000000
,
01100000
00000000
00100000
00001000
00022000
00000000
00000000
00000000
00000010
00000000
00000001
00000000
00033010
00000000
00000000
00000000
,
00010010
00000000
00000010
00001000
00002200
00000000
00000000
00000000
00100000
00000000
00010000
00000000
00103300
00000000
00000000
00000000
,
00010100
00000000
00001000
01000000
02020000
00000000
00000000
00000000
00000010
00000000
00001000
00000000
03030010
00000000
00000000
00000000
,
00110000
00000000
00010000
10000000
22000000
00000000
00000000
00000000
00000010
00000000
00001000
00000000
33000010
00000000
00000000
00000000
,
00011000
00000000
00010000
00000001
00000202
00000000
00000000
00000000
00100000
00000000
00010000
00000000
00100303
00000000
00000000
00000000
,
00000001
00010000
00002000
00000000
10000000
00010000
00000100
00000000
,
01003000
00001000
00020000
00000000
00000001
00001000
01000000
00000000
,
00030100
00020000
00002000
00000000
00000010
00100000
00033010
00000000
,
01000000
00000200
02000000
00000000
10000000
00000001
13000300
00000000
,
00022000
00000000
00100000
00000000
00000100
00000100
00000100
00000000
,
00033000
00000000
00000000
00000000
;
