#TITLE:Mongolian Grill;
#SUBTITLE:;
#ARTIST:Kid Whatever;
#TITLETRANSLIT:;
#SUBTITLETRANSLIT:;
#ARTISTTRANSLIT:;
#GENRE:Disco;
#CREDIT:Sync by HellRazoR;
#BANNER:Mongolian Grill-bn.png;
#BACKGROUND:Mongolian Grill-bg.png;
#LYRICSPATH:;
#CDTITLE:;
#MUSIC:Mongolian Grill.ogg;
#OFFSET:0.003;
#SAMPLESTART:41.257;
#SAMPLELENGTH:12.000;
#SELECTABLE:YES;
#DISPLAYBPM:145.000;
#BPMS:0.000=145.480;
#STOPS:62.000=0.0175
;
#BGCHANGES:0.000=Mongolian Grill-bg.png=1.000=0=0=1=====,
16.000=In The Groove Rebirth/867_JumpBack.mpg=1.000=1=0=1===CrossFade==,
31.000=Mongolian Grill-bg.png=1.000=0=0=1=====,
32.000=In The Groove Rebirth/205_JB_HD.mpg=1.000=0=0=1=====,
48.000=In The Groove Rebirth/262_JB_HD.mpg=1.000=0=0=1=====,
63.000=Mongolian Grill-bg.png=1.000=0=0=1=StretchNormalBlue====,
64.000=In The Groove Rebirth/307_JB_HD.mpg=1.000=0=0=1=====,
80.000=In The Groove Rebirth/309_JB_HD.mpg=1.000=0=0=1=====,
96.000=In The Groove Rebirth/1150_JumpBack.mpg=1.000=0=0=1=SongBgWithMovieViz====,
104.000=In The Groove Rebirth/216_JB_HD.mpg=1.000=0=0=1=====,
120.000=In The Groove Rebirth/867_JumpBack.mpg=1.000=0=0=1=====,
136.000=In The Groove Rebirth/821_JumpBack.mpg=1.000=0=0=1=====,
152.000=In The Groove Rebirth/262_JB_HD.mpg=1.000=0=0=1=====,
168.000=In The Groove Rebirth/1150_JumpBack.mpg=1.000=0=0=1=====,
182.000=Mongolian Grill-bg.png=1.000=0=0=1=StretchNormalRed====,
183.000=Mongolian Grill-bg.png=1.000=0=0=1=StretchNormalGreen====,
184.000=In The Groove Rebirth/205_JB_HD.mpg=1.000=0=0=1=====,
216.000=In The Groove Rebirth/307_JB_HD.mpg=1.000=0=0=1=====,
232.000=In The Groove Rebirth/309_JB_HD.mpg=1.400=0=0=1=====,
248.000=Mongolian Grill-bg.png=1.000=1=0=1===CrossFade==,
250.000=Mongolian Grill-bg.png=1.000=0=0=1=StretchNormalBlue====,
250.500=Mongolian Grill-bg.png=1.000=0=0=1=StretchNormalGreen====,
251.000=Mongolian Grill-bg.png=1.000=0=0=1=StretchNormalRed====,
252.000=Mongolian Grill-bg.png=1.000=0=0=1=====,
99999=-nosongbg-=1.000=0=0=0 // don't automatically add -songbackground-
;
#BGCHANGES2:32.000=white flash=1.000=0=0=1=====,
64.000=white flash=1.000=0=0=1=====,
104.000=yellow flash=1.000=0=0=1=====,
168.000=white flash=1.000=0=0=1=====,
184.000=white flash=1.000=0=0=1=====,
232.000=white flash=1.000=0=0=1=====,
;
#KEYSOUNDS:;

//---------------dance-single - M. Simmons----------------
#NOTES:
     dance-single:
     M. Simmons:
     Challenge:
     9:
     0.775,0.000,0.634,0.199,0.478:
0000
0000
0000
0000
,
0000
0000
0000
0000
,
0000
0000
0000
0000
,
0000
0000
0000
0000
,
0010
0000
0100
0001
0010
0000
0100
0000
1000
0000
0001
0000
0010
0000
0001
0000
,
0100
0000
0010
1000
0100
0000
0010
0000
0100
0000
1000
0000
0001
0000
0010
0000
,
0100
0000
0010
0001
0100
0000
0010
0000
0100
0000
0001
0010
0100
0000
1000
0000
,
0100
0000
0010
0001
0000
1000
0010
0000
1000
0001
0000
0010
0100
0000
0000
0000
0000
0000
0110
0000
0000
0000
0000
0000
,
0000
0000
1001
0000
0000
0000
0110
0000
0000
0000
0010
1000
0100
0000
0110
0000
,
0000
0000
0011
0000
0000
0000
1000
0100
1000
0000
0010
0000
0022
0000
0000
0000
,
0033
0000
1001
0000
0000
0000
1000
0100
1000
0000
0101
0000
0000
0000
1010
0000
,
0000
0000
1100
0000
0000
0000
0010
0001
0010
0000
0100
0000
2200
0000
0000
0000
,
3300
0000
1001
0000
0000
0000
0101
0000
0000
0000
0010
1000
0001
0000
0011
0000
,
0000
0000
0110
0000
0000
0000
1100
0000
0001
0100
1000
0000
0220
0000
0000
0000
,
0330
0000
1001
0000
0000
0000
1010
0000
0000
0000
0100
0001
0100
0000
1010
0000
,
0001
0000
0100
0010
0000
0100
0001
0000
1000
0100
0000
0010
0001
0000
0000
0000
0000
0000
1001
0000
0000
0000
0000
0000
,
0110
0010
1000
0100
0020
0100
0130
1000
,
0100
1000
0001
0100
0010
0100
0100
0001
,
0100
0010
1000
0001
0020
0100
0130
1000
,
0001
0010
0001
1000
0010
0110
0011
0000
,
0100
0010
1001
1000
0020
0100
0130
0001
,
1000
0100
0110
0100
1000
0001
1001
0001
,
0100
0010
1010
0100
0020
0100
0130
0010
,
1000
0001
0011
0100
1000
1010
0011
0000
,
0100
0000
0000
1000
0000
0000
0001
0000
0000
0100
0000
0000
0001
0000
1000
0000
0001
0000
0010
0000
0000
0100
0000
0000
1000
0000
0000
0010
0000
0000
0100
0000
0000
0001
0000
0000
1000
0000
0100
0000
0010
0000
0001
0000
0000
1000
0000
0000
,
0010
0000
0000
0100
0000
0000
0001
0000
0000
1000
0000
0000
0010
0000
0100
0000
0010
0000
1000
0000
0000
0001
0000
0000
0010
0000
0000
0100
0000
0000
1000
0000
0000
0001
0000
0000
0100
0000
0000
0010
0000
0000
1000
0000
0000
0001
0000
0000
,
0010
0000
0100
1000
0001
0000
0010
0000
0100
0000
0010
0000
0001
1000
0010
0000
,
0100
0010
1000
0000
0001
0000
0100
0000
0001
1000
0001
0100
0001
0000
1000
0100
,
1000
0000
0001
0000
0010
0000
0100
0000
1000
0010
0100
0000
0010
1000
0001
0000
,
0100
0000
0001
0000
1000
0100
0010
0000
0100
0000
2010
0000
0200
0000
0000
3300
,
0010
0000
0001
0000
0100
0000
0010
0000
1000
0001
0010
0000
0100
0000
1000
0010
,
0100
0000
0010
0000
0100
0000
0001
0000
1000
0100
0010
0000
0100
1000
0010
0000
,
0100
0000
0001
0000
1000
0000
0100
0000
0010
0001
1000
0000
0010
0000
0100
0000
,
0001
1000
0001
0000
0100
0001
0100
0000
0010
1000
0001
0100
0001
1000
0001
0100
,
0001
0000
1000
0000
1100
0000
0010
0100
0010
0000
0100
0000
2000
0000
0001
0000
,
3001
0000
0100
0000
0010
0000
2020
0000
0000
3030
0001
0100
0001
0000
0100
0010
,
0100
0000
0010
0000
1000
0000
0001
0000
1000
0010
1000
0000
0001
0000
0010
0000
,
0110
0000
0010
0000
0001
0000
2002
0000
0000
0000
3003
0000
0010
0100
0010
0100
,
0010
0000
1010
0000
0000
0000
0101
0000
0000
0000
1000
0100
1000
0000
0011
0000
,
0000
0000
1100
0000
0000
0000
1000
0001
1000
0000
0011
0000
0011
0000
0000
0000
,
0000
0000
0110
0000
0000
0000
1100
0000
0000
0000
0001
0010
0001
0000
0011
0000
,
0000
0000
1010
0000
0000
0000
1000
0001
1000
0000
0110
0000
0110
0000
0000
0000
,
1010
0000
0010
0100
0001
0000
1000
0000
0010
0000
0100
0001
1000
0000
0100
0000
,
0010
0000
0001
0010
0100
0000
1000
0100
0010
0000
0001
0010
0100
0000
1100
0000
,
1010
0000
0100
0001
1000
0000
0010
0000
0100
0000
0001
1000
0100
0000
0010
0000
,
0001
0000
0100
0001
1000
0000
0100
1000
0002
0000
0000
0000
0200
0000
0303
0000
,
0010
0000
1000
0000
0001
0000
0010
0000
0001
0000
1000
0000
0100
0010
0001
0000
,
0000
1000
0000
0010
0000
0100
0010
0000
1000
0000
0000
0000
0001
0000
0000
0000
,
0000
4001
0000
0000
0040
0000
0000
0000
,
0000
0000
0000
0000
,
0000
0000
0000
3030
0000
0000
0000
0000
,
1010
0100
0001
0010
0011
0100
1000
0010
,
1010
0100
0001
0010
0011
0100
1000
0010
,
0100
0000
0001
0000
1000
0001
0000
0010
0000
0100
1000
0010
0100
0001
1000
0001
,
0100
0000
0010
0000
1000
0000
0001
0000
0010
0000
0100
0010
0100
0000
1000
0000
,
0001
0000
0010
0100
1000
0000
0001
0100
0010
0000
1000
0000
0001
0000
0100
0001
,
0100
0000
0000
0010
1000
0001
1000
0000
0000
0010
0000
0000
0000
0000
0000
0110
0000
0000
0000
0000
0000
0000
0000
0000
,
1001
0000
0000
0001
0010
0100
1000
0000
0000
0010
0000
0000
0000
0000
0000
0110
0000
0000
0010
0000
0000
0000
0000
0000
,
1100
0010
0100
0001
1000
0100
0010
0001
,
1000
0000
0010
0000
0100
0010
0000
1000
0000
0000
0001
0000
0100
0000
0001
0000
,
1000
0000
0000
0100
0010
0001
1000
0000
0000
0010
0000
0000
0000
0000
0000
1010
0000
0000
0000
0000
0000
0000
0000
0000
,
1001
0000
0000
0001
0100
0001
1000
0000
0000
0010
0000
0000
0000
0000
0000
1001
0000
0000
0010
0000
0000
0000
0000
0000
,
0220
0000
0330
0000
0010
1010
1001
0000
,
1001
0000
0000
0000
;

//---------------dance-single - M. Simmons----------------
#NOTES:
     dance-single:
     M. Simmons:
     Hard:
     7:
     0.469,0.000,0.284,0.208,0.057:
0000
0000
0000
0000
,
0000
0000
0000
0000
,
0000
0000
0000
0000
,
0000
0000
0000
0000
,
0001
0100
0010
0000
1000
0100
0010
0000
,
0100
1000
0001
0000
0100
0001
1000
0000
,
0010
0100
0010
0100
0010
0100
0010
0100
,
0001
0100
0001
0100
0001
0100
0001
0100
0001
0000
0000
0000
1000
0000
0000
0000
,
0000
0100
0000
0010
0000
0001
1000
0001
,
0000
0100
0000
0010
1000
0010
2000
0000
,
3000
0001
0000
0010
0100
0010
0000
0100
,
0000
1000
0000
0001
1000
0001
2000
0000
,
3000
0001
0000
0100
0000
0001
0010
0001
,
0000
0010
0000
0100
0010
0100
0020
0000
,
0030
0001
0000
1000
0000
0010
1000
0010
,
0100
0010
0100
0010
0100
0010
0100
0010
0100
0000
0000
0000
0001
0000
0000
0000
,
1100
0101
0110
1001
,
0011
0000
1100
0000
0010
0100
0010
0000
,
1100
0101
0011
1001
,
0110
0000
1001
0000
0001
1000
0001
0000
,
0110
0000
1100
0000
0001
0010
0001
0000
,
1010
0000
0101
0000
0010
0100
0010
0000
,
1100
0000
0011
0000
0001
1000
0010
0000
,
0100
0010
1000
0010
0000
1000
0010
0000
,
1000
0010
1000
0010
0100
0010
0100
0010
,
0100
0001
0100
0001
1000
0001
1000
0001
,
0010
0100
1000
0000
0001
0100
0001
0000
,
1100
0000
0011
0000
0100
1000
0010
0000
,
0100
0001
1000
0000
0001
0100
0001
0000
,
0110
0000
1001
0000
0001
0010
0200
0000
,
1300
0010
1000
0000
0001
0100
0001
0000
,
1001
0000
0110
0000
0010
1000
0010
0000
,
0100
0001
1000
0000
0100
0010
0001
0000
,
1100
0000
0011
0000
0001
1000
0001
0000
,
0200
0000
0320
0000
,
2030
0000
0000
3002
0000
0000
1003
0000
,
0020
0000
0230
0000
,
0302
0000
0000
0023
0000
0000
0130
0000
,
0000
1000
0000
0001
0000
0100
0010
0100
,
0000
0010
0000
1000
0001
1000
0001
0000
,
0000
0010
0000
0100
0000
0010
0001
0010
,
0000
0100
0000
1000
0010
1000
0010
0000
,
0000
0100
0000
0001
0000
1000
0001
1000
,
0000
0010
0000
0100
0010
0100
0010
0000
,
0000
0100
0000
0001
0000
1000
0001
1000
,
0000
0001
0010
0001
0020
0000
0002
0033
,
0020
0230
2300
3002
,
0203
0000
0320
0000
,
0030
1010
0000
0000
0202
0000
0000
0000
,
0000
0000
0303
0000
,
0000
0000
0000
0000
,
0001
1000
0001
1000
,
0010
0100
0010
0100
,
0001
0000
1000
0000
0100
0010
0001
0000
,
1000
0001
0100
0010
,
0100
0001
0000
1000
0000
0100
0010
0000
,
0001
0000
1000
0001
1000
0000
0010
0000
0000
0000
0010
0000
0000
0000
0000
0000
,
0100
0000
0001
1000
0001
0000
0010
0000
0000
0000
0010
0000
0100
0000
0000
0000
,
1000
0001
0100
0010
,
1000
0100
0010
0000
0001
0010
0100
0000
,
1000
0000
0010
1000
0010
0000
0100
0000
0000
0000
0001
0000
0000
0000
0000
0000
,
1000
0000
0001
0010
0001
0000
0010
0000
0000
0000
0010
0000
0010
0000
0000
0000
,
0110
0000
0000
0000
1000
0001
0001
0000
,
1001
0000
0000
0000
;

//---------------dance-double - M. Simmons----------------
#NOTES:
     dance-double:
     M. Simmons:
     Hard:
     8:
     0.507,0.000,0.350,0.151,0.019:
00000000
00000000
00000000
00000000
,
00000000
00000000
00000000
00000000
,
00000000
00000000
00000000
00000000
,
00000000
00000000
00000000
00000000
,
00000100
00001000
00010000
00000000
00010000
00001000
00000100
00000000
,
00000010
00001000
00010000
00000000
00010000
00001000
00000010
00000000
,
00000001
00000100
00001000
00000000
00001000
00000100
00000001
00000000
,
00001000
00000100
00010000
00001000
01000000
00000000
01001000
00000000
,
00000000
10100000
00000000
01010000
00000000
00010000
00100000
00010000
,
00000000
01010000
00000000
00010000
01000000
00010000
01000000
00000000
,
00000000
00001100
00000000
00000001
00001000
00000001
00000000
00001001
,
00000000
00000110
00000000
00000010
00001000
00000010
00001000
00000000
,
00000000
00011000
00000000
01000100
00000000
00001000
00010000
00000100
,
00000000
00011000
00000000
00000010
00100000
00001000
00010000
00000000
,
00000000
00011000
00000000
00110000
00000000
00100000
00001000
00010000
,
00000100
00000001
00000100
00001000
00000010
00000000
00001010
00000000
,
00000001
00000100
00000010
00000000
00001000
00010000
00100000
00000000
,
01000000
10000000
00010000
00000000
00100000
00010000
00001000
00000000
,
00000100
00000010
00000001
00000000
00000100
00000010
00001000
00000000
,
00000100
00001000
00010000
00000000
00000000
00100000
10000000
00000000
,
00100000
00001000
00010000
00000100
00001000
00000010
00000100
00000010
,
00001000
00000001
00010000
00000100
00000010
00000100
00010000
00001000
,
00000010
00001000
00010000
00001000
01000000
00100000
10000000
00010000
,
00100000
01000000
00100000
00010000
10000000
00010000
00010000
00000000
,
01000000
00010000
01010000
00000000
00010000
10000000
10010000
00000000
,
10000000
01000000
00100000
00010000
10010000
10010000
10010000
00000000
,
01000000
00001000
00010000
00000100
00010000
00001000
01000000
00100000
,
10000000
00010000
00100000
00001000
00010000
00000010
00000100
00000010
,
00000001
00000010
00001000
00000100
00010000
00001000
01000000
00100000
,
10000000
00010000
00100000
00001000
00010000
00011000
00021000
00000000
,
00030100
00000010
00000001
00001000
00000010
00000100
00000001
00001000
,
00000100
00010000
00001000
00100000
00010000
10000000
00100000
01000000
,
00010000
00100000
01000000
00100000
00001000
00010000
00000010
00000100
,
00000010
00001000
00000001
00000010
00000100
00001000
00001001
00000000
,
00000020
00010000
00020030
00001000
,
00030200
00000000
00010000
00020300
00000000
00001000
00031000
00000000
,
02000000
00100000
03020000
10000000
,
00230000
00000000
01000000
02300000
00000000
10000000
23000000
00000000
,
30000000
00110000
00000000
01100000
00000000
01000000
10000000
01000000
,
00000000
01100000
00000000
00010000
01000000
00010000
01000000
00000000
,
00000000
00011000
00000000
00010100
00000000
00000100
00000010
00000100
,
00000000
00000011
00000000
00000001
00001000
00000001
00001000
00000000
,
00000000
00001010
00000000
00001100
00000000
00000100
00010000
00000100
,
00000000
00011000
00000000
00000010
00100000
00000010
00100000
00000000
,
00000000
00011000
00000000
01001000
00000000
00010000
10000000
00010000
,
00000000
01100000
00000000
00100000
00002000
00000000
02000000
00000000
,
00000000
00010000
00000000
00100000
,
00000000
00000010
00000000
00000000
,
10000000
00000000
00220000
00000000
,
00000000
03333000
00000000
00000000
,
00000000
00000000
00000000
00000000
,
00000100
00000010
00000001
00001000
,
00000010
00000100
00000010
00010000
,
00001000
01000000
00001000
00000000
00100000
00010000
00100000
00000000
,
01000000
10000000
00000000
00010000
00000000
00100000
01000000
00100000
,
00000000
00001000
00000000
00010000
00000000
00000010
00000100
00000010
,
00001000
00000000
00000001
00000100
00000010
00000000
00010000
00000000
00000000
00000000
00001000
00000000
00000000
00000000
00000000
00000000
,
01000000
00000000
00100000
10000000
00100000
00000000
01000000
00000000
00000000
00000000
00001000
00000000
00001000
00000000
00000000
00000000
,
00010000
00000100
00000000
00000010
00000000
00000001
00000000
00001000
,
00000010
00001000
00000000
00000100
00010000
00000100
00010000
00000000
,
00001000
00000000
00100000
00010000
00100000
00000000
01000000
00000000
00000000
00000000
01000000
00000000
00000000
00000000
00000000
00000000
,
10000000
00000000
00010000
00100000
00010000
00000000
00000000
00000000
00100000
00000000
00100000
00000000
00000000
00000000
00000000
00000000
,
00202000
00000000
00303000
00000000
00000010
00000100
00000101
00000000
,
00001001
00000000
00000000
00000000
;

//---------------dance-double - M. Simmons----------------
#NOTES:
     dance-double:
     M. Simmons:
     Challenge:
     11:
     0.782,0.000,0.833,0.066,0.407:
00000000
00000000
00000000
00000000
,
00000000
00000000
00000000
00000000
,
00000000
00000000
00000000
00000000
,
00000000
00000000
00000000
00000000
,
00000100
00000000
00001000
00000000
00000010
00000000
00000100
00000010
00001000
00000000
00000001
00000000
00000100
00000000
00000001
00001000
,
00000100
00000000
00010000
00000000
00001000
00000000
00100000
00010000
00100000
00000000
00001000
00000000
00010000
00000000
00000010
00000100
,
00000010
00000000
00000100
00000000
00000001
00000000
00001000
00000100
00000010
00000000
00000100
00000000
00001000
00000000
00000001
00000100
,
00000010
00000100
00000001
00001000
00000100
00000010
00001000
00000010
00000100
00000000
00000000
00000000
00010010
00000000
00000000
00000000
,
00000000
00000000
00011000
00000000
00000000
00000000
01000100
00000000
00000000
00000000
00000100
00010000
00000010
00000000
00100010
00000000
,
00000000
00000000
10001000
00000000
00000000
00000000
10000000
00001000
00100000
00000000
00101000
00000000
00011000
00000000
00000000
00000000
,
00000000
00000000
01001000
00000000
00000000
00000000
01000000
00001000
00010000
00000000
00011000
00000000
00000000
00000000
00100100
00000000
,
00000000
00000000
01000010
00000000
00000000
00000000
00000100
00010000
00000010
00000000
00000101
00000000
00001010
00000000
00000100
00000000
,
00010010
00000000
00010100
00000000
00000000
00000000
11000000
00000000
00000000
00000000
00100000
00001000
01000000
00000000
00011000
00000000
,
00000000
00000000
00000110
00000000
00000000
00000000
00000001
00000100
00001000
00000100
00000010
00000000
00011000
00000000
00000000
00000000
,
00000000
00000000
00110000
00000000
00000000
00000000
01001000
00000000
00010000
01000000
00100000
10000000
00010000
01000000
00010000
00100000
,
00001000
01000000
00100000
10000000
00010000
01000000
00001000
00010000
00000100
00000000
00000000
00000000
00000110
00000000
00000000
00000000
,
00000001
00000100
00001000
00010000
00000200
00000010
00000310
00000001
,
00001000
00000010
00000100
00001000
00010000
01000000
10000000
00100000
,
01000000
00010000
00100000
01000000
20000000
00010000
30010000
01000000
,
00001000
00100000
01000000
00100000
00000010
00010000
00001100
00000000
,
00010000
00000000
00000100
00001000
00000010
00000000
00000100
00000000
00001010
00000000
00000100
00000000
00000011
00000000
00000100
00000000
,
00010000
00000000
00001000
01000000
00100000
00000000
10000000
00000000
01010000
00000000
00010000
00000000
00110000
00000000
00000000
00000000
,
01000000
00000000
10000000
00100000
01000000
00000000
00010000
00000000
00101000
00000000
00010000
00000000
00010100
00000000
00001000
00000000
,
01000000
00000000
00100000
01000000
00001000
00000000
00010000
00000000
00100000
01000000
00010000
00000000
01010000
00000000
00000000
00000000
,
00010000
10000000
01000000
10000000
00100000
01000000
00010000
10000000
01000000
10000000
00100000
01000000
00010000
00100000
01000000
00100000
,
00010000
10000000
00100000
01000000
00010000
10000000
01000000
10000000
01000000
00100000
00010000
10000000
00100000
01000000
00010000
10000000
,
01000000
00100000
00001000
00010000
00010010
00000100
00000001
00001000
,
00001010
00000100
00000001
00000010
00000110
00001100
00001010
00000000
,
00000100
00000001
00000011
00000100
00010000
00000100
00010100
00001000
,
01000000
00000000
00100000
00000000
10010000
00000000
00010000
00000000
00100000
01000000
10000000
01000000
00200000
00000000
00000000
00000000
,
01300000
10000000
10010000
00100000
01000000
00100000
00101000
00001000
,
00010000
00000010
00000110
00000010
00001010
00001100
00001001
00000000
,
00000001
00000100
00010010
00001000
00010000
00000100
00000110
00000100
,
00010000
00001000
01000000
00100000
01000000
00010000
10000000
01000000
00100000
00001000
00010000
00001000
00010000
00000010
00001000
00000001
,
00000100
00000000
00000010
00000010
00001010
00000000
00000100
00000100
,
00010100
00000000
00010000
00001000
00000000
00001000
01000000
01000000
,
01000000
00000000
00100000
00100000
10000000
00000000
00010000
00010000
,
00100000
00010000
00100000
00001000
00010000
00000100
00000010
00000100
00010000
00001000
00010000
00000100
00001000
00000100
00010000
00001000
,
00010000
00000000
00001100
00000000
00000000
00000000
00010010
00000000
00000000
00000000
00000100
00010000
00000010
00000000
00100010
00000000
,
00000000
00000000
00011000
00000000
00000000
00000000
00010000
00001000
01000000
00000000
01001000
00000000
00010100
00000000
00000000
00000000
,
00000000
00000000
00000011
00000000
00000000
00000000
00001100
00000000
00000000
00000000
00010000
00000100
00010000
00000000
00011000
00000000
,
00000000
00000000
10001000
00000000
00000000
00000000
10000000
01000000
00100000
00000000
01100000
00000000
00110000
00000000
00000000
00000000
,
00000000
00000000
00010100
00000000
00000000
00000000
00010010
00000000
00000000
00000000
00000010
00001000
00000001
00000000
00000110
00000000
,
00000000
00000000
00010100
00000000
00000000
00000000
01000000
00000100
00010000
00000000
00100010
00000000
00011000
00000000
00000000
00000000
,
00000000
00000000
01001000
00000000
00000000
00000000
10100000
00000000
00000000
00000000
10000000
01000000
00010000
00000000
00011000
00000000
,
00000000
00000000
00000110
00000000
00000000
00000000
00001000
00000010
00002000
00000000
00000000
00000000
00003200
00000000
00000000
00000000
,
00010300
00001000
01000000
00100000
10000000
00010000
01000000
00100000
,
10000000
00010000
00100000
01000000
00100000
00001000
00010000
00000010
,
00000100
00000001
00001000
00000010
00000100
00000010
00001000
00000100
,
00010000
00001000
01000000
00100000
01000000
00010000
10000000
00100000
,
01000000
00001000
00010000
00000010
00000100
00000010
00001000
00000001
,
00000010
00000100
00001000
00000001
00000100
00000001
00001000
00000010
,
00000100
00000010
00010000
00001000
00100000
01000000
10000000
00010000
,
01000000
00000000
00100000
00000000
10000000
00010000
00000000
00100000
00000000
01000000
00100000
00001000
00010000
00001000
00010000
00000100
,
00000010
00000001
00000100
00000010
00001000
00000100
00010000
00001000
,
01000000
01100000
01000000
01001000
00010000
00010010
00000110
00000000
,
00001000
00000000
00000000
00000100
00001000
00000100
00001000
00000000
00000000
00001100
00000000
00000000
00000000
00000000
00000000
00011000
00000000
00000000
00000000
00000000
00000000
00000000
00000000
00000000
,
10010000
00000000
00000000
00010000
00100000
00010000
00100000
00000000
00000000
01000000
00000000
00000000
00000000
00000000
00000000
00100000
00000000
00000000
01100000
00000000
00000000
00000000
00000000
00000000
,
10000000
00010000
01000000
00001000
00100000
00010000
00100000
00001000
,
00010000
00010010
00000100
00000101
00001000
00001010
00000110
00000000
,
00001000
00000000
00000000
00000001
00000010
00000100
00001000
00000000
00000000
00000010
00000000
00000000
00000000
00000000
00000000
00010010
00000000
00000000
00000000
00000000
00000000
00000000
00000000
00000000
,
00011000
00000000
00000000
00001000
01000000
00010000
01000000
00000000
00000000
00010000
00000000
00000000
00000000
00000000
00000000
10000000
00000000
00000000
11000000
00000000
00000000
00000000
00000000
00000000
,
02200000
00000000
03300000
00000000
00100000
00001000
00011000
00000000
,
00000101
00000000
00000000
00000000
;

//---------------dance-single - M. Simmons----------------
#NOTES:
     dance-single:
     M. Simmons:
     Beginner:
     1:
     0.100,0.000,0.057,0.000,0.000:
0000
0000
0000
0000
,
0000
0000
0000
0000
,
0000
0000
0000
0000
,
0000
0000
0000
0000
,
1000
0000
0000
0000
,
0100
0000
0000
0000
,
0010
0000
0000
0000
,
1001
0000
0000
0000
,
0010
0000
0000
0000
,
0010
0000
0000
0000
,
0001
0000
0000
0000
,
0001
0000
0000
0000
,
0100
0000
0000
0000
,
0100
0000
0000
0000
,
0010
0000
0000
0000
,
1001
0000
0000
0000
,
0010
0000
0000
0000
,
1000
0000
0000
0000
,
0100
0000
0000
0000
,
0010
0000
0000
0000
,
0001
0000
0000
0000
,
1000
0000
0000
0000
,
0010
0000
0000
0000
,
0100
0000
0000
0000
,
0110
0000
0000
0000
,
0000
0000
0000
0000
,
0001
0000
0000
0000
,
0010
0000
0000
0000
,
0100
0000
0000
0000
,
1000
0000
1000
0000
,
0010
0000
0000
0000
,
0100
0000
0100
0000
,
0010
0000
0000
0000
,
1000
0000
1000
0000
,
0001
0000
0000
0000
,
0010
0000
0001
0000
,
0001
0000
0000
0000
,
1000
0000
0010
0000
,
0010
0000
0000
0000
,
0100
0000
0000
0000
,
0010
0000
0000
0000
,
1000
0000
0000
0000
,
1000
0000
0000
0000
,
0001
0000
0000
0000
,
0010
0000
0000
0000
,
0100
0000
0000
0000
,
1000
0000
0000
0000
,
0000
0000
0000
0000
,
0000
0000
1001
0000
,
1000
0000
0001
0000
,
1000
0000
0001
0000
,
1000
0000
0001
0000
,
1000
0000
0001
0000
,
1000
0000
0001
0000
,
0001
0000
0000
0000
,
0010
0000
0000
0000
,
0100
0000
0000
0000
,
1000
0000
0000
0000
,
0001
0000
0000
0000
,
0100
0000
0000
0000
,
0010
0000
0000
0000
,
0100
0000
0000
0000
,
1001
0000
0000
0000
,
1001
0000
0000
0000
;

//---------------dance-single - M. Simmons----------------
#NOTES:
     dance-single:
     M. Simmons:
     Easy:
     3:
     0.260,0.000,0.151,0.104,0.000:
0000
0000
0000
0000
,
0000
0000
0000
0000
,
0000
0000
0000
0000
,
0000
0000
0000
0000
,
0001
0000
0010
0000
,
0100
0000
1000
0000
,
0001
0000
0010
0000
,
2002
0000
3003
0110
,
0001
0010
0100
0010
,
0001
1000
0010
0000
,
0100
0010
1000
0001
,
0100
0001
1000
1000
,
0100
0010
0001
0010
,
0001
1000
0010
0000
,
0100
0010
1000
0010
,
0220
0000
0330
1001
,
0001
0010
0000
0100
,
0000
1000
0000
0010
,
0000
0100
0000
0010
,
0000
1000
0000
0001
,
1000
0001
0010
0100
,
1000
0001
0100
0010
,
1000
0010
0100
0001
,
1000
0100
0010
0001
,
2002
0000
0000
0000
,
0000
0000
0000
3003
,
0010
0100
0001
1000
,
0100
0010
0100
1000
,
0001
0010
0100
1000
,
0001
0100
0010
1000
,
0010
0100
0001
1000
,
0100
0010
0001
1000
,
0001
0100
0010
0100
,
0001
1000
0100
0010
,
0110
0000
1001
0000
,
0001
0010
0100
1000
,
1001
0000
0110
0000
,
0001
0010
0100
1000
,
0001
0010
0100
1000
,
0001
0100
0010
0000
,
1000
0001
0100
0001
,
1000
0100
0010
0010
,
0100
1000
0001
0100
,
0010
1000
0010
0000
,
0100
0010
1000
0001
,
0010
0100
1000
0001
,
2001
0000
0000
0000
,
0000
0000
0000
0000
,
0000
0000
0000
0000
,
0000
0000
0000
0000
,
0000
0000
0000
0000
,
0000
0000
0000
0000
,
0000
0000
0000
0000
,
0000
0000
0000
0000
,
3001
0010
0100
1000
,
0001
0100
0010
1000
,
2001
0010
0000
3000
,
1002
0010
0000
0003
,
0010
0100
1000
0001
,
0010
0001
1000
0010
,
0120
1000
0000
0030
,
0210
0001
0000
0300
,
1001
0000
0010
0010
,
0110
0000
0000
0000
;

//---------------dance-double - M. Simmons----------------
#NOTES:
     dance-double:
     M. Simmons:
     Easy:
     3:
     0.216,0.000,0.114,0.095,0.000:
00000000
00000000
00000000
00000000
,
00000000
00000000
00000000
00000000
,
00000000
00000000
00000000
00000000
,
00000000
00000000
00000000
00000000
,
00000010
00000100
00000001
00000000
,
00001000
00000100
00010000
00000000
,
00000010
00010000
00001000
00000000
,
00022000
00000000
00033000
00011000
,
00000000
01000000
00000000
00100000
,
00000000
10000000
00000000
00010000
,
00000000
01000000
00000000
00010000
,
00000000
00100000
01000000
00100000
,
00000000
00001000
00000000
00010000
,
00000000
00000100
00000000
00000010
,
00000000
00000100
00000000
00001000
,
00002002
00000000
00003003
00000110
,
00000010
00001000
00000100
00000000
,
00010000
00001000
00010000
00000000
,
00000100
00000010
00000001
00000000
,
00001000
00000001
00001000
00000001
,
00001000
00000010
00010000
00000000
,
00001000
01000000
00100000
00000000
,
01000000
00010000
10000000
00000000
,
01000000
00100000
01000000
00100000
,
02200000
00000000
00000000
00000000
,
00000000
00000000
00000000
03300000
,
00100000
00001000
00010000
00001000
,
00010000
00000100
00000010
00000000
,
00000100
00001000
00000001
00000100
,
00000010
00001000
00000010
00000000
,
00000100
00000001
00001000
00000100
,
00010000
00001000
00010000
00000000
,
00000100
00010000
00001000
01000000
,
00100000
10000000
00010000
00000000
,
01100000
00000000
10010000
00000000
,
02000000
00000000
00000000
03001000
00000000
00000000
00000000
00000000
,
00011000
00000000
00010100
00000000
,
00000020
00000000
00000000
00000130
00000000
00000000
00000000
00000000
,
00000000
00000010
00000000
00001000
,
00000000
00000001
00000000
00000010
,
00000000
00000100
00000000
00010000
,
00000000
00001000
00010000
00001000
,
00000000
01000000
00000000
00100000
,
00000000
10000000
00000000
00010000
,
00000000
00100000
00000000
01000000
,
00000000
00100000
01000000
00100000
,
20020000
00000000
00000000
00000000
,
00000000
00000000
00000000
00000000
,
00000000
00000000
00000000
00000000
,
00000000
00000000
00000000
00000000
,
00000000
00000000
00000000
00000000
,
30030000
00000000
00000000
00000000
,
00000000
00000000
00000000
00000000
,
01000000
00001000
01000000
00001000
,
00010000
00000100
00001000
00000000
,
00000010
00000100
00000010
00000000
,
00001000
00000000
00000000
00000001
00000000
00000000
00000000
00000000
,
00000010
00000000
00000000
00000100
00000000
00000000
00000000
00000000
,
00010000
00001000
01000000
00000000
,
00100000
10000000
00010000
00000000
,
00100000
00000000
00000000
01000000
00000000
00000000
00000000
00000000
,
10000000
00000000
00000000
00010000
00000000
00000000
00000000
00000000
,
10010000
00000000
01000000
01000000
,
01001000
00000000
00000000
00000000
;

//---------------dance-double - M. Simmons----------------
#NOTES:
     dance-double:
     M. Simmons:
     Medium:
     5:
     0.354,0.000,0.123,0.076,0.000:
00000000
00000000
00000000
00000000
,
00000000
00000000
00000000
00000000
,
00000000
00000000
00000000
00000000
,
00000000
00000000
00000000
00000000
,
00000010
00000000
00001000
00000010
00001000
00000000
00000100
00000000
,
00000010
00000000
00000100
00010000
00001000
00000000
00010000
00000000
,
00000010
00000000
00000100
00000001
00001000
00000000
00000100
00000000
,
00000220
00000000
00000330
00001001
,
00000010
00010000
00001000
00000000
01000000
00010000
10000000
00000000
,
01000000
00100000
00001000
00000000
,
00010000
00000100
00010000
00000000
00001000
01000000
00001000
00000000
,
00010000
00001000
00010000
00001000
,
00010000
00000010
00010000
00000000
00001000
01000000
00001000
00000000
,
01000000
00100000
01000000
00000000
,
00100000
10000000
00100000
00000000
01000000
00010000
10000000
00000000
,
02200000
00000000
00000000
03300000
,
00001000
00010000
00000100
00000010
,
00000100
00001000
00000001
00000100
,
00000010
00001000
00000001
00000100
,
00000001
00001000
00000100
00000110
,
00000100
00001000
00000010
00010000
,
00001000
00100000
00010000
01000000
,
00001000
01000000
00010000
10000000
,
01000000
00100000
00010000
10010000
,
00202000
00000000
00000000
00000000
,
00000000
00000000
00000000
00303000
,
00001000
00010000
00000010
00000100
,
00000010
00000000
00001000
00000000
00000001
00000010
00000001
00000010
,
00000100
00010000
00001000
01000000
,
00100000
00000000
10000000
00000000
00010000
10000000
00010000
00000000
,
00100000
01000000
10000000
00100000
,
01000000
00000000
00001000
00000000
00010000
00000100
00010000
00001000
,
00010000
00000100
00000010
00000001
,
00001000
00000000
00000010
00000000
00010000
00000010
00010000
00000000
,
00001000
01010000
00100000
10100000
,
01000000
00000000
00010000
10000000
00000000
10000000
00010000
00000000
,
00100000
01100000
01000000
00101000
,
00010000
00000000
00000100
00000010
00000000
00000010
00000100
00000000
,
00000010
00001000
00000010
00000000
00010000
00000100
00010000
00000000
,
00001000
00100000
00010000
00000000
,
01000000
00100000
10000000
00000000
00010000
10000000
00010000
00000000
,
00100000
01000000
00100000
01000000
,
00100000
00010000
10000000
00000000
00100000
10000000
00010000
00000000
,
01000000
00001000
01000000
00000000
,
00001000
00010000
00001000
00000000
00010000
00000100
00010000
00000000
,
00001000
00010000
00000010
00010000
,
00000100
00000010
00000001
00001000
,
00000010
00000100
00000010
00001000
,
00002002
00000000
00000000
00000000
,
00000000
00000000
00000000
00000000
,
00000000
00000000
00000000
00000000
,
00003003
00000000
00000000
00000000
,
00000000
00000000
00000000
00000000
,
00000010
00001000
00000100
00001000
00000010
00001000
00000010
00000000
,
00010000
00001000
01000000
00100000
,
10000000
00000000
01000000
00000000
00100000
00001000
00100000
00000000
,
10000000
00010000
10000000
01000000
00000000
00100000
00100000
00000000
,
00001000
00010000
00000100
00010000
00000000
00001000
00001000
00000000
,
00010000
00000100
00000010
00000001
,
00001000
00000010
00000100
00000010
,
00010000
00001000
00010000
00000100
00000000
00000010
00000010
00000000
,
00000100
00001000
00000001
00001000
00000000
00000010
00000010
00000000
,
00010010
00000000
00000000
00000000
00001000
00010000
00001000
00000000
,
00011000
00000000
00000000
00000000
;

//---------------dance-single - M. Simmons----------------
#NOTES:
     dance-single:
     M. Simmons:
     Medium:
     6:
     0.385,0.000,0.246,0.142,0.000: // measure 1
0000
0000
0000
0000
,  // measure 2
0000
0000
0000
0000
,  // measure 3
0000
0000
0000
0000
,  // measure 4
0000
0000
0000
0000
,  // measure 5
0001
0100
0010
0100
0001
0100
0010
0000
,  // measure 6
0100
0001
0100
0010
0100
0010
1000
0000
,  // measure 7
0001
0010
0100
0010
0001
1000
0001
0000
,  // measure 8
4004
0000
3003
0110
,  // measure 9
0001
0000
0010
0000
0100
1000
0001
0000
,  // measure 10
0100
0000
0010
0000
1000
1000
0001
0000
,  // measure 11
0100
0000
0001
0000
0010
0100
0010
0000
,  // measure 12
0100
0000
1000
0010
0100
0001
1000
0000
,  // measure 13
1000
0000
0001
0000
0010
0001
0001
0000
,  // measure 14
1000
0000
0010
0000
0100
0010
0100
0000
,  // measure 15
0001
0000
1000
0000
0100
0100
0010
0000
,  // measure 16
0440
0000
0330
1001
,  // measure 17
0001
0100
0010
1000
,  // measure 18
0001
0000
0100
0000
0001
1000
0001
0000
,  // measure 19
0010
0100
1000
0010
,  // measure 20
0100
0000
0010
1000
0000
1000
0001
0000
,  // measure 21
0010
0100
1000
0001
,  // measure 22
0100
0000
0001
0000
0010
0001
0010
0000
,  // measure 23
0100
1000
0010
0100
,  // measure 24
0001
0000
0100
0010
0000
0010
1000
0000
,  // measure 25
0044
0000
0000
0000
,  // measure 26
0000
0000
0000
0033
,  // measure 27
0010
0100
1000
0001
,  // measure 28
0100
0010
1000
0000
0010
0100
0001
0000
,  // measure 29
1000
0100
0010
0001
,  // measure 30
1000
0001
1000
0001
0000
0100
0020
0000
,  // measure 31
0130
0010
1000
0001
,  // measure 32
0010
0000
0100
0000
1000
0010
1000
0000
,  // measure 33
0100
0000
0010
0000
0010
0001
0010
0000
,  // measure 34
0100
1000
0100
1000
0000
0001
1000
0000
,  // measure 35
0012
0103
2010
3100
,  // measure 36
0010
0000
0001
0100
0000
0100
0010
0000
,  // measure 37
2010
3001
0012
1003
,  // measure 38
0010
0000
0100
0001
0000
0001
1000
0000
,  // measure 39
0100
0110
0010
0110
,  // measure 40
0100
0000
1000
0001
0200
0000
0010
0000
,  // measure 41
0310
1001
0100
1001
,  // measure 42
0001
0000
0010
0000
0200
1000
1300
0000
,  // measure 43
1000
1001
0001
0011
,  // measure 44
0010
0000
0110
0000
0200
1000
1000
0000
,  // measure 45
1300
1010
0100
0011
,  // measure 46
0010
0100
1000
0001
0020
0000
0200
0330
,  // measure 47
1000
0010
0100
0001
,  // measure 48
1000
0010
0100
0010
,  // measure 49
2002
0000
0000
0000
,  // measure 50
0000
0000
0000
0000
,  // measure 51
0000
0000
0000
0000
,  // measure 52
3003
0000
0000
0000
,  // measure 53
0000
0000
0000
0000
,  // measure 54
0000
0000
0000
0000
,  // measure 55
0001
0010
0100
0000
0010
0100
1000
0000
,  // measure 56
0000
0101
0000
1010
0000
0001
0200
0000
,  // measure 57
0310
0000
1000
0001
0000
1001
0000
0000
,  // measure 58
0010
0000
0100
0001
0000
1000
0001
0000
,  // measure 59
0010
0100
1000
0000
0010
0100
0001
0000
,  // measure 60
0000
1100
0000
1010
0000
0001
0100
0000
,  // measure 61
0010
0000
1000
0001
0000
0100
0000
0000
,  // measure 62
0001
0000
0010
0100
0000
1000
0000
0000
,  // measure 63
2002
0000
3003
0000
0001
0010
0001
0000
,  // measure 64
1100
0000
0000
0000
;
