#TITLE:Metallik Heart;
#SUBTITLE:;
#ARTIST:DJ Meas;
#TITLETRANSLIT:;
#SUBTITLETRANSLIT:;
#ARTISTTRANSLIT:;
#GENRE:Hardcore;
#CREDIT:Sync by HellRazoR;
#BANNER:Metallik Heart-bn.png;
#BACKGROUND:Metallik Heart-bg.png;
#LYRICSPATH:;
#CDTITLE:;
#MUSIC:Metallik Heart.ogg;
#OFFSET:0.001;
#SAMPLESTART:37.514;
#SAMPLELENGTH:12.000;
#SELECTABLE:YES;
#DISPLAYBPM:160.000;
#BPMS:0=160,30.5=640,31.5=160,47=1280,48=160,79=1280,80=160,111=1280,112=160,142.75=640,144=160,224=640,230.5=160,247=1280,248=160,278.75=640,280=160;
#STOPS:30.5=0.0703125,30.75=0.0703125,31=0.0703125,31.25=0.0703125,47=0.328125,79=0.328125,111=0.328125,142.75=0.0703125,143=0.0703125,143.25=0.0703125,143.5=0.0703125,143.75=0.0703125,224=0.0703125,224.25=0.0703125,224.5=0.0703125,224.75=0.0703125,225=0.0703125,225.25=0.0703125,225.5=0.0703125,225.75=0.0703125,226=0.0703125,226.25=0.0703125,226.5=0.0703125,226.75=0.0703125,227=0.0703125,227.25=0.0703125,227.5=0.0703125,227.75=0.0703125,228=0.0703125,228.25=0.0703125,228.5=0.0703125,228.75=0.0703125,229=0.0703125,229.25=0.0703125,229.5=0.0703125,229.75=0.0703125,230=0.0703125,230.25=0.0703125,247=0.328125,278.75=0.0703125,279=0.0703125,279.25=0.0703125,279.5=0.0703125,279.75=0.0703125;
#BGCHANGES:0.000=Metallik Heart-bg.png=1.000=0=0=1=====,
20.000=In The Groove Rebirth/263_JB_HD.mpg=1.000=1=0=1=SongBgWithMovieViz==CrossFade==,
30.500=Metallik Heart-bg.png=1.000=0=0=1=StretchNormal====,
30.750=Metallik Heart-bg.png=1.000=0=0=1====0^0^1^1=,
31.000=Metallik Heart-bg.png=1.000=0=0=1====0^1^0^1=,
31.250=Metallik Heart-bg.png=1.000=0=0=1====1^0^0^1=,
31.500=Metallik Heart-bg.png=1.000=0=0=1=====,
32.000=In The Groove Rebirth/271_JB_HD.mpg=1.000=0=0=1=====,
47.000=In The Groove Rebirth/271_JB_HD.mpg=0.100=0=0=1=====,
47.500=In The Groove Rebirth/271_JB_HD.mpg=1.000=0=0=1=====,
48.000=In The Groove Rebirth/317_JB_HD.mpg=1.000=0=0=1=====,
64.000=In The Groove Rebirth/1135_JumpBack.mpg=1.000=0=0=1=====,
79.000=In The Groove Rebirth/1135_JumpBack.mpg=0.100=0=0=1=====,
79.500=In The Groove Rebirth/1135_JumpBack.mpg=1.000=0=0=1=====,
80.000=In The Groove Rebirth/1129_JumpBack.mpg=1.000=0=0=1=====,
94.000=Metallik Heart-bg.png=1.000=0=0=1=====,
94.500=Metallik Heart-bg.png=1.000=0=0=1====1^0^0^1=,
95.000=In The Groove Rebirth/270_JB_HD.mpg=2.000=0=0=1=SongBgWithMovieViz====,
96.000=In The Groove Rebirth/255_JB_HD.mpg=1.000=0=0=1=====,
111.000=In The Groove Rebirth/255_JB_HD.mpg=0.100=0=0=1=====,
111.500=In The Groove Rebirth/255_JB_HD.mpg=1.000=0=0=1=====,
112.000=In The Groove Rebirth/1129_JumpBack.mpg=1.000=0=0=1=====,
128.000=In The Groove Rebirth/308_JB_HD.mpg=1.000=0=0=1=====,
143.000=Metallik Heart-bg.png=1.000=0=0=1=Checkerboard1File2x2====,
143.250=Metallik Heart-bg.png=1.000=0=0=1=Kaleidoscope2x2====,
143.500=Metallik Heart-bg.png=1.000=0=0=1====0^0^1^1=,
143.750=Metallik Heart-bg.png=1.000=0=0=1====0^1^0^1=,
144.000=In The Groove Rebirth/270_JB_HD.mpg=1.000=0=0=1=====,
160.000=In The Groove Rebirth/271_JB_HD.mpg=0.800=0=0=1=====,
176.000=In The Groove Rebirth/264_JB_HD.mpg=1.000=0=0=1=====,
192.000=In The Groove Rebirth/1135_JumpBack.mpg=1.000=1=0=1=SongBgWithMovieViz==CrossFade==,
224.000=Metallik Heart-bg.png=1.000=0=0=1=Checkerboard1File2x2====,
224.250=Metallik Heart-bg.png=1.000=0=0=1=Checkerboard2File2x2=Metallik Heart-bn.png===,
224.500=Metallik Heart-bn.png=1.000=0=0=1=Checkerboard2x2=Metallik Heart-bn.png===,
224.750=Metallik Heart-bg.png=1.000=0=0=1=Kaleidoscope2x2====,
225.000=Metallik Heart-bg.png=1.000=0=0=1====0^0^1^1=,
225.250=Metallik Heart-bn.png=1.000=0=0=1=Kaleidoscope2x2====,
225.500=Metallik Heart-bg.png=1.000=0=0=1=====,
225.750=Metallik Heart-bg.png=1.000=0=0=1=Checkerboard2File2x2=Metallik Heart-bn.png===,
226.000=Metallik Heart-bg.png=1.000=0=0=1====0^0^1^1=,
226.250=Metallik Heart-bn.png=1.000=0=0=1====0^1^0^1=,
226.500=Metallik Heart-bg.png=1.000=0=0=1====1^0^0^1=,
226.750=Metallik Heart-bn.png=1.000=0=0=1====0^0^1^1=,
227.000=Metallik Heart-bg.png=1.000=0=0=1====0^1^0^1=,
227.250=Metallik Heart-bn.png=1.000=0=0=1====1^0^0^1=,
227.500=Metallik Heart-bg.png=1.000=0=0=1=Kaleidoscope2x2====,
227.750=In The Groove Rebirth/1135_JumpBack.mpg=1.000=0=0=1=Checkerboard2File2x2=Metallik Heart-bg.png===,
228.000=Metallik Heart-bg.png=1.000=0=0=1=Checkerboard2File2x2=In The Groove Rebirth/1135_JumpBack.mpg===,
228.250=In The Groove Rebirth/263_JB_HD.mpg=1.000=0=0=1=SongBgWithMovieViz====,
228.500=Metallik Heart-bg.png=1.000=0=0=1=Kaleidoscope2x2====,
228.750=Metallik Heart-bg.png=1.000=0=0=1====0^1^0^1=,
229.000=In The Groove Rebirth/255_JB_HD.mpg=1.000=0=0=1=Checkerboard2File2x2=Metallik Heart-bg.png===,
229.250=Metallik Heart-bg.png=1.000=0=0=1=Checkerboard2File2x2=In The Groove Rebirth/1129_JumpBack.mpg===,
229.500=In The Groove Rebirth/1129_JumpBack.mpg=1.000=0=0=1=Checkerboard2File2x2=Metallik Heart-bg.png===,
229.750=Metallik Heart-bg.png=1.000=0=0=1====0^1^0^1=,
230.500=Metallik Heart-bg.png=1.000=0=0=1====0^0^1^1=,
231.000=Metallik Heart-bn.png=1.000=0=0=1=Kaleidoscope2x2====,
231.500=Metallik Heart-bg.png=1.000=0=0=1=Checkerboard1File2x2====,
231.750=Metallik Heart-bg.png=1.000=0=0=1=Checkerboard2File2x2=Metallik Heart-bn.png===,
232.000=In The Groove Rebirth/317_JB_HD.mpg=1.000=0=0=1=====,
247.000=In The Groove Rebirth/317_JB_HD.mpg=0.100=0=0=1=====,
247.500=In The Groove Rebirth/317_JB_HD.mpg=1.000=0=0=1=====,
248.000=In The Groove Rebirth/263_JB_HD.mpg=1.000=0=0=1=====,
264.000=In The Groove Rebirth/255_JB_HD.mpg=1.000=0=0=1=====,
278.750=Metallik Heart-bg.png=1.000=0=0=1=Kaleidoscope2x2====,
279.000=Metallik Heart-bg.png=1.000=0=0=1====1^0^0^1=,
279.250=Metallik Heart-bn.png=1.000=0=0=1=Checkerboard2File2x2=Metallik Heart-bg.png===,
279.500=Metallik Heart-bg.png=1.000=0=0=1====0^0^1^1=,
279.750=Metallik Heart-bg.png=1.000=0=0=1=Checkerboard2x2=Metallik Heart-bn.png===,
280.000=In The Groove Rebirth/271_JB_HD.mpg=1.000=0=0=1=====,
292.000=In The Groove Rebirth/271_JB_HD.mpg=1.000=0=0=1=SongBgWithMovieViz====,
296.000=Metallik Heart-bg.png=2.000=0=0=1=====,
99999=-nosongbg-=1.000=0=0=0 // don't automatically add -songbackground-
;
#BGCHANGES2:216.000=white flash=1.000=0=0=1=====,
292.000=white flash=1.000=0=0=1=====,
296.000=white flash=1.000=0=0=1=====,
;
#KEYSOUNDS:;

//---------------dance-single - D. Bernardone----------------
#NOTES:
     dance-single:
     D. Bernardone:
     Challenge:
     12:
     1.000,1.000,0.629,0.487,1.000:
0000
0000
0000
0000
,
0000
0000
0000
0000
,
0000
0000
0000
0000
,
0000
0000
0000
0000
,
0000
0000
0000
0000
,
1000
0100
0010
0100
0001
0100
1000
0010
,
0100
0100
0100
0001
1000
0001
0001
0000
,
1000
0000
0001
0000
0000
0000
0001
0000
0100
0000
0010
1000
0010
0100
0010
0000
,
1001
0000
1000
0000
0001
0100
0010
0100
0001
1000
0010
0000
0110
0000
0001
0000
,
1000
0000
0000
0000
0010
0000
0000
0000
0001
0000
0000
0000
0010
0000
1000
0000
0100
0000
0010
0000
0001
0000
0000
0000
1001
0000
0000
0000
0001
0100
0001
0000
,
0010
0000
0100
0000
1000
0100
0010
0100
1000
0010
0100
0000
0110
0000
0001
0000
,
1000
0000
0100
0000
0001
0000
0100
1000
0001
0100
0010
0000
1001
0000
MMM0
0000
,
0001
0000
0010
0000
0100
1000
0001
1000
0100
0010
0001
0000
0101
0000
1000
0000
,
0001
0000
0000
0000
0100
0000
0000
0000
1000
0000
0000
0000
0100
0000
0001
0000
1000
0000
0100
0000
1000
0000
0000
0000
1001
0000
0000
0000
1000
0010
1000
0000
,
0001
0000
0010
0000
0100
1000
0100
0010
0001
0010
0100
0000
1100
0000
1000
0000
,
0001
0000
0000
0000
0010
0000
0000
0000
0100
0000
0000
0000
1000
0000
0001
0000
1000
0000
0001
0000
0010
0000
0000
0000
0110
0000
0010
0000
0001
1000
0001
0000
,
0010
0000
0100
0000
1000
0010
0100
0001
0100
0010
1000
0000
1100
0000
0001
0000
,
0100
0000
0000
0000
0010
0000
0000
0000
1000
0000
0000
0000
0100
0000
0010
0000
0001
0000
1000
0000
0100
0000
0000
0000
0110
0000
0000
0000
0010
0001
0010
0000
,
0100
0000
1000
0000
0001
0100
0010
1000
0010
0100
0001
0000
1001
0000
1000
0000
,
0100
0000
0010
0000
0001
0000
0100
0010
1000
0001
0010
0000
1100
0000
MMM0
0000
,
0001
0000
1000
0000
0100
0010
0001
0010
0100
0010
0001
0000
1001
0000
1000
0000
,
0010
0000
0000
0000
0100
0000
0000
0000
0001
0000
0010
0000
0100
0000
1000
0000
0001
0000
1000
0000
0010
0000
0000
0000
1001
0000
0000
0000
1000
0100
1000
0000
,
0001
0000
0100
0000
0010
1000
0010
0100
0010
1000
0010
0000
0110
0000
0001
0000
,
2000
0000
0000
0000
0100
0000
0000
0000
0001
0000
0000
0000
3001
0000
0000
0000
0110
0000
0000
0000
1010
0000
0000
0000
1000
0000
0001
0000
0100
0010
0100
0010
,
1000
0000
0001
0000
0100
0001
1000
0001
1000
0000
0100
0010
0001
0010
0001
0000
,
0101
0000
0001
0000
0010
0100
0010
0100
1000
0000
0001
0010
0100
0010
0100
0000
,
1100
0000
1000
0000
0001
1000
0001
1000
0100
0000
0010
0001
1000
0001
1000
0000
,
1100
0000
0100
0000
0010
0001
1000
0001
1000
0001
0100
0000
0110
0000
0MM0
0000
,
1001
0000
1000
0001
0010
0100
1000
0100
0010
0001
1000
0010
0100
0001
1000
0000
,
1100
0000
1000
0100
0010
0001
0010
0100
0010
0001
1000
0001
0100
0001
0010
0000
,
0110
0000
0100
1000
0100
0010
0100
1000
0001
0100
0010
0100
0001
1000
0001
0000
,
0101
0000
0100
0010
1000
0010
0100
0001
0100
0010
1000
0001
0010
0100
1000
0000
,
1001
0000
0001
0010
0100
1000
0010
1000
0001
0010
0000
0010
0100
0000
1100
0000
,
1001
0000
1000
0010
0100
0001
0010
0001
1000
0100
0000
0100
0010
0000
0011
0000
,
0110
0000
0100
1000
0010
1000
0001
0010
0100
1000
0000
1000
0001
0000
0011
0000
,
0101
0000
0100
0010
1000
0100
0010
0100
1000
0001
0000
0001
1000
0100
0010
0001
,
1000
0000
0010
0100
0001
1000
0001
0000
0011
0000
0000
1010
0000
0000
1001
0000
,
0101
0000
0100
0010
1000
0001
1000
0000
1100
0000
0000
0101
0000
0000
0110
0000
,
1010
0000
1000
0001
0100
0001
1000
0000
1001
0000
0000
1100
0000
0000
0110
0000
,
0011
0000
0001
1000
0010
1000
0000
0100
0010
0001
0000
0000
0100
0010
1000
0001
,
1001
0000
1000
0000
0010
0100
0010
0001
0010
0100
0001
0000
1000
0100
0010
0100
,
0010
0000
0001
0000
0100
0010
0100
1000
0100
0010
0100
0000
0001
0010
0100
0010
,
0100
0000
1000
0000
0010
0100
0010
0001
0010
0100
0010
0000
1000
0100
0010
0100
,
0010
0000
0001
0000
0100
0010
0100
1000
0100
0010
0100
0000
0001
0010
0100
1000
,
0001
0000
0001
0000
1000
0010
0100
0010
0001
0010
0100
0000
0001
1000
0100
0010
,
0100
0000
1000
0000
0001
0010
0100
0010
1000
0010
0100
0000
1000
0001
0100
0010
,
0100
0000
0001
0000
1000
0100
0010
0100
0001
0100
0010
0000
0001
0100
0010
1000
,
0010
0000
1000
0000
0001
0100
0010
0100
1000
0100
0010
0000
1000
0100
0010
0001
,
0200
0000
2000
0300
0200
3000
0020
0300
2000
0030
0200
3000
0020
0300
0002
0030
,
0020
0003
2000
0030
0020
3000
0200
0030
2000
0300
0002
3000
0200
0003
0020
0300
,
2000
0030
0200
3000
0002
0300
0200
0003
0020
0300
0002
0030
2000
0003
0002
3000
,
0020
0003
2000
0030
0020
3000
0200
0030
0020
0300
0002
0030
2000
0003
0020
3000
,
0200
0030
2000
0300
0200
3000
0002
0300
0020
0003
0002
0030
2000
0003
0020
3000
,
0200
0030
0000
0000
0000
0000
0000
0000
2000
0000
0000
0000
0000
0000
3000
0000
,
0302
0010
1000
0103
,
0101
0000
0010
0000
1001
0000
0100
0000
0010
1000
0010
0100
0001
0010
0100
1000
,
0004
0400
0000
0000
0000
0000
0000
0000
0000
0000
0000
0000
0000
0000
0000
0000
,
0000
0000
0000
0000
0000
0000
0000
0000
0303
0000
0110
0000
1001
0000
0001
0010
,
0100
0000
1000
0000
0010
0000
0100
0000
0001
1000
0100
0010
0001
0010
0100
1000
,
0001
0000
0100
0000
0010
0000
1000
0000
0001
1000
0010
0100
0001
0100
0010
1000
,
0001
0000
1000
0000
0100
0000
1000
0000
0001
1000
0100
0010
0001
0100
0010
1000
,
0001
0000
1000
0000
0100
0000
1000
0000
0001
0100
0010
0000
0110
0000
0MM0
0000
,
2001
0000
0100
0000
0010
0000
3001
0000
0100
0001
0010
0100
0010
0001
1000
0000
,
2100
0000
0010
0000
0100
0000
3001
0000
0100
0010
1000
0010
0100
0001
0010
0000
,
0012
0000
0100
0000
0010
0000
1003
0000
0100
0010
0001
1000
0001
0100
0010
0000
,
2010
0000
0100
0000
0010
0000
3001
0010
0100
0010
0100
1000
0001
1000
0001
0100
,
0102
0000
0010
0000
0100
0000
1003
0000
0100
0010
0001
0010
0100
1000
0001
0000
,
1002
0000
0010
0000
0100
0000
1003
0000
0100
0010
0001
0010
0100
1000
0100
0000
,
0210
0000
0001
0000
1000
0000
0310
0000
0001
1000
0100
0010
0001
1000
0010
0000
,
0120
0000
0001
0000
1000
0000
0130
0000
0001
1000
0000
1000
0100
0010
0001
1000
,
1001
0000
0101
0000
1010
0000
1000
0000
0100
0010
0001
1000
0001
0100
0010
0000
,
0110
0000
1010
0000
0101
0000
0100
0000
0001
1000
0100
0010
0001
1000
0100
0000
,
0110
0000
1100
0000
0011
0000
0010
0000
0001
1000
0010
0100
0001
1000
0100
0000
,
0021
0000
0100
0000
0031
0000
0010
0100
1000
0010
0100
0001
0010
0100
0110
0000
,
2002
0000
3003
M00M
0000
0000
0000
0000
0000
0000
0000
0000
0000
0000
0000
0000
;

//---------------dance-double - D. Bernardone----------------
#NOTES:
     dance-double:
     D. Bernardone:
     Easy:
     4:
     0.330,0.361,0.097,0.213,0.000:
00000000
00000000
00000000
00000000
,
00000000
00000000
00000000
00000000
,
00000000
00000000
00000000
00000000
,
00000000
00000000
00000000
00000000
,
00000000
00000000
00000000
00000000
,
00000000
00000000
00000000
00000000
,
00000000
00000000
00000000
00000000
,
10000000
00010000
00100000
00000000
,
00100000
00010000
01000000
00001000
,
00010000
00000100
00001000
00000010
,
00000100
00000001
00001000
00000100
,
00010000
00001000
00010000
00011000
,
00001000
00100000
00010000
01000000
,
00010000
00100000
01000000
10000000
,
00010000
01000000
00001000
00010000
,
00001000
00010000
00000010
00000100
,
00000010
00001000
00000001
00000100
,
00000010
00010000
00001000
01000000
,
00100000
10000000
01000000
10000000
,
00010000
00100000
00010000
10010000
,
10000000
01000000
00010000
00001000
,
00000100
00000001
00001000
00000001
,
00000010
00000100
00010000
00001000
,
00100000
00010000
10010000
01100000
,
10010000
00010000
00100000
00100000
,
01000000
10000000
00010000
00010000
,
01000000
00001000
00010000
00010000
,
00000010
00001000
00000100
00000110
,
00000001
00001000
00000100
00000100
,
00000010
00000001
00001000
00001000
,
00000100
00010000
00001000
00001000
,
01000000
00010000
00100000
00100000
,
01000000
10000000
00010000
00010000
,
01000000
00001000
00010000
00010000
,
00000100
00001000
00000010
00000010
,
00000100
00000001
00002000
00000000
,
00003001
00000100
00000010
00000010
,
00001000
00000100
00001000
00001000
,
00000100
00010000
00001000
00001000
,
00011000
00000000
00020000
00000000
,
00031000
00001000
00100000
00000000
,
00010000
00010000
10000000
00000000
,
00100000
00100000
01000000
00000000
,
00010000
00010000
00100000
00000000
,
01000000
01000000
10000000
00000000
,
00010000
00010000
01000000
00000000
,
00001000
00001000
00010000
00000000
,
00000010
00000010
00001000
00000000
,
00000002
00000000
00000000
00000000
,
00000020
00000000
00000000
00000003
,
00000200
00000000
00000000
00000030
,
00020000
00000000
00000000
00000300
,
00002000
00000000
00000000
00030000
,
00200000
00000000
00000000
00003000
,
02000000
00000000
00000000
00300000
,
20000000
00000000
00000000
03000000
,
00020000
00000000
00000000
00000000
,
00000000
00000000
00000000
00000000
00000000
30030000
01100000
00000000
,
10010000
10000000
01000000
20000000
,
30010000
00010000
01000000
00020000
,
00130000
00100000
00001000
00200000
,
00301000
00010000
00001000
00011000
,
00010000
00000100
00020000
00031000
,
00001000
00010000
00002000
00103000
,
00100000
00010000
00200000
00310000
,
00010000
01000000
00020000
00130000
,
00100000
00001000
00100000
00002000
,
00013000
00010000
00000100
00010000
,
00000020
00001030
00001000
00000100
,
00001000
00000002
00000203
00000000
,
00000310
00000100
00000001
00000010
,
00001000
00010000
00100000
10000000
,
01000000
10000000
00010000
00100000
,
00001000
00010000
00000100
00000010
,
00002002
00003003
00000000
00000000
00000000
00000000
00000000
00000000
;

//---------------dance-double - D. Bernardone----------------
#NOTES:
     dance-double:
     D. Bernardone:
     Hard:
     9:
     0.735,0.756,0.275,0.230,0.363:
00000000
00000000
00000000
00000000
,
00000000
00000000
00000000
00000000
,
00000000
00000000
00000000
00000000
,
00000000
00000000
00000000
00000000
,
00000000
00000000
00000000
00000000
,
00000000
00000000
00000000
00000000
,
00000000
00000000
00000000
00000000
,
00000001
00000000
00001000
00000000
00000100
00000000
00000100
00000000
00000100
00000000
00010000
00001000
00010000
00001000
00010000
00000000
,
00011000
00000000
00001000
00000000
01000000
00010000
01000000
00010000
01000000
00010000
01000000
00000000
01100000
00000000
00000000
00000000
,
00010000
01000000
00001000
00010000
00000010
00001000
00001100
00000000
,
00000001
00000000
00000100
00000000
00000010
00001000
00000010
00001000
00000010
00001000
00000010
00000000
00010010
00000000
00000000
00000000
,
00010000
00001000
00100000
01000000
10000000
00010000
01010000
0M0M0000
,
10000000
00000000
01000000
00000000
00100000
00010000
00100000
00010000
00100000
00010000
00100000
00000000
00101000
00000000
00000000
00000000
,
00001000
00010000
00000100
00000010
00000001
00000100
00000110
00000000
,
00000010
00000000
00010000
00000000
00001000
01000000
00001000
01000000
00001000
01000000
00001000
00000000
00101000
00000000
00000000
00000000
,
00100000
00000000
00010000
00000000
10000000
00000000
00100000
00000000
01000000
00000000
00010000
00000000
10000000
01000000
00100000
01000000
,
10000000
00000000
00010000
00000000
01000000
00100000
01000000
00100000
01000000
00100000
01000000
00000000
01010000
00000000
00000000
00000000
,
00010000
00100000
00001000
00010000
00000100
00001000
00001010
00000000
,
00000010
00000000
00000100
00000000
00000001
00001000
00000001
00001000
00000001
00001000
00000001
00000000
00000011
00000000
00000000
00000000
,
00000010
00000100
00010000
00001000
01000000
00100000
01100000
0MM00000
,
10000000
00000000
00010000
00000000
01000000
00010000
01000000
00010000
01000000
00010000
01000000
00000000
01001000
00000000
00000000
00000000
,
00001000
00010000
00000010
00000100
00000001
00001000
00001100
00000000
,
00000100
00000000
00010000
00000000
00001000
00010000
00001000
00010000
00001000
00010000
00001000
00000000
00011000
00000000
00000000
00000000
,
00001000
00000000
00010000
00000000
01000000
00000000
10000000
00000000
10010000
00000000
10010000
00000000
00010000
00100000
01000000
00100000
,
00020000
00000000
00000000
00000000
10030000
00000000
01000000
00000000
00010000
00000000
00000000
00001000
00000000
00000000
00010000
00000000
,
00000200
00000000
00000000
00000000
00001300
00000000
00000010
00000000
00000100
00000000
00000000
00000001
00000000
00000000
00001000
00000000
,
00000020
00000000
00000000
00000000
00001030
00000000
00000100
00000000
00010000
00000000
00000000
00001000
00000000
00000000
00100000
00000000
,
02000000
00000000
13000000
00100000
00010000
00001000
00011000
000MM000
,
00000020
00000000
00000000
00000000
00001030
00000000
00000100
00000000
00000010
00000000
00000000
00000001
00000000
00000000
00000100
00000000
,
00000020
00000000
00000000
00000000
00010030
00000000
00001000
00000000
00100000
00000000
00000000
00010000
00000000
00000000
01000000
00000000
,
00200000
00000000
00000000
00000000
10300000
00000000
01000000
00000000
00010000
00000000
00000000
00001000
00000000
00000000
00010000
00000000
,
00200000
00000000
00000000
00000000
10300000
00000000
00010000
00000000
01000000
00000000
00000000
00001000
00000000
00000000
00010000
00000000
,
00002000
00000000
00000000
00000000
00013000
00000000
00000010
00000000
00001000
00000000
00000000
00000100
00000000
00000000
00000010
00000000
,
00000002
00000000
00000000
00000000
00000103
00000000
00000010
00000000
00001000
00000000
00000100
00010000
00000100
00000000
00010000
00000000
,
00002000
00000000
00000000
00000000
00103000
00000000
01000000
00000000
10000000
00000000
00100000
01000000
00100000
00000000
01000000
00000000
,
00002000
00000000
00000000
00000000
00013000
00000000
00000010
00000000
00001000
00000001
00000000
00000001
00000100
00000001
00000100
00000001
,
00001000
00000000
00000010
00000000
00010000
00000000
00001000
00010000
00001000
00000000
00100000
00000000
00010000
00000000
00010000
00000000
,
10000000
00000000
00100000
00000000
01000000
00000000
00001000
00010000
00001000
00000000
00010000
00000000
00000100
00000000
00000100
00000000
,
00000010
00000000
00000001
00000000
00001000
00000000
00000100
00010000
00000100
00000000
00010000
00000000
00001000
00000000
00001000
00000000
,
00100000
00000000
00010000
00000000
10000000
00000000
00100000
00000000
01000000
00010000
00000000
00010000
10000000
00010000
10000000
00010000
,
00200000
00000000
01300000
10000000
00100000
00010000
00001000
00000100
,
00000002
00000000
00000013
00001000
00010000
01000000
10000000
00100000
,
02000000
00000000
03010000
00100000
00001000
00010000
00001000
00000010
,
00000002
00000000
00000103
00001000
00010000
00100000
10000000
01000000
,
20000000
00000000
30010000
01000000
00001000
00010000
00001000
00000100
,
00000002
00000000
00000013
00000100
00010000
00001000
01000000
00100000
,
20000000
00000000
31000000
00100000
00001000
00010000
00000010
00000100
,
00000002
00000000
00000000
00000000
00001003
00000100
00001000
00000100
00001000
00000100
00001000
00000000
00000100
00010000
00000100
00010000
,
00000100
00001000
00000010
00010000
00001000
01000000
00100000
10000000
,
01000000
00010000
00001000
00010000
01000000
10000000
00100000
01000000
,
00001000
00010000
00000010
00001000
00000001
00000010
00001000
00010000
,
00001000
00000010
00000001
00000100
00000010
00010000
00001000
01000000
,
00020000
00000000
20030000
32000000
,
03020000
00000000
00032000
00003200
,
00000301
00000001
00000001
00000001
,
00001100
00001001
00001010
00001001
,
00000404
00000000
00000000
00000000
,
00000000
00000000
00000000
00000000
00000000
00000000
00000000
00000000
00000303
00000000
00001001
00000000
00001001
00000000
00000001
00000010
,
00000001
00000000
00000100
00000000
00000010
00000000
00010000
00000000
00001000
00000000
01000000
00010000
01000000
00000000
00010000
00000000
,
10000000
00000000
10000000
00000000
01000000
00000000
00100000
00000000
00010000
00000000
01000000
00010000
01000000
00000000
00001000
00000000
,
00010000
00000000
00010000
00000000
00000010
00000000
00001000
00000000
00000100
00000000
00000010
00000001
00000010
00000000
00000001
00000000
,
00001000
00001000
00000010
00010000
00001000
00010000
00011000
000MM000
,
01000000
00000000
00100000
00000000
10000000
00000000
01000000
00000000
00100000
00001000
00000000
00001000
00010000
00000000
00001000
00000000
,
00010000
00000000
00000010
00000000
00001000
00000000
00000100
00000000
00000010
00000001
00000000
00000001
00000100
00000000
00000010
00000000
,
00001000
00000000
00000001
00000000
00000010
00000000
00000100
00000000
00010000
00001000
00000000
00001000
00100000
00000000
00010000
00000000
,
01000000
00000000
00100000
00000000
10000000
00000000
01000000
00000000
00100000
00010000
00000000
00010000
01000000
00000000
00001000
00000000
,
00010000
00000000
00000100
00000000
00001000
00000000
00000010
00000000
00000100
00000001
00000000
00000001
00001000
00000000
00000010
00000000
,
00000100
00000000
00000001
00000000
00001000
00000000
00000100
00000000
00010000
00001000
00000000
00001000
01000000
00000000
00010000
00000000
,
00100000
00000000
01000000
00000000
10000000
00000000
00010000
00000000
01000000
00001000
00000000
00001000
00010000
00000000
00000100
00000000
,
00001000
00000000
00000010
00000000
00000100
00000000
00000001
00000000
00001000
00000100
00000000
00000100
00000010
00000100
00000010
00000100
,
00000010
00000001
00000100
00001000
00010000
01000000
10000000
00010000
,
10010000
00000000
10000000
00100000
00010000
00001000
00000010
00000001
,
00001001
00000000
00000001
00000100
00001000
00010000
00100000
10000000
,
10010000
00000000
01000000
00000000
00010000
00000000
10000000
01000000
10000000
01000000
10000000
01000000
10000000
00000000
10010000
00000000
,
00110000
00000000
00000000
00MM0000
00000000
00000000
00000000
00000000
00000000
00000000
00000000
00000000
00000000
00000000
00000000
00000000
;

//---------------dance-double - J. Gowen----------------
#NOTES:
     dance-double:
     J. Gowen:
     Medium:
     6:
     0.483,0.492,0.239,0.044,0.000:
00000000
00000000
00000000
00000000
,
00000000
00000000
00000000
00000000
,
00000000
00000000
00000000
00000000
,
00000000
00000000
00000000
00000000
,
00100000
00001000
00100000
00010000
01000000
00000000
00100000
00000000
,
10000000
01000000
00000000
10000000
00100000
00000000
01000000
00000000
,
00010000
00100000
00010000
01000000
00001000
00000000
00010000
00000000
,
00000010
00000100
00000000
00000010
00001000
00000000
00000101
00000000
,
00000010
00000100
00000010
00001000
00000100
00000000
00000010
00000000
,
00001000
00010000
00000000
00001000
00100000
00000000
00010000
00000000
,
01000000
00100000
10000000
00100000
01000000
00000000
00010000
00000000
,
00100000
01000000
00000000
00100000
00010000
00000000
01010000
00000000
,
00000000
00100000
01000000
00000000
00010000
00000000
00100000
00000000
,
01000000
10000000
00000000
01000000
00100000
00000000
00010000
00000000
,
01000000
00001000
00010000
00000000
00000010
00000000
00000100
00000000
,
00000010
00001000
00000000
00000010
00000100
00000000
00000001
00000000
,
00000010
00000001
00000100
00000000
00000010
00000000
00010000
00000000
,
00001000
00100000
00000000
00001000
01000000
00000000
00100000
00000000
,
10000000
01000000
00100000
00000000
00010000
00000000
01000000
00000000
,
00100000
00010000
00000000
00001000
00010000
00001000
00100000
00000000
,
00000000
00010000
01000000
00010000
10000000
00000000
01000000
00000000
,
00100000
00010000
00000000
00100000
01000000
00000000
10000000
00000000
,
00010000
01000000
00010000
00100000
00001000
00000000
00010000
00000000
,
00000100
00000010
00000011
00000101
,
00000010
00000000
00001000
00000100
00000010
00000000
00001000
00000010
,
00001000
00000000
00010000
00001000
00100000
00000000
00010000
01000000
,
00010000
00000000
10000000
01000000
00100000
00000000
00010000
01000000
,
00010000
00000000
00100000
00000000
00001000
00010000
00000100
00000000
,
00000010
00000000
00000001
00000100
00000001
00000000
00000100
00000010
,
00010000
00000000
00001000
00010000
00001000
00000000
00100000
00010000
,
01000000
00000000
00100000
00010000
00100000
00000000
01000000
00010000
,
10000000
00000000
01000000
00100000
00010000
00000000
01010000
00000000
,
00001000
00110000
10000000
11000000
,
00100000
01010000
00001000
00011000
,
00000100
00001010
00000100
00000101
,
00000010
00000000
00001100
00000000
00000010
00000100
00002000
00000000
,
00003010
00000000
00010000
00001000
00100000
00000000
00010000
01000000
,
00010000
00000000
00100000
01000000
00010000
00000000
00001000
00010000
,
00001000
00000000
00000100
00000010
00001000
00000000
00000001
00000010
,
00000001
00000000
00001000
00000010
00001000
00000100
00010000
00000000
,
00001000
00100000
01000000
10000000
,
00100000
01000000
00001000
00010000
,
00000010
00000100
00000001
00000010
,
00000100
00010000
00001000
00100000
,
01000000
00010000
00001000
00000010
,
00000001
00000100
00001000
00010000
,
00000010
00001000
00000100
00000010
,
00001000
00010000
01000000
10000000
,
00010000
00100000
01000000
00000000
10000000
00000000
00100000
00000000
,
01000000
00001000
00010000
00000000
00000010
00000000
00000100
00000000
,
00000001
00000010
00000100
00000000
00010000
00000000
00001000
00000000
,
00100000
00010000
01000000
00000000
00100000
00000000
10000000
00000000
,
01000000
00100000
00001000
00000000
00010000
00000000
00000100
00000000
,
00000010
00000001
00000100
00000000
00000010
00000000
00001000
00000000
,
00000200
00000300
00000020
00000030
00002000
00003000
00020000
00030000
,
01000000
01100000
00110000
00101000
,
00044000
00000000
00000000
00000000
,
00000000
00000000
00000000
00033000
00000000
00010000
00001000
00000000
,
00110000
00000000
10000000
01000000
00100000
00000000
00010000
01000000
,
00010000
00000000
00100000
00001000
00010000
00000000
00000100
00000010
,
00000100
00000000
00001000
00000001
00000100
00000000
00000010
00001000
,
00000010
00000000
00000100
00000000
00001000
00010000
00000010
00000000
,
00001010
00000000
00000100
00000001
00000010
00000000
00000100
00010000
,
00000100
00000000
00001000
00000010
00010000
00000000
00001000
00100000
,
00001000
00000000
01000000
00010000
10000000
00000000
00100000
01000000
,
00100000
00000000
10000000
00010000
00100000
00000000
01100000
00000000
,
10000000
00110000
01000000
00011000
,
00000100
00001100
00000010
00000011
,
00001000
00000110
00000001
00001010
,
00010000
00000000
00011000
00000000
00100000
00010000
01000000
00000000
,
00100000
00000000
10000000
00010000
01000000
00000000
00001000
00010000
,
00001000
00000000
00100000
00010000
01000000
00000000
00001000
00010000
,
00001000
00000000
00000010
00000100
00001000
00000000
00000010
00000100
,
00000010
00001000
00000100
00000010
,
00011000
00000000
00000000
00000000
;

//---------------dance-single - M. Simmons----------------
#NOTES:
     dance-single:
     M. Simmons:
     Hard:
     9:
     0.636,0.688,0.186,0.106,0.394:
0000
0000
0000
0000
,
0000
0000
0000
0000
,
0000
0000
0000
0000
,
0000
0000
0000
0000
,
0000
0000
0000
0000
,
1000
0100
0010
0100
1000
0001
0100
0100
,
0100
0010
1000
0001
0010
0100
1000
1000
,
1000
0000
0001
0000
0100
0000
0010
0000
1000
0000
M002
0000
0000
0003
000M
0000
,
1000
0000
0100
0000
0010
0000
0100
0000
0010
0000
0001
0000
1000
0000
0010
0100
,
0001
0000
0010
0000
0100
0000
1000
0000
0001
0000
0100
0000
0010
0000
0100
0001
,
0010
0000
0100
0000
0010
0000
0001
0000
1000
0000
0100
0000
1000
0000
0010
0100
,
0001
1000
0100
1000
0010
0000
MMMM
0000
,
0100
0000
0001
0000
1000
0000
0010
0000
1000
0000
0100
0000
1000
0000
0001
0100
,
0010
0000
0100
0000
0001
0000
0100
0000
0010
0000
0100
0000
0010
0000
1000
0001
,
0010
0000
0100
0000
0010
0000
0001
0000
1000
0000
0001
0000
0100
0000
0010
0100
,
0001
0000
1000
0000
0100
0000
1000
0000
0010
0000
0100
0000
0010
1000
0010
0100
,
0010
0000
1000
0000
0100
0000
0010
0000
0001
0000
0100
0000
0001
0000
0100
0001
,
0010
0000
0100
0000
1000
0000
0100
0000
1000
0000
0001
0000
1000
0000
0001
0100
,
0001
0000
1000
0000
0010
0000
0100
0000
0010
0000
1000
0000
0001
0000
0010
0001
,
0100
1000
0100
0001
1000
0000
MMMM
0000
,
1000
0000
0100
0000
1000
0000
0010
0000
0100
0000
0001
0000
0010
0000
0001
0100
,
0001
0000
1000
0000
0100
0000
0001
0000
0100
0000
1000
0000
0010
0000
0100
0001
,
0010
0000
1000
0000
0010
0000
0001
0000
0100
0000
0010
0000
1000
0000
0001
0010
,
0100
0000
1000
0000
0100
0000
1000
0000
0100
0000
1000
0000
0001
1000
0100
1000
,
0001
0000
0000
1000
0000
0000
0010
0000
0100
0000
0000
0001
0000
0000
0010
0000
,
0001
0000
0000
0100
0000
0000
0010
0000
1000
0000
0000
0100
0000
0000
1000
0100
,
0010
0000
0000
0001
0000
0000
0100
0000
0010
0000
0000
0100
0000
0000
0001
0000
,
1000
0100
1000
0010
0100
0001
1MM1
0000
,
1000
0000
0000
0100
0000
0000
1000
0000
0001
0000
0000
0100
0000
0000
0010
0000
,
0100
0000
0000
0010
0000
0000
1000
0000
0100
0000
0000
0010
0000
0000
0001
0010
,
0100
0000
0000
1000
0000
0000
0001
0000
0100
0000
0000
0010
0000
0000
0100
0000
,
0001
0000
1000
0000
0100
0000
1000
0000
0010
0000
0100
0000
0001
0010
0001
0010
,
0001
0000
0000
0010
0000
0000
0100
0000
1000
0000
0000
0001
0000
0000
0100
0000
,
0010
0000
0000
0100
0000
0000
0001
0000
1000
0000
0000
0100
0000
0000
0010
0100
,
1000
0000
0000
0010
0000
0000
0100
0000
0010
0000
0000
1000
0000
0000
0001
0000
,
1000
0100
1000
0010
0100
0020
0000
M000
,
1030
0000
0100
0000
1000
0000
0010
0000
1010
0000
0000
0101
0000
0000
0011
0000
,
0011
0000
0001
0000
0100
0000
0010
0000
0110
0000
0000
1001
0000
0000
1100
0000
,
1100
0000
1000
0000
0001
0000
0100
0000
0110
0000
0000
0011
0000
0000
0110
0000
,
0110
0000
0000
0000
0100
0000
0000
1000
0000
0000
0010
0000
0100
0010
0100
0010
,
0100
0000
0001
0000
1000
0000
0100
1000
0010
0000
0100
0000
0011
0000
0000
0000
,
0100
0000
1000
0000
0001
0000
0100
0010
0100
0000
0001
0000
1010
0000
0000
0000
,
0100
0000
0001
0000
1000
0000
0100
0010
0001
0000
0100
0000
0011
0000
0000
0000
,
0100
0000
1000
0000
0010
0000
0100
0001
0010
0000
0100
0000
1000
0001
0100
0001
,
1000
0000
0100
0000
1000
0000
0010
0100
1000
0000
0100
0000
1010
0000
0000
0000
,
0001
0000
0010
0000
1000
0000
0010
0100
0001
0000
0100
0000
0011
0000
0000
0000
,
0010
0000
0100
0000
0010
0000
1000
0010
0001
0000
0010
0000
1010
0000
0000
0000
,
0010
0000
0100
0000
0001
0000
0010
1000
0010
0000
0001
0000
0100
0010
1000
0010
,
0200
0002
0000
0000
,
0020
2000
0300
0033
,
0002
0000
0010
0010
0000
0000
3003
0000
,
1000
0000
0001
0001
0000
0010
0001
1000
,
0200
0000
1000
2000
0000
0000
0000
0000
,
0000
3300
0000
0000
,
1000
0010
0001
0100
,
0001
0010
1000
0100
,
0022
0000
0000
0000
,
0000
0000
0000
0000
0000
0000
0000
0000
0033
0000
0001
0000
0100
0000
0010
1000
,
0100
0000
0000
0010
0000
0000
0001
0000
0100
0000
0000
0001
0000
0000
1000
0000
,
0100
0000
0000
0010
0000
0000
0100
0000
1000
0000
0000
0001
0000
0000
0100
0010
,
1000
0000
0000
0001
0000
0000
0010
0000
0001
0000
0000
0100
0000
0000
0010
0000
,
1000
0100
1000
0010
0100
0001
1MM1
0000
,
0001
0000
0000
1000
0000
0000
0100
0000
1000
0000
0000
0010
0000
0000
0100
0000
,
0001
0000
0000
0010
0000
0000
0100
0000
0010
0000
0000
0001
0000
0000
1000
0100
,
1000
0000
0000
0010
0000
0000
0100
0000
0010
0000
0000
1000
0000
0000
0001
0000
,
0010
0000
0100
0000
1000
0000
0010
0000
0100
0000
0001
0000
1000
0001
0100
0001
,
1000
0000
0000
0100
0000
0000
1000
0000
0001
0000
0000
0010
0000
0000
1000
0000
,
0010
0000
0000
0001
0000
0000
0100
0000
0010
0000
0000
1000
0000
0000
0010
0100
,
0001
0000
0000
1000
0000
0000
0001
0000
0010
0000
0000
0001
0000
0000
0100
0000
,
0010
1000
0100
0010
0001
0200
0000
0000
,
0301
0000
0000
1000
0000
0000
0010
0000
1000
0000
0000
0001
0000
0000
0010
0000
,
0100
0000
0000
1000
0000
0000
0001
0000
0010
0000
0000
0001
0000
0000
0100
0010
,
1000
0000
0000
0001
0000
0000
0010
0000
0001
0000
0000
0100
0000
0000
0010
0000
,
4000
0400
0000
0000
0000
0000
0000
0000
0000
0000
0000
0000
0000
0000
0000
3300
,
0001
0000
0000
0000
;

//---------------dance-single - M. Simmons----------------
#NOTES:
     dance-single:
     M. Simmons:
     Beginner:
     1:
     0.135,0.197,0.053,0.000,0.000:
0000
0000
0000
0000
,
0000
0000
0000
0000
,
0000
0000
0000
0000
,
0000
0000
0000
0000
,
0000
0000
0000
0000
,
0000
0000
0000
0000
,
0000
0000
0000
0000
,
0000
0000
0000
0000
,
1000
0000
0000
0000
,
0100
0000
0000
0000
,
0010
0000
0000
0000
,
0001
0000
0100
0000
,
1001
0000
0000
0000
,
0001
0000
0000
0000
,
1000
0000
0000
0000
,
0100
0000
0010
0010
,
0010
0000
0000
0000
,
0100
0000
0000
0000
,
1000
0000
0000
0000
,
0001
0000
1000
0000
,
1001
0000
0000
0000
,
0100
0000
0000
0000
,
0001
0000
0000
0000
,
0010
0000
0100
0100
,
0100
0000
1000
0000
,
0010
0000
0100
0000
,
0010
0000
1000
0000
,
0001
0000
1000
0000
,
1001
0000
0000
0000
,
0001
0000
0000
0000
,
1000
0000
0000
0000
,
0100
0000
0010
0010
,
0010
0000
0100
0000
,
1000
0000
0001
0000
,
0100
0000
0001
0000
,
1000
0000
0100
0000
,
1000
0000
0000
0000
,
0010
0000
0000
0000
,
0100
0000
0000
0000
,
0001
0000
0000
0000
,
1000
0000
0000
0000
,
0010
0000
0100
0000
,
0100
0000
0000
0000
,
0010
0000
0000
0000
,
1000
0000
0000
0000
,
0100
0000
0100
0000
,
1000
0000
0000
0000
,
0001
0000
0000
0000
,
1001
0000
0001
0000
,
0010
0000
0100
0000
,
0010
0000
0001
0000
,
1000
0000
0100
0000
,
1000
0000
0000
0000
,
0010
0000
0000
0000
,
0100
0100
0100
0000
,
0010
0010
0010
0000
,
0000
0000
0000
0000
,
0000
0000
0000
0000
,
1000
0000
0100
0000
,
1000
0000
0010
0000
,
0100
0000
0001
0000
,
0010
0000
0100
0000
,
0110
0000
0000
0000
,
1000
0000
0000
0000
,
0010
0000
0000
0000
,
0100
0000
0001
0001
,
0001
0000
1000
0000
,
0100
0000
1000
0000
,
0010
0000
0100
0000
,
0001
0000
1000
0000
,
0100
0000
0000
0000
,
1000
0000
0000
0000
,
0010
0000
0000
0000
,
0100
0000
0000
0000
,
0110
0000
0000
0000
;

//---------------dance-single - M. Simmons----------------
#NOTES:
     dance-single:
     M. Simmons:
     Medium:
     6:
     0.456,0.524,0.168,0.239,0.115:
0000
0000
0000
0000
,
0000
0000
0000
0000
,
0000
0000
0000
0000
,
0000
0000
0000
0000
,
0000
0000
0000
0000
,
0000
0000
0000
0000
,
0000
0000
0000
0000
,
0000
0000
0000
0000
0000
0000
0000
0000
0000
0000
000M
00M0
0M00
M000
0000
0000
,
0001
0000
1000
0000
0100
0000
0000
1000
0010
0000
0100
0000
0010
0000
0000
0000
,
0100
0000
0001
0000
1000
0000
0000
0010
1000
0000
0001
0000
0010
0000
0000
0000
,
0100
0000
1000
0000
0001
0000
0000
0100
0001
0000
0010
0000
0001
0000
0000
0000
,
2000
3200
0320
0031
,
1000
0000
0010
0000
0100
0000
0000
0010
1000
0000
0100
0000
1000
0000
0000
0000
,
0001
0000
0100
0000
0001
0000
0000
0010
0100
0000
0010
0000
0001
0000
0000
0000
,
0100
0000
0010
0000
1000
0000
0000
0010
0100
0000
0001
0000
1000
0000
0000
0000
,
0002
0000
2003
0000
3200
0000
2300
0010
,
3010
0000
0100
0000
0001
0000
0000
1000
0100
0000
1000
0000
0010
0000
0000
0000
,
0100
0000
0010
0000
1000
0000
0000
0001
0010
0000
0100
0000
0010
0000
0000
0000
,
0100
0000
1000
0000
0001
0000
0000
0100
0001
0000
0010
0000
0001
0000
0000
0000
,
0002
2003
3020
0130
,
0100
0000
0001
0000
0010
0000
0000
0001
1000
0000
0100
0000
1000
0000
0000
0000
,
0010
0000
0100
0000
0001
0000
0000
0100
0010
0000
1000
0000
0001
0000
0000
0000
,
1000
0000
0100
0000
1000
0000
0000
0010
0100
0000
0010
0000
1000
0000
0000
0000
,
0001
0000
0000
0010
0000
0000
0100
0000
0010
0000
0000
0001
0000
0000
0010
0000
,
0100
0000
1100
0000
0000
1000
0001
0000
,
1010
0000
0001
0000
0000
1000
0010
0000
,
0110
0000
0001
0000
0000
0010
0100
0000
,
2000
3020
0230
0301
,
1010
1000
0001
0000
0000
1000
0001
0000
,
0011
0001
1000
0000
0000
0001
0100
0000
,
0011
0010
0100
0000
0000
1000
0001
0000
,
2000
0000
3020
0000
0230
0000
0320
1000
,
0130
0001
0010
0100
0000
0000
0100
0000
,
0100
1000
0001
0100
0000
0000
0001
0000
,
0010
0100
0010
0001
0000
0000
1000
0000
,
0010
0100
0001
1000
0000
0004
0000
0000
,
1003
0100
1010
0101
,
0001
0010
1100
0011
,
1000
0000
0000
0100
0000
0000
0010
0000
0100
0000
0000
1000
0000
0000
0001
0000
,
0020
0001
0000
1000
,
0031
0000
1000
0000
0000
0010
0010
0000
,
0100
0000
0001
0000
0000
1000
1000
0000
,
0100
0000
1000
0000
0000
0010
0010
0000
,
0100
0100
0010
0010
,
1000
0100
1000
0001
,
0010
0100
0010
0001
,
1000
0100
1000
0010
,
0100
0001
1000
0001
,
0010
0000
0100
1000
0000
2000
0000
0000
,
3001
0000
0010
0001
0000
0002
0000
0000
,
1003
0000
0100
0010
0000
0020
0000
0000
,
0130
0000
1000
0001
0000
0002
1000
0100
,
1003
0000
1000
0010
0000
0020
0000
0000
,
0130
0000
0001
1000
0000
0000
0000
0000
,
0001
1000
0001
1000
,
1001
0101
1001
0101
,
2002
0000
0000
0000
,
0000
0000
3003
0000
,
0001
0000
0100
0000
0010
0000
1000
0000
0000
0100
0000
0000
0000
0000
0000
0000
,
1000
0001
0100
0010
0100
0000
0000
0000
,
0010
0000
1000
0000
0001
0000
0010
0000
0000
0100
0000
0000
0000
0000
0000
0000
,
2000
0100
0100
0000
0000
0010
3010
0000
,
0100
0000
0001
0000
0010
0000
0100
0000
0000
0010
0000
0000
0000
0000
0000
0000
,
0001
1000
0100
1000
0010
0000
0000
0000
,
0100
0000
0010
0000
1000
0000
0001
0000
0000
1000
0000
0000
0000
0000
0000
0000
,
0001
0000
1100
0000
0010
0100
0010
0100
,
0010
0000
0101
0000
,
0001
0000
0000
0100
0001
0000
0100
0000
0001
0000
0000
0000
0000
0000
0000
0000
,
1100
0000
1010
0000
,
1000
0000
0000
0010
1000
0000
0001
0000
1000
0000
0200
0000
0000
0000
0000
0000
,
1300
0010
0100
0010
,
1000
0001
0100
0001
,
1000
0000
0000
0100
0000
0000
0010
0000
0100
0000
0000
1000
0000
0000
0001
0000
,
4000
0000
0000
0000
,
3001
0000
0000
0000
;

//---------------dance-single - M. Simmons----------------
#NOTES:
     dance-single:
     M. Simmons:
     Easy:
     3:
     0.286,0.295,0.071,0.133,0.000:
0000
0000
0000
0000
,
0000
0000
0000
0000
,
0000
0000
0000
0000
,
0000
0000
0000
0000
,
0000
0000
0000
0000
,
0000
0000
0000
0000
,
0000
0000
0000
0000
,
0000
0000
0000
0000
,
1000
0100
0010
0000
,
0001
0010
0100
0000
,
1000
0100
1000
0000
,
0020
0000
0100
0030
,
0100
0001
1000
0000
,
0100
1000
0001
0000
,
0100
0010
0100
0000
,
0002
1000
1000
1003
,
1000
0001
0010
0000
,
0100
1000
0010
0000
,
0100
0010
1000
0000
,
0002
0000
1000
0003
,
1000
0100
1000
0000
,
0010
0100
0001
0000
,
0100
0010
0100
0000
,
0010
1000
1001
1001
,
0001
1000
0100
1000
,
0010
0100
0010
0100
,
0001
1000
0001
1000
,
0020
0100
0100
0030
,
0100
0001
0100
0001
,
0010
0001
0010
0001
,
1000
0001
1000
0001
,
0100
0010
1000
0001
,
0100
0001
1000
0100
,
1000
0001
0100
0010
,
0100
0010
1000
0001
,
0002
0000
1000
0000
,
1003
0100
1000
0010
,
0100
0001
0100
0010
,
1000
0001
1000
0001
,
1001
0000
0000
0000
,
1000
0100
1000
0000
,
0010
0100
0001
0001
,
0010
0100
1000
0000
,
0010
0100
0001
0001
,
1000
0100
1000
0000
,
0100
0010
0001
0001
,
0010
0001
0100
0000
,
0010
1000
0001
0001
,
1001
2000
0000
0000
,
3001
1002
0000
0000
,
1003
0120
0000
0000
,
0130
0210
0000
0000
,
0301
0000
1000
0000
,
0100
0000
1000
0000
,
0010
0010
0010
0010
,
0100
0100
0100
0100
,
0200
0000
0000
0000
,
0000
0000
0000
0000
,
0301
1000
0100
0000
,
0010
0100
1000
0000
,
0010
0100
0001
0000
,
2000
0000
0001
3000
,
0001
1000
0100
0000
,
1000
0010
0100
0000
,
0010
0100
0001
0000
,
1000
0100
1000
1000
,
0010
0100
0001
0000
,
1000
0100
1000
0000
,
0010
0100
0010
0000
,
0200
0000
0020
0330
,
0100
0001
1000
0100
,
1000
0010
0100
0010
,
1000
0001
0010
0100
,
2002
0000
0000
0000
,
3003
0000
0000
0000
;

//---------------dance-double - Oren G.----------------
#NOTES:
     dance-double:
     Oren G.:
     Challenge:
     11:
     0.826,0.852,0.602,0.142,0.589:
00000000
00000000
00000000
00000000
,
00000000
00000000
00000000
00000000
,
00000000
00000000
00000000
00000000
,
00000000
00000000
00000000
00000000
,
00000000
00001000
00100000
00010000
01000000
00001000
00100000
00010000
,
10000000
10000000
00100000
00010000
00010000
00001000
00000100
00000010
,
00010000
00000100
00001000
00000010
00010000
00000100
00001000
00000010
,
00000100
00000000
00000001
00000000
00000100
00000000
00001000
00000000
00010000
00000000
00000400
00040000
00000000
00000000
00030300
00000000
,
00001000
00100000
00000100
00010000
00001000
00100000
00000100
00010000
,
00000010
00000000
00000010
00000000
00000100
00000000
00001000
00000000
00001000
00000000
00010000
00000000
00000010
00001000
00000010
00000000
,
00010000
00001000
00100000
01000000
00010000
00001000
00100000
01000000
,
10000000
00000000
01000000
00000000
00010000
00000000
00001000
00100000
00000000
00001000
00010000
00000000
00010010
00000000
00000000
00000000
,
00000000
00100000
00010000
01000000
00001000
00100000
00010000
01000000
,
00100000
00000000
00100000
00000000
00010000
00000000
00001000
00000000
00001000
00000000
00000010
00000000
00000100
00001000
00000100
00000000
,
00100000
00001000
00010000
00000010
00100000
00001000
00010000
00000010
,
00001000
00000000
00001000
00000000
00000100
00000000
00000010
00001000
00000000
00010000
00001000
00000000
00100000
00010000
00100000
01000000
,
10000000
00100000
01000000
00010000
10000000
00100000
01000000
00010000
,
00100000
00000000
00100000
00000000
00001000
00000000
00010000
00000000
00010000
00000000
00000010
00000000
00001000
00000001
00001000
00000000
,
00000010
01000000
00001000
00010000
00000010
01000000
00001000
00010000
,
00100000
00000000
00100000
00000000
01000000
00000000
00010000
10000000
00000000
00100000
01000000
00000000
01010000
00000000
00000000
00000000
,
00000000
10000000
01000000
00100000
00001000
01000000
00100000
10000000
,
01000000
00000000
01000000
00000000
00010000
00000000
00001000
00000000
00001000
00000000
01000000
00000000
00010000
00100000
00010000
00000000
,
01000000
00001000
00010000
00000100
01000000
00001000
00010000
00000100
,
00100000
00000000
00000100
00000000
01000000
00000000
00000010
00000000
00010000
00000000
00011000
00000000
00001000
01000000
00100000
10000000
,
10100000
00000000
00100000
01000000
00000000
00001000
00010000
00000000
00100010
00000000
00000000
00010100
00000000
00000000
00001000
00000000
,
00000101
00000000
00001000
00000010
00000000
01000000
00001000
00000000
00110000
00000000
00000000
00010100
00000000
00000000
00001000
00000000
,
01010000
00000000
10000000
01000000
00000000
00100000
00001000
00000000
01010000
00000000
00000000
00010010
00000000
00000000
00001000
00000000
,
00001001
00000000
00000001
00000000
00000100
00000000
00000010
00010000
00001000
00100000
00010000
00000000
01001000
00000000
00000000
00000000
,
00010000
00000000
10000000
00000000
00010000
01000000
00001000
00000000
00011000
00000000
00000000
00010100
00000000
00000000
00000010
00000000
,
00001001
00000000
00000001
00000000
00000100
00000010
00001000
00000000
00011000
00000000
00000000
00110000
00000000
00000000
01000000
00000000
,
10010000
00000000
10000000
00000000
00100000
01000000
00010000
00000000
00011000
00000000
00000000
00001010
00000000
00000000
00000001
00000000
,
00001100
00000000
00000100
00000000
00010000
00000000
00001000
00100000
00000000
00010000
01000000
00000000
00001000
00100000
00010000
10000000
,
01000000
00000000
0M000000
00010000
00000000
00000000
00001000
00000000
10001000
00000000
00000000
01010000
00000000
00000000
01000000
00000000
,
00000010
00000000
000000M0
00001000
00000000
00000000
00000001
00000000
00010001
00000000
00000000
00001100
00000000
00000000
00000100
00000000
,
00100000
00000000
00000M00
00010000
00000000
00000000
01000000
00000000
01000100
00000000
00000000
00010010
00000000
00000000
00000100
00000000
,
00000001
00000000
0000000M
00001000
00000000
00000000
00000001
00000000
00010001
00000000
00001000
00000010
00010000
00001000
00100000
00010000
,
01000000
00000000
00100000
00000000
10000000
00000000
01000000
00000000
01100000
00000000
00000000
00101000
00000000
00000000
00100010
00000000
,
00001001
00000000
00000001
00000000
00000010
00000000
00000100
00000000
00010100
00000000
00000000
00100100
00000000
00000000
00110000
00000000
,
01000100
00000000
01000000
00000000
00010000
00000000
00100000
00000000
00101000
00000000
00000000
00010100
00000000
00000000
01001000
00000000
,
00100000
00000000
01000000
00000000
00010000
00000000
01000000
00100000
00000000
00001000
00010000
00000000
00000100
00001000
00000001
00000100
,
00000020
0000MM0M
00010000
00000000
00000100
00000000
00000031
00000000
,
00001001
00010010
00001100
00102000
,
02003000
00001000
00010000
13000000
,
10010000
01100000
01001000
00120000
,
02030000
00010000
00001000
03100000
,
00011000
00001100
01001000
00020010
,
00030200
00000000
00000000
00000000
00001000
00000000
00000000
00000000
00010000
00000000
00000000
00000000
00000310
00000000
00000001
00000100
,
00000000
00000010
00001000
00000000
00000100
00000010
00000000
00000100
00010000
00000000
00000010
00001000
00000000
00000001
00001000
00000010
,
00010000
00001000
00000020
00000000
00000001
00000000
00001030
00000000
,
00010000
00100000
20000000
00000000
01000000
00000000
30100000
00000000
,
00010000
00001000
00000200
00000000
00000001
00000000
00001300
00000000
,
00010000
00000010
00002000
00000000
00003200
00000000
00000320
00000000
,
00001030
00010000
00200000
00000000
10000000
00000000
00310000
00000000
,
00001000
00100000
02000000
00000000
00010000
00000000
13000000
00000000
,
00000000
00100000
01000000
00000000
00010000
00100000
00000000
00001000
01000000
00000000
00010000
10000000
00000000
01000000
00100000
00000000
,
00010000
01000000
00010000
01000000
00001000
00010000
00001000
00010000
00000010
00001000
00000001
00000010
00000100
00001000
00000001
00000100
,
00000040
00004000
00000000
00000000
00000000
00000000
00000000
00000000
00000000
00000000
00000000
00000000
00000000
00000000
00000000
00000000
,
00000000
00000000
00000000
00000000
00000000
00000000
00000000
00000000
00003030
00000000
00000110
00000000
00000101
00000000
00001000
00000100
,
00000010
00000000
00000001
00000100
00000010
00001000
00000001
00000000
00001010
00000000
00000000
00011000
00000000
00000000
00100000
00000000
,
01010000
00000000
00100MM0
10000000
00010000
00100000
01000000
00000000
10010000
00000000
00000000
01100000
00000000
00000000
10000000
00000000
,
00110000
00000000
00001000
00010000
00000010
00001000
00000001
00000000
00000110
00000000
00000000
00001001
00000000
00000000
00000010
00000000
,
00001100
00000000
00001000
00000000
00001010
00000000
00000100
00000001
00001000
00000010
00010000
00001000
02000000
03000000
00000000
00000000
,
00010000
00000000
10000000
01000000
00100000
00000000
00010000
10000000
00100000
01000000
00010000
00000000
00100000
00000000
00001000
00000000
,
00010000
00000000
00000010
00001000
00000001
00000000
00000010
00000100
00001000
00000001
00000100
00000000
00000010
00000000
00001000
00000000
,
00000100
00000000
00000010
00000001
00001000
00000000
00000010
00010000
00001000
01000000
00010000
00000000
00100000
00000000
01000000
00000000
,
10000000
00000000
00010000
00100000
00001000
00000000
00010000
00001000
01000000
00010000
10000000
00000000
01000000
00100000
00010000
01000000
,
00001000
00000000
00010000
00000010
00000000
00001000
00000100
00000000
00000010
00000000
00000001
00000100
00000000
00000010
00010000
00000000
,
00000100
00000000
00001000
00000010
00000000
01000000
00001000
00000000
00100000
00000000
01000000
10000000
00000000
00001000
01000000
00000000
,
00010000
00000000
00100000
00001000
00000000
00010000
00000100
00000000
00000010
00000000
00000001
00000100
00000000
00000010
00010000
00000000
,
00001000
00000000
00100000
01000000
00000000
10000000
00010000
00000000
01000000
00000000
00001000
00010000
00000010
00001000
00000001
00000010
,
00000100
00000000
00001000
00000001
00000100
00000010
00001000
00000000
00000100
00000000
00010000
00001000
00100000
00010000
10000000
00000000
,
00100000
00000000
01000000
00010000
10000000
01000000
00100000
00000000
00010000
00000000
01000000
00001000
00010000
00000010
00001000
00000000
,
00000001
00000000
00000010
00000100
00001000
00000001
00000100
00000000
00000010
00000000
00001000
00000100
00010000
00001000
00100000
00000000
,
01010000
00000000
10000000
00000000
00100000
00000000
01000000
00010000
01000000
00001000
00010000
00000100
00001000
00000000
00001001
00000000
,
00000110
00000000
00000000
00000000
;
