#TITLE:Megascorcher;
#SUBTITLE:;
#ARTIST:Machinae Supremacy;
#TITLETRANSLIT:;
#SUBTITLETRANSLIT:;
#ARTISTTRANSLIT:;
#GENRE:Metal;
#CREDIT:Sync by HellRazoR;
#BANNER:Megascorcher-bn.png;
#BACKGROUND:Megascorcher-bg.png;
#LYRICSPATH:;
#CDTITLE:;
#MUSIC:Megascorcher.ogg;
#OFFSET:-0.407;
#SAMPLESTART:12.700;
#SAMPLELENGTH:12.160;
#SELECTABLE:YES;
#DISPLAYBPM:160.000:40.000;
#BPMS:0.000=160.000,290.000=120.000,291.500=80.000,293.500=40.000,294.500=160.000;
#STOPS:;
#BGCHANGES:0.000=Megascorcher-bg.png=1.000=0=0=1=====,
16.000=In The Groove Rebirth/410_JB_HD.mpg=1.000=1=0=1=SongBgWithMovieViz==CrossFade==,
25.000=Megascorcher-bg.png=1.000=0=0=1=====,
27.500=Megascorcher-bg.png=1.000=0=0=1====0^0^1^1=,
28.500=Megascorcher-bg.png=1.000=0=0=1====0^1^0^1=,
29.500=Megascorcher-bg.png=1.000=0=0=1====1^0^0^1=,
30.500=Megascorcher-bg.png=1.000=0=0=1=====,
34.000=In The Groove Rebirth/317_JB_HD.mpg=1.000=0=0=1=====,
50.000=In The Groove Rebirth/270_JB_HD.mpg=1.000=0=0=1=====,
66.000=In The Groove Rebirth/255_JB_HD.mpg=1.000=0=0=1=====,
77.500=In The Groove Rebirth/255_JB_HD.mpg=0.400=0=0=1=Checkerboard1File2x2====,
82.000=In The Groove Rebirth/204_JB_HD.mpg=1.000=0=0=1=====,
98.000=In The Groove Rebirth/410_JB_HD.mpg=1.000=0=0=1=====,
109.500=In The Groove Rebirth/410_JB_HD.mpg=0.400=0=0=1=Kaleidoscope2x2====,
114.000=In The Groove Rebirth/1135_JumpBack.mpg=1.000=0=0=1=====,
130.000=In The Groove Rebirth/317_JB_HD.mpg=1.000=0=0=1=====,
146.000=In The Groove Rebirth/255_JB_HD.mpg=1.000=0=0=1=====,
162.000=In The Groove Rebirth/270_JB_HD.mpg=1.000=0=0=1=====,
178.000=In The Groove Rebirth/204_JB_HD.mpg=1.000=0=0=1=====,
194.000=In The Groove Rebirth/308_JB_HD.mpg=1.000=0=0=1=====,
210.000=In The Groove Rebirth/308_JB_HD.mpg=0.400=0=0=1=Kaleidoscope2x2====,
226.000=Megascorcher-bg.png=1.000=0=0=1===FadeUp==,
240.000=In The Groove Rebirth/255_JB_HD.mpg=1.000=0=0=1=====,
258.000=In The Groove Rebirth/410_JB_HD.mpg=1.000=0=0=1=====,
274.000=In The Groove Rebirth/204_JB_HD.mpg=0.400=0=0=1=Kaleidoscope2x2====,
288.000=Megascorcher-bg.png=1.000=0=0=1=====,
290.000=Megascorcher-bg.png=1.000=0=0=1====0^1^0^1=,
291.500=Megascorcher-bg.png=1.000=0=0=1====1^0^0^1=,
293.500=Megascorcher-bg.png=1.000=0=0=1====0^0^1^1=,
294.000=Megascorcher-bg.png=1.000=0=0=1====0^1^0^1=,
294.500=Megascorcher-bg.png=1.000=1=0=1===CrossFade==,
99999=-nosongbg-=1.000=0=0=0 // don't automatically add -songbackground-
;
#BGCHANGES2:25.000=white flash=1.000=0=0=1=====,
34.000=white flash=1.000=0=0=1=====,
77.500=white flash=1.000=0=0=1=====,
109.500=white flash=1.000=0=0=1=====,
173.500=white flash=1.000=0=0=1=====,
210.000=white flash=1.000=0=0=1=====,
288.000=white flash=1.000=0=0=1=====,
;
#KEYSOUNDS:;

//---------------dance-single - Brandon H.----------------
#NOTES:
     dance-single:
     Brandon H.:
     Hard:
     8:
     0.519,0.755,0.361,0.570,0.092:
0000
0000
0000
0000
,
0000
0000
0000
0000
,
0000
0000
0000
0000
,
0000
0000
0000
0000
,
0001
0101
0000
0001
1000
1100
0000
1000
,
0010
1000
0000
0001
0100
0010
1000
0001
,
0000
1000
1010
0000
0110
0000
0000
1100
,
0000
1001
0000
0011
0000
2200
0000
0000
,
0000
0000
3300
0000
0001
1000
0001
1000
,
0010
0100
0002
1000
0003
1000
0002
0100
,
0003
0010
0001
0010
0000
0001
1000
0010
,
0100
0001
0010
0200
0000
0300
1000
0040
,
0000
0000
0000
0030
0000
1000
0010
1000
,
0001
0010
0100
2000
0000
3010
1000
0200
,
0000
0310
0001
0100
0000
0100
0001
1000
,
0010
0100
0001
2002
0000
3003
1000
4040
,
0000
0000
3030
0000
1001
0000
0000
0101
,
0000
0000
0000
0000
0000
0011
0000
0000
,
1001
0000
2001
0001
3001
0000
0000
0110
,
0000
0000
0000
0000
0000
0000
0040
4000
0000
0000
0000
0000
0000
0000
0000
0000
,
0000
0000
3030
0000
1001
0000
0000
0110
,
0000
0000
0000
0000
0000
0011
0000
0000
,
1100
0000
0010
0001
0000
0100
0000
0000
,
0010
0000
1000
0001
0200
0000
0301
0010
,
0000
0001
0022
0033
1010
0000
0000
1001
,
0000
0000
0000
0000
0000
0110
0000
0000
,
1010
0000
0001
1000
0200
0000
0000
0310
,
0000
0000
0000
0000
0000
0000
4000
0004
0000
0000
0000
0000
0000
0000
0000
0000
,
0000
0000
3003
0000
0011
0000
0000
0101
,
0000
0000
0000
0000
0000
0010
0000
0000
,
1000
0000
0100
0020
0000
0031
0000
0000
,
0100
0000
0010
0100
0001
0000
0010
0002
,
0000
0103
0101
0000
0000
0010
0001
0100
,
0010
1000
0001
0020
0000
0030
0100
2000
,
0000
3001
0200
0310
0000
0010
1000
0001
,
0100
0001
0101
0002
0000
0003
1100
4000
,
0000
0000
0000
3000
0000
0001
0010
0100
,
1000
0010
0200
0001
0000
0000
0301
1000
,
0000
1000
0001
0200
0000
0310
1000
0001
,
0100
0010
0100
0002
0000
1003
0002
4000
,
0000
0003
3000
0000
0020
0000
0000
0200
,
0000
0030
0000
0000
0000
0301
0010
0100
,
1000
0010
0100
0001
2000
0000
0000
0020
,
0000
0000
3000
0000
0030
0000
4000
0400
0000
0000
0000
0000
0000
0000
0000
0000
,
0000
0000
3300
0000
0002
0000
0000
0200
,
0000
0003
0000
0000
0000
0310
1000
0100
,
0010
0001
1000
0001
0200
0000
0000
1000
,
0000
0000
0000
0000
0320
0000
1030
0200
,
0000
0000
0010
0000
0310
0000
0000
0000
1000
0000
0000
0001
0000
0000
0001
0000
,
1000
0000
0000
1000
0000
0000
1000
0000
0001
0000
0000
0001
0000
0000
0100
0000
,
0010
0000
0000
1000
0000
0000
0001
0000
0100
0000
0000
0010
0000
0000
0010
0000
,
0200
0000
0001
0300
0000
0000
0220
0000
0000
0000
0030
0000
0000
0000
0000
0000
,
0002
0000
0000
0000
0000
0000
0303
0000
0001
0000
0000
1000
0000
0000
0100
0000
,
1000
0000
0000
0001
0000
0000
0100
0000
0001
0000
0000
0100
0000
0000
0010
0000
,
1000
0000
0000
0001
0000
0000
1000
0000
2002
0000
0000
0000
0000
0000
0000
0000
,
3000
0000
0000
0000
0020
0003
0000
0000
,
0200
0030
0000
0000
1000
00M0
1000
000M
,
1000
000M
1000
00M0
1000
00M0
1000
000M
,
1000
000M
1000
00M0
1000
000M
1000
00M0
,
1000
000M
1000
00M0
1000
00MM
1300
0000
,
1000
0001
1000
0000
0000
0000
0000
0000
0001
1000
0001
0000
0000
0000
1000
0001
,
2000
0000
0000
0000
3010
0000
0000
0000
0100
0010
0100
0000
0000
0000
0001
0100
,
0002
0000
1000
0000
1003
0000
0000
0000
1000
0010
1000
0000
0000
0000
0001
0100
,
0002
0000
0000
0000
0013
0000
0000
0000
0100
0010
0100
0000
0000
0000
1000
0001
,
2000
3000
0012
0000
0013
0001
0001
0020
,
0000
0100
0100
0130
0000
1000
0010
1000
,
1002
0000
1003
0000
0001
0100
0100
0002
,
0000
0010
0010
0013
0000
0010
0100
1000
,
1200
0000
0000
0000
0310
0000
0000
0000
0000
0000
0001
0010
0002
0000
0100
0000
,
0003
2000
3002
2003
3000
0010
0100
0100
,
0020
0000
1030
0000
0010
1000
0010
0020
,
0000
0100
0100
0130
0101
0000
0011
0000
,
0220
0000
0000
0330
2002
0000
3003
0220
,
0000
0000
0000
0000
0330
0000
2002
3003
0220
0330
1002
0000
0000
0000
10M0
0000
,
0000
1M00
0000
10M0
0000
2MM0
0000
0MM0
,
3003
0000
0000
0000
;

//---------------dance-double - D. Bernardone----------------
#NOTES:
     dance-double:
     D. Bernardone:
     Easy:
     3:
     0.226,0.340,0.184,0.143,0.000:
00000000
00000000
00000000
00000000
,
00000000
00000000
00000000
00000000
,
00000000
00000000
00000000
00000000
,
00000000
00000000
00000000
00000000
,
10000000
00000000
01000000
00100000
,
00001000
00000000
00010000
00000010
,
00000100
00000110
00001001
00000000
,
00000000
00011000
00000000
00000000
00000000
20020000
00000000
00000000
,
00000000
00000000
00030000
31000000
,
00000000
00100000
00000000
00001000
,
00010000
00000100
00000000
00000010
,
00000001
00000010
00000100
00000000
,
00001000
00000000
00000000
00000010
,
00000100
00001000
00010000
00000000
,
00001000
00100000
00000000
00010000
,
01000000
00100000
01000000
00000000
,
00010000
10000000
00100000
00000000
,
00000000
00000000
00000000
00010000
,
00001000
00000000
00010000
00000000
,
00000100
00000000
00001001
00000000
,
00000000
00000000
00000001
00000000
,
00000000
00000000
00000000
00000100
,
00001000
00000000
00010000
00000000
,
00001000
00000000
00100000
00100000
,
01000000
00000000
10000000
00010000
,
10000000
00000000
00000000
01000000
,
00100000
00010000
01000000
00000000
,
00001000
00000000
00011000
00000000
,
00000000
00000000
00010000
00000100
,
00010000
00000000
00000010
00001000
,
00000100
00000100
00000000
00000010
,
00000001
00000100
00000100
00000000
,
00000010
00000000
00000000
00010000
,
00001000
00000000
00000000
01000000
,
00010000
00000000
00000000
00100000
,
01000000
00000000
00000000
10000000
,
00100000
00000000
00000000
00010000
,
00001000
00000000
00000000
00000100
,
00000010
00001000
00000000
00000001
,
00000010
00000000
00000000
00001000
,
00010000
00000000
00000000
00001000
,
01000000
00000000
00000000
00100000
,
00100000
00100000
00100000
00000000
,
10000000
00000000
10010000
00000000
,
00000000
00000000
00100000
00000000
,
00001000
00000000
00000000
00010000
,
00000010
00001000
00000010
00000000
,
00000100
00000000
00000001
00000001
,
00000010
00000000
00000002
00000000
,
00000203
00000000
00002300
00000000
,
00023000
00000000
02030000
00000000
,
23000000
00000000
30100000
01000000
,
10010000
00000000
20000000
00000000
,
30200000
00000000
00320000
00000000
,
00032000
00000000
00003020
00000000
,
00000000
00000000
00000031
00000100
,
00000001
00000010
00002002
00000000
,
00000000
00000000
00000000
00000000
,
00000000
00000000
00000000
00000000
,
00000000
00000000
00000000
00003003
,
00001001
00000000
00011000
00000000
,
10010000
00000000
00011000
00000000
,
00001001
00000000
00000110
00000000
,
00011000
00000000
01100000
00000000
,
00011000
00010000
00000110
00000000
,
00000000
00000000
00000001
00001000
,
00000001
00000000
00011000
00000000
,
00000000
00000000
00001000
00010000
,
00001000
00000000
10010000
00000000
,
00000000
00000000
10000000
01000000
,
00100000
00000000
01100000
00000000
,
00000000
00000000
00010000
01000000
,
00001000
00000000
00000000
00000000
00020000
00000000
00000000
0000M000
,
00000000
00000000
00000000
00000M00
00002000
00033000
00000000
00000000
;

//---------------dance-single - D. Bernardone----------------
#NOTES:
     dance-single:
     D. Bernardone:
     Beginner:
     1:
     0.109,0.123,0.075,0.000,0.000:
0000
0000
0000
0000
,
0000
0000
0000
0000
,
0000
0000
0000
0000
,
0000
0000
0000
0000
,
1000
0000
0000
0000
,
0001
0000
0000
0000
,
0000
1001
0000
0000
,
0000
0000
0000
0000
,
0000
0000
1000
0000
,
1000
0000
1000
0000
,
0000
0000
0001
0000
,
0001
0000
0001
0000
,
0000
0000
0100
0000
,
0100
0000
0100
0000
,
0000
0000
0010
0000
,
0010
0000
0010
0000
,
0000
0000
1001
0000
,
0000
0000
0000
0000
,
0000
0000
0100
0000
,
0000
0000
0110
0000
,
0000
0000
1000
0000
,
0000
0000
0000
0000
,
0000
0000
0100
0000
,
0000
0000
0010
0000
,
0001
0000
1000
0000
,
0000
0000
0000
0010
,
0000
0100
0000
0010
,
0000
0000
1001
0000
,
0000
0000
0001
0000
,
0000
0000
0000
0010
,
0000
0000
0100
0000
,
0000
0000
1000
0000
,
0000
0000
0010
0000
,
0100
0000
0100
0000
,
0000
0000
0001
0000
,
0001
0000
0001
0000
,
0000
0000
0010
0000
,
0010
0000
0010
0000
,
0000
0000
0100
0000
,
0100
0000
1000
0000
,
0100
0000
0010
0000
,
0000
0000
0000
0001
,
0000
0000
1000
0000
,
1000
0000
0110
0000
,
0000
0000
0001
0000
,
0000
0000
0000
0010
,
0000
0001
0000
0000
,
0000
0000
1000
0000
,
1000
0000
0010
0000
,
0000
0000
0010
0000
,
0000
0000
0100
0000
,
0000
0000
0100
0000
,
0000
0000
0001
0000
,
0000
0000
0001
0000
,
0000
0000
1000
0000
,
0000
0000
1001
0000
,
0000
0000
0110
0000
,
0000
0000
0000
0000
,
0000
0000
0000
0000
,
0000
0000
0000
0000
,
1000
0000
1000
0000
,
1000
0000
0001
0000
,
0001
0000
0001
0000
,
0100
0000
0100
0000
,
0100
0000
0010
0000
,
0000
0000
0010
0000
,
0000
0000
1000
0000
,
0000
0000
0100
0000
,
0000
0000
1000
0000
,
0000
0000
0001
0000
,
0000
0000
0100
0000
,
0000
0000
0010
0000
,
0000
0000
0110
0000
,
0000
0000
1001
0000
;

//---------------dance-single - D. Bernardone----------------
#NOTES:
     dance-single:
     D. Bernardone:
     Easy:
     4:
     0.276,0.375,0.151,0.184,0.000:
0000
0000
0000
0000
,
0000
0000
0000
0000
,
0000
0000
0000
0000
,
0000
0000
0000
0000
,
1000
0000
0100
1000
,
1000
1000
0000
0001
,
0100
0110
0110
0000
,
1001
1001
0010
0200
,
0000
0000
0000
1300
,
0001
0100
0010
0000
,
0100
0100
0000
0010
,
1000
0100
1000
0000
,
0002
0000
0103
0010
,
1000
0100
0010
0000
,
0001
0001
0000
0100
,
0001
1000
0100
0010
,
0002
0000
0000
0000
1003
0000
0000
0100
,
0000
0000
0000
0000
0000
0010
0000
0000
,
0100
0000
1000
0000
0001
0000
0000
0100
,
0000
0000
0000
0020
0000
0000
0000
0000
,
0000
0000
0000
0000
1030
0000
0000
0001
,
0000
0000
0000
0000
0000
0010
0000
0000
,
0001
0000
1000
0000
0200
1000
0000
0000
,
1000
0000
0320
0000
,
0001
0000
0000
0000
0031
0000
0000
0100
,
0000
0000
0000
0000
0000
0010
0000
0000
,
1000
0000
0100
0000
0010
0000
0000
0001
,
0000
0000
0000
2000
0000
0000
0000
0000
,
0000
0000
0000
0000
3010
0000
0000
0100
,
0000
0000
0000
0000
0000
0010
0000
0000
,
1000
0001
0020
0001
,
0001
0001
0230
1000
,
1000
1000
0310
0001
,
0100
1000
0100
0000
,
0010
0010
0000
1000
,
0100
0001
1000
0000
,
1001
0000
0000
0010
,
0001
0100
1000
0000
,
0100
0100
0000
0001
,
0010
1000
0001
0000
,
1001
0000
0000
0000
1000
0000
0000
0100
,
0000
0000
0000
0010
,
0001
0000
0100
0000
0001
0000
0000
0010
,
0000
0000
0000
0110
0000
0000
0000
0000
,
0000
0000
0000
0000
1000
0000
0000
0010
,
0000
0000
0000
0100
,
0001
0000
0010
0000
0001
0000
0000
0100
,
0000
0000
0020
0000
,
0000
0000
1030
0100
,
1000
0100
1000
0001
,
1000
0001
1000
0001
,
0100
0001
0100
0001
,
0200
0000
0310
1000
,
0010
1000
0010
0100
,
0010
0100
0020
0000
,
0000
0000
1030
0100
,
0010
0001
2002
0000
,
0000
0000
0000
0000
,
0000
0000
0000
0000
,
0000
0000
0000
3003
,
1001
0000
1001
0000
,
0110
0000
0110
0000
,
1001
1001
0110
0000
,
0110
0000
1001
0000
,
2001
0100
3001
0010
,
0000
0100
1000
0010
,
0200
0301
0010
0100
,
0100
1000
0010
0100
,
0020
1030
0100
0100
,
0100
0100
0010
0001
,
1000
0001
0010
0010
,
0010
0010
0100
1000
,
0001
0000
0000
0000
2000
0000
0000
3200
,
0000
0000
0000
0320
0032
2003
0000
3000
,
0000
0M00
0000
00M0
0000
0MM0
0000
0000
;

//---------------dance-single - D. Bernardone----------------
#NOTES:
     dance-single:
     D. Bernardone:
     Challenge:
     10:
     0.797,1.000,0.512,0.319,0.499:
0000
0000
0000
0000
,
0000
0000
0000
0000
,
0000
0000
0000
0000
,
0000
0000
0000
0000
,
1000
0100
0000
0001
0100
1000
0001
1000
,
0100
0001
0000
1000
0010
0001
0100
1000
,
0100
0000
0110
0000
0101
0000
0000
1010
,
0000
1100
0000
0110
0000
2002
0000
0000
,
3003
0000
1000
0010
0100
0000
0100
0000
1001
0000
0010
0000
0100
0000
0001
0010
,
0100
0000
0010
0100
1000
0000
0010
0000
0000
0000
0001
0010
0001
0000
0110
0000
,
0000
0000
1000
0100
1000
0000
0110
0000
0000
0000
0001
0100
0001
0000
0010
0100
,
1000
0010
0100
1001
0000
0001
1000
0102
,
0000
0000
0013
0100
1000
0000
1000
0000
0110
0000
0001
0000
0010
0000
0100
1000
,
0001
0000
1000
0001
0100
0000
0010
0000
0000
0000
1000
0100
0010
0000
0100
0000
,
0000
0000
1000
0010
0100
0000
1001
0000
0000
0000
0010
0000
0100
0000
0001
1000
,
0001
0010
0100
0011
0000
1000
0100
1010
,
0001
0000
0100
0010
0100
0010
1000
0001
1000
0000
0001
0000
0100
0000
1010
0000
,
0001
0010
0100
1000
0001
0110
0100
0001
,
1001
1000
0110
1100
1100
0001
0100
1001
,
0010
0000
1000
0000
0001
0000
0100
0010
0100
0010
0100
0010
0100
0010
0100
0010
,
0100
0000
0001
0010
0100
1000
0001
0010
0200
0000
1300
0000
0001
0000
1001
0000
,
0100
0010
1000
0100
1000
0101
1000
0100
,
0110
0001
0101
1010
1000
1100
0001
1000
,
1010
0001
1001
0110
1100
0000
0101
0101
,
0000
1010
1100
1000
0001
0100
0001
0100
,
1000
0010
1000
0010
0001
0100
0001
0100
,
1000
0010
1000
0010
0001
0100
0001
0100
,
1000
0000
0010
0000
0001
0000
0110
0000
1000
0001
1000
0001
1000
0001
1000
0001
,
1000
0001
1000
0001
1000
0001
1000
0001
0010
0000
0001
0000
0010
0000
1000
0000
,
0100
1000
0100
0001
0010
0001
0010
1000
,
0100
1000
0100
0001
0010
0001
0010
1000
,
0100
0001
0010
1000
0110
0000
1001
1001
,
0001
0100
0010
1000
0001
0100
0010
1000
0001
0000
2000
0000
3100
0000
0010
0001
,
0100
0000
0010
1000
0100
0000
1001
0000
0000
0000
0010
0100
0001
0000
1100
0000
,
0000
0000
0010
0100
1000
0000
0101
0000
0000
0000
0100
0001
0010
0000
0100
1000
,
0010
0100
0001
1010
0000
0001
1000
0011
,
0100
0000
1000
0001
1000
0000
0010
0000
0010
0000
0200
0000
0301
0000
1000
0100
,
0010
0000
0001
0100
0010
0000
0110
0000
0000
0000
0001
0010
0100
0000
0010
0000
,
0000
0000
0001
0100
0020
0000
0130
0000
0000
0000
0002
0000
1003
0000
0001
0010
,
0100
0000
1000
0010
0100
0000
0110
0000
0000
0000
1000
0000
0101
0000
1100
0000
,
0001
0000
1000
0010
0100
0001
1000
0010
0200
0000
0000
0000
0000
0300
0002
0000
,
0000
0000
0000
0000
0000
0000
0000
0000
0000
0003
0010
0000
0100
0000
1000
0000
,
0110
0000
0001
0000
1000
0000
0001
0000
0220
0000
0000
0000
0000
0330
2000
0000
,
0000
0000
0000
0000
0000
3000
0001
1000
0100
1000
0001
1000
0100
1000
0001
1000
,
0100
0000
1000
0100
0010
0001
1000
0100
0020
0000
0000
0000
0000
0030
0002
0000
,
0000
0000
0000
0000
0000
0000
0000
0000
0000
0000
0000
0003
0100
0000
0010
0000
,
1001
0000
0010
0000
0100
0000
0010
0000
2001
0000
0000
0000
0000
3000
0200
0000
,
0000
0000
0000
0000
0000
0000
0000
0300
0020
0000
0000
0030
1002
0003
0100
0000
,
0001
0010
0100
1000
0001
0010
0100
1000
0001
0100
0001
0100
0001
0100
0001
0100
,
1000
0100
1000
0100
1000
0100
1000
0100
0010
0100
0010
0100
0010
0100
0010
0100
,
0001
0100
0001
0100
0001
0100
0001
0100
1000
0100
1000
0100
1000
0100
1000
0100
,
0010
0000
0010
0100
0010
0000
1001
0000
0001
0100
1000
0100
0010
0100
0001
0100
,
0020
0000
0000
0000
0000
0000
0030
0000
1000
0100
1000
0100
1000
0100
1000
0100
,
0001
0100
0001
0100
0001
0100
0001
0100
0010
0100
0010
0100
0010
0100
0010
0100
,
1000
0100
1000
0100
1000
0100
1000
0000
0220
0000
0000
0000
0000
0000
0000
0000
,
0000
0000
0000
0000
0330
0000
0001
0000
1000
0000
0010
1000
0000
0001
0010
0000
,
0100
1000
0001
0010
0100
1000
0001
2000
0001
0000
0000
0000
0001
0000
0000
0000
,
0001
0001
0001
0001
,
0001
0001
0001
0001
,
0001
0001
0001
3001
,
1000
0100
0001
0000
0000
0000
0000
0000
1000
0100
0001
0000
0000
0000
0001
0010
,
1000
0000
0000
0000
0110
0000
0000
0000
0001
0100
1000
0000
0000
0000
1000
0010
,
0001
0000
0110
0000
0110
0000
0000
0000
0001
0010
1000
0000
0000
0000
1000
0100
,
0001
0000
0000
0000
0110
0000
0000
0000
1000
0010
0001
0000
0000
0000
0001
0100
,
2000
0000
3002
0000
0103
1000
0100
1000
,
0010
0010
0010
0010
1000
0100
0001
0010
,
0200
0000
2300
0000
3010
0001
0010
0001
,
0100
0100
0100
0100
0001
0010
1000
0100
,
0020
0000
0032
0000
1003
0100
0001
0100
,
0002
0010
0010
0013
0001
0100
1000
0100
,
0002
0000
2003
0000
3001
0010
1000
0010
,
2000
0100
0100
3100
1000
0010
0001
0010
,
0200
0000
0000
0300
2001
0000
0000
0200
,
0000
0000
0000
0020
0002
3333
0000
000M
,
0000
00MM
0000
0MMM
0000
MMMM
0000
0000
;

//---------------dance-single - D. Bernardone----------------
#NOTES:
     dance-single:
     D. Bernardone:
     Medium:
     6:
     0.400,0.556,0.277,0.193,0.000:
0000
0000
0000
0000
,
0000
0000
0000
0000
,
0000
0000
0000
0000
,
0000
0000
0000
0000
,
1000
0001
0000
1000
0100
0000
0000
0100
,
0010
0000
0000
0001
0100
0000
0000
0100
,
0010
0000
1010
0000
1010
0000
0000
0101
,
0000
0011
0000
0110
0000
1001
0000
0000
,
0000
0000
0000
0000
0000
1000
0001
0000
,
0100
0010
1000
0100
,
1000
0000
0001
0100
0000
0010
1000
0000
,
0100
0010
0001
0100
,
0010
0000
0000
0000
0000
0010
0100
0000
,
0001
0010
0100
1000
,
0001
0000
0100
0010
0000
1000
0100
0000
,
0010
0001
0100
0010
,
1000
0000
0100
0010
,
0001
0010
0100
1000
,
0100
0010
0001
0010
,
0100
0000
1000
0001
0100
0001
0100
0001
,
0100
0001
0100
0001
1000
0000
0010
0000
,
0100
0001
0100
0010
,
1000
0010
0100
0001
,
0100
0000
0010
0000
1000
0000
0100
0010
,
0000
0001
0100
0000
0001
0000
0010
0000
,
0100
1000
0010
0100
,
0001
0010
0100
1000
,
0010
0000
0100
0001
1000
0001
1000
0001
,
1000
0001
1000
0001
0100
0000
0010
0000
,
1000
0100
0010
0001
,
0100
0010
1000
0100
,
0010
0000
0001
0000
0100
0000
0010
1000
,
0000
0100
0010
0000
0000
0001
1000
0000
,
0100
1000
0010
1000
,
0100
0000
0010
0001
0000
0001
0100
0000
,
0010
0100
0001
0010
,
0001
0000
0000
0000
0000
1000
0100
0000
,
0010
0001
0010
0100
,
0010
0000
0001
0100
0000
0100
0010
0000
,
1000
0100
1000
0010
,
0100
0000
0000
0000
0002
0000
0000
2003
,
0000
0000
3000
1100
,
0101
0000
1100
0000
0220
0000
0330
2002
,
0000
0000
3003
0101
0100
0010
0100
0010
,
0100
0010
0100
0010
0200
0000
0000
0302
,
0000
0000
0003
0011
,
1010
0000
0011
0000
2002
0000
3003
0220
,
0000
0000
0000
0330
1010
0000
1000
0100
,
0000
1000
0001
0000
0200
0000
0010
0000
,
0010
0010
0320
1000
,
1000
1000
2030
0001
,
0001
0000
3001
1001
1000
0010
1000
0010
,
0200
0000
0301
0001
,
0001
0001
0010
0010
,
0010
0010
0200
0000
,
0000
0000
1300
0010
,
0001
0100
2002
0000
,
0000
0000
0000
0000
,
0000
0000
0000
0000
,
0000
0000
0000
3003
,
1000
1000
0000
0000
0001
0001
0000
0100
,
0100
0000
0000
0000
0010
0010
0000
1000
,
1000
0100
0010
0000
0001
0001
0000
1000
,
1000
0000
0000
0000
0010
0010
0000
0100
,
0200
0302
1003
0100
,
0001
0001
0100
0010
,
0011
1001
0001
0100
,
1000
1000
0100
0010
,
1010
0000
0110
0000
0001
1000
0001
0000
,
1001
0000
1001
0000
0100
0010
1000
0010
,
1000
0000
1010
0000
0010
0100
0010
0000
,
0110
0000
0110
0000
0100
0001
0010
0001
,
0010
0000
0000
0000
0011
0000
0000
1100
,
0000
0000
0000
0110
2002
3003
0000
0000
;

//---------------dance-double - D. Bernardone----------------
#NOTES:
     dance-double:
     D. Bernardone:
     Medium:
     6:
     0.409,0.561,0.369,0.210,0.000:
00000000
00000000
00000000
00000000
,
00000000
00000000
00000000
00000000
,
00000000
00000000
00000000
00000000
,
00000000
00000000
00000000
00000000
,
10000000
00010000
00000000
01000000
00001000
01000000
00000000
00001000
,
00010000
00001000
00000000
00010000
00000100
00010000
00000010
00000000
,
00000100
00000000
00000110
00000000
00001001
00000000
00000000
00001010
,
00000000
00010010
00000000
00010100
00000000
00022000
00000000
00000000
,
00000000
00033000
00000000
00001000
,
00100000
00000000
00010000
00000000
01000000
00000000
00100000
10000000
,
00000000
00000000
01000000
10000000
00000000
00000000
00010000
00000000
,
00100000
01000000
00010000
00001000
,
00020000
00000000
00000000
00030010
,
00001000
00000000
00000100
00000000
00000010
00000000
00000001
00000100
,
00000000
00000000
00000010
00001000
00000000
00000000
00000010
00000000
,
00000100
00001000
00010000
01000000
,
00200000
00000000
00000000
00000000
00301000
00000000
00010000
00001000
,
00000000
00000000
00010000
00000000
00000010
00001000
00000000
00000000
,
00000100
00000000
00010000
00001000
00100000
00000000
00010000
01000000
,
00000000
00000000
00100000
20200000
00000000
00000000
00000000
00000000
,
00000000
00000000
00000000
30300000
10000000
00000000
01000000
00100000
,
00000000
00000000
00010000
00000000
01000000
00100000
00000000
00000000
,
00010000
00000000
00001000
00010000
00000100
00000010
00000000
00000000
,
00000001
00000000
00000100
00001000
00010000
00000000
01000000
10000000
,
00000000
00100000
01000000
00000000
00010000
00000000
00100000
00000000
,
01000000
00010000
00001000
00000100
,
00000010
00010000
00001000
00010000
,
00100000
00000000
01000000
02100000
10000000
00000000
00100000
00000000
,
00010000
00001000
03001000
00010000
,
00000010
00000100
00001000
00010000
,
00001000
00000100
00000010
00010000
,
00001000
00000000
00100000
00000000
01000000
00000000
00010000
01000000
,
00000000
00100000
00001000
00000000
00000000
00010000
00001000
00000000
,
00000100
00000000
00000100
00000000
00000100
00000000
00000010
00001000
,
00000000
00000000
00000010
00000100
00000000
00000001
00000100
00000000
,
00001000
00000000
00001000
00000000
00001000
00000000
00010000
00002000
,
00000000
00000000
00000000
00000000
00003000
00100000
00010000
00000000
,
10000000
00000000
10000000
00000000
10000000
00000000
01000000
00100000
,
00000000
00000000
01000000
10000000
00000000
00000000
00100000
00000000
,
00010000
00000000
00001000
00010000
00000000
00001000
00010000
00000020
,
00000000
00000000
00000000
00000000
00000130
00000000
00000000
00000101
,
00000000
00000000
00000000
00000000
00000000
00001000
00000000
00000000
,
00001100
00000000
00000000
00000000
00010000
00000000
00000000
00011000
,
00000000
00000000
00001000
02002000
00000000
00000000
00000000
00000000
,
00000000
03003000
00010000
10000000
,
01000000
00000000
00100000
00010000
00100000
00000000
01000000
00000000
,
00010000
00000000
00001000
00000000
00020000
00000000
00000000
00030200
,
00000000
00000000
00000000
00000300
00000010
00000000
00000001
00000100
,
00000000
00000001
00001000
00000000
00000200
00000000
00010000
00000000
,
00000010
00010300
00002000
01000000
,
00010000
01003000
00200000
10000000
,
01000000
00000000
10300000
00000000
00010000
00100000
01000000
10000000
,
01000000
00000000
00200000
00001000
,
01000000
00301000
00020000
00000010
,
00001000
00030010
00000220
00000000
,
00000000
00000000
00000330
00000000
00001000
00000001
00000100
00000000
,
00001000
00010000
00001000
00000000
00022000
00000000
00000000
00000000
,
00000000
00000000
00000000
00000000
,
00000000
00000000
00000000
00000000
,
00000000
00000000
00000000
00033000
,
00011000
00011000
00000000
00000000
01001000
01001000
00000000
01100000
,
01100000
00000000
00000000
00000000
10100000
10100000
00000000
11000000
,
11000000
00010000
00010000
00000000
00110000
00110000
00000000
00101000
,
00101000
00000000
00000000
00000000
00011000
00011000
00000000
00010100
,
00010200
00000000
00010000
00000000
00001300
00000010
00000100
00000000
,
00000001
00000001
00000001
00000000
00000010
00000100
00001000
00000000
,
00001100
00000000
00001100
00000000
00000100
00010000
00001000
00000000
,
00100000
00100000
00100000
00000000
00010000
10000000
01000000
00000000
,
11000000
00000000
11000000
00000000
10000000
01000000
00010000
00000000
,
00001000
00001000
00001000
00000000
00000100
00000001
00000010
00000000
,
00000110
00000000
00001001
00000000
00000001
00000100
00001000
00000000
,
00010000
00010000
00010000
00000000
01000000
10000000
00100000
00000000
,
01100000
00000000
00000000
00000000
10100000
00000000
00000000
01010000
,
00000000
00000000
00000000
00101000
00011000
00020020
00000000
00000000
,
00000000
00000000
00000000
00030030
00000000
00000000
00000000
00000000
;

//---------------dance-double - D. Bernardone----------------
#NOTES:
     dance-double:
     D. Bernardone:
     Hard:
     8:
     0.483,0.497,0.294,0.092,0.038:
00000000
00000000
00000000
00000000
,
00000000
00000000
00000000
00000000
,
00000000
00000000
00000000
00000000
,
00000000
00000000
00000000
00000000
,
10000000
01000000
00000000
00010000
01000000
00100000
00001000
00010000
,
01000000
00100000
00000000
00001000
00010000
00000100
00000010
00001000
,
00010000
00000000
00010010
00000000
00001100
00000000
00000000
00000011
,
00000000
00000101
00000000
00010010
00000000
02002000
00000000
00000000
,
00000000
00000000
00000000
00000000
03003000
00001000
00010000
00100000
,
01000000
00001000
00010000
00100000
00000000
01000000
00010000
10000000
,
00000000
01000000
00100000
00001000
00000000
00010000
00001000
01000000
,
00100000
00010000
00100000
10000000
00000000
01000000
00010000
00001000
,
00000000
00000000
00000000
00000000
00000000
00010000
00001000
00000010
,
00000100
00010000
00001000
00000010
00000000
00000100
00001000
00000010
,
00000000
00000100
00000010
00001000
00000000
00000100
00010000
00001000
,
00100000
01000000
00010000
00001000
00000000
00010000
00100000
10000000
,
00000000
00000000
00000000
00000000
10100000
00000000
00000000
11000000
,
00000000
00000000
00000000
00000000
00000000
00101000
00000000
00000000
,
00010100
00000000
00001000
00000010
00000010
00000000
00000000
00000100
,
00000000
00000000
00000000
00002002
00000000
00000000
00000000
00000000
,
00000000
00000000
00000000
00003003
00000011
00000000
00000000
00000101
,
00000000
00000000
00000000
00000000
00000000
00010010
00000000
00000000
,
00101000
00000000
01000000
00010000
00000000
00101000
00000000
00000000
,
01010000
00000000
00010000
00100000
01000000
00000000
10000000
00010000
,
00000000
01000000
00100000
00000000
10000000
01000000
00100000
00001000
,
00010000
00000000
00000100
00000000
00001000
00000010
00000010
00000000
,
00000100
00000001
00000010
00000100
00010000
00000000
00001000
01000000
,
00010000
10000000
00010000
02200000
00000000
00000000
00000000
00000000
,
00000000
00000000
00000000
03300000
10000000
00100000
01000000
00010000
,
00100000
00000000
00001000
00000000
00010000
00000100
00000100
00000000
,
00000010
00000000
00000001
00000100
00001000
00000000
00010000
00000000
,
01000000
00000000
10000000
00100000
00010000
00000000
00001000
00000100
,
00000000
00000010
00001000
00000000
00000000
00000001
00000100
00001000
,
00010000
00001000
00000100
00000001
00000000
00000010
00000100
00010000
,
00000000
00001000
01000000
00100000
00000000
10000000
01000000
00010000
,
00001000
00000100
00000010
00010000
00000000
00001000
00000100
00000001
,
00000000
00000000
00000000
00000000
00000000
00000010
00001000
00010000
,
00100000
00010000
00001000
00000010
00000000
00000001
00000010
00001000
,
00000000
00010000
00100000
10000000
00000000
01000000
00100000
00001000
,
00010000
00000010
00000100
00001000
00000000
00000100
00000001
00000010
,
00000000
00000000
00000000
00000000
00000001
00000000
00001000
00000100
,
00000000
00001000
00000010
00010000
00001000
00000000
00100000
00000000
,
01000000
00000000
00010000
00000000
01000000
00000000
10000000
00100000
,
00100000
01000000
00010000
20200000
00000000
00000000
00000000
00000000
,
00000000
00000000
00000000
30300000
10000000
00000000
01000000
00100000
,
00000000
00010000
01000000
00001000
00010000
00000000
00000100
00000000
,
00000110
00000000
00000001
00000000
00001010
00000000
00001000
00000001
,
00001000
00000100
00000010
00000000
00000001
00000000
00000100
00000100
,
00000000
00000010
00001000
00000000
00000001
00000010
00001000
00000010
,
00000001
00000010
00001000
00010000
00001000
00000010
00001000
00010000
,
00100000
00010000
00001000
00010000
00100000
10000000
00100000
00010000
,
00100000
00100000
01000000
00010000
10000000
00010000
01000000
00010000
,
11000000
00000000
00000000
00000000
10000000
01000000
00010000
01000000
,
10000000
01000000
00010000
00001000
00010000
01000000
00010000
00001000
,
00000100
00001000
00010000
00001000
00011000
00000000
00000000
00000000
,
00000000
00000000
00000000
00000000
00000001
00000010
00000100
00001000
,
00000010
00000100
00001000
00000000
00022000
00000000
00000000
00000000
,
00000000
00000000
00000000
00000000
,
00000000
00000000
00000000
00000000
,
00000000
00000000
00000000
00000000
00000000
00000000
00000000
00033000
,
00001000
01000000
00010000
00000000
00000000
00000000
00000000
00000000
01000000
00010000
10000000
00000000
00000000
00000000
01000000
00100000
,
00010000
00000000
00000000
00000000
01100000
00000000
00000000
00000000
10000000
00100000
01000000
00000000
00000000
00000000
00010000
00100000
,
00001000
00000000
00001000
00000000
00001000
00000000
00000000
00000000
00010000
00000010
00001000
00000000
00000000
00000000
00000010
00001000
,
00000001
00000000
00000000
00000000
00001100
00000000
00000000
00000000
00000001
00000100
00000010
00000000
00000000
00000000
00001000
00000100
,
00010000
00000000
01000000
00000000
10000000
00100000
01000000
00000000
,
01001000
00000000
01001000
00000000
00001000
00010000
00000100
00000010
,
00000001
00000000
00000100
00000000
00000010
00001000
00000100
00000000
,
00010100
00000000
00010100
00000000
00010000
00001000
01000000
00100000
,
10100000
00000000
10010000
00000000
10000000
01000000
00010000
01000000
,
00100000
00001000
00100000
00001000
00010000
00000100
00000010
00001000
,
00000010
00000000
00000001
00000000
00000100
00001000
00000100
00000010
,
00010000
00001000
00010000
00001000
00100000
01000000
00010000
00001000
,
00010000
00000000
00000000
00000000
00000010
00000000
00000000
00000101
,
00000000
00000000
00000000
00001010
00010100
000M2000
00000000
00000000
,
00000000
00003000
00000000
00000000
00000000
00000000
00000000
00000000
;

//---------------dance-double - D. Bernardone----------------
#NOTES:
     dance-double:
     D. Bernardone:
     Challenge:
     9:
     0.531,0.845,0.403,0.000,0.226:
00000000
00000000
00000000
00000000
,
00000000
00000000
00000000
00000000
,
00000000
00000000
00000000
00000000
,
00000000
00000000
00000000
00000000
,
00000001
00000100
00000000
00001MMM
MMM10000
00001MMM
MMM10000
00001MMM
,
MMM10000
00001MMM
00000000
10MMMMMM
01000000
M01M0MMM
00001000
00010000
,
MMM0MM1M
00000000
00000101
00000000
01010000
00000000
00000000
10100000
,
00000000
00001010
00000000
00110000
00000000
00001100
00000000
00000000
,
00000000
00000000
00000010
00000001
00001000
00000000
00001001
00000000
00000000
00000000
00000000
00000000
00000001
00000000
00000100
00000000
,
00001000
00000000
10000000
01000000
00010000
00000000
00000001
00000100
,
00001000
00000000
00011000
00000000
00011000
00000000
10000000
01000000
,
00010000
00001000
00000100
00000001
00000100
00001000
00010000
01000000
,
10000000
00000000
00000000
00000000
00000000
00000000
10000000
00100000
,
00010000
00000000
00000001
00000010
00001000
00000000
10000000
00100000
,
00010000
00000000
00011000
00000000
00011000
00000000
00000001
00000010
,
00001000
00010000
00100000
10010000
00000000
00100000
01010000
00001000
,
00000100
00000000
00000010
00001000
00000010
00001000
00000001
00000010
00000100
00000000
00000000
00000000
00000000
00000000
00110000
00000000
,
00000000
00000000
00000000
00000000
00000000
00000010
00000000
00000000
,
01010000
00000000
00001000
10000000
10000000
00000000
00000000
01000000
,
00000000
00000000
00000000
00100100
00000000
00000000
00000000
00000000
,
00000000
00000000
00000000
00000000
00001000
00000000
00000000
10010000
,
00000000
00000000
00000000
00000000
00000000
00011000
00000000
00000000
,
00000101
00000000
00000001
00000010
00000000
00011000
00000000
00000000
,
11000000
00000000
10000000
00100000
01000000
00000000
00001000
00010000
,
00000000
00000100
00000010
00000000
00000001
00000000
00000000
00001101
,
00000000
00000000
00000000
00000000
00000000
00010000
00000000
00000000
,
00101000
00000000
01000000
00010000
00010000
00000000
00000000
10010000
,
00000000
00000000
00000000
11110000
00000000
00000000
00000000
00000000
,
00000000
00000000
00000000
00000000
00001000
00000000
00000000
00111000
,
00000000
00000000
00000000
00000000
00000000
00100010
00000000
00000000
,
00010100
00000000
00001000
00000001
00000000
00010010
00000000
00000000
,
01000100
00000000
00001000
00100000
01000000
00000000
00010000
00001000
,
00010000
00000010
00010000
00000010
00001000
00000100
00001000
00000100
00000010
00000000
00000000
00000000
00000001
00000000
00000100
00000000
,
00001000
00000000
10000000
00100000
00010000
00000000
00001000
00010000
,
00000000
00001000
00010000
00001000
00000000
10000000
01000000
00010000
,
00001000
00000010
00000001
00000100
00000000
00000010
00010000
00001000
,
00000000
00000000
00000000
00000000
00000000
00000000
10000000
01000000
,
00010000
00000000
00000001
00000010
00001000
00000000
10000000
01000000
,
00010000
00000000
00001000
00010000
00000000
00001000
00010000
00001000
,
00000010
00000100
00010000
00001000
00000000
00000100
00000001
00000010
,
00000110
00000000
00000100
00001000
00000100
00001000
00000001
00000100
00000001
00000000
00000000
00000000
00000000
00000000
00000010
00000000
,
00000000
00000000
00000000
00000000
00000000
00000100
00010000
00100000
,
01000000
00001000
00000010
00000100
00010000
00000000
00000000
00001000
,
00000000
00000000
00000000
01100010
00000000
00000000
00000000
00000000
,
00000000
00000000
00000000
00000000
10000000
00000000
00000000
00100000
,
00000000
00000000
00000000
00000000
00000000
01000000
00001000
00000010
,
00000100
00010000
00100000
01000000
00001000
00000000
00000000
00010000
,
00000000
00000000
00000000
00000000
00100100
00000000
00000010
00010000
,
00000000
00000000
00001000
00000000
00000100
00000000
00000000
00000000
00000001
00000100
00000001
00000100
00000001
00000100
00000001
00000000
,
00001000
00000100
00001000
00000100
00001000
00000100
00001000
00000000
00000010
00010000
00000010
00010000
00000010
00010000
00000010
00000000
,
00010000
00001000
00010000
00001000
00010000
00001000
00010000
00000000
00001000
01000000
00001000
01000000
00001000
01000000
00001000
00000000
,
00100000
00000000
00100000
00000000
01000000
00100000
01000000
00000000
00100000
00010000
10000000
01000000
00100000
00001000
00010000
00001000
,
01000000
00000000
00000000
00000000
01100000
00000000
00000000
00000000
10000000
01000000
10000000
01000000
10000000
01000000
10000000
00000000
,
00010000
01000000
00010000
01000000
00010000
01000000
00010000
00000000
00100000
00001000
00100000
00001000
00100000
00001000
00100000
00001000
,
00010000
00000000
00010000
00000000
00001000
00010000
00001000
00000000
00010010
00000000
00000000
00000000
00000000
00000000
00000000
00000000
,
00000000
00000000
00000000
00000000
00000000
00000000
00000000
00000000
00000001
00000000
00000100
00001000
00000100
00000000
00000010
00010000
,
00000010
00000000
00000000
00100010
00000000
00000000
00000100
00000000
01000100
00000000
00000000
00000000
00000000
00000000
00000000
00000000
,
00000000
00000000
00000000
00000000
,
00000000
00000000
00000000
00000000
,
00000000
00000000
00000000
00000000
,
10000000
01000000
00010000
00000000
00000000
00000000
00000000
00000000
00000001
00000100
00001000
00000000
00000000
00000000
00010000
00001000
,
00010000
00000000
00000000
00000000
01001000
00000000
00000000
00000000
01000000
00010000
00100000
00000000
00000000
00000000
01000000
10000000
,
00100000
00000000
00100000
00000000
10000000
00000000
00000000
00000000
10000000
00100000
00010000
00000000
00000000
00000000
00001000
00000010
,
00000001
00000000
00000000
00000000
00000101
00000000
00000000
00000000
00000100
00001000
00010000
00000000
00000000
00000000
00001000
01000000
,
01001000
00000000
00100000
00000000
10000000
01000000
00010000
00001000
,
00000010
00000010
00000010
00000010
00000100
00001000
00000001
00001000
,
00000010
00000000
00000100
00000000
00000001
00000100
00001000
00010000
,
00100000
00100000
00100000
00100000
01000000
00010000
10000000
00010000
,
00110000
00000000
11000000
00000000
10000000
00001000
00100000
00010000
,
01000000
00000100
01000000
00000100
00001000
00000010
00010000
00100000
,
01000000
00000000
00010100
00000000
00000001
00010000
00000010
00001000
,
00000100
00100000
00000100
00100000
00001000
01000000
10000000
01000000
,
10010000
00000000
00000000
00000000
00000110
00000000
00000000
10010000
,
00000000
00000000
00000000
01100000
00001001
00010000
00000000
00100000
,
00000000
00100000
00000000
00100000
00000000
01000000
00000000
00000000
;
