#TITLE:Me And My Lover;
#SUBTITLE:;
#ARTIST:Special D;
#TITLETRANSLIT:;
#SUBTITLETRANSLIT:;
#ARTISTTRANSLIT:;
#GENRE:Techno;
#CREDIT:Sync by HellRazor;
#BANNER:Me and My Lover-bn.png;
#BACKGROUND:Me And My Lover-bg.png;
#LYRICSPATH:;
#CDTITLE:;
#MUSIC:Me And My Lover.ogg;
#OFFSET:-0.275;
#SAMPLESTART:100.000;
#SAMPLELENGTH:12.000;
#SELECTABLE:YES;
#BPMS:0.000=168.127;
#STOPS:;
#BGCHANGES:0.000=Me and My Lover-bg.png=1.000=0=0=1=====,
36.000=In The Groove Rebirth/1166_JumpBack.mpg=1.000=0=0=1=====,
52.000=In The Groove Rebirth/1133_JumpBack.mpg=1.000=0=0=1===FadeUp==,
68.000=Me and My Lover-bg.png=1.000=0=0=1=====,
76.000=In The Groove Rebirth/209_JB_HD.mpg=1.000=0=0=1=====,
92.000=In The Groove Rebirth/165_JB_HD.mpg=1.000=0=0=1=====,
104.000=In The Groove Rebirth/165_JB_HD.mpg=1.000=1=0=1=SongBgWithMovieViz==CrossFade==,
108.000=In The Groove Rebirth/1159_JumpBack.mpg=1.000=0=0=1=====,
124.000=In The Groove Rebirth/1164_JumpBack.mpg=1.000=0=0=1=====,
140.000=In The Groove Rebirth/503_JB_HD.mpg=1.000=0=0=1===FadeUp==,
156.000=In The Groove Rebirth/508_JB_HD.mpg=1.000=0=0=1=====,
172.000=In The Groove Rebirth/253_JB_HD.mpg=1.000=0=0=1=====,
174.000=In The Groove Rebirth/253_JB_HD.mpg=1.000=0=0=1=SongBgWithMovieViz====,
176.000=In The Groove Rebirth/253_JB_HD.mpg=1.000=0=0=1=====,
178.000=In The Groove Rebirth/253_JB_HD.mpg=1.000=0=0=1=SongBgWithMovieViz====,
180.000=In The Groove Rebirth/875_JumpBack.mpg=1.000=0=0=1=====,
188.000=Me and My Lover-bg.png=1.000=1=0=1===CrossFade==,
196.000=In The Groove Rebirth/1139_JumpBack.mpg=1.000=0=0=1=====,
212.000=In The Groove Rebirth/1166_JumpBack.mpg=1.000=0=0=1===FadeUp==,
228.000=In The Groove Rebirth/508_JB_HD.mpg=1.000=0=0=1===SlideUp==,
244.000=In The Groove Rebirth/1124_JumpBack.mpg=1.000=0=0=1===SlideUp==,
260.000=Me and My Lover-bg.png=1.000=1=0=1===CrossFade==,
264.000=In The Groove Rebirth/209_JB_HD.mpg=1.000=0=0=1=====,
280.000=In The Groove Rebirth/253_JB_HD.mpg=1.000=0=0=1=====,
296.000=In The Groove Rebirth/1164_JumpBack.mpg=1.000=0=0=1===FadeUp==,
312.000=In The Groove Rebirth/875_JumpBack.mpg=1.000=0=0=1===FadeUp==,
328.000=Me and My Lover-bg.png=1.000=0=0=1=====,
99999=-nosongbg-=1.000=0=0=0 // don't automatically add -songbackground-
;
#BGCHANGES2:68.000=white flash=1.000=0=0=1=====,
192.000=white flash=2.000=0=0=1=====,
328.000=white flash=1.000=0=0=1=====,
;
#KEYSOUNDS:;

//---------------dance-single - D. Bernardone----------------
#NOTES:
     dance-single:
     D. Bernardone:
     Challenge:
     12:
     1.000,1.000,0.489,0.379,1.000:
0000
0000
0000
0000
,
0000
0000
0000
0000
,
0000
0000
0000
0000
,
0000
0000
0000
0000
,
0000
0000
0000
0000
,
0000
0000
0000
0000
,
0000
0000
0000
0000
,
0000
0000
0000
0000
,
1000
0000
0000
0000
0000
0000
0101
0000
0000
0000
0000
0000
0110
0000
0000
0000
0000
0000
0000
0000
0000
1000
0000
0000
0001
0000
0000
0000
0000
0000
0101
0000
0000
0000
0000
0000
0000
0000
0000
0001
0000
0000
1000
0000
0100
0000
1000
0000
,
0100
0000
0000
0000
0011
0000
0010
0100
0010
0001
1000
0000
1001
0000
1000
0010
,
0100
0001
0100
0000
0010
1000
0001
1000
0100
0010
0001
0000
2000
0000
0000
0000
,
3010
0000
0000
0000
0110
0000
0010
1000
0010
0100
0001
0000
1000
0000
0100
0000
,
0110
0000
0000
0000
0011
0000
0001
1000
0001
0000
0000
0000
1100
0000
1000
0001
,
1000
0000
0000
0000
1010
0000
0010
0100
0001
1000
0100
0000
0110
0000
0001
0010
,
0001
1000
0100
0000
0110
0000
0001
0100
0001
1000
0010
0000
0200
0000
0000
0000
,
0301
0000
0000
0000
1001
0000
1000
0100
0010
0100
1000
0000
0001
0000
0000
0000
,
0101
0000
0000
0000
0110
0000
0010
1000
0010
0000
0000
0000
0110
0000
1000
0004
,
0400
0000
0000
0303
,
1001
0000
0000
0000
0000
0000
0001
0000
0000
0010
0000
0000
0100
0000
0000
0000
0000
0000
1000
0000
0000
0010
0000
0000
0100
0000
0000
0000
0000
0000
0001
0000
0000
0010
0000
0000
0000
0000
0000
0010
0000
0000
0100
0000
1000
0000
0100
0000
,
1000
0001
0010
0000
0001
0100
0010
0000
1000
0010
0100
0000
0010
1000
0001
0000
,
0010
0100
1000
0000
0001
1000
0001
0000
1000
0001
1000
0000
0010
0100
0010
0000
,
0100
0010
0100
0000
0001
1000
0100
0000
1000
0010
0100
0000
0001
1000
0010
0000
,
0100
0001
0010
0000
0100
1000
0010
0000
1000
0001
1000
0000
0100
1000
0010
0000
,
0100
0001
0010
0000
0001
1000
0010
0000
1000
0001
0010
0000
0001
0100
0001
0000
,
0100
0001
0100
0000
0001
1000
0100
0000
0010
0001
1000
0000
0010
0100
0001
0000
,
0100
0010
1000
0000
0001
1000
0001
0000
0100
0010
0100
0010
0100
0010
0100
0010
,
1000
0001
1000
0001
1000
0001
0010
0001
0010
0001
1000
0100
0010
0001
1000
0010
,
0100
0001
0000
0010
0100
0010
0100
1000
0001
0100
0000
0010
1000
0100
0010
0001
,
1000
0010
0000
0100
0001
0100
0010
1000
0001
0100
0000
0001
0010
0100
1000
0010
,
1000
0001
0000
1000
0100
1000
0020
0000
0130
0001
0000
0100
0010
1000
0100
1000
,
0001
0010
0000
0001
1000
0001
1000
0100
0010
0001
0000
0100
0010
1000
0001
0010
,
0100
1000
0000
0100
0010
0001
1000
0010
1000
0010
0000
0100
0001
1000
0100
1000
,
0001
0010
0000
0001
1000
0010
0100
0010
0100
0001
0000
1000
0100
0010
0001
1000
,
0010
0100
0000
0001
0010
0100
2000
0000
3001
0100
0000
0001
0010
0001
1000
0100
,
0010
0001
0000
0001
1000
0010
1000
0001
0100
0010
0000
1000
0100
1000
0001
0010
,
0200
1000
2300
0010
0002
3000
0103
0010
,
1010
1010
1000
0001
0100
0001
0010
0100
,
2000
0100
3200
0010
2000
0300
3001
0010
,
0011
0011
0001
0100
0010
0100
0001
1000
,
0002
0010
0023
0100
0002
0030
1003
0100
,
1100
1100
1000
0010
0100
0010
1000
0100
,
0020
0001
0032
0010
2000
0003
3010
0100
,
0101
0101
0001
0010
0100
0010
0001
0100
,
0002
1003
0002
0103
,
0002
0013
2000
3010
,
0002
0103
0020
1030
0002
0103
0020
1030
,
0002
0013
0200
0310
0002
0013
0200
0310
0002
0013
0200
1300
0200
0310
0002
0013
,
0200
000M
000M
000M
000M
000M
000M
000M
,
1300
0000
0000
0000
0000
0000
0001
0000
0000
0100
0000
0000
0000
0000
0000
0001
0000
0000
0010
0000
0000
0000
0000
0000
0100
0000
0000
0000
0000
0000
1000
0000
0000
0001
0000
0000
0000
0000
0000
0100
0000
0000
0001
0000
1000
0000
0001
0000
,
1000
0000
0100
1000
0100
0000
1000
0001
1000
0000
0100
0010
0100
0000
0010
0001
,
0010
0000
0001
1000
0100
0000
1000
0010
0100
0000
0001
0010
0100
0000
0010
0001
,
1000
0000
0100
1000
0001
0000
1000
0010
0100
0000
0001
0010
0100
0000
1000
0010
,
0100
0000
0001
1000
0001
0000
1000
0010
1000
0000
0001
1000
0100
1000
0001
0100
,
0001
0000
1000
0100
0010
0000
0100
1000
0001
0000
1000
0010
0100
0000
0010
1000
,
0001
0000
1000
0010
0100
0000
0010
1000
0100
0000
0010
0001
0100
0000
0001
0010
,
0100
0000
1000
0010
0100
0000
0001
0100
0010
0000
0100
0001
0010
0000
0100
1000
,
0010
0000
0100
0001
1000
0000
0001
0010
0100
0000
1000
0001
0010
0001
1000
0000
,
1010
0010
0110
0100
0101
0001
1001
0100
,
0000
0010
0001
0100
0000
0010
0000
1000
,
1001
0000
0011
1100
0110
0100
0100
2000
,
0000
0000
0100
0020
3000
0000
1030
0100
,
1100
0100
0110
0010
0011
0001
1001
0010
,
0000
0100
1000
0010
0000
0100
0000
0001
,
1001
0000
1010
0100
0101
1000
1000
0002
,
0000
0000
0010
0200
0003
0000
0301
0010
,
0011
0000
0001
0010
0100
0000
1000
0001
1000
0000
0010
0100
0001
1000
0100
0010
,
0001
1000
0000
0001
0100
0001
0010
0100
1000
0001
0000
0100
1000
0100
0001
1000
,
0100
0010
0000
0100
1000
0001
0100
0010
1000
0100
0000
1000
0010
0001
0010
0100
,
0001
1000
0000
0001
1000
0100
0010
0001
0100
0010
0000
0100
0001
0010
1000
0010
,
0100
1000
0000
0010
0100
0001
0010
0100
0010
0001
0000
1000
0010
0100
1000
0100
,
0001
1000
0000
0001
0010
0100
1000
0010
1000
0100
0000
1000
0010
0100
0010
0001
,
0010
1000
0000
0100
1000
0010
0100
0001
1000
0010
0000
0100
0001
1000
0010
1000
,
0100
0010
0000
0001
1000
0100
0010
0100
0001
0100
0000
1000
0001
0010
0001
0100
,
0010
1000
0000
0010
0100
0001
0100
1000
0100
0010
0000
1000
0100
1000
0010
0100
,
0002
2003
3200
0310
,
0011
0011
0010
0100
1000
0010
0100
0001
,
2000
3020
2030
3100
,
0110
0110
0001
0100
0001
0010
0100
1000
,
1010
0011
0101
1100
,
0110
0110
1000
0001
0100
0010
1000
0001
,
0101
1100
1010
0011
,
0110
0110
1000
0100
1000
0010
0100
0001
,
2002
0000
0000
0000
0000
0000
0000
3003
;

//---------------dance-double - D. Bernardone----------------
#NOTES:
     dance-double:
     D. Bernardone:
     Easy:
     3:
     0.230,0.279,0.076,0.219,0.000:
00000000
00000000
00000000
00000000
,
00000000
00000000
00000000
00000000
,
00000000
00000000
00000000
00000000
,
00000000
00000000
00000000
00000000
,
00000000
00000000
00000000
00000000
,
10000000
00000000
00000000
00000000
,
00010000
00000000
01000000
00000000
,
00001000
00000000
00000000
00000000
,
00010000
00000000
00000100
00000000
,
00001000
00000000
00000001
00000000
,
00000010
00000100
00001000
00000000
,
00000010
00000000
00010000
00000000
,
00001000
00010000
00001000
00000000
,
01000000
00000000
00010000
00000000
,
00100000
01000000
10000000
00000000
,
00100000
00000000
01000000
00000000
,
00001000
00000000
00010000
00000000
,
00022000
00000000
00033000
00000000
,
00010000
00010000
00000100
00001000
,
00000020
00000000
00000000
00000000
,
00000230
00000000
00000000
00000000
,
00000302
00000000
00000000
00000000
,
00002003
00000000
00000000
00000000
,
00003200
00000000
00000000
00000000
,
00020300
00000000
00000000
00000000
,
00032000
00000000
00003000
00000000
,
01000000
00000000
01000000
00000000
,
00010000
00000000
10000000
00000000
,
01000000
00000000
01000000
00000000
,
00100000
00000000
00001000
00000000
,
00010000
00000000
01000000
00000000
,
00010000
00000000
00001000
00000000
,
00010000
00000000
00001000
00000000
,
00000100
00000000
00000001
00000000
,
00000010
00000000
00000100
00000000
,
00001000
00000001
00001000
00000000
,
00000100
00000100
00000100
00000000
,
00010000
00001000
00010000
00000000
,
00001000
00001000
00001000
00000000
,
00100000
00010000
00100000
00000000
,
00010000
00010000
00010000
00000000
,
01000000
00100000
01000000
00000000
,
00100000
00100000
00100000
00000000
,
10010000
00000000
00000000
00000000
,
00011000
00000000
00000000
00000000
,
00001001
00000000
00000000
00000000
,
00000110
00000000
00000000
00000000
,
00011000
00000000
00000000
00000000
,
02200000
00000000
03300000
00000000
,
10000000
00000000
00010000
00000000
,
02000000
00000000
03001000
00000000
,
00010000
00000000
00001000
00000000
,
00010000
00000100
00010000
00000000
,
00000010
00000000
00000010
00000000
,
00002000
00000000
00003100
00000000
,
00010000
00000000
00001000
00000000
,
01000000
00010000
01000000
00000000
,
00200000
00000000
00300000
00000000
,
20000000
00000000
30000000
00000000
,
02000000
03000000
00200000
00300000
,
00010000
00000000
10010000
00000000
,
00010000
00010000
00010000
00000000
,
01000000
01000000
01000000
00000000
,
00002000
00003000
00020000
00030000
,
00000200
00000300
00002000
00003000
,
00000010
00000100
00000001
00000001
,
00001000
00000000
00000000
00000000
,
00000100
00000000
00000000
00000000
,
00010000
00000000
00001000
00000000
,
00100000
00000000
00010000
00000000
,
10000000
00000000
00000000
00000000
,
00100000
00000000
00000000
00000000
,
01000000
00000000
00001000
00000000
,
00010000
00000000
00000010
00000000
,
00002000
00000000
00000000
00000000
,
00003001
00000100
00000001
00001000
,
00000002
00000000
00000000
00000000
,
00000013
00000100
00000010
00000001
,
00002000
00000000
00000000
00000000
,
00003100
00010000
00000100
00010000
,
00002000
00000000
00000000
00000000
,
00013000
00010000
00001000
00010000
,
00012000
00000000
00000000
00000000
00000000
00000000
00000000
00003000
;

//---------------dance-single - D. Bernardone----------------
#NOTES:
     dance-single:
     D. Bernardone:
     Beginner:
     1:
     0.125,0.173,0.042,0.000,0.000:
0000
0000
0000
0000
,
0000
0000
0000
0000
,
0000
0000
0000
0000
,
0000
0000
0000
0000
,
0000
0000
0000
0000
,
0000
0000
0000
0000
,
0000
0000
0000
0000
,
0000
0000
0000
0000
,
0001
0000
0001
0000
,
0100
0000
0000
0000
,
0010
0000
0000
0000
,
1000
0000
0000
0000
,
0001
0000
0000
0000
,
0010
0000
0000
0000
,
0001
0000
0000
0000
,
0100
0000
0000
0000
,
0001
0000
1000
0000
,
1001
0000
0000
0000
,
0001
0000
1000
0000
,
0100
0000
0100
0000
,
0100
0000
0100
0000
,
0010
0000
0010
0000
,
0010
0000
0010
0000
,
0010
0010
0000
0001
,
0000
0100
0000
0010
,
0000
1000
0000
0001
,
0001
0000
0001
0000
,
1000
0000
0000
0000
,
0001
0000
0000
0000
,
0100
0000
0000
0000
,
0010
0000
0000
0000
,
1000
0000
0000
0000
,
0001
0000
0000
0000
,
0010
0000
0000
0000
,
0100
0000
0000
0000
,
1000
0000
1000
0000
,
0100
0000
0000
0000
,
0010
0000
0010
0000
,
0001
0000
0000
0000
,
0100
0000
0100
0000
,
0010
0000
0000
0000
,
1000
0000
1000
0000
,
0001
0000
0000
0000
,
0010
0000
0000
0000
,
0010
0000
0000
0000
,
0100
0000
0100
0000
,
0100
0000
0100
0000
,
0110
0000
0000
0000
,
1001
0000
0000
0000
,
1000
0000
0000
0000
,
0001
0000
0000
0000
,
0010
0000
0000
0000
,
0001
0000
0000
0000
,
0100
0000
0000
0000
,
0010
0000
0000
0000
,
1000
0000
0000
0000
,
0100
0000
0000
0000
,
1000
0000
0000
0000
,
1000
0000
0000
0000
,
0001
0000
0000
0000
,
0001
0000
0000
0000
,
0100
0000
0000
0000
,
0100
0000
0000
0000
,
0010
0000
0000
0000
,
0010
0000
0000
0000
,
0110
0000
0000
0000
,
1000
0000
0000
0000
,
0001
0000
0000
0000
,
1000
0000
0000
0000
,
0010
0000
0000
0000
,
0100
0000
0000
0000
,
0010
0000
0000
0000
,
1000
0000
0000
0000
,
0100
0000
0010
0000
,
0001
0000
0001
0000
,
0100
0000
0000
0000
,
0010
0000
0010
0000
,
0100
0000
0000
0000
,
0001
0000
0001
0000
,
1000
0000
0000
0000
,
0100
0000
0100
0000
,
0010
0000
0010
0000
,
1001
0000
0000
0000
;

//---------------dance-single - D. Bernardone----------------
#NOTES:
     dance-single:
     D. Bernardone:
     Easy:
     4:
     0.355,0.559,0.135,0.371,0.000:
0000
0000
0000
0000
,
0000
0000
0000
0000
,
0000
0000
0000
0000
,
0000
0000
0000
0000
,
0000
0000
0000
0000
,
0000
0000
0000
0000
,
0000
0000
0000
0000
,
0000
0000
0000
0000
,
1000
1000
0100
0020
,
0031
0001
0001
0100
,
0010
0100
0100
0000
,
0001
1000
0100
0010
,
0100
0100
0100
0000
,
1000
0001
0100
0010
,
0100
0100
0100
0000
,
0001
0010
0100
0010
,
0001
0000
0001
0000
,
0220
0000
0330
0000
,
1000
1000
0100
0010
,
0002
0000
0200
0003
,
2000
0300
0200
3000
,
0002
0300
0020
0003
,
2000
0030
0020
3000
,
0031
1001
1000
1001
,
0100
0110
0010
0110
,
1000
1001
0010
0100
,
1000
0010
0100
0001
,
1000
0000
0100
0200
,
0310
0000
0001
0000
,
0010
0020
0130
0000
,
1000
0000
0001
0000
,
0100
0000
0010
0020
,
1030
0000
0010
0000
,
0100
0200
0301
0000
,
1000
1000
0100
0100
,
0020
1000
0031
0000
,
0100
0100
0100
0000
,
0020
0001
1030
0000
,
0100
0100
0100
0000
,
2000
0100
3001
0000
,
0010
0010
0010
0000
,
0002
1000
0103
0000
,
0010
0010
0010
0000
,
2002
3003
0220
0330
,
2002
3003
0220
0330
,
1001
1001
0110
0110
,
2002
0000
0000
3003
,
0220
0000
0000
0330
,
1000
0001
0200
0000
,
0310
1000
0100
0001
,
0100
1000
0001
0000
,
1000
0001
0100
1000
,
0100
0001
0100
0000
,
0010
1000
0100
0001
,
0100
0010
0001
0000
,
1000
0010
0001
0010
,
0100
0001
0020
0000
,
0031
0001
0100
0100
,
0010
1000
0010
0100
,
0001
0001
1000
1000
,
0200
0001
0310
0000
,
0001
0001
0100
0100
,
0010
1000
0010
0100
,
0001
0001
1000
1000
,
0200
0001
0310
0000
,
0001
1000
0010
0010
,
0100
0000
0001
0002
,
1003
0000
0100
0000
,
0010
0020
0031
0000
,
1000
0000
0010
0000
,
0100
0000
0010
0020
,
1030
0000
0100
0000
,
0010
0020
0031
0000
,
0100
0000
0010
0010
,
2000
0010
0100
0100
,
3100
0010
0010
0001
,
0020
1000
0100
0100
,
0130
1000
1000
0010
,
2000
0100
0001
0001
,
3001
0100
0100
0001
,
0200
1000
0010
0010
,
0310
1000
0100
0001
,
2000
0000
0000
0000
0000
0000
0000
3000
;

//---------------dance-single - D. Bernardone----------------
#NOTES:
     dance-single:
     D. Bernardone:
     Medium:
     6:
     0.459,0.489,0.346,0.219,0.004:
0000
0000
0000
0000
,
0000
0000
0000
0000
,
0000
0000
0000
0000
,
0000
0000
0000
0000
,
0000
0000
0000
0000
,
0000
0000
0000
0000
,
0000
0000
0000
0000
,
0000
0000
0000
0000
,
1000
0000
1001
0000
0001
0000
0100
0010
,
0100
0000
0001
0000
1000
0000
0100
1000
,
0100
0010
0001
0000
,
1000
0000
0010
0000
0100
0000
0001
0100
,
0001
0000
1000
0000
0100
0000
0010
0100
,
0010
0000
0001
0000
1000
0000
0010
1000
,
0010
0100
0001
0000
,
0010
0001
0100
0000
,
0010
1000
0100
0000
,
0220
0000
0000
0330
,
0001
1000
0001
0100
0001
0000
2000
0000
,
3100
0001
0100
1000
,
0100
0001
0100
1000
,
0010
0001
0010
1000
,
0010
0001
0010
1000
,
0001
1000
0100
0000
1000
0001
0100
0000
,
0001
1000
0010
0000
1000
0001
0010
0000
,
0100
1000
0010
0000
0100
0001
0010
0000
,
0001
0000
1000
0001
1000
0000
0200
0000
,
0310
0001
1000
0001
,
0101
0100
0010
1000
,
0001
0010
0110
0100
,
1000
0001
0100
0010
,
1000
0001
0010
0100
,
1100
1000
0001
0100
,
0010
1000
1001
0001
,
0010
0100
1000
0001
,
0200
1000
0302
0010
,
0103
0010
0100
0000
0101
0000
0120
0000
,
0001
0000
2030
0000
0100
0000
3010
0100
,
0010
0000
1010
0000
0110
0000
1000
1000
,
0200
0001
0320
1000
,
0130
1000
0100
0000
0110
0000
0021
0000
,
1000
0000
0230
0000
0001
0000
0310
0001
,
0010
0000
0110
0000
1100
0000
1000
1000
,
0002
0000
0200
0000
,
0010
0000
1000
0303
,
0004
0000
0000
0000
,
4003
0400
0000
0000
0000
0000
0000
0000
0000
0000
0000
0000
0000
0000
3300
0000
,
0022
0000
0000
0033
,
1001
0000
0100
0000
0010
0000
1000
0001
,
1000
0100
0010
0001
,
0200
1000
0010
0301
,
1000
0001
0100
0001
,
0020
1000
0100
0031
,
1001
1000
0010
0100
,
0002
0010
1000
0103
,
0010
0010
1000
0001
,
2000
0010
0001
3100
,
0011
0000
1010
0000
0011
0000
0100
1000
,
0000
1000
0001
0100
0000
0100
0000
0010
,
1000
0000
0001
0001
0010
0010
0100
1000
,
0000
0000
0001
0100
0000
0000
1000
0100
,
1100
0000
0101
0000
1100
0000
1000
0001
,
0000
0001
0010
0100
0000
0100
0000
1000
,
1001
0000
0001
0001
0100
0100
0010
1000
,
0000
0000
0001
0100
0000
0000
0010
0000
,
1000
0001
1000
0000
0001
0010
0100
0000
,
1000
0000
0010
0000
0100
0000
0001
0010
,
0100
1000
0001
0100
,
0010
0000
1000
0001
0010
0000
0100
0000
,
1000
0010
0001
0010
,
1000
0000
0001
0000
0010
0000
0100
1000
,
0001
0100
0010
1000
,
0001
0000
0010
0001
1000
0000
0001
0000
,
0010
1000
0010
0001
,
2000
0010
0100
3001
,
0110
0110
1001
1001
,
0002
0010
0100
1003
,
1100
1100
0011
0011
,
0200
0001
1000
0310
,
0101
0101
1010
1010
,
0020
1000
0001
0130
,
0101
1010
1100
0011
,
2002
0000
0000
0000
0000
0000
0000
3003
;

//---------------dance-single - D. Bernardone----------------
#NOTES:
     dance-single:
     D. Bernardone:
     Hard:
     9:
     0.676,0.769,0.422,0.202,0.274:
0000
0000
0000
0000
,
0000
0000
0000
0000
,
0000
0000
0000
0000
,
0000
0000
0000
0000
,
0000
0000
0000
0000
,
0000
0000
0000
0000
,
0000
0000
0000
0000
,
0000
0000
0000
0000
,
1000
0000
0001
0000
0001
0000
0000
0100
0010
0000
0110
0000
2000
0000
0000
0000
,
3001
0000
0100
0000
1000
0000
0100
0001
,
0000
0001
0010
1000
0000
1010
0000
0010
,
0001
0000
0100
0010
0001
0010
1000
0100
,
0000
0100
0001
0100
0000
0000
0100
1000
,
0001
0000
0010
0000
1000
0000
0010
0001
,
0000
0001
0100
1000
0000
1100
0000
0000
,
0100
0000
0001
0000
0010
1000
0010
0100
,
0000
0100
0001
0100
0000
0110
0000
0000
,
1002
0000
0000
0000
,
1003
0000
0000
0010
0100
0000
0000
0100
0001
0000
0000
0001
0010
0000
0010
0000
,
0100
1000
0100
0001
0100
1000
0100
0010
,
0100
1000
0010
0001
0010
1000
0100
0010
,
0001
0001
0001
0001
0001
0001
0001
1000
,
0010
0010
0010
0010
0010
0010
0010
0100
,
0001
0010
0000
0000
1010
0000
0000
0000
1000
0100
0000
0000
0101
0000
0000
0000
,
1000
0010
0000
0000
0011
0000
0000
0000
0001
0100
0000
0000
1100
0000
1000
0000
,
0001
0100
0000
0100
0001
0000
0000
0000
0010
1000
0000
1000
0001
0000
0000
0000
,
0101
0000
0000
1010
1100
0000
MMMM
0000
,
0001
1000
0001
0000
0010
0000
0001
0000
0100
0000
0001
0000
1000
0000
0001
1000
,
0001
1000
0001
0000
0010
0000
0100
0000
0010
0000
0001
0000
1000
0000
0010
0100
,
0010
0100
0010
0000
1000
0000
0100
0000
0100
0000
0010
0000
0001
0000
1000
0001
,
1000
0001
1000
0000
0100
0000
0010
0000
0100
0000
1000
0000
0001
0000
1000
0010
,
1000
0010
0000
0100
0001
0000
0010
0000
0100
0000
0100
0000
1000
0000
0100
1000
,
0100
1000
0000
0001
0010
0000
0100
0000
1000
0000
1000
0000
0001
0000
0100
0001
,
0100
0001
0000
1000
0010
0000
0100
0000
0001
0000
0001
0000
1000
0000
0100
0010
,
0100
0010
0000
0001
1000
0000
0010
0000
0100
0000
0100
0000
0001
0000
1000
0001
,
1000
0000
1100
0000
0011
0000
0001
0100
,
0010
0010
1000
0100
0010
0001
0100
0010
,
1000
0000
1001
0000
0110
0000
1000
0001
,
0010
0010
0100
1000
0010
0100
0001
0010
,
0001
0000
0101
0000
1010
0000
1000
0001
,
0010
0010
0001
0100
0010
1000
0100
0010
,
0001
0000
0101
0000
0110
0000
0010
1000
,
0001
0001
0010
0100
1000
0010
0100
0001
,
1000
0000
0000
0001
1001
0000
0000
0000
,
1100
0000
0000
0001
0011
0000
0000
0000
,
0101
0000
0000
0010
1010
0000
1100
0000
,
0110
0000
0000
0010
0011
0000
0101
0000
,
1001
1000
0100
0100
0010
0010
0001
0001
,
0100
0000
0000
0100
0010
0000
0000
0010
1000
0000
0000
1000
0001
0000
0001
0000
,
0200
0000
0320
0000
2030
0000
3001
0010
,
0000
0010
0100
2000
0000
3001
0000
0100
,
0020
0000
1030
0001
0010
0100
0100
1000
,
0000
0001
0100
0010
0000
0000
1000
0001
,
0020
0000
0230
0000
2300
0000
3001
0100
,
0000
0100
0001
0020
0000
0130
0000
0000
,
2000
0000
3002
0000
1003
0100
0100
0020
,
0000
0031
0100
0020
0000
0230
0000
0000
,
0301
0010
0100
1000
0001
0010
0100
1000
,
0000
1000
0001
0100
0000
0110
0000
0010
,
1000
0000
0001
0100
0110
0010
1000
0200
,
0000
0000
0310
0002
0000
0000
0013
0100
,
1000
0010
0100
0001
1000
0010
0100
0001
,
0000
0001
1000
0100
0000
0110
0000
0010
,
0001
0000
1000
0100
0110
0010
0001
0200
,
0000
0000
0310
2000
0000
0000
3000
0000
,
0001
0000
0000
0001
0010
0000
0000
0010
0100
0000
0100
0000
2000
0000
0000
0000
,
3001
0100
0000
0100
0010
0000
1000
0000
0001
1000
0000
0010
0100
0000
0100
0000
,
0010
1000
0000
1000
0001
0000
0010
0000
0100
1000
0000
0001
0100
0000
0100
0000
,
0010
1000
0000
1000
0001
0000
0010
0000
0100
1000
0000
0010
0100
0000
0100
0000
,
0001
0010
0000
0010
0100
0000
1000
0000
0001
0100
0000
0001
0010
0000
0010
0000
,
0100
1000
0001
1000
0010
0000
0100
0000
0001
1000
0000
0100
1000
0000
1000
0000
,
0001
0100
0010
0100
0001
0000
1000
0000
0001
0010
0000
0001
1000
0000
1000
0000
,
0010
0100
0001
0100
0010
0000
1000
0000
0001
0100
0000
0001
1000
0000
1000
0000
,
1001
0000
0000
0011
0101
0000
MMMM
0000
,
1001
0000
0101
0000
1001
0000
1000
0100
,
0000
0100
0010
0001
0000
0101
0000
0100
,
0020
0000
1030
0001
0010
0010
0100
1000
,
0000
1000
0001
0100
0000
0000
0010
1000
,
1001
0000
1100
0000
1001
0000
0001
0100
,
0000
0100
0010
1000
0000
1100
0000
0000
,
0110
0000
0011
0000
0110
1000
1000
1010
,
0000
0000
0010
0000
1000
0000
0001
0000
0000
0000
0020
0000
0000
0000
0000
0030
,
1200
0000
0000
0000
0000
0000
0000
0300
;

//---------------dance-double - D. Bernardone----------------
#NOTES:
     dance-double:
     D. Bernardone:
     Medium:
     6:
     0.412,0.419,0.202,0.169,0.000:
00000000
00000000
00000000
00000000
,
00000000
00000000
00000000
00000000
,
00000000
00000000
00000000
00000000
,
00000000
00000000
00000000
00000000
,
00000000
00000000
00000000
00000000
,
00000001
00000000
00000010
00000000
,
00000100
00010000
00001000
00000000
,
01000000
00000000
00100000
00000000
,
10000000
00010000
00010000
00000000
00100000
01000000
00100000
00000000
,
00010000
01000000
00001000
00100000
,
00010000
01000000
02000000
03000000
,
00100000
10000000
01000000
00100000
,
00001000
00010000
00020000
00030000
,
00000100
00001000
00000010
00010000
,
00000100
00001000
00000020
00000030
,
00000100
00000001
00000010
00000100
,
00010000
00000000
00000000
00001000
00000000
00010000
00000000
00000000
,
00012000
00010000
01000000
00013000
,
00011000
00000000
00001000
00100000
00100000
00000000
00010000
01000000
,
00010000
00010000
00010000
00010000
,
00100000
00100000
00100000
00100000
,
00001000
00001000
00001000
00001000
,
00010000
00010000
00010000
00010000
,
00000010
00000010
00000010
00000010
,
00001000
00001000
00001000
00001000
,
00000001
00000001
00000200
00000000
,
00000310
00000000
00000110
00000000
,
00000001
00000100
00001000
00010000
,
01000000
00010000
00001000
00000010
,
00000001
00000100
00000010
00010000
,
00001000
00000100
00001000
00010000
,
00100000
10000000
01000000
00100000
,
00001000
00010000
01000000
00010000
,
00001000
00000100
00000010
00000100
,
00001000
00010000
00100000
01000000
,
00010000
00000000
10000000
00000000
00010000
00000000
00100000
01000000
,
00100000
00100000
01000000
01000000
,
10000000
00000000
10000000
00000000
00010000
00000000
01000000
00001000
,
01000000
01000000
00010000
00010000
,
00100000
00000000
00100000
00000000
00001000
00000000
00010000
00001000
,
00010000
00010000
00000100
00000100
,
00001000
00000000
00001000
00000000
00000010
00000000
00000100
00000001
,
00000100
00000100
00000010
00000010
,
00000101
00000000
00001100
00000000
,
00011000
00000000
01010000
00000000
,
11000000
01000000
00100000
00001000
,
01000000
00100000
00010000
00001000
,
00000200
00000001
00000010
00001000
,
00000320
00000001
00000130
00000000
,
00000001
00001000
00000010
00010000
,
00001000
00001000
00010000
00010000
,
00001000
00100000
01000000
10000000
,
10010000
01000000
01100000
00100000
,
10100000
10000000
01000000
00100000
,
00001000
00010000
00000200
00000300
,
00000010
00000001
00000100
00000010
,
00001000
00000000
00000000
00000100
00000000
00000200
00000000
00000000
,
00001300
00000010
00010000
00001000
,
00000100
00000001
00000020
00000130
,
00001000
00000010
00000100
00001000
,
00020000
00000000
00000000
00000000
01030000
00000000
10000000
00100000
,
10000000
00010000
01000000
00100000
,
00010000
00001000
00000020
00000130
,
00001000
00000001
00000001
00000100
,
00000020
00000000
00020030
00030000
,
00001000
00100000
00100000
00000000
00010000
01000000
00010000
00000000
,
10000000
00100000
00010000
00001000
,
00000010
00000001
00001000
00000010
,
00000100
00001000
00010000
01000000
,
10000000
10000000
00100000
00100000
,
10000000
01000000
00010000
00001000
,
00010000
00000100
00001000
00000100
,
00000001
00000100
00010000
00001000
,
00010000
00001000
01000000
10000000
,
02000000
00010000
00010000
03100000
,
10100000
11000000
10100000
00010000
,
02000000
00010000
00010000
03001000
,
00011000
00010100
00011000
00010000
,
00000020
00001000
00001000
00000130
,
00000101
00000011
00000101
00001000
,
00000200
00001000
00001000
00010300
,
00011000
01001000
00011000
00100000
,
02020000
00000000
00000000
00000000
00000000
00000000
00000000
03030000
;

//---------------dance-double - D. Bernardone----------------
#NOTES:
     dance-double:
     D. Bernardone:
     Hard:
     9:
     0.676,0.629,0.185,0.219,0.299:
00000000
00000000
00000000
00000000
,
00000000
00000000
00000000
00000000
,
00000000
00000000
00000000
00000000
,
00000000
00000000
00000000
00000000
,
00000000
00000000
00000000
00000000
,
00001000
00000000
00010000
00000000
01000000
00000000
10000000
00100000
,
00000000
00100000
02000000
00000000
00001000
00000000
03010000
00000000
,
01100000
00000000
01100000
00000000
10000000
01000000
10000000
00000000
,
00100000
00000000
00010000
00000000
00001000
00000000
00000000
00001000
00010000
00000000
00001000
00000000
00000020
00000000
00000000
00000000
,
00000031
00000100
00000010
00000010
00010000
00001000
00100000
00100000
,
00010000
01000000
00100000
00100000
10000000
11000000
00000000
10000000
,
01000000
00010000
00001000
00001000
00010000
00000100
00001000
00000010
,
00000001
00000010
00000100
00000100
00000020
00000000
00010030
00010000
,
00000100
00001000
00000010
00000010
00001000
00000100
00010000
00010000
,
00001000
01000000
00010000
10000000
00100000
10100000
00000000
00000000
,
10000000
01000000
00100000
00100000
01000000
00010000
00001000
00000000
,
00010000
00001000
00000100
00000000
00001000
00000100
00000001
00000000
,
00004002
00000000
00000000
00000003
,
00003100
00000000
00000000
00000010
00001000
00000000
00010000
00000000
00100000
00000000
00000000
10000000
00010000
00000000
00100000
00000000
,
01000000
10000000
01000000
10000000
01000000
10000000
01000000
10000000
,
00010000
01000000
00010000
01000000
00010000
01000000
00010000
01000000
,
00001000
00010000
00100000
00010000
00001000
00000100
00001000
00010000
,
00000010
00000100
00000001
00000100
00000010
00001000
00000010
00000010
,
00000010
00010010
00010000
01001000
,
00001000
00101000
00010000
00010100
,
00000100
00001000
00000001
00000010
00000100
00001000
00000001
00000100
,
00000010
00000000
00000000
00000000
00000000
00000000
00010000
00000000
00001000
00000000
00000000
00000000
01001000
00000000
00000000
01000000
,
00100000
00000000
00000000
00100000
10000000
00000000
00000000
10000000
01000000
00000000
00000000
01000000
00010000
00000000
00000000
00010000
,
00002000
00000000
00003000
00001000
00000100
00000000
00000000
00000100
00000001
00000000
00000000
00000001
00000010
00000000
00000000
00000010
,
00000100
00000000
00000000
00000100
00001000
00000000
00000000
00001000
00000020
00000000
00000030
00000010
00000100
00000000
00000000
00000100
,
00001000
00000000
00000000
00001000
00010000
00000000
00000000
00010000
00100000
00000000
00000000
00100000
01000000
00000000
00000000
01000000
,
00010000
00000000
00000000
00010000
00100000
00000000
00000000
00100000
01000000
00000000
00000000
01000000
00010000
00000000
00000000
00010000
,
00002000
00000000
00003000
00001000
00000100
00000000
00000000
00000100
00000010
00000000
00000000
00000010
00001000
00000000
00000000
00001000
,
00000001
00000000
00000000
00000001
00000100
00000000
00000000
00000100
00000020
00000000
00000030
00000010
00010000
00000000
00000000
00010000
,
00001000
00000000
00000000
00001000
01000000
00000000
00000000
01000000
00100000
00000000
00000000
00100000
10000000
00000000
00000000
10000000
,
00010000
01000000
00010000
00100000
00010000
10000000
00010000
01000000
,
00001000
00001000
00010000
00001000
00000010
00000001
00001000
00000100
,
00010000
00000010
00010000
00001000
00010000
00000100
00010000
00000010
,
00001000
00001000
00000100
00000010
00001000
00010000
00100000
01000000
,
00001000
00010000
00001000
00100000
00001000
01000000
00001000
00010000
,
00000100
00000100
00010000
00001000
00000100
00000001
00000010
00000100
,
00001000
00000010
00001000
00000100
00001000
00000001
00001000
00000010
,
00000100
00000100
00001000
00010000
01000000
10000000
00100000
01000000
,
00020000
00230000
00302000
00023000
,
00030200
00002300
00003020
00000230
,
00000301
00001000
00000100
00010000
00000100
00001000
00000100
00010000
,
00000010
00010000
00001000
00010000
00000010
00010000
00001000
02000000
,
00020000
00000000
00000000
00000000
00000000
00000000
00000000
03030000
,
10100000
00000000
00000000
10000000
00010000
00000000
00100000
00000000
01000000
00000000
00000000
01000000
00010000
00000000
00001000
00000000
,
00010000
00000000
00000100
00000000
00001000
00000000
00000010
00000100
,
00000001
00000000
00000001
00000100
00001000
00000000
00010000
01000000
,
10000000
00000000
00100000
00000000
01000000
00000000
00010000
00100000
,
01000000
00000000
10000000
00100000
00010000
00000000
00001000
00000010
,
00000001
00000000
00000010
00000000
00000100
00000000
00001000
00000010
,
00000100
00000000
00000001
00000010
00001000
00000000
00010000
01000000
,
20000000
00000000
00100000
00000000
31000000
00100000
00010000
00100000
,
01000000
00000000
10000000
00100000
00010000
00001000
00000100
00000010
,
00001000
00000000
00000001
00000000
00001100
00000000
00010000
00001000
,
00000000
00001000
01000000
00100000
00000000
01010000
00000000
01000000
,
10000000
00000000
01000000
00001000
00010000
00100000
01000000
00001000
,
00010000
00000000
00010000
00000010
00000001
00000000
00000010
00001000
,
00010010
00000000
00001001
00000000
00000110
00000000
00010000
00001000
,
00000000
00001000
00100000
00010000
00000000
11000000
00000000
00100000
,
00011000
00000000
00001000
00000100
00000010
00010000
00001000
00000100
,
00000001
00000000
00000010
00000100
00000110
00000000
00001001
00000000
,
00001000
00000000
00000001
00000010
00000100
00000000
00001000
00000000
00000010
00000000
00000010
00000000
00000201
00000000
00000000
00000000
,
00000301
00000000
00000000
00001000
00000100
00000000
00000000
00000100
00010000
00000000
00000000
00010000
00001000
00000000
00000000
00001000
,
00200000
00000000
00300000
00100000
00010000
00000000
00000000
00010000
01000000
00000000
00000000
01000000
00100000
00000000
00000000
00100000
,
00010000
00000000
00000000
00010000
00001000
00000000
00000000
00001000
02000000
00000000
03000000
01000000
00010000
00000000
00000000
00010000
,
00100000
00000000
00000000
00100000
01000000
00000000
00000000
01000000
00010000
00000000
00000000
00010000
00001000
00000000
00000000
00001000
,
00000010
00000000
00000000
00000010
00000001
00000000
00000000
00000001
00000100
00000000
00000000
00000100
00001000
00000000
00000000
00001000
,
00000200
00000000
00000300
00000100
00000010
00000000
00000000
00000010
00010000
00000000
00000000
00010000
00001000
00000000
00000000
00001000
,
01000000
00000000
00000000
01000000
00010000
00000000
00000000
00010000
00200000
00000000
00300000
00100000
10000000
00000000
00000000
10000000
,
00100000
00000000
00000000
00100000
01000000
00000000
00000000
01000000
00010000
00000000
00000000
00010000
00001000
00000000
00000000
00001000
,
00000100
00000100
00000001
00000001
,
00000010
00000010
00000001
00000100
00001000
00010000
00100000
10000000
,
00010000
00010000
01000000
01000000
,
00100000
00100000
10000000
01000000
00010000
00001000
00000010
00000100
,
00010000
00001000
00000010
00000001
,
00000100
00000100
00000001
00000010
00001000
00010000
00100000
01000000
,
00010000
01000000
10000000
01000000
,
00100000
00100000
10000000
01000000
00010000
00001000
00000100
00000001
,
00000022
00000000
00000000
00000000
00000000
00000000
00000000
00000033
;

//---------------dance-double - D. Bernardone----------------
#NOTES:
     dance-double:
     D. Bernardone:
     Challenge:
     11:
     0.904,0.978,0.194,0.455,0.733:
00000000
00000000
00000000
00000000
,
00000000
00000000
00000000
00000000
,
00000000
00000000
00000000
00000000
,
00000000
00000000
00000000
00000000
,
00000000
00000000
00000000
00000000
00000000
00000000
00000001
00001000
,
00000110
00000000
00010010
00000000
01001000
00000000
00010000
00100000
,
00000000
00100000
01000000
10000000
00000000
10010000
00000000
00000000
,
00101000
00000000
00010100
00000000
00001000
00000010
00000100
00000002
,
00000000
00000000
00000000
00000000
00001000
00000000
00020003
00000000
00000000
00000000
00030000
00000000
00011000
00000000
00001000
00010000
,
00001000
00100000
01000000
10000000
00100000
01000000
00001000
00010000
,
00000010
00001000
00000100
00000010
00000001
00000100
00001000
00010000
,
00001000
00000010
00000100
00001000
00000001
00010000
00001000
01000000
,
00010000
00100000
00000010
00001000
00000100
00000000
00000100
00000100
,
00000010
00000001
00001000
00000100
01000000
00010000
00100000
01000000
,
00010000
00001000
00000100
00000010
00010000
01000000
10000000
00100000
,
01000000
00010000
00100000
00001000
00000100
00000001
00000010
00001000
,
00010000
00001000
00000100
00001000
00010000
01000000
10000000
00010000
,
01000000
00100000
01000000
00000000
00100000
01000000
00100000
00000000
01000000
00100000
01000000
00000000
00100000
01000000
00100000
00000000
,
10100000
00000000
00010000
00100000
01000000
10000000
00010000
00000000
01010000
00000000
01000000
00001000
00000000
00010000
00000100
00000000
,
00001000
00000010
00000100
00000000
00000001
00000010
00000100
00000000
00001000
00000010
00010000
00000000
00001000
01000000
00010000
00000000
,
00100000
01000000
10000000
00000000
00010000
10000000
00010000
00000000
10000000
00010000
10000000
00000000
00010000
10000000
00010000
00000000
,
01000000
00001000
00100000
00000000
00001000
00100000
00010000
00000000
00100000
00001000
01000000
00000000
00010000
00100000
00001000
00000000
,
00010000
00000100
00001000
00000000
00000100
00010000
00000010
00000000
00010000
00000010
00001000
00000000
00000010
00010000
00000100
00000000
,
00001000
00000001
00000100
00000000
00000001
00000010
00000100
00000000
00010000
00001000
00010000
00000000
00001000
01000000
00100000
00000000
,
10000000
01000000
00100000
00000000
00001000
00010000
00001000
00000000
00010000
00000100
00000010
00000000
00000001
00000100
00000010
00000000
,
00001000
00000100
00010000
00000000
00001000
00100000
00010000
00000000
10000000
00000000
01000000
00000000
00010000
00000000
00001000
00000000
,
00000100
00000000
00000001
00000000
00000010
00000000
00001000
00000000
00010000
00000000
00100000
00000000
10000000
00000000
00010000
00100000
,
01000000
10000000
00000000
00010000
01000000
00001000
00010000
00001000
00010000
00000100
00000000
00001000
00000010
00001000
00000001
00000010
,
00000100
00001000
00000000
00000010
00010000
00001000
00010000
00001000
01000000
00010000
00000000
00100000
01000000
10000000
00010000
01000000
,
00001000
00010000
00000000
00001000
00010000
00000100
00001000
00000001
00000100
00000010
00000000
00010000
00001000
00100000
00010000
01000000
,
00010000
10000000
00000000
01000000
00100000
00010000
01000000
00001000
00010000
00001000
00000000
00010000
00000100
00001000
00000010
00000100
,
00000001
00001000
00000000
00000100
00000010
00000001
00001000
00000010
00010000
00001000
00000000
01000000
00010000
01000000
00100000
10000000
,
00010000
00100000
00000000
01000000
10000000
00010000
01000000
00100000
01000000
00001000
00000000
00010000
00001000
00010000
00000010
00001000
,
00000010
00000100
00000000
00000001
00001000
00000100
00001000
00000100
00010000
00001000
00000000
00100000
00001000
00010000
00001000
01000000
,
00010000
10000000
00000000
01000000
00100000
00010000
10000000
00100000
01000000
00100000
00000000
10000000
00010000
00100000
01000000
00100000
,
00002000
00000000
00020000
00000000
00000100
00033000
00010000
00000010
,
00002000
00003200
00000310
00000001
00000100
00001000
00010000
00001000
,
02000000
00000000
00020000
00000000
00100000
03030000
00010000
10000000
,
02000000
03200000
00310000
01000000
00001000
00010000
00000010
00001000
,
00000200
00000000
00020000
00000000
00001000
00030300
00010000
00000010
,
00000200
00000302
00000013
00000100
00010000
00001000
00010000
01000000
,
00200000
00000000
00020000
00000000
00001000
00330000
00100000
01000000
,
20000000
30020000
01030000
00001000
00010000
00000010
00001000
00000100
,
00002200
00000000
00000000
00010000
00010000
00000000
00003300
00000000
,
00020200
00000000
00000000
00001000
00001000
00000000
00030300
00000000
,
00022000
00000000
00000000
00100000
00100000
00000000
01033000
00000000
,
02002000
00000000
00000000
00010000
00010000
00000000
03103000
00000000
,
01000000
00010000
00100000
00000100
00001000
00000010
00010000
00001000
,
00011000
00000000
00100100
00000000
02000010
00000000
00000000
03000000
,
00010000
00000000
00100000
00000000
00001000
00000000
00010000
00000000
00000100
00000000
00000010
00000000
00000001
00000000
00000100
00000010
,
00001000
00000000
00000100
00000000
00100000
00000000
00010000
00000000
01000000
00000000
00100000
00000000
10000000
00000000
01000000
00100000
,
00010000
00000000
01000000
00000000
00000010
00000000
00001000
00000000
00000100
00000000
00010000
00000000
00000001
00000000
00000100
00000010
,
00001000
00000000
00000100
00000000
01000000
00000000
00010000
00000000
00100000
00000000
01000000
00000000
10000000
00000000
00001000
01000000
,
00010000
00000000
00100000
00000000
00000010
00000000
00001000
00000000
00000100
00000000
00000010
00000000
00000001
00000000
00001000
00000010
,
00010000
00000000
00001000
00000000
00100000
00000000
00000100
00000000
00010000
00000000
00000010
00000000
00000001
00000000
00000010
00001000
,
00000100
00000000
00010000
00000000
00000010
00000000
01000000
00000000
00001000
00000000
00100000
00000000
10000000
00000000
00100000
00010000
,
01000000
00000000
00001000
00000000
00010000
00000000
00001000
00000000
00000100
00000000
00000010
00000000
00000100
00000000
00000001
00000010
,
00000002
00000000
00002000
00000000
00010000
00003003
00000100
00001000
,
00000000
00000010
00010000
00001000
00000000
01001000
00000000
01000000
,
01010000
00000000
00010000
00010000
00110000
01000000
01000000
20000000
,
00000000
00000000
00010000
30002000
00000000
00000000
10003000
00100000
,
20000000
00000000
00020000
00000000
00001000
30030000
01000000
00010000
,
00000000
00100000
00001000
00010000
00000000
00010100
00000000
00000100
,
00001010
00000000
00001000
00001000
00000011
00000100
00001000
00000020
,
00000000
00000000
00100000
00020030
00000000
00000000
00030000
00000000
,
00001000
00000000
01000000
00010000
10000000
00000000
01000000
00100000
00001000
00000000
00010000
00000000
00000200
00000000
00000000
00000000
,
00001300
00000010
00000000
00000100
00000001
00001000
00000100
00000010
00000001
00001000
00000000
00000010
00010000
00001000
01000000
00001000
,
00010000
00000100
00000000
00001000
00000010
00010000
00001000
00010000
00001000
01000000
00000000
00010000
00100000
01000000
10000000
00010000
,
01000000
00100000
00000000
01000000
00001000
00010000
00000010
00010000
00001000
00100000
00000000
00010000
01000000
00001000
00010000
00000100
,
00001000
00000010
00000000
00001000
00000001
00000010
00000100
00000010
00000001
00001000
00000000
00000100
00010000
00001000
00100000
00001000
,
00010000
00000010
00000000
00001000
00000100
00010000
00001000
00010000
00001000
00100000
00000000
00010000
01000000
00100000
10000000
00010000
,
01000000
00010000
00000000
00100000
00001000
00010000
00000100
00010000
00001000
01000000
00000000
00010000
00100000
00001000
00010000
00001000
,
00010000
00000010
00000000
00001000
00000001
00000010
00000100
00001000
00000001
00000100
00000000
00000010
00010000
00001000
01000000
00001000
,
00010000
00000010
00000000
00010000
00001000
00100000
00010000
01000000
00100000
10000000
00000000
00010000
00100000
01000000
00100000
00001000
,
00020000
00000000
00002000
00000000
00000010
00033000
00010000
00001000
,
00000020
00000032
00001003
00000100
00000010
00000100
00010000
00001000
,
00002000
00000000
00020000
00000000
01000000
00033000
00001000
00100000
,
00020000
20030000
31000000
00100000
00001000
00010000
01000000
00010000
,
00002000
00000000
02000000
00000000
00100000
03003000
01000000
00001000
,
00020000
00030200
00001300
00000010
00000100
00000010
00010000
00001000
,
00020000
00000000
00000200
00000000
00000010
00030300
00000100
00010000
,
00002000
02003000
03010000
00100000
01000000
00100000
00001000
00010000
,
00020200
00000000
00000000
00000000
00000000
00000000
00000000
00030300
;
