#TITLE:Machines Will Fall;
#SUBTITLE:Dreamerz;
#ARTIST:Imperfect Disciple;
#TITLETRANSLIT:;
#SUBTITLETRANSLIT:;
#ARTISTTRANSLIT:;
#GENRE:Drum & Bass;
#CREDIT:Sync by HellRazoR;
#BANNER:Machines Will Fall-bn.png;
#BACKGROUND:Machines Will Fall-bg.png;
#LYRICSPATH:;
#CDTITLE:;
#MUSIC:Machines Will Fall.ogg;
#OFFSET:-0.022;
#SAMPLESTART:58.380;
#SAMPLELENGTH:7.480;
#SELECTABLE:YES;
#DISPLAYBPM:150.000;
#BPMS:0.000=150.000,144.000=75.000,148.000=150.000,212.000=75.000,212.750=37.500;
#STOPS:212.000=0.600
,212.250=0.600
,212.500=0.600
,212.750=1.200
,213.000=0.200
,213.125=0.600
,213.250=0.200
;
#BGCHANGES:0.000=Machines Will Fall-bg.png=1.000=0=0=1=====,
16.000=In The Groove Rebirth/877_JumpBack.mpg=1.000=0=0=1=====,
32.000=In The Groove Rebirth/203_JB_HD.mpg=1.000=0=0=1=====,
48.000=In The Groove Rebirth/207_JB_HD.mpg=1.000=0=0=1=====,
64.000=In The Groove Rebirth/890_JumpBack.mpg=1.000=0=0=1===FadeRight==,
80.000=In The Groove Rebirth/263_JB_HD.mpg=1.000=0=0=1===FadeLeft==,
96.000=In The Groove Rebirth/270_JB_HD.mpg=1.000=0=0=1=====,
112.000=In The Groove Rebirth/877_JumpBack.mpg=1.000=0=0=1=====,
128.000=In The Groove Rebirth/264_JB_HD.mpg=1.000=1=0=1===CrossFade==,
144.000=Machines Will Fall-bg.png=1.000=1=0=1===CrossFade==,
148.000=In The Groove Rebirth/203_JB_HD.mpg=1.000=0=0=1=====,
164.000=In The Groove Rebirth/208_JB_HD.mpg=1.000=0=0=1=====,
180.000=In The Groove Rebirth/204_JB_HD.mpg=1.000=0=0=1=====,
196.000=In The Groove Rebirth/308_JB_HD.mpg=1.000=0=0=1===FadeRight==,
212.000=Machines Will Fall-bg.png=1.000=0=0=1=====,
99999=-nosongbg-=1.000=0=0=0 // don't automatically add -songbackground-
;
#BGCHANGES2:16.000=white flash=1.000=0=0=1=====,
48.000=white flash=1.000=0=0=1=====,
112.000=yellow flash=1.000=0=0=1=====,
211.000=white flash=0.400=0=0=1=====,
;
#KEYSOUNDS:;

//---------------dance-single - M. Simmons----------------
#NOTES:
     dance-single:
     M. Simmons:
     Challenge:
     11:
     0.753,0.143,0.553,0.223,0.722:
0000
0000
0000
0000
,
0001
0000
0000
0010
0000
0000
0100
0000
0000
0010
0000
0000
0001
0000
0001
0000
,
1000
0000
0000
0010
0000
0000
0100
0000
0000
0010
0000
0000
1000
0000
1000
0000
,
0100
0000
0000
0000
0000
0000
0010
0000
0000
0001
0000
0000
0100
0000
0000
0000
0000
0000
0010
0000
0000
1000
0000
0000
0001
0000
0010
0000
0001
0000
1000
0000
0000
0001
0000
0000
0010
0000
0100
0000
1000
0000
0100
0000
0000
0010
0000
0000
,
0001
0000
0000
0011
0000
0000
0110
0000
0000
1100
0000
0000
1001
0000
1001
0000
,
0110
0000
0000
1010
0000
0000
0101
0000
0000
1100
0000
0000
0011
0000
0011
0000
,
0110
0000
0000
1100
0000
0000
0101
0000
0000
1010
0000
0000
0101
0000
0101
0000
,
0011
0000
0000
0110
0000
0000
0011
0000
0000
1010
0000
0000
1001
0000
1001
0000
,
0001
0000
0100
0000
0010
0000
1000
0000
0100
0000
0010
0000
1100
0000
1000
0010
,
0000
0000
0100
0000
0001
0000
0010
0000
0001
0000
1000
0000
0001
1000
0010
1000
,
0000
0000
0010
0000
1000
0000
0001
0000
0010
0000
0001
0000
0101
0000
0010
1000
,
0001
0000
0000
0010
0000
0000
0100
0000
0000
0000
0000
0000
0010
0000
0000
0001
0000
0000
1000
0000
0000
0000
0000
0000
0010
0000
0000
1000
0000
0000
0100
0000
0010
0000
0001
0000
1000
0000
0000
0010
0000
0000
1000
0000
0001
0000
0100
0000
,
0001
0000
0020
0000
0031
1000
0000
1000
0010
0000
0100
0000
0100
0000
0000
0000
,
1010
0000
1000
0200
0000
0000
0310
0000
0001
0000
0010
0002
1003
0000
0100
0000
,
0010
0001
0000
1000
0100
0000
0100
1000
0001
0000
0100
0000
0200
0000
0000
0000
,
0310
0000
0000
1010
0000
0000
1001
0000
0000
0110
0000
0000
0011
0000
0011
0000
,
0002
1000
0013
0002
0000
1003
1010
0000
,
0001
0010
0000
0100
1000
0000
0001
0010
0000
0100
1000
0000
0001
0000
0001
0000
,
0000
0000
1100
0000
0000
0000
0011
0000
0010
0000
0001
0000
1000
0000
0010
1000
,
0000
0000
0000
1001
0000
0000
1001
0000
0000
1001
0000
0000
1001
0000
0000
0000
0000
0000
0001
1000
0001
1000
0001
1000
,
0001
0000
0100
0010
0000
0000
1001
0000
0000
0010
0000
1000
0100
0000
0000
0000
,
1000
0000
0000
0000
0000
0000
0010
0000
0000
0100
0000
0000
0000
0000
0000
0000
0000
0000
0100
0000
0000
0000
0000
0000
0001
0000
0000
1000
0000
0000
0100
0000
0000
1000
0000
0000
0100
0000
0000
0010
0000
0000
0001
0000
1000
0000
0001
0000
,
1000
0000
0010
0100
0000
0000
0110
0000
0000
0001
0000
1000
0100
0000
0000
0000
,
0010
0000
0000
0000
0000
0000
0001
0000
0000
1000
0000
0000
0100
0000
0000
0000
0000
0000
0100
0000
0000
1000
0000
0000
0010
0000
0000
0000
0000
0000
0010
0000
0000
0100
0000
0000
0001
0000
0000
1000
0000
0000
0010
0000
0100
0000
0010
0000
,
0100
0000
0010
0000
0000
0000
1100
0000
0000
0000
0010
0000
0001
0000
1000
0010
,
0000
0000
0000
0000
0000
0000
0000
0000
0000
0000
0000
0000
0010
0000
0000
1000
0000
0000
0100
0000
0000
0000
0000
0000
1000
0000
0000
0000
0000
0000
0010
0000
0000
0000
0000
0000
0100
0000
0001
0000
0100
0000
0010
0000
0000
0000
0000
0000
,
0000
0000
1100
0000
0000
0000
0010
0000
0001
0000
1000
0000
0010
0000
0001
0020
,
0000
1030
0010
0100
1001
0000
0210
0000
,
0310
0000
1000
0000
0100
0000
1000
0000
0001
0000
0010
0000
0001
1000
0100
1000
,
0010
0000
0100
0000
0010
0000
1000
0000
0100
0000
0010
0000
0100
1000
0010
1000
,
0100
0000
0010
0000
0001
0100
0001
0010
0001
0000
1000
0000
0010
0100
0001
1000
,
0100
0000
0000
0000
0000
0000
0020
0000
0000
0000
0000
0000
0000
0000
0000
0000
0000
0000
0130
0000
0000
0000
0000
0000
1000
0000
0010
0000
1000
0000
0001
0000
0000
1000
0000
0000
0001
0000
0100
0000
0001
0000
1000
0000
0000
0100
0000
0000
,
0010
0000
0000
0100
1000
0001
1000
0000
0000
0010
0000
0000
1000
0000
0000
0001
0010
0001
1000
0000
0000
0100
0000
0000
,
0010
0000
0000
0100
1000
0001
1000
0000
0000
0010
0000
0000
1000
0000
0000
0001
0100
0001
1000
0000
0000
0010
0000
0000
,
0100
0001
1000
0100
0000
0000
0010
0001
1000
0010
0000
0000
1000
0001
0100
0001
0000
0000
1000
0100
0010
0001
0000
0000
,
1000
0000
0100
0000
1000
0000
0001
0000
1000
0000
0100
0000
1000
0000
0000
0001
0000
0000
1000
0000
0100
0000
0010
0000
0001
0000
1000
0000
0100
0000
0010
0000
0000
0100
0000
0000
1000
0000
0001
0000
0100
0000
0010
0000
1000
0000
0002
0000
,
2000
0000
0000
0000
0000
0000
0000
0000
0000
0000
0000
0000
0000
0000
0000
0000
0000
3003
0000
0000
0000
0000
0000
0000
,
0001
1000
0010
0000
0100
0000
0010
0000
1000
0100
0010
0000
0100
0000
1000
0000
,
0010
0100
0001
0000
1000
0000
0100
0000
1000
0010
0100
0000
0001
0000
1000
0000
,
0100
0010
0001
1000
0001
0000
0101
0000
0000
0000
0001
1000
0100
1000
0010
0000
,
1010
0000
0000
0000
0000
0000
0000
0000
0000
M0M0
0000
0000
0101
0000
0000
0000
0000
0000
0000
0000
0000
0M0M
0000
0000
1010
0000
0000
0000
0000
0000
0010
0000
0000
0000
0000
0000
1000
0000
0100
0000
1000
0000
0001
0000
0000
0100
0000
0000
,
0020
0000
0130
0000
0001
0000
0101
0000
0001
0000
1000
0100
0010
0001
1000
0000
,
0020
0000
1030
0000
0100
0000
1010
0000
0001
0000
1000
0100
1000
0010
1000
0000
,
0001
0000
0100
0010
1000
0000
0100
0010
0001
0000
0100
0010
1000
0000
0100
0010
,
0001
0000
1000
0000
0001
0000
0000
0000
0100
0000
0010
0000
0100
0000
0000
0000
0010
0000
1000
0000
0001
0000
0000
0000
1000
0000
0000
0000
0001
0010
0001
0000
,
1000
0000
0010
0000
0100
0000
0001
0000
1002
0000
0103
0000
2001
0000
3100
1000
,
0010
0000
0100
0000
0001
0000
0010
0000
2100
0000
3010
0000
1200
0000
0310
0001
,
1000
0000
0010
0000
0100
0000
0001
0000
0021
0000
0130
0000
0012
0000
0103
0001
,
1000
0000
0000
0000
1001
0000
0000
0000
0001
0000
0001
0000
1000
0100
0010
0001
,
1000
0000
0010
0000
1000
0000
0100
0000
2010
0000
3100
0000
1020
0000
0130
0001
,
0010
0000
0001
0000
1000
0000
0010
0000
0210
0000
1300
0000
0120
0000
1030
0100
,
0010
0000
0001
1000
0010
0000
0100
0001
0010
0000
0100
1000
0001
0000
0100
0010
,
1000
0100
0010
0000
0001
1000
0001
0000
0100
0010
1000
0000
2200
0000
0000
0000
,
0010
0000
0001
0000
0001
0000
0010
0000
0001
0010
0001
3310
0000
0000
0000
0000
0000
0000
0000
0000
0000
0000
0000
0000
0000
0000
0000
0000
0000
0000
0000
0000
;

//---------------dance-single - D. Bernardone----------------
#NOTES:
     dance-single:
     D. Bernardone:
     Hard:
     9:
     0.536,0.000,0.410,0.054,0.392:
0000
0000
0000
0000
,
0000
0000
0000
0000
,
0000
0000
0000
0000
,
0000
0000
0000
0000
,
0010
0000
0000
0100
0000
0000
0001
0000
0000
0100
0000
0000
1000
0000
0010
0000
,
0001
0000
0000
0010
0000
0000
0100
0000
0000
0001
0000
0000
0010
0000
0100
0000
,
1000
0000
0000
0010
0000
0000
0100
0000
0000
1000
0000
0000
0100
0000
0001
0000
,
1000
0000
0000
0010
0000
0000
0100
0000
0000
0001
0000
0000
0010
0000
0100
0000
,
0010
0000
0000
0000
1100
0000
0000
0000
0000
0000
0001
0000
0001
0000
0100
0010
,
0100
0000
0000
0000
1010
0000
0000
0000
0000
0000
0001
0000
0001
1000
0001
1000
,
0100
0000
0010
0001
0010
0000
0001
0100
0001
0000
1000
0010
1000
0000
0100
1000
,
0100
1000
0100
0000
1000
0001
1000
0000
0010
0100
0010
0000
0100
0001
1000
0001
,
0020
0000
0000
0100
0000
0000
0001
0000
0100
0000
0100
0000
0130
0000
0000
0000
,
1010
0000
0000
0101
0000
0000
1100
0000
0000
0110
0000
0000
1001
0000
0000
0000
,
0002
0000
0000
1000
0000
0000
0010
0000
1000
0000
1000
0000
1003
0000
0000
0000
,
1010
0000
0000
0110
0000
0000
1010
0000
0000
1100
0000
0000
0011
0000
0000
0000
,
0001
0000
0200
0010
0000
0000
0001
0000
0010
0000
0010
0000
0310
0000
0000
0000
,
1100
0000
0000
0101
0000
0000
1100
0000
0000
0110
0000
0000
0110
0000
0000
0000
,
1000
0000
0020
0100
0000
0000
1000
0000
0100
0000
0100
0000
0130
0000
0000
0000
,
0001
0000
0000
1010
0000
0000
0011
0000
1000
0000
0010
0000
0100
0001
0100
0001
,
1000
0000
0000
0000
0100
0000
M001
0000
0100
0000
0000
0000
0100
0000
0000
0010
,
M10M
0000
0000
0000
0100
0000
M001
0000
0100
0000
0000
0000
11MM
0000
0000
0100
,
001M
0000
0000
0000
0010
0000
100M
0000
0010
0000
0000
0000
0010
0000
0000
0100
,
M01M
0000
0000
0000
0010
0000
100M
0000
0010
0000
0000
0000
1001
0000
0000
0100
,
M010
0000
0000
0000
0010
0000
M001
0000
0010
0000
0000
0000
0010
0000
0000
0100
,
M01M
0000
0000
0000
0010
0000
M001
0000
0010
0000
0000
0000
1M1M
0000
0000
0010
,
010M
0000
0000
0000
0100
0000
100M
0000
0100
0000
0000
0000
0100
0000
0000
0010
,
M10M
0000
0100
100M
0100
0000
M11M
0000
,
0001
0000
0100
0000
0001
0000
0100
0000
0001
0000
0100
0000
0010
1000
0010
1000
,
0100
0000
1000
0000
0100
0000
1000
0000
0100
0000
1000
0000
0001
0010
0001
0010
,
0100
0000
0010
0000
0001
1000
0001
1000
0100
0000
1000
0000
0100
0010
0100
0010
,
0001
0000
0010
0000
1001
00M0
0000
00M0
1001
00M0
0000
0000
0010
0001
0010
0001
,
1000
0000
0010
0000
1000
0000
0010
0000
1000
0000
0010
0000
0100
0001
0100
0001
,
0010
0000
0001
0000
0010
0000
0001
0000
0010
0000
0001
0000
1000
0100
1000
0100
,
0010
0000
0100
0000
1000
0001
1000
0001
0010
0000
0001
0000
0010
0100
0010
0100
,
1000
0000
0001
M000
0101
0000
M100
0000
0101
M000
0010
0000
1000
0100
0010
0001
,
0200
0000
0000
0300
0000
0000
0000
0000
,
0010
0001
0010
0100
0010
1000
0010
0000
,
0100
0101
0000
1100
0000
0101
0000
1010
,
0001
0110
0000
1001
0000
0011
0000
1010
,
0101
0000
0000
0000
0101
0000
0000
0000
1000
0000
1000
0000
0001
0010
0001
0010
,
0001
0100
1000
0100
0010
0100
0001
0000
,
1000
1100
0000
0110
0000
0011
0000
1001
,
0100
0101
0000
0110
0000
1010
0000
1001
,
0010
0100
0010
0001
0010
1000
0010
0010
,
1000
0000
0100
0000
0001
0000
0100
0000
1000
0000
0M00
0000
1000
0000
0100
0001
,
0100
0000
1000
0000
0010
0000
0100
0000
0001
0000
0MM0
0000
0001
0000
1000
0001
,
1000
0000
0001
0000
0010
0000
0001
0000
1000
0000
0001
0000
0100
0000
0010
0001
,
0010
0000
0000
0000
M11M
0000
0000
0000
0010
0000
0010
0000
0010
0100
0010
0100
,
0001
0000
0010
0000
0100
0000
1000
0000
0001
0000
0010
0000
0100
0000
1000
0010
,
0100
0000
0001
0000
1000
0000
0010
0000
0100
0000
0001
0000
1000
0000
0100
0010
,
0001
0000
1000
0100
0010
0000
0001
1000
0010
0000
1000
0001
0100
0000
0010
0100
,
0010
0100
0010
0000
0100
0001
1000
0000
0100
1000
0001
0000
0010
0001
0100
0010
,
2000
0000
0MMM
0000
0MMM
0000
0MMM
0000
0MMM
0MMM
0MMM
3MMM
0000
0000
0000
0000
0000
0000
0000
0000
0000
0000
0000
0000
0000
0000
0000
0000
0000
0000
0000
0000
;

//---------------dance-single - ?----------------
#NOTES:
     dance-single:
     ?:
     Medium:
     7:
     0.403,0.000,0.107,0.036,0.054: // measure 1
0000
0000
0000
0000
,  // measure 2
0000
0000
0000
0000
,  // measure 3
0010
0000
0000
0100
0000
0000
0010
0000
0000
0100
0000
0000
0010
0000
0010
0000
,  // measure 4
0100
0000
0000
0001
0000
0000
0100
0000
0000
0001
0000
0000
0010
0000
0100
0000
,  // measure 5
1000
0010
0100
0000
0001
0100
0010
0000
,  // measure 6
1000
0010
0100
0001
0000
0010
0100
0000
,  // measure 7
1000
0001
0010
0000
0100
1000
0010
0000
,  // measure 8
1000
0010
0100
0001
0000
0010
0100
0000
,  // measure 9
1000
1000
0100
0100
,  // measure 10
0010
0010
0001
0001
,  // measure 11
0001
0010
0100
1000
0001
0010
0100
1000
,  // measure 12
0010
0100
0001
1000
0010
0100
0001
1000
,  // measure 13
0100
0000
0010
0000
0001
0010
0200
0000
,  // measure 14
1300
0000
0000
0010
0000
0000
0100
0000
0000
0001
0000
0000
0010
0000
0100
0000
,  // measure 15
1000
0000
0010
0000
0100
0001
0020
0000
,  // measure 16
0130
0000
0000
1000
0000
0000
0010
0000
0000
0100
0000
0000
0001
0000
0010
0000
,  // measure 17
0100
0000
1000
0000
0100
1000
0100
0010
,  // measure 18
0001
0000
0000
0100
0000
0000
0010
0000
0000
1000
0000
0000
0100
0000
0010
0000
,  // measure 19
0001
0000
0100
0000
0010
1000
0010
0100
,  // measure 20
0001
0000
0000
1000
0000
0000
0001
0000
0000
0001
0000
0000
0100
0000
0010
0000
,  // measure 21
1000
0010
0200
0000
0301
0100
0020
0000
,  // measure 22
1030
0010
0100
0001
0000
0010
0100
0000
,  // measure 23
1000
0100
0010
0000
0010
0100
1000
0000
,  // measure 24
0010
0100
0001
1000
0000
0100
0010
0000
,  // measure 25
0001
1000
0100
1000
0010
0000
0100
0000
,  // measure 26
0010
0100
0001
0010
0100
0000
1000
0000
,  // measure 27
0010
0100
0001
1000
0010
0000
0100
0000
,  // measure 28
0010
0100
0001
0100
0010
0000
1000
0000
,  // measure 29
1000
0100
1000
0000
0001
0010
0001
0000
,  // measure 30
0100
0010
0100
0000
0101
0000
1010
0000
,  // measure 31
0001
0010
0001
0000
1000
0100
1000
0000
,  // measure 32
0010
0100
0001
0000
1010
0000
0101
0000
,  // measure 33
0001
0100
0001
0000
0010
0100
1000
0000
,  // measure 34
0010
0100
0001
1000
0010
0000
0101
0000
,  // measure 35
0010
0100
0001
1000
0100
1000
0010
0100
,  // measure 36
0001
1000
0100
0010
0100
1000
0010
0100
,  // measure 37
0001
0000
0000
0000
,  // measure 38
1000
0100
0000
0100
1000
0000
0010
0000
,  // measure 39
0100
0000
0010
0100
0000
0100
0001
0000
,  // measure 40
0010
0100
0000
0100
0010
0000
0001
0000
,  // measure 41
0010
0100
1000
0100
0000
0010
0001
0000
,  // measure 42
1000
0100
1000
0000
0001
0010
0001
0000
,  // measure 43
1000
0100
0010
0001
0000
0100
0010
0000
,  // measure 44
1000
0010
0100
0000
0001
0010
0001
0000
,  // measure 45
0010
0100
1000
0100
0010
0000
0101
0000
,  // measure 46
1000
0100
1000
0000
0001
0010
0001
0000
,  // measure 47
0100
0010
0100
0000
0101
0000
1010
0000
,  // measure 48
0010
0100
0001
0000
0010
0100
1000
0000
,  // measure 49
0100
1000
0001
0000
0101
0000
1010
0000
,  // measure 50
0001
0010
0001
0000
1000
0010
1000
0000
,  // measure 51
0010
0100
0001
0000
0101
0000
1010
0000
,  // measure 52
0010
0100
0001
1000
0010
0100
0001
1000
,  // measure 53
0100
0010
0001
0010
0100
1000
0010
0100
,  // measure 54
0001
0000
0000
0000
;

//---------------dance-single - R. Uchima----------------
#NOTES:
     dance-single:
     R. Uchima:
     Easy:
     4:
     0.288,0.000,0.241,0.098,0.000:
0000
0000
0000
0000
,
0000
0000
0000
0000
,
0000
0000
0000
0000
,
0000
0000
0000
0000
,
1000
0000
0000
0010
0000
0000
0100
0000
,
0001
0000
0000
0010
0000
0000
0100
0000
,
1000
0000
0000
0010
0000
0000
1000
0000
,
0100
0000
0000
0010
0000
0000
0001
0000
,
0100
0110
0010
1010
,
1000
1100
0100
0110
,
0010
0001
0100
0010
,
0100
0001
0010
0011
,
0001
0100
0110
0000
,
0100
0010
1000
0100
,
0010
0001
0101
0000
,
1000
0100
1000
0010
,
0100
0001
1010
0000
,
1000
0001
1000
0001
,
0100
0010
0101
0000
,
0010
1000
0100
0010
,
0001
0100
0010
0100
,
0001
0010
0110
0011
,
0001
1000
0100
1000
,
0010
1000
1010
0110
,
0100
0001
0010
0100
,
0010
0001
0011
0101
,
0100
0010
1000
0001
,
1000
0100
1100
0011
,
0210
0000
0000
0000
0010
0000
1000
0300
,
2000
0000
0000
0000
0010
0000
0001
3000
,
0002
0000
0000
0000
1000
0000
0010
0003
,
0020
0000
0000
0000
0001
0000
0100
0030
,
0200
0000
0010
0000
1000
0000
0010
0300
,
0020
0000
0001
0000
0100
0000
0001
0030
,
0002
0000
0010
0000
1000
0000
0010
0003
,
2000
0000
0010
0000
0001
0000
0100
3000
,
1200
0000
M000
0300
,
1000
1000
0000
0010
0000
0100
0000
0001
,
0001
0001
0000
0010
0000
0001
0000
0100
,
0100
0100
0000
0010
0000
1000
0000
0010
,
0010
1000
1001
0110
,
1000
1000
0000
0100
0000
0010
0000
0001
,
0001
0001
0000
0100
0000
0010
0000
0100
,
0100
0100
0000
0010
0000
1000
0000
0010
,
0010
1000
1100
0011
,
0001
0100
0010
0100
,
0001
0010
0100
1000
,
0010
1000
0100
1000
,
0001
0100
0110
0110
,
0010
1000
0100
1000
,
0010
0100
0001
0010
,
0001
0100
0010
1000
,
0001
1000
0100
1010
,
0220
0000
0000
0330
0000
0000
0000
0000
;

//---------------dance-single - R. Uchima----------------
#NOTES:
     dance-single:
     R. Uchima:
     Beginner:
     1:
     0.106,0.000,0.125,0.000,0.000:
0000
0000
0000
0000
,
0000
0000
0000
0000
,
0000
0000
0000
0000
,
0000
0000
0000
0000
,
1001
0000
0000
0000
,
1001
0000
0000
0000
,
0110
0000
0000
0000
,
0110
0000
0000
0000
,
1000
0000
0000
0000
,
0010
0000
0000
0000
,
0100
0000
0000
0000
,
0001
0000
1000
0000
,
1001
0000
0000
0000
,
0001
0000
0001
0000
,
0001
0000
0000
0000
,
0100
0000
0100
0000
,
0100
0000
0000
0000
,
0010
0000
0010
0000
,
0010
0000
0000
0000
,
1000
0000
1000
0000
,
1000
0000
0000
0000
,
0001
0000
0000
0000
,
0010
0000
0000
0000
,
0100
0000
0000
0000
,
0010
0000
0001
0000
,
1000
0000
0100
0000
,
1000
0000
0001
0000
,
1000
0000
0000
0000
,
1001
0000
0000
0000
,
0010
0000
1000
0000
,
0010
0000
0000
0000
,
0100
0000
0001
0000
,
0100
0000
0000
0000
,
0010
0000
1000
0000
,
0100
0000
0000
0000
,
0010
0000
0001
0000
,
0100
0000
0000
0000
,
1001
0000
0000
0000
,
0110
0000
0000
0000
,
1001
0000
0000
0000
,
1000
0000
0010
0000
,
0110
0000
0000
0000
,
1001
0000
0000
0000
,
0110
0000
0000
0000
,
1000
0000
0100
0000
,
0010
0000
0100
0000
,
0010
0000
0001
0000
,
0100
0000
0000
0000
,
0110
0000
0000
0000
,
1000
0000
0010
0000
,
0100
0000
0001
0000
,
0010
0000
0100
0000
,
1000
0000
0000
0000
,
1001
0000
0000
0000
;

//---------------dance-double - M. Simmons----------------
#NOTES:
     dance-double:
     M. Simmons:
     Challenge:
     11:
     0.666,0.167,0.375,0.116,0.544:
00000000
00000000
00000000
00000000
,
00010000
00000000
00000000
00100000
00000000
00000000
00001000
00000000
00000000
00100000
00000000
00000000
00010000
00000000
01010000
00000000
,
01000000
00000000
00000000
00001000
00000000
00000000
00010000
00000000
00000000
00000100
00000000
00000000
00010000
00000000
00010100
00000000
,
00000100
00000000
00000000
00000010
00000000
00000000
00000001
00000000
00000000
00000100
00000000
00000000
00000001
00000000
00000101
00000000
,
00000010
00000000
00001000
00000100
00000000
00000000
00010000
00000000
00001000
00000000
01000000
00000000
00100000
00000000
10000000
00000000
,
01000000
00000000
00100000
00010000
00000000
00000000
01000000
00000000
00001000
00000000
00100000
00000000
00010000
00000000
10000000
00000000
,
01000000
00000000
10000000
00100000
00000000
00000000
01000000
00000000
00001000
00000000
00010000
00000000
00000100
00000000
00010000
00000000
,
00000010
00000000
00000100
00000001
00000000
00000000
00000010
00000000
00000100
00000000
00010000
00000000
00000010
00000000
00010000
00000000
,
00000100
00000000
00000000
00000000
00011000
00000000
00000000
00000000
00000000
00000000
00100000
00000000
00110000
00000000
00100000
00010000
,
00000000
00000000
00000000
00000000
01010000
00000000
00000000
00000000
00000000
00000000
00010000
00000000
01000000
00100000
10000000
01000000
,
10000000
00000000
01000000
00100000
01000000
00000000
00100000
00000000
00010000
00000000
00100000
00001000
00010000
00001000
01000000
00000000
,
00100000
10000000
00010000
00000000
00100000
01000000
10000000
00000000
01000000
00100000
00001000
00010000
00000100
00000010
00000001
00001000
,
00000020
00000000
00000000
00000230
00000000
00000000
00000301
00000000
00001000
00000000
00000001
00000010
00000100
00000000
00000000
00000000
,
00020000
00000000
00000000
00032000
00000000
00000000
00003200
00000000
00000000
00002300
00000000
00000000
00013000
00000000
01000000
00000000
,
00100000
00000000
00000000
00010000
00100000
00000000
01000000
10000000
00100000
00000000
10100000
00000000
20010000
00000000
00000000
00000000
,
30100000
00000000
01000000
00010000
00100000
00000000
00010000
00100000
00001000
00000000
00000100
00000000
00000010
00000000
00010000
00000000
,
00100000
01000000
00001000
00000100
00000000
00001100
00001100
00000000
,
00000010
00000000
00010000
00001000
00000000
00100000
00010000
00000000
01000000
00200000
00000000
00000000
10300000
01000000
10000000
00000000
,
01000000
00000000
00100000
00000000
00001000
00000000
00010000
00000000
00000100
00000000
00010000
00000000
00000010
00000000
00000100
00000010
,
00000100
00000110
00000110
00000110
00000440
00000000
00000000
00000330
,
00000000
00000000
00000000
00000010
00001000
00000000
00001100
00000000
00000000
00000100
00000000
00010000
00001000
00000000
00000000
00000000
,
01000000
00000000
01000000
10000000
00000000
00000000
01000000
00000000
00010000
00100000
00000000
01000000
00100000
00001000
01000000
00100000
,
10000000
00000000
01000000
00100000
00000000
00000000
00110000
00000000
00000000
00001000
00000000
00100000
00001000
00000000
00000000
00000000
,
00010000
00000000
00000000
00000000
00000000
00000000
00010000
00000000
00000000
00000100
00000000
00000000
00010000
00000000
00000000
00000000
00000000
00000000
00010000
00000000
00000000
00000000
00000000
00000000
00000100
00000000
00000000
00000000
00000000
00000000
00000100
00000000
00000000
00010000
00000000
00000000
00000100
00000000
00000000
00000000
00000000
00000000
00000100
00000000
00010000
00000000
00000100
00000000
,
00010000
00011000
00000000
00101000
00000000
00010100
00001100
00000001
,
00000000
00000000
00000000
00000000
00000000
00000000
00000000
00000000
00000000
00000000
00000000
00000000
00000100
00000000
00000000
00000010
00000000
00000000
00010000
00000000
00000000
00000000
00000000
00000000
00000100
00000000
00000000
00000000
00000000
00000000
00010000
00000000
00000000
00000000
00000000
00000000
00010000
00000000
00000010
00000000
00010000
00000000
00000010
00000000
00000000
00010000
00000000
00000000
,
00000000
00000000
00011000
00000000
00000000
00000000
01100000
00000000
00100000
00000000
10000000
00000000
01000000
00000000
00100000
01000000
,
00000000
10010000
01010000
00110000
20010000
00000000
0MMM0000
00000000
,
31000000
00000000
00010000
00000000
00001000
00000000
00000100
00000000
00000010
00000000
00010000
00000000
00000100
00010000
00000010
00000100
,
00000010
00000000
00010000
00000000
00000100
00000000
00010000
00000000
00001000
00000000
01000000
00000000
00100000
10000000
01000000
10000000
,
00100000
00000000
01000000
00000000
00010000
00000000
00100000
00000000
01000000
00000000
00010000
00000000
00001000
01000000
00100000
01000000
,
00001000
00000000
00000000
00020000
00000000
00000000
00000000
00000000
00000000
00031000
00000000
00000000
00000100
00000000
00000000
00000010
00000000
00000000
00001000
00000010
00001000
00000010
00001000
00000010
,
00001000
00000000
00000001
00000000
00000010
00000100
00001000
00000000
00000010
00000000
00010000
00000000
00000100
00000010
00000001
00000000
,
00000100
00000000
00001000
00000000
00010000
01000000
00100000
00000000
00010000
00000000
10000000
00000000
00100000
01000000
00010000
00000000
,
10000000
00000000
01000000
00100000
00010000
00000000
01000000
00100000
10000000
00000000
00010000
00100000
00001000
00000000
00010000
00000100
,
00000010
00000001
00001000
00000000
00000010
00000100
00000010
00000000
00010000
00000100
00000010
00000001
00000100
00000010
00010000
00002000
,
00000200
00000000
00000000
00003300
,
00011000
00000000
00010000
00000000
01000000
00000000
10000000
00000000
00100000
00000000
10000000
00000000
01000000
00100000
00010000
01000000
,
00010000
00000000
00100000
00000000
00001000
00000000
00010000
00000000
00000100
00000000
00000010
00000000
00000100
00010000
00000001
00000100
,
00000010
00000000
00000100
00000000
00001000
00000000
00010000
00000000
00001000
00000000
00100000
00000000
01000000
10000000
00100000
01000000
,
00100000
00000000
00000000
00000000
01001000
00000000
00000000
00000000
00001000
00000000
00100000
00000000
01000000
10000000
01000000
10000000
,
11000000
00000000
01000000
00000000
00100000
00000000
00001000
00000000
00010000
00000000
00000010
00000000
00000100
00000010
00001000
00000100
,
00010000
00000000
00001000
00000000
00000100
00000000
00000010
00000000
00000001
00000000
00000010
00000000
00001000
00000100
00010000
00000100
,
00000010
00000000
00000001
00000010
00000001
00000000
00001000
00000010
00001000
00000000
00000100
00010000
00000100
00000000
00010000
00001000
,
01000000
00010000
01000000
00000000
00100000
10000000
00100000
00000000
10000000
01000000
10000000
00000000
40000000
00000000
00010000
00000000
,
30010000
00000000
00100000
00000000
01100000
00000000
00100000
00000000
00001000
00000000
00010000
00000100
00010000
00000000
00000100
00010000
,
00000100
00000000
00000010
00000000
00000011
00000000
00000010
00000000
00000100
00000000
00010000
00000100
00010000
00000000
00000100
00010000
,
00000100
00000000
00010000
00000000
00011000
00000000
00001000
00000000
00010000
00000000
00001000
00100000
00001000
00000000
01000000
00100000
,
01000000
00000000
00000000
00000000
10010000
00000000
00000000
00000000
00010000
00000000
00110000
00000000
00100000
01000000
00100000
00010000
,
00100000
00000000
00001000
00000000
00010000
00000000
00000100
00000000
00000010
00000000
00000001
00000000
00001000
00000100
00010000
00000010
,
00010000
00000000
00001000
00000000
01000000
00000000
00100000
00000000
10000000
00000000
00010000
00000000
01000000
00010000
00100000
00001000
,
00010000
00000000
00000100
00001000
00000010
00000000
00000100
00000001
00000010
00000000
00000100
00010000
00000010
00000000
00010000
00001000
,
00010000
00001000
01000000
00000000
00100000
10000000
00100000
00000000
01000000
00010000
00100000
00000000
02100000
00000000
00000000
00000000
,
03100000
00000000
00000110
00000000
01100000
00000000
00100010
00000000
10010000
00110000
00001001
00000011
00000000
00000000
00000000
00000000
00000000
00000000
00000000
00000000
00000000
00000000
00000000
00000000
00000000
00000000
00000000
00000000
00000000
00000000
00000000
00000000
;

//---------------dance-double - M. Simmons----------------
#NOTES:
     dance-double:
     M. Simmons:
     Hard:
     8:
     0.561,0.000,0.339,0.134,0.303:
00000000
00000000
00000000
00000000
,
00000000
00000000
00000000
00000000
,
00001000
00000000
00000000
01000000
00000000
00000000
00100000
00000000
00000000
10000000
00000000
00000000
00010000
00000000
10000000
00000000
,
00010000
00000000
00000000
00100000
00000000
00000000
01000000
00000000
00000000
00100000
00000000
00000000
00001000
00000000
00010000
00000000
,
00000100
00000000
00000000
00000010
00000000
00000000
00000001
00000000
00000000
00001000
00000000
00000000
00000010
00000000
00000100
00000000
,
00000110
00000000
00000000
00000100
00000000
00000000
00000001
00000000
00000000
00001000
00000000
00000000
00000100
00000000
00010000
00000000
,
00010100
00000000
00000000
00010000
00000000
00000000
00001000
00000000
00000000
00100000
00000000
00000000
00001000
00000000
00010000
00000000
,
00011000
00000000
00000000
00010000
00000000
00000000
00000100
00000000
00000000
00010000
00000000
00000000
00001000
00000000
01000000
00000000
,
01001000
00000000
01000000
00000000
00100000
00000000
10000000
00000000
00010000
00000000
01000000
00000000
00100000
00000000
01000000
00100000
,
01000000
00000000
00100000
00000000
10000000
00000000
00010000
00000000
00100000
00000000
01000000
00000000
00100000
00000000
00001000
00100000
,
00001000
00000000
00010000
00000000
00000010
00000000
00000100
00000000
00001000
00000000
00000100
00000000
00000010
00000000
00001000
00000010
,
00001000
00000000
00000010
00000000
00010000
00000000
00000100
00000000
00010000
00000000
00001000
00000000
01000000
00000000
00100000
10000000
,
00200000
00000000
00000000
01000000
00300000
00000000
00100000
00000000
00100000
00000000
01000000
00000000
01010000
00000000
00000000
00000000
,
00010000
00100000
01000000
00100000
00001000
00010000
00000100
00000100
,
00000020
00000000
00000000
00000100
00000030
00000000
00000010
00000000
00000010
00000000
00000001
00000000
00001001
00000000
00000000
00000000
,
00001010
00000000
00000000
00010100
00000000
00000000
00010000
00000000
00001000
00000000
00010000
00000000
00001000
00000000
00020000
00000000
,
00032000
00000000
00000000
01000000
00003000
00000000
00001000
00000000
00001000
00000000
01000000
00000000
01001000
00000000
00000000
00000000
,
00100000
10000000
01000000
10000000
00010000
00100000
01000000
01000000
,
00200000
00000000
00000000
01300000
00000000
00000000
00100000
00000000
00001000
00000000
01000000
00000000
00110000
00000000
00000000
00000000
,
01000000
00001000
00010000
00000100
00020200
00000000
00000000
00030300
,
00010100
00000000
00000000
00010000
00000100
00000000
00000001
00000000
00000100
00000000
00000000
00000000
00010010
00000000
00000000
00000000
,
00011000
00000000
00000000
00001000
01000000
00000000
00100000
00000000
00010000
00000000
00000000
00000000
10100000
00000000
00000000
10000000
,
00010000
00000000
00000000
00100000
01000000
00000000
00100000
00000000
00001000
00000000
00000000
00000000
00001100
00000000
00000000
00000000
,
00000100
00000000
00000000
00000010
00000001
00000000
00001000
00000000
00000010
00000000
00000010
00000000
00001010
00000000
00000000
00000010
,
00010000
00000000
00000000
00010000
00001000
00000000
00001000
00000000
00100000
00000000
00000000
00000000
00101000
00000000
00000000
00000000
,
01010000
00000000
00000000
10000000
00100000
00000000
10000000
00000000
00010000
00000000
00010000
00000000
10100000
00000000
00000000
10000000
,
00100000
00000000
00000000
00000000
01000000
00000000
00001000
00000000
00010000
00001000
00010000
00000000
00011000
00000000
00000000
00000000
,
00010000
00000000
00000100
00000000
00000010
00001000
00000010
00000000
00000011
00000000
00000000
00000000
00002002
00000000
00000003
00000000
,
00003010
00000000
00001000
00000000
00000100
00000000
00010000
00000000
00001000
00000000
01000000
00000000
00100000
10000000
00100000
10000000
,
00100000
00000000
01000000
00000000
00001000
00000000
00100000
00000000
01000000
00000000
00010000
00000000
00001000
00010000
00001000
00010000
,
00001000
00000000
00000100
00000000
00000010
00000000
00000001
00000000
00000010
00000000
00001000
00000000
00000001
00000010
00000001
00000010
,
00000001
00000000
00001000
00000000
00000100
00000000
00000010
00000000
00001000
00000000
00010000
00000000
00041000
00000000
00000000
00030000
,
00001000
00000000
01000000
00000000
00100000
00000000
00010000
00000000
00001000
00000000
10000000
00000000
01000000
00100000
01000000
00100000
,
01000000
00000000
00100000
00000000
00001000
00000000
00010000
00000000
00000010
00000000
00000001
00000000
00000010
00001000
00000010
00001000
,
00000010
00000000
00010000
00000000
00000100
00000010
00000100
00000010
00000100
00000000
00010000
00000000
00001000
00100000
00001000
00100000
,
00001000
00000000
10000000
00000000
00100000
01000000
00100000
01000000
00100000
00000000
10000000
00000000
00010000
01000000
00010000
02000000
,
00020000
00000000
00000000
03030000
,
00000100
00010000
00000010
00010000
00000100
00000010
00001000
00010000
,
00001000
01000000
00100000
00010000
00100000
10000000
00010000
00100000
,
01000000
00010000
00001000
00000100
00000010
00000001
00000010
00001000
,
00000001
00000000
00011000
00000000
10000000
10000000
00010000
00010000
,
01010000
00010000
00100000
01000000
00100000
00001000
00010000
00010000
,
00000100
00000010
00000100
00001000
00000001
00000100
00000010
00000010
,
00001000
00000100
00010000
00001000
01000000
00100000
01000000
01000000
,
00001000
00010000
00001000
00000000
00010000
00000100
00010000
00000000
00000100
00000010
00000100
00000000
00000220
00000000
00000000
00000330
,
00000110
00000000
00000000
00000000
00000100
00000000
00010000
00000000
00010100
00000000
00000000
00000000
00011000
00000000
00000000
00001000
,
01000000
00000000
00000000
00000000
00100000
00000000
00100000
00000000
10100000
00000000
00000000
00000000
10010000
00000000
00000000
00010000
,
01000000
00000000
00000000
00000000
00001000
00000000
00001000
00000000
00011000
00000000
00000000
00000000
00010100
00000000
00000000
00000100
,
00010000
00000000
00000000
00000000
00000100
00000000
00000010
00000000
00000001
00000000
00000001
00000000
00001000
00000010
00001000
00000000
,
00001010
00000000
00000000
00000000
00001000
00000000
00000100
00000000
00010000
00000000
00000000
00000000
00011000
00000000
00000000
00001000
,
01000000
00000000
00000000
00000000
00100000
00000000
00010000
00000000
00100000
00000000
00000000
00000000
10100000
00000000
00000000
10000000
,
01000000
00000000
00000000
00000000
00100000
00000000
00001000
00000000
01000000
00000000
01000000
00000000
00001000
00000000
00000000
00010000
,
00001000
00010000
00001000
00000000
00010000
00000100
00010000
00000000
00000100
00000010
00000100
00000000
00002002
00000000
00000000
00000000
,
00003003
00000000
00000010
00000000
00010000
00000000
00001000
00000000
01000000
00100000
00010000
00001000
00000000
00000000
00000000
00000000
00000000
00000000
00000000
00000000
00000000
00000000
00000000
00000000
00000000
00000000
00000000
00000000
00000000
00000000
00000000
00000000
;

//---------------dance-double - M. Simmons----------------
#NOTES:
     dance-double:
     M. Simmons:
     Medium:
     6:
     0.376,0.000,0.303,0.080,0.089:
00000000
00000000
00000000
00000000
,
00000000
00000000
00000000
00000000
,
00000000
00000000
00000000
00000000
,
00000000
00000000
00000000
00000000
,
00001000
00000000
00000000
00010000
00000000
00000000
00001000
00000000
00000000
00010000
00000000
00000000
00001000
00000000
01000000
00000000
,
00001000
00000000
00000000
01000000
00000000
00000000
00001000
00000000
00000000
01000000
00000000
00000000
00100000
00000000
01000000
00000000
,
00100000
00000000
00000000
01000000
00000000
00000000
00100000
00000000
00000000
01000000
00000000
00000000
00010000
00000000
10000000
00000000
,
00010000
00000000
00000000
10000000
00000000
00000000
00010000
00000000
00000000
10000000
00000000
00000000
01000000
00000000
00100000
00000000
,
00001000
00000000
00011000
00000000
00000000
00010000
00020100
00000000
,
00031000
00000000
00001010
00000000
00000000
00000010
00000210
00000000
,
00000301
00000000
00001001
00000000
00000000
00000010
00001010
00000000
,
00000010
00010000
00000100
00010000
00000010
00010000
00000200
00000000
,
00010300
00000000
00000000
00011000
00000000
00000000
00001000
00000000
00010000
00000000
00000000
00000000
01001000
00000000
00000000
00000000
,
00100000
00000000
00000000
01100000
00000000
00000000
00100000
00000000
10000000
00000000
00100000
00000000
10000000
00000000
00000000
00000000
,
10000000
00000000
00000000
00110000
00000000
00000000
00010000
00000000
00100000
00000000
00000000
00000000
00101000
00000000
00000000
00000000
,
00010000
00000000
00000000
00010100
00000000
00000000
00000100
00000000
00000010
00000000
00000100
00000000
00000010
00000000
00000000
00000000
,
00000001
00000000
00000000
00001001
00000000
00000000
00000010
00000000
00001000
00000000
00000000
00000000
00010100
00000000
00000000
00000000
,
00001000
00000000
00000000
01001000
00000000
00000000
00010000
00000000
01000000
00000000
00010000
00000000
01000000
00000000
00000000
00000000
,
00100000
00000000
00000000
01100000
00000000
00000000
00100000
00000000
10000000
00000000
00000000
00000000
10010000
00000000
00000000
00000000
,
00100000
00001000
01000000
00001000
00200000
00000000
00000000
00000000
,
01300000
10000000
00010000
10010000
,
00100000
00001000
00010000
00011000
,
00010000
00000010
00000100
00001001
,
00000010
00010000
00000100
00000011
,
00000100
00010000
00000010
00010100
,
00001000
00100000
00010000
01010000
,
00100000
10000000
00010000
00110000
,
01000000
00000000
00100000
00000000
00202000
00000000
00000000
00303000
,
00010000
00000000
00001000
00000000
00010000
00000100
00010000
00000000
,
00000010
00000000
00000100
00000000
00000001
00000100
00000010
00000000
,
00010000
00000000
00000100
00000000
00001000
00000100
00001000
00000000
,
00000100
00000000
00010000
00000000
00001000
01000000
00100000
01000000
,
00001000
00000000
01000000
00000000
00100000
10000000
00100000
00000000
,
01000000
00000000
00001000
00000000
00100000
00010000
00100000
00000000
,
00001000
00000000
00010000
00000000
00000010
00001000
00000010
00000000
,
00000100
00000000
00000010
00001000
00000100
00000010
00000001
00000000
,
00002002
00000000
00000000
00003003
,
00000100
00000000
00010000
00000000
00001000
00000000
00100000
00010000
,
00100000
00000000
01000000
00000000
10000000
00000000
00100000
10000000
,
00100000
00000000
01000000
00000000
00001000
00000000
00010000
00001000
,
00010000
00000000
00011000
00000000
00010000
00010000
00001000
00001000
,
00010000
00000000
00000100
00000000
00000010
00000000
00000001
00001000
,
00000010
00000000
00000100
00000000
00000010
00000000
00010000
00000100
,
00000010
00000000
00000100
00000000
00010000
00000000
00001000
01000000
,
00001000
01000000
00001000
00000000
00100000
00010000
00200000
00300000
,
00110000
00000000
00100000
01000000
00100000
00000000
01100000
00000000
,
00100000
00000000
00001000
00100000
00001000
00000000
00011000
00000000
,
00010000
00000000
00000100
00001000
00000100
00000000
00000010
00000000
,
00000001
00001000
00000010
00000000
00000100
00000010
00010000
00000000
,
00000100
00000000
00010000
00001000
01000000
00000000
01001000
00000000
,
00100000
00000000
10000000
00010000
10000000
00000000
10010000
00000000
,
10000000
00000000
00100000
01000000
00010000
00000000
00110000
00000000
,
00100000
01000000
00100000
00000000
00001000
00100000
00001000
00000000
,
00011000
00000000
00010000
00000000
00000100
00000000
00010000
00000000
00001000
00001000
01000000
01000000
00000000
00000000
00000000
00000000
00000000
00000000
00000000
00000000
00000000
00000000
00000000
00000000
00000000
00000000
00000000
00000000
00000000
00000000
00000000
00000000
;

//---------------dance-double - M. Simmons----------------
#NOTES:
     dance-double:
     M. Simmons:
     Easy:
     3:
     0.194,0.000,0.116,0.116,0.000:
00000000
00000000
00000000
00000000
,
00000000
00000000
00000000
00000000
,
00000000
00000000
00000000
00000000
,
00000000
00000000
00000000
00000000
,
10000000
01000000
00100000
00000000
,
00001000
00010000
00001000
00000000
,
00010000
00000100
00000010
00000000
,
00000001
00001000
00000001
00000000
,
00000100
00000000
00000010
00000000
,
00010000
00000000
00000100
00000000
,
00010000
00000000
00001000
00000000
,
01000000
00000000
00100000
00000000
,
02100000
00000000
00000000
00000000
,
03020000
00000000
00100000
00100000
,
00230000
00000000
00000000
00000000
,
02300000
00000000
00100000
00100000
,
03200000
00000000
00000000
00000000
,
00302000
00000000
00010000
00010000
,
00023000
00000000
00000000
00000000
,
00030200
00000000
00000010
00000010
,
00000310
00000000
00000001
00000000
,
00001000
00000000
00000010
00000000
,
00010000
00000000
00000100
00000000
,
00010000
00000000
00001000
00000000
,
00100000
00000000
01000000
00000000
,
10000000
00000000
00100000
00000000
,
01000000
00000000
00100000
00000000
,
01000000
00000000
01001000
00000000
,
00010000
00010000
00010000
00000000
,
00001000
00001000
00001000
00000000
,
00010000
00000100
00000010
00000000
,
00000100
00001000
00000001
00000000
,
00000100
00000100
00000100
00000000
,
00000010
00000010
00000010
00000000
,
00010000
00001000
00010000
00000000
,
00001000
01000000
00100000
00000000
,
02200000
00000000
00000000
03300000
,
01000000
01010000
00000000
00010000
,
00100000
00101000
00000000
00001000
,
00010000
00010100
00000000
00000100
,
00000010
00000110
00000000
00000100
,
00001000
00001001
00000000
00000001
,
00000100
00000110
00000000
00000010
,
00010000
00010010
00000000
00000010
,
00010000
00011000
00000000
00021000
,
00031000
00001000
01000000
00000000
,
00100000
00100000
10000000
00000000
,
00010000
00010000
00100000
00000000
,
01000000
01000000
00100000
00000000
,
00001000
00010000
00001000
00000000
,
00010000
00000100
00000010
00000000
,
00000001
00001000
00000010
00000000
,
00000100
00000010
00001000
00000000
,
00002020
00000000
00000000
00000000
00000000
00003030
00000000
00000000
00000000
00000000
00000000
00000000
00000000
00000000
00000000
00000000
;
