#TITLE:Little Red Riding Hood;
#SUBTITLE:;
#ARTIST:A-Moe;
#TITLETRANSLIT:;
#SUBTITLETRANSLIT:;
#ARTISTTRANSLIT:;
#GENRE:House;
#CREDIT:Sync by HellRazoR;
#BANNER:Little Red Riding Hood-bn.png;
#BACKGROUND:Little Red Riding Hood-bg.png;
#LYRICSPATH:;
#CDTITLE:;
#MUSIC:Little Red Riding Hood.ogg;
#OFFSET:-0.420;
#SAMPLESTART:25.960;
#SAMPLELENGTH:11.960;
#SELECTABLE:YES;
#DISPLAYBPM:150.000;
#BPMS:0.000=150.000;
#STOPS:;
#BGCHANGES:0.000=Little Red Riding Hood-bg.png=1.000=0=0=1=====,
20.000=In The Groove Rebirth/178_JB_HD.mpg=1.000=1=0=1=SongBgWithMovieViz==CrossFade==,
36.000=In The Groove Rebirth/206_JB_HD.mpg=1.000=0=0=1=====,
52.000=In The Groove Rebirth/307_JB_HD.mpg=1.000=0=0=1===SlideUp==,
68.000=Little Red Riding Hood-bg.png=1.000=0=0=1=====,
72.000=In The Groove Rebirth/1358_JumpBack.mpg=1.000=0=0=1=====,
88.000=In The Groove Rebirth/1352_JumpBack.mpg=1.000=0=0=1=====,
104.000=In The Groove Rebirth/1345_JumpBack.mpg=1.000=0=0=1=====,
120.000=In The Groove Rebirth/311_JB_HD.mpg=1.000=0=0=1=====,
136.000=In The Groove Rebirth/307_JB_HD.mpg=1.000=0=0=1=====,
152.000=In The Groove Rebirth/408_JB_HD.mpg=1.000=0=0=1===SlideDown==,
164.000=Little Red Riding Hood-bg.png=1.000=0=0=1====0^0^1^1=,
165.000=Little Red Riding Hood-bg.png=1.000=0=0=1====0^1^0^1=,
166.000=Little Red Riding Hood-bg.png=1.000=0=0=1=====,
168.000=In The Groove Rebirth/888_JumpBack.mpg=1.000=0=0=1=====,
184.000=In The Groove Rebirth/1352_JumpBack.mpg=1.000=0=0=1===SlideLeft==,
196.000=Little Red Riding Hood-bg.png=1.000=0=0=1=====,
200.000=In The Groove Rebirth/307_JB_HD.mpg=1.000=0=0=1=====,
216.000=In The Groove Rebirth/311_JB_HD.mpg=1.000=0=0=1=====,
232.000=Little Red Riding Hood-bg.png=1.000=0=0=1=====,
236.000=In The Groove Rebirth/1358_JumpBack.mpg=1.000=0=0=1=====,
252.000=In The Groove Rebirth/178_JB_HD.mpg=1.000=0=0=1=====,
268.000=Little Red Riding Hood-bg.png=1.000=0=0=1=====,
99999=-nosongbg-=1.000=0=0=0 // don't automatically add -songbackground-
;
#BGCHANGES2:36.000=white flash=1.000=0=0=1=====,
68.000=white flash=1.000=0=0=1=====,
88.000=white flash=1.000=0=0=1=====,
136.000=yellow flash=1.000=0=0=1=====,
167.000=flash=1.000=0=0=1====0.5^0.5^0.5^1=,
196.000=white flash=1.000=0=0=1=====,
232.000=flash=1.000=0=0=1====0.5^0.5^0.5^1=,
252.000=white flash=1.000=0=0=1=====,
268.000=flash=1.000=0=0=1====1^0^0^1=,
;
#KEYSOUNDS:;

//---------------dance-single - M. Simmons----------------
#NOTES:
     dance-single:
     M. Simmons:
     Challenge:
     9:
     0.698,0.000,0.433,0.243,0.649:
0000
0000
0000
0000
,
0000
0000
0000
0000
,
0000
0000
0000
0000
,
0000
0000
0000
0000
,
0000
0000
0000
0000
,
1000
0000
0000
0100
0010
0000
0000
0100
,
1000
0001
0100
0010
1000
0000
0000
0000
,
0002
0000
0000
1003
0200
0000
0000
1300
,
0010
0100
0010
1000
0001
0000
0010
0000
,
1100
0000
0000
0010
0001
0000
1000
0000
0020
0000
0000
0130
0020
0000
0000
0130
,
0020
0000
0000
0000
0130
0000
0001
0000
2000
0000
0000
3001
2000
0000
0000
3001
,
2000
0000
0000
0000
3001
0000
0000
0010
0100
0000
0010
0000
0001
0000
0100
0000
,
0010
0000
0100
0000
0001
0000
0000
0000
1001
0000
0000
0000
1001
0000
0000
1000
,
0010
0000
0000
0010
2000
0000
0000
3010
2000
0000
0000
3010
2000
0000
0000
0000
,
3010
0000
0000
0000
0100
0000
0000
0001
1000
0000
0100
0000
0010
0000
0001
0000
,
1001
0000
0011
0000
0000
0100
1000
0000
,
M010
0000
01M0
M000
0001
0M00
10M0
000M
1000
0000
0M10
M000
010M
00M0
0001
0M00
,
10M0
0000
0001
0010
0000
0100
0000
1000
0010
0000
0100
0000
0001
1000
0001
0100
,
0010
0000
1000
0010
0000
0100
0000
0010
1000
0000
0001
0000
0010
0100
1000
0000
,
0001
0000
0010
0001
0000
1000
0000
0010
0100
0000
0001
0000
0100
0010
1000
0000
,
0001
0000
0010
0100
0000
0010
0000
0100
1000
0000
0001
0100
0000
0010
0000
1000
,
0001
0000
0100
0001
0000
1000
0000
0100
0010
0000
0100
1000
0000
0010
0000
0100
,
0001
0000
1000
0100
0000
0010
0000
0100
1000
0000
0001
0000
0100
0010
0001
0000
,
0010
0000
1000
0001
0000
0100
0000
0001
1000
0000
0100
0000
1000
0010
0100
0000
,
0001
0000
1000
0001
0000
0010
0000
0100
0010
0000
0100
1000
0000
0001
0000
0100
,
0001
0000
1000
0001
0000
0100
0000
0010
0100
0000
0001
1000
0000
0100
0000
0010
,
0001
0000
1000
0100
0000
1000
0000
0001
0100
0000
0010
0000
1000
0100
0010
0000
,
0001
0000
0100
0001
0000
1000
0000
0010
1000
0000
0001
0000
0010
0100
0010
0000
,
0001
0000
1000
0010
0000
1000
0000
0001
0100
0000
0001
1000
0000
0010
0000
1000
,
0001
0000
0010
0100
0000
1000
0000
0100
0010
0000
0001
1000
0000
0001
0000
0100
,
0010
0000
1000
0001
0000
0010
0000
0100
0010
0000
0001
0000
1000
0001
1000
0000
,
0010
0000
0100
0001
0000
1000
0000
0100
0010
0000
0100
0000
1000
0010
0100
0000
,
0010
0000
1000
0001
0000
0010
0000
0100
0010
0000
0001
1000
0000
0010
0000
1000
,
0100
0000
0010
0001
0000
1000
0000
0100
1000
0000
0001
0200
0010
0000
0000
0000
,
0001
0300
0101
0001
1000
0100
0010
0000
,
1100
0000
0101
0001
1000
0010
1000
0000
,
0110
0000
0000
0000
1001
0000
0000
0000
0002
0000
0000
0013
0001
0000
0000
0000
,
0000
1000
0001
0100
0001
1000
0001
0100
,
1001
0000
0110
0010
0100
1000
0010
0000
,
0101
0000
1010
0000
0011
0000
0100
1000
,
0020
0100
0000
0031
,
1MM1
M000
MM11
00M0
11MM
0100
0110
0010
,
0011
0000
0000
0000
1001
0000
0000
0001
0010
0000
0100
0000
1000
0000
0010
0000
,
0110
0000
0000
0000
0101
0000
0000
0001
1000
0000
0100
0000
0010
0000
0001
0000
,
1001
0000
0000
0000
1010
0000
0000
0000
0002
0000
0000
0013
0001
0000
0000
0000
,
0000
0000
1000
0000
0100
0000
1000
0000
0010
0000
0100
0000
0010
1000
0010
0000
,
1010
0000
0000
0000
0101
0000
0000
0001
1000
0000
0100
0000
0010
0000
0100
0000
,
1100
0000
1001
0000
0011
0000
0100
1000
,
0020
0100
0000
1030
,
4040
0000
0000
3030
,
0001
0010
1100
0000
0001
0010
1010
0000
,
0001
0100
1000
0100
0001
1000
1001
0000
,
1000
0100
0101
0000
1000
0100
1010
0000
,
2200
0010
0001
33MM
,
1000
0001
0110
0000
0010
0100
1001
0000
,
0001
0010
1000
0010
0001
1000
0110
0000
,
0001
0100
0011
0000
0100
1000
0101
0010
,
M11M
0M00
1MM1
000M
1M1M
M000
MM11
000M
,
1MM1
0000
0001
0000
0010
0000
0100
0000
1000
0010
1000
0010
0100
0001
0100
0001
,
0100
0000
0010
1000
0000
0010
0000
0100
0001
0000
1000
0000
0100
0010
0001
0000
,
1000
0000
0100
1000
0000
0001
0000
0100
0010
0000
1000
0000
0100
0010
0001
0000
,
1000
0000
0010
0100
0000
0010
0000
1000
0001
0000
0010
0100
0000
1000
0000
0001
,
0100
0000
0010
1000
0000
0001
0000
1000
0100
0000
0010
0100
0000
1000
0000
0001
,
0100
0000
0010
1000
0000
0001
0000
0010
0100
0000
1000
0000
0100
0010
0100
0000
,
1000
0000
0010
0100
0000
0010
0000
1000
0100
0000
0010
0000
0001
0100
1000
0000
,
0100
0000
0001
1000
0000
0100
0000
0010
0001
0000
1000
0100
0000
1000
0000
0010
,
0200
0320
2030
3200
0302
0203
2300
3010
,
2M02
0MM0
0MM0
0MM0
,
0MM0
3MM3
0000
0000
;

//---------------dance-double - M. Simmons----------------
#NOTES:
     dance-double:
     M. Simmons:
     Easy:
     3:
     0.233,0.000,0.198,0.090,0.000:
00000000
00000000
00000000
00000000
,
00000000
00000000
00000000
00000000
,
00000000
00000000
00000000
00000000
,
00000000
00000000
00000000
00000000
,
00000000
00000000
00000000
00000000
,
00000100
00000000
00000010
00000000
,
00000100
00000100
00000100
00000000
,
00010000
00000000
00001000
00000000
,
00010000
00010000
00010000
00000000
,
00011000
00001000
00000000
01000000
,
00000000
00100000
00000000
01000000
,
00000000
00010000
00000000
10000000
,
00000000
01000000
01000000
01000000
,
00000000
00100000
00000000
00001000
,
00000000
00010000
00000000
00000100
,
00000000
00000010
00000000
00000001
,
00001000
00001000
00001001
00000000
,
00000220
00000000
00000000
00000330
,
00000100
00001000
00000000
00000010
,
00000000
00010000
00000000
00001000
,
00000000
00100000
00000000
00001000
,
00000000
00010000
00000000
00000100
,
00000000
00010000
00000000
00001000
,
00000000
01000000
00000000
00100000
,
00000000
10000000
00000000
00010000
,
00000000
00100000
00000000
01000000
,
00000000
10000000
00000000
00010000
,
00000000
00100000
00000000
00001000
,
00000000
00010000
00000000
00000100
,
00000000
00000010
00000000
00000100
,
00000000
00001000
00000000
00000001
,
00000000
00000100
00000000
00000010
,
00000000
00001000
00000000
00000010
,
00000000
00000100
00000000
00000010
,
00010000
00001000
00001000
00000000
,
00100000
00010000
00010000
00000000
,
01000000
00010000
00010000
00010000
,
00000000
01000000
00100000
01000000
,
00000000
00001000
00001000
00000000
,
00010000
00000000
00000100
00000000
00010000
00000000
00002000
00020000
,
00000000
00000000
00033000
00000000
,
00011000
00011000
00011000
00000000
,
00000100
00000010
00000010
00000000
,
00000100
00001000
00001000
00000000
,
00000001
00000100
00000100
00000000
,
00000010
00001000
00000010
00001000
,
00000010
00010000
00010000
00000000
,
00001000
00010000
00010000
00001000
,
00100000
01000000
00000000
10000000
,
20020000
00000000
00000000
30030000
,
00000000
01010000
00000000
00110000
,
00000000
00101000
00000000
00011000
,
00000000
00010100
00000000
00001010
,
00000001
00000001
00001000
00000000
,
00000000
00000110
00000000
00010010
,
00000000
00001100
00000000
00011000
,
00000000
00101000
00000000
00110000
,
00100000
01000000
00100000
01000000
,
01100000
00000000
20020000
30030000
,
01000000
00001000
00000000
00010000
,
00000000
00000100
00000000
00010000
,
00000000
00000010
00000000
00000100
,
00000000
00000001
00000000
00001000
,
00000000
00000100
00000000
00000010
,
00000000
00000100
00000000
00001000
,
00000000
00000010
00000000
00010000
,
00000000
00001000
00000000
00100000
,
02200000
00000000
00000000
00000000
,
03300000
00000000
00000000
00000000
;

//---------------dance-single - M. Simmons----------------
#NOTES:
     dance-single:
     M. Simmons:
     Beginner:
     1:
     0.107,0.000,0.090,0.000,0.000:
0000
0000
0000
0000
,
0000
0000
0000
0000
,
0000
0000
0000
0000
,
0000
0000
0000
0000
,
0000
0000
0000
0000
,
0000
0000
0000
0000
,
0000
0000
0000
0000
,
0000
0000
0000
0000
,
0000
0000
0000
0000
,
1000
0000
0000
0000
,
0001
0000
0001
0000
,
0001
0000
0000
0000
,
0010
0000
0010
0000
,
0100
0000
0000
0000
,
1000
0000
1000
0000
,
1000
0000
0000
0000
,
1001
0000
0000
0000
,
0110
0000
0000
0000
,
0010
0000
0000
0000
,
1000
0000
0000
0000
,
0001
0000
0000
0000
,
0010
0000
0000
0000
,
0100
0000
0000
0000
,
0010
0000
0000
0000
,
0001
0000
0000
0000
,
1000
0000
0000
0000
,
0010
0000
0000
0000
,
0100
0000
0000
0000
,
0010
0000
0000
0000
,
1000
0000
0000
0000
,
0001
0000
0000
0000
,
0010
0000
0000
0000
,
0001
0000
0000
0000
,
1000
0000
0000
0000
,
0100
0000
0100
0000
,
0100
0000
0000
0000
,
0010
0000
0010
0000
,
0001
0000
0000
0000
,
1000
0000
1000
0000
,
0010
0000
0000
0000
,
1000
0000
0000
0000
,
1001
0000
0000
0000
,
1001
0000
0000
0000
,
0001
0000
0010
0000
,
0100
0000
0000
0000
,
1000
0000
1000
0000
,
0001
0000
0000
0000
,
1000
0000
0010
0000
,
0010
0000
0000
0000
,
0110
0000
0000
0000
,
1000
0000
1000
0000
,
0001
0000
0000
0000
,
0010
0000
0010
0000
,
0100
0000
0000
0000
,
0010
0000
0010
0000
,
0001
0000
0000
0000
,
1000
0000
1000
0000
,
0100
0000
0000
0000
,
0110
0000
0110
0000
,
0110
0000
0000
0000
,
1000
0000
0000
0000
,
0001
0000
0000
0000
,
1000
0000
0000
0000
,
1001
0000
0000
0000
,
0001
0000
0000
0000
,
0010
0000
0000
0000
,
0100
0000
0000
0000
,
0110
0000
0000
0000
;

//---------------dance-single - M. Simmons----------------
#NOTES:
     dance-single:
     M. Simmons:
     Easy:
     3:
     0.245,0.000,0.153,0.117,0.000:
0000
0000
0000
0000
,
0000
0000
0000
0000
,
0000
0000
0000
0000
,
0000
0000
0000
0000
,
0000
0000
0000
0000
,
0000
0000
0000
0000
,
0000
0000
0000
0000
,
0000
0000
0000
0000
,
0000
0000
0000
0000
,
1001
0001
0000
0010
,
0000
0100
0000
1000
,
0001
1000
0000
0010
,
0000
0100
0010
0100
,
0000
0010
0000
1000
,
0000
0001
0000
0010
,
0001
0010
0000
0100
,
0110
0110
0110
0000
,
0000
0000
0000
2002
0000
0000
0000
0000
,
3003
0001
0010
0100
,
0000
1000
0001
1000
,
0000
0010
1000
0010
,
0000
0100
0001
1000
,
1001
0001
0010
0100
,
0000
0010
0001
0010
,
0000
0100
1000
0001
,
0000
0100
0001
1000
,
1001
0001
0010
0100
,
0000
0100
0010
0100
,
0000
1000
0001
1000
,
0000
0010
1000
0010
,
0110
0100
0001
1000
,
0000
0100
0010
0001
,
0000
0010
0100
1000
,
0000
0001
1000
0001
,
1001
0010
0000
0100
,
0000
0010
0000
1000
,
0000
0001
0010
0010
,
0000
0100
1000
0001
,
0000
0100
0000
0010
,
0000
1000
0000
0001
,
2001
0001
0000
0000
,
3010
1000
0010
0000
,
0110
0100
0000
0001
,
0000
1000
0000
0100
,
0000
0010
0000
0001
,
0000
1000
0001
1000
,
0000
0010
0000
1000
,
0000
0100
0000
0010
,
1002
1000
0000
0000
,
2003
0000
0000
3000
,
0010
0100
0010
0100
,
0001
0001
0001
0000
,
1000
0100
1000
0100
,
0110
0110
0110
0000
,
0010
0100
0010
0100
,
1000
1000
1000
0000
,
0001
0100
0010
1000
,
0002
0023
0230
2300
,
3001
0000
2002
0000
,
3003
0010
0000
0100
,
0000
0001
0000
1000
,
0000
0100
0000
0010
,
0000
0100
0010
0100
,
0000
1000
0000
0001
,
0000
0100
0000
0010
,
0000
1000
0000
0001
,
0000
0010
0100
0010
,
0220
0000
0000
0000
,
0000
0330
0000
0000
;

//---------------dance-single - M. Simmons----------------
#NOTES:
     dance-single:
     M. Simmons:
     Medium:
     5:
     0.394,0.000,0.379,0.135,0.000: // measure 1
0000
0000
0000
0000
,  // measure 2
0000
0000
0000
0000
,  // measure 3
0000
0000
0000
0000
,  // measure 4
0000
0000
0000
0000
,  // measure 5
0000
0000
0000
0000
,  // measure 6
1000
0000
1001
0000
,  // measure 7
0001
0010
0001
0000
1000
0000
0000
0000
,  // measure 8
0010
0000
0110
0000
,  // measure 9
0100
0001
0100
0000
0001
0000
0000
0000
,  // measure 10
1001
1000
0000
0100
,  // measure 11
0000
0010
0000
0001
,  // measure 12
0000
1000
0000
0010
,  // measure 13
0000
0100
0001
0100
0010
0000
0110
0000
,  // measure 14
0010
1000
0000
0001
,  // measure 15
0000
0000
0010
0000
0100
0000
2000
0002
,  // measure 16
0000
0000
0000
3003
,  // measure 17
0011
1100
0011
0000
,  // measure 18
0002
2003
3200
1300
,  // measure 19
0010
0000
0100
0000
0001
0000
1000
0001
,  // measure 20
1000
0000
0100
0000
0010
0000
0100
0010
,  // measure 21
0100
0000
1000
0000
0001
0000
0100
0010
,  // measure 22
0100
0000
0001
0000
1000
0001
0000
0001
,  // measure 23
1000
0000
0100
0000
1000
0000
0001
0100
,  // measure 24
0001
0000
1000
0000
0010
0000
1000
0100
,  // measure 25
1000
0000
0001
0000
0100
0000
0010
1000
,  // measure 26
0010
0000
0100
0000
0001
1000
0000
1000
,  // measure 27
0001
0000
0010
0000
0100
0000
1000
0100
,  // measure 28
1000
0000
0001
0000
0100
0000
0010
0100
,  // measure 29
0010
0000
1000
0000
0001
0000
0010
0001
,  // measure 30
0010
0000
0100
0000
1000
0001
0000
0001
,  // measure 31
1000
0000
0010
0000
0100
0000
0001
0100
,  // measure 32
0001
0000
1000
0000
0100
0000
0010
0100
,  // measure 33
0010
0000
0100
0000
1000
0000
0001
1000
,  // measure 34
0001
0000
0100
0000
0010
1000
0010
0000
,  // measure 35
0110
0101
0001
1000
,  // measure 36
0110
1100
0001
0100
,  // measure 37
1010
1001
0010
0100
,  // measure 38
0000
0001
0100
0001
1000
0000
1001
0000
,  // measure 39
0001
0010
0100
1000
,  // measure 40
0001
0000
0110
0000
0110
0000
2000
0002
,  // measure 41
0000
0000
3003
0000
,  // measure 42
0101
1010
0101
0000
,  // measure 43
0011
0110
0100
1000
,  // measure 44
0101
1010
0010
0100
,  // measure 45
1001
0110
0100
0010
,  // measure 46
1000
0100
0010
0001
,  // measure 47
1000
0010
0101
1001
,  // measure 48
0000
0000
0001
0000
0010
0000
0200
0020
,  // measure 49
0000
0000
0330
0000
,  // measure 50
2002
0000
0000
3003
,  // measure 51
0001
1000
0001
1000
,  // measure 52
0010
0100
0010
0100
0010
0000
0100
0000
,  // measure 53
0001
0010
0001
0010
,  // measure 54
1100
1100
1100
1000
,  // measure 55
0001
0100
0010
0100
,  // measure 56
0001
1000
0001
1000
0001
0000
0010
0000
,  // measure 57
0100
1000
0001
0010
,  // measure 58
0011
1100
0110
1001
,  // measure 59
0110
0000
0000
0000
2002
0000
0000
3003
,  // measure 60
0001
1000
0100
0010
,  // measure 61
0100
1000
0001
1000
0100
0000
0010
0000
,  // measure 62
0001
1000
0010
1000
,  // measure 63
0001
0100
0001
1000
0100
0000
0010
0000
,  // measure 64
0001
0010
0100
1000
,  // measure 65
0001
0100
0010
1000
0010
0000
0100
0000
,  // measure 66
0001
1000
0100
0010
,  // measure 67
0110
1100
0110
0101
,  // measure 68
2002
0000
0000
0000
,  // measure 69
0000
3003
0000
0000
;

//---------------dance-single - M. Simmons----------------
#NOTES:
     dance-single:
     M. Simmons:
     Hard:
     7:
     0.461,0.000,0.234,0.370,0.126:
0000
0000
0000
0000
,
0000
0000
0000
0000
,
0000
0000
0000
0000
,
0000
0000
0000
0000
,
0000
0000
0000
0000
,
0002
0000
0000
1003
0020
0000
0000
0130
,
0001
1000
0100
1000
0002
0000
0003
0000
,
0020
0000
0000
0130
2000
0000
0000
3001
,
0010
0001
1000
0010
0100
0000
0000
0000
,
0000
0000
0000
0010
2000
0000
3100
0010
,
0002
0000
0103
0010
2000
0000
3100
0010
,
0002
1003
1001
0011
,
0000
0100
1000
0100
1000
0000
0001
0000
,
0200
0000
0310
1000
0200
0000
0310
0000
,
0000
0000
0002
0000
2003
0000
3010
0200
,
0000
0000
0300
0000
,
0110
0110
1001
0000
,
0002
0000
0000
0020
0000
0000
0033
0000
,
0100
0000
0000
1000
0100
0000
0000
0000
0010
0000
0001
0000
1000
0000
0000
0000
,
0010
0000
0000
0100
0001
0000
0000
0000
1000
0000
0001
0000
0010
0000
0000
0000
,
0100
0000
0000
1000
0001
0000
0000
0000
0100
0000
0010
0000
0100
0000
0000
0000
,
0010
0000
0000
1000
0000
0000
0100
0000
0000
1000
0000
0000
0001
0000
1000
0000
,
0001
0000
0000
0010
0100
0000
0000
0000
1000
0000
0100
0000
0010
0000
0000
0000
,
0001
0000
0000
1000
0001
0000
0000
0000
0100
0000
0010
0000
1000
0000
0000
0000
,
0001
0000
0000
0010
0100
0000
0000
0000
1000
0000
0100
0000
0010
0000
0000
0000
,
0001
0100
0001
1000
0001
0100
0001
1000
,
0100
0000
0000
0010
0100
0000
0000
0000
1000
0000
0001
0000
0010
0000
0000
0000
,
0100
0000
0000
1000
0001
0000
0000
0000
0100
0000
0010
0000
1000
0000
0000
0000
,
0010
0000
0000
0100
0001
0000
0000
0000
1000
0000
0100
0000
1000
0000
0000
0000
,
0001
0000
0000
0010
0000
0000
0001
0000
0000
1000
0000
0000
0010
0000
0100
0000
,
0010
0000
0000
1000
0001
0000
0000
0000
0010
0000
0100
0000
1000
0000
0000
0000
,
0001
0000
0000
0100
0001
0000
0000
0000
0010
0000
0001
0000
1000
0000
0000
0000
,
0010
0000
0000
0100
0001
0000
0000
0000
0010
0000
0100
0000
1000
0000
0000
0000
,
0100
1000
0100
0010
0100
1000
1100
0000
,
1001
0000
0000
0001
0020
0000
0130
1000
,
0020
0000
0130
0001
0020
0000
0130
0000
,
0000
0000
1001
0110
,
0000
1000
0100
0010
0001
0000
1001
0000
,
0000
0000
0000
0001
0020
0000
0130
0000
,
0000
0000
1100
0000
0110
0000
0001
2000
,
0000
0002
0000
0000
0000
0000
3003
0000
,
0001
0010
1001
0000
,
0110
0000
1000
0001
0200
0000
0310
1000
,
0200
0000
0310
0001
0200
0000
0310
0000
,
0000
0000
1010
0101
,
0000
0001
0010
0100
1000
0000
1001
0000
,
0000
0000
0000
0001
1000
0000
0020
0000
,
0030
0000
0002
0000
2003
0000
3100
0020
,
0000
0200
0000
0000
0000
0000
0330
0000
,
4004
0000
0000
0000
0000
0000
3003
0001
,
1000
0000
0000
M00M
0000
0000
1000
0000
0001
0000
0000
M00M
0000
0000
0010
0000
,
0100
0010
0100
1000
0001
0000
0000
0001
,
0010
0000
0000
00MM
0000
0000
0010
0000
0001
0000
0000
00MM
0000
0000
0000
0000
,
1010
0000
0101
0000
2010
0000
3000
0010
,
0100
0000
0000
0MM0
0000
0000
0100
0000
0010
0000
0000
0MM0
0000
0000
0100
0000
,
0001
1000
0100
0010
0001
0000
0000
1000
,
0010
0000
0000
M0M0
0000
0000
0010
0000
1000
0000
0000
M0M0
0000
0000
1000
0000
,
0100
0110
0011
0101
,
1000
0000
0100
0000
0010
0000
0001
0000
1000
0010
1000
0010
1000
0010
1000
0010
,
2000
0000
0000
3100
0020
0000
0000
0130
,
1000
0001
0100
0001
0010
0000
0000
0000
,
0200
0000
0000
1300
0002
0000
0000
0103
,
0010
0100
0001
1000
0100
0000
0000
0000
,
0020
0000
0000
0130
0020
0000
0000
0130
,
1000
0001
0010
0001
1000
0000
0000
0000
,
0002
0000
0000
0103
2000
0000
0000
3100
,
0001
1000
0100
0010
0001
0000
1001
0000
,
2002
0000
0000
0000
,
0000
3003
0000
0000
;

//---------------dance-double - M. Simmons----------------
#NOTES:
     dance-double:
     M. Simmons:
     Medium:
     4:
     0.300,0.000,0.288,0.198,0.000:
00000000
00000000
00000000
00000000
,
00000000
00000000
00000000
00000000
,
00000000
00000000
00000000
00000000
,
00000000
00000000
00000000
00000000
,
00000000
00000000
00000000
00000000
,
00002000
00000000
00023000
00000000
,
00031000
01000000
01001000
00000000
,
00200000
00000000
02300000
00000000
,
03010000
10000000
10010000
00000000
,
01100000
00100000
00000000
01000000
,
00000000
10000000
00000000
00010000
,
00000000
01000000
00000000
00001000
,
00000000
00010000
00000100
00010000
00001000
00000000
00011000
00000000
,
00000000
00000100
00000000
00000010
,
00000000
00000000
00000100
00000000
00001000
00000000
00000002
00002000
,
00000000
00000000
00003003
00000000
,
00000110
00000110
00000110
00000000
,
00000020
00000000
00000000
00002000
00000000
00000000
00003030
00000000
,
00000010
00001000
00000001
00000000
,
00000100
00000001
00001000
00000000
,
00000100
00000010
00000100
00000000
,
00010000
00000100
00010000
00000000
,
00001000
00010000
00001000
00000000
,
00100000
00010000
00100000
00000000
,
00001000
01000000
00001000
00000000
,
01000000
00010000
10000000
00000000
,
01000000
00100000
01000000
00000000
,
10000000
01000000
00100000
00000000
,
00010000
10000000
00010000
00000000
,
01000000
00010000
01000000
00000000
,
00100000
10000000
00010000
00000000
,
00100000
00001000
00010000
00000000
,
00001000
00010000
00001000
00000000
,
00010000
00000100
00001000
00001100
,
00001100
00000000
00000000
00000010
00000001
00000000
00000010
00000000
,
00000000
00000000
00000000
00000010
00000001
00000000
00000010
00000000
,
00000000
00000000
00000110
00001100
,
00000000
00000200
00000000
00020300
00000000
00032000
00000000
00013000
,
00001000
00000000
00000000
00001000
01000000
00000000
00001000
00000000
,
00000000
00000000
01000000
00000000
00100000
00000000
10000000
00020000
,
00000000
00000000
00030000
00000000
,
00100000
00100000
00100000
00000000
,
00000000
00000000
00000000
01000000
10000000
00000000
01000000
00000000
,
00000000
00000000
00000000
01000000
10000000
00000000
01000000
00000000
,
00000000
00000000
00110000
00101000
,
00000000
00002000
00000000
00023000
00000000
00030200
00000000
00010300
,
00001000
00000000
00000000
00010000
00000100
00000000
00000100
00000000
,
00000000
00000000
00000110
00000000
00001001
00000000
00000001
00000020
,
00000000
00000000
00000030
00000000
,
00004200
00000000
00000000
00003300
,
00000011
00000000
00001100
00000000
,
00010010
00010100
00011000
00000000
,
00110000
00000000
01010000
00000000
,
10000000
10000000
20000000
00000000
,
30010000
00000000
01010000
00000000
,
01001000
00101000
00011000
00000000
,
00001100
00000000
00000110
00000000
,
00000001
00001000
00000001
00001000
,
00001001
00000000
00000220
00000000
,
00000330
00000000
00000000
00000100
00001000
00000000
00000000
00000100
,
00010000
00001000
00010000
00000000
,
00001000
00000000
00000000
01000000
00010000
00000000
00000000
01000000
,
00010000
10000000
00010000
00000000
,
00100000
00000000
00000000
01000000
00100000
00000000
00000000
01000000
,
10000000
00010000
01000000
00000000
,
00010000
00000000
00000000
10000000
01000000
00000000
00000000
00100000
,
00001000
00100000
00001000
00010000
,
00022000
00000000
00000000
00000000
,
00000000
00033000
00000000
00000000
;

//---------------dance-double - M. Simmons----------------
#NOTES:
     dance-double:
     M. Simmons:
     Hard:
     7:
     0.497,0.000,0.379,0.153,0.041:
00000000
00000000
00000000
00000000
,
00000000
00000000
00000000
00000000
,
00000000
00000000
00000000
00000000
,
00000000
00000000
00000000
00000000
,
00000000
00000000
00000000
00000000
,
00002000
00000000
00000000
00013000
00000200
00000000
00000000
00000310
,
00000001
00000010
00000100
00001000
00000001
00000000
00000000
00000000
,
00000200
00000000
00000000
00000310
00000200
00000000
00000000
00000310
,
00001000
00000001
00000100
00000001
00001000
00000000
00000000
00000000
,
00010100
00000000
00001100
00000100
00000020
00000000
00000130
00000000
,
00000000
00000000
00000000
00001000
00000002
00000000
00000103
00000000
,
00000000
00000000
00010010
00011000
,
00000000
00001000
01000000
00001000
00010000
00000000
00011000
00000000
,
00000000
00000000
00000000
00001000
00100000
00000000
01000000
00000000
,
00000000
00000000
11000000
00000000
01100000
00000000
00010000
20000000
,
00000000
00200000
00000000
00000000
00000000
30300000
00000000
00000000
,
01001000
01010000
00110000
00000000
,
01000000
00000000
00100000
00010000
00000000
10000000
00000000
01000000
00100000
00000000
00010000
00000000
10000000
00010000
10000000
00000000
,
00010000
01000000
00001000
00010000
00000100
00001000
00000010
00000000
,
00000100
00000010
00001000
00000001
00000100
00000001
00000001
00000000
,
00000010
00000100
00010000
00001000
00000100
00000010
00001000
00000000
,
00000010
00000100
00000001
00000100
00000010
00000100
00000001
00001000
,
00000100
00000010
00000001
00000010
00000100
00001000
00000001
00000000
,
00000100
00000010
00010000
00000100
00001000
00000100
00010000
00000000
,
00001000
01000000
00100000
01000000
00010000
10000000
01000000
00000000
,
00100000
00010000
00100000
01000000
10000000
00010000
01000000
01000000
,
00100000
10000000
00010000
01000000
00010000
10000000
01000000
00000000
,
00100000
00001000
00010000
00001000
00100000
01000000
10000000
00000000
,
00010000
01000000
00100000
00010000
00001000
01000000
00010000
00000000
,
10000000
01000000
00100000
00010000
01000000
10000000
01000000
00010000
,
00010000
01000000
00001000
00010000
00000100
00000001
00000100
00000000
,
00001000
00000010
00000100
00000010
00000001
00000010
00000100
00000000
,
00000001
00001000
00000100
00000010
00000001
00000100
00000010
00000000
,
00001000
00000000
00000100
00000000
00000010
00000000
00000100
00000000
00000010
00000000
00000001
00001000
00000000
00000000
00000000
00000000
,
00000110
00010010
00000000
00010100
,
00000000
00011000
00000000
01001000
,
00000000
00000000
00001000
01000000
,
00000000
00100000
10000000
00010000
00100000
00000000
01100000
00000000
,
00000000
11000000
00000000
01001000
,
00000000
00000000
00110000
00000000
01100000
00000000
00100000
00020000
,
00000000
00000000
00030000
00000000
,
02000000
03200000
20300000
00000000
,
30010000
00000000
00101000
00001000
00010000
00000000
00000100
00000000
,
00000010
00000000
00001001
00001000
00000010
00000000
00000100
00000000
,
00000010
00001000
00001100
00001010
,
00000000
00000001
00000010
00000100
00001000
00000000
00001001
00000000
,
00000110
00000000
00010010
00000010
00010000
00000000
00002000
00000000
,
00013000
00000000
01001000
00000000
10010000
00000000
01000000
00020000
,
00000000
00200000
00000000
00000000
00330000
00000000
00000000
00000000
,
04400000
00000000
00000000
00000000
00000000
03300000
00000000
01000000
,
10000000
00000000
00000000
00010000
01000000
00000000
00000000
00001000
,
00010000
00001000
00010000
00000100
00000010
00000000
00000000
00000001
,
00000010
00000000
00000000
00000001
00001000
00000000
00000000
00000000
,
00001010
00000000
00010010
00000000
00010100
00000000
00000000
00001000
,
01000000
00000000
00000000
00100000
00010000
00000000
00000000
00010000
,
00100000
00010000
00100000
01000000
10000000
00000000
00000000
10000000
,
01000000
00000000
00000000
00001000
00010000
00000000
00000000
00000100
,
00001100
00010010
00001100
00010010
,
00001001
00000000
00000000
00000000
00000000
00000000
00000000
00000000
00000001
00000010
00000001
00000010
00000001
00000010
00000001
00000010
,
00000001
00001000
00000010
00000100
00000010
00010000
00001000
00100000
,
01000000
00010000
01000000
10000000
00010000
10000000
01000000
00100000
,
00001000
00010000
00000100
00000010
00000100
00001000
00000001
00000100
,
00001000
00010000
00000100
00010000
00001000
00100000
00010000
00100000
,
00001000
00010000
00000100
00000010
00000100
00001000
00000001
00000100
,
00000010
00001000
00000100
00000001
00000100
00001000
00000010
00000100
,
00000010
00010000
00001000
01000000
00100000
10000000
00010000
01000000
,
00010000
10100000
10010000
01100000
,
02002000
00000000
00000000
00000000
,
00000000
03003000
00000000
00000000
;

//---------------dance-double - M. Simmons----------------
#NOTES:
     dance-double:
     M. Simmons:
     Challenge:
     9:
     0.663,0.000,0.433,0.234,0.599:
00000000
00000000
00000000
00000000
,
00000000
00000000
00000000
00000000
,
00000000
00000000
00000000
00000000
,
00000000
00000000
00000000
00000000
,
00000000
00000000
00000000
00000000
,
00011000
00000000
00000000
00000010
00200000
00000000
00000000
00300100
,
00010000
00001000
01000000
10000000
02000000
00000000
00000000
00000000
,
03000200
00000000
00000000
00000310
00000002
00000000
00000000
00000103
,
00001000
00010000
00000100
00000010
00001000
00000000
00010000
00000000
,
00011000
00000000
00000000
00000100
00010000
00000000
00001000
00000000
00200000
00000000
00000000
00000000
01300000
00000000
00000000
10000000
,
01000000
00000000
00000000
00100000
00010000
00000000
01000000
00000000
20000000
00000000
00000000
00000000
31000000
00000000
00000000
00010000
,
00100000
00000000
00000000
01000000
00010000
00000000
00001000
00000000
00001100
00000000
00000000
00000000
00001010
00000000
00000000
00000000
,
00000000
00000000
00000001
00000000
00000100
00000000
00001000
00000000
00010000
00000000
00000000
00000000
00010100
00000000
00000000
00001000
,
00010000
00000000
00000000
00010000
00100000
00000000
01000000
00000000
00020000
00000000
00000000
00000000
10030000
00000000
00000000
00000000
,
00000000
00000000
11000000
00000000
00101000
00000000
00011000
00000200
,
00000000
00000020
00000000
00000000
00000000
00000000
00000330
00000000
,
00001100
00101000
11000000
00000000
,
00010000
00000000
01000000
00010000
00000000
10000000
00000000
00100000
01000000
00000000
00010000
00000000
10000000
01000000
00100000
00000000
,
01000000
00000000
10000000
01000000
00000000
00010000
00000000
00001000
00000100
00000000
00000010
00000000
00001000
00000001
00001000
00000000
,
00000001
00000000
00000010
00000100
00000000
00001000
00000000
00000010
00000100
00000000
00000001
00000000
00000010
00000100
00000010
00000000
,
00000100
00000000
00001000
00000001
00000000
00000100
00000000
00000001
00001000
00000000
00000100
00000010
00000000
00000100
00000000
00001000
,
00000010
00000000
00000100
00001000
00000000
00010000
00000000
00001000
00010000
00000000
00100000
01000000
00000000
00010000
00000000
10000000
,
01000000
00000000
00100000
01000000
00000000
10000000
00000000
00010000
01000000
00000000
00100000
00000000
00010000
00100000
00010000
00000000
,
00100000
00000000
10000000
01000000
00000000
00010000
00000000
00001000
00010000
00000000
01000000
00000000
00100000
00010000
00100000
00000000
,
00001000
00000000
00010000
00000010
00000000
00000100
00000000
00000001
00000010
00000000
00001000
00010000
00000000
00000010
00000000
00000100
,
00000010
00000000
00001000
00000100
00000000
00000010
00000000
00000100
00010000
00000000
00000010
00000100
00000000
00000010
00000000
00000100
,
00000010
00000000
00010000
00001000
00000000
00100000
00000000
01000000
00010000
00000000
00001000
00000000
00010000
00000100
00010000
00000000
,
00000100
00000000
00000010
00001000
00000000
00010000
00000000
00000010
00000100
00000000
00000010
00000000
00010000
00000100
00001000
00000000
,
00000001
00000000
00000100
00000010
00000000
00010000
00000000
00001000
00010000
00000000
00000100
00010000
00000000
00001000
00000000
01000000
,
00100000
00000000
10000000
01000000
00000000
10000000
00000000
00010000
01000000
00000000
00010000
10000000
00000000
01000000
00000000
00100000
,
00001000
00000000
00010000
00100000
00000000
01000000
00000000
00001000
00100000
00000000
01000000
00000000
00100000
00001000
00100000
00000000
,
00001000
00000000
00010000
00000010
00000000
00000100
00000000
00000001
00001000
00000000
00000100
00000000
00000010
00000100
00000010
00000000
,
00000001
00000000
00001000
00000100
00000000
00010000
00000000
00000010
00000100
00000000
00000001
00000100
00000000
00000010
00000000
00010000
,
00000100
00000000
00000010
00000001
00000000
00000010
00000000
00000100
00001000
00000000
00000001
00000100
00000010
00000000
00000000
00000000
,
00001100
00000100
00010100
00002000
00203000
00000000
01300000
10000000
,
10010000
00010000
00110000
00100000
02000000
00000000
13000000
00010000
,
01001000
00001000
00101000
00000000
00010100
00000000
00001010
00000000
,
00000000
00000001
00000100
00001000
00000100
00000000
00000101
00000000
,
00000011
00000010
00000110
00000100
00020000
00000000
00030100
00000000
,
00010100
00000000
00011000
00000000
01001000
00000000
01010000
00200000
,
00000000
20000000
00000000
00000000
00000000
30300000
00000000
00000000
,
00001000
01000000
01000100
00000000
,
00001000
00010000
00010100
00000100
00000010
00000001
00001000
00000010
,
00000100
00000010
00010010
00000010
00000100
00000001
00001000
00000100
,
00010000
00001000
00011000
00001000
01000000
00100000
00200000
00000000
,
00300000
01000000
00001000
00010000
00000010
00000000
00001001
00000001
,
00000010
00000100
00000110
00000100
00010000
00001000
00100000
00001000
,
00000100
00000010
00001010
00000000
00000101
00000000
00000001
00020000
,
00000000
00200000
00000000
00000000
00330000
00000000
00000000
00000000
,
02004000
00000000
00000000
00000000
00000000
00000000
03003000
00100000
,
00110000
00000000
00000000
01000000
01010000
00000000
00000000
00010000
,
00110000
01000000
00010000
00001000
00000100
00000000
00000000
00000010
,
00001010
00000000
00000000
00000001
00001001
00000000
00000000
00000000
,
00101000
00000000
11000000
00000000
10001000
00000000
00000000
00001000
,
01001000
00000000
00000000
00100000
10010000
00000000
00000000
00010000
,
00100000
01000000
00010000
00001000
00000100
00000000
00000000
00000010
,
00001001
00000000
00000000
00000001
00001100
00000000
00000000
00000010
,
00000002
00000203
00002300
00023000
,
00031000
00000000
00100000
00000000
01000000
00000000
10000000
00000000
00010000
10000000
01000000
10000000
00010000
01000000
00100000
10000000
,
00010000
00000000
01000000
00001000
00000000
00010000
00000000
00000100
00000010
00000000
00000100
00000000
00001000
00000001
00001000
00000000
,
00000001
00000000
00000100
00000010
00000000
00010000
00000000
00001000
01000000
00000000
00000100
00000000
00010000
00001000
00010000
00000000
,
00000100
00000000
00000010
00000100
00000000
00010000
00000000
00001000
01000000
00000000
00100000
10000000
00000000
00010000
00000000
00100000
,
01000000
00000000
00010000
00001000
00000000
00000100
00000000
00000010
00001000
00000000
00000001
00000010
00000000
00000100
00000000
00000010
,
00000002
00000000
00001003
00000010
00000000
00000100
00000000
00000010
00000001
00000000
00000010
00000000
00001000
00000001
00001000
00000000
,
00000100
00000000
00000010
00001000
00000000
00010000
00000000
00001000
01000000
00000000
00100000
00000000
01000000
00001000
01000000
00000000
,
00010000
00000000
10000000
01000000
00000000
00100000
00000000
10000000
00100000
00000000
00010000
01000000
00000000
00001000
00000000
00010000
,
00000100
00000000
00010000
00001000
00000000
01000000
00000000
00100000
10000000
00000000
01000000
00100000
00000000
00010000
00000000
10000000
,
20020000
00000000
00000000
00000000
,
00000000
30030000
00000000
00000000
;
