#TITLE:Les Vacances Du Compositeur;
#SUBTITLE:;
#ARTIST:Digital Explosion;
#TITLETRANSLIT:;
#SUBTITLETRANSLIT:;
#ARTISTTRANSLIT:;
#GENRE:Classical Techno;
#CREDIT:Sync by HellRazoR;
#BANNER:Les Vacances Du Compositeur-bn.png;
#BACKGROUND:Les Vacances Du Compositeur-bg.png;
#LYRICSPATH:;
#CDTITLE:;
#MUSIC:Les Vacances Du Compositeur.ogg;
#OFFSET:-0.345;
#SAMPLESTART:32.960;
#SAMPLELENGTH:12.000;
#SELECTABLE:YES;
#DISPLAYBPM:147.000;
#BPMS:0.000=147.000,240.000=158.000,240.250=147.000;
#STOPS:;
#BGCHANGES:0.000=Les Vacances Du Compositeur-bg.png=1.000=0=0=1=====,
32.000=In The Groove Rebirth/178_JB_HD.mpg=1.000=0=0=1=====,
48.000=In The Groove Rebirth/257_JB_HD.mpg=1.000=0=0=1=====,
64.000=In The Groove Rebirth/167_JB_HD.mpg=1.000=1=0=1===CrossFade==,
80.000=In The Groove Rebirth/174_JB_HD.mpg=1.000=0=0=1=====,
96.000=In The Groove Rebirth/161_JB_HD.mpg=1.000=0=0=1=====,
112.000=In The Groove Rebirth/165_JB_HD.mpg=1.000=0=0=1===SlideUp==,
128.000=In The Groove Rebirth/164_JB_HD.mpg=1.000=0=0=1=====,
144.000=In The Groove Rebirth/169_JB_HD.mpg=1.000=1=0=1===CrossFade==,
160.000=In The Groove Rebirth/257_JB_HD.mpg=1.000=0=0=1=====,
176.000=In The Groove Rebirth/161_JB_HD.mpg=1.000=0=0=1=SongBgWithMovieViz==SlideDown==,
208.000=In The Groove Rebirth/164_JB_HD.mpg=1.000=0=0=1=SongBgWithMovieViz==SlideUp==,
240.000=In The Groove Rebirth/167_JB_HD.mpg=1.000=0=0=1=====,
256.000=In The Groove Rebirth/174_JB_HD.mpg=1.000=1=0=1===CrossFade==,
272.000=In The Groove Rebirth/178_JB_HD.mpg=1.000=0=0=1=====,
288.000=In The Groove Rebirth/169_JB_HD.mpg=1.000=0=0=1=====, 303.000Les Vacances Du Compositeur-bg.png=1.000=0=0=1=====,
99999=-nosongbg-=1.000=0=0=0 // don't automatically add -songbackground-
;
#BGCHANGES2:111.000=white flash=2.000=0=0=1=====,
143.000=white flash=2.000=0=0=1=====,
303.000=white flash=1.000=0=0=1=====,
;
#KEYSOUNDS:;

//---------------dance-single - W. Hodge & edited by D. Bernardone----------------
#NOTES:
     dance-single:
     W. Hodge & edited by D. Bernardone:
     Challenge:
     11:
     0.906,0.000,0.629,0.111,0.597:
0000
0000
0000
0000
,
0000
0000
0000
0000
,
0000
0000
0000
0000
,
0000
0000
0000
0000
,
0000
0000
0000
0000
,
0000
0000
0000
0000
,
0001
0100
0001
0000
0100
0001
0100
0000
0010
1000
0010
0000
1000
0010
1000
0000
,
0001
0010
0001
0000
0010
0001
0010
0000
0100
1000
0100
0000
1000
0100
1000
0000
,
1001
0100
0011
0100
1010
0001
1100
0001
,
0110
1000
0101
1000
0011
1000
1001
1000
,
0001
0010
0100
0000
1000
0010
0100
0000
0001
0100
0010
0000
1000
0100
0010
0000
,
0001
0010
0100
0000
0010
0100
1000
0000
0100
1000
0100
0000
1000
0001
1000
0000
,
MMM1
0010
M1MM
1000
MM1M
0100
MMM1
1000
,
MM1M
0100
MMM1
0010
1MMM
0010
MMM1
1000
,
0001
0100
0010
0000
0100
0010
1000
0000
0010
1000
0100
0000
1000
0100
0010
0000
,
0100
0010
0001
0000
0010
0001
0100
0000
0001
1000
0001
0000
1000
0100
1000
0000
,
0101
0010
1001
0100
1010
0001
1100
0001
,
0110
1000
0011
0100
1001
0010
0101
1000
,
0001
1000
0010
0000
1000
0001
0010
0000
0100
1000
0010
0000
0100
0001
0010
0000
,
0001
0100
0001
1000
0001
0010
0001
1000
0001
0010
0100
1000
0010
0100
0001
0010
,
0001
0010
0100
1010
0101
0010
0100
1001
,
0110
0000
1000
0000
0001
0000
1000
0100
0010
0000
0001
0000
1100
0000
0010
0000
,
0101
0000
0010
0000
1000
0000
0001
0010
0100
0000
1000
0000
0011
0000
0100
0000
,
0001
0100
0010
0100
0001
0000
0000
0001
0100
0000
0010
0000
1001
0000
0100
0000
,
0011
0000
0100
0000
1000
0000
0001
0010
0100
0000
1000
0000
0010
0000
1100
0000
,
0011
0000
1000
0000
0010
0000
1000
0100
0010
0000
0001
0000
1100
0000
0010
0000
,
0100
0001
1000
0100
0010
0001
0010
0100
1000
0001
1000
0010
0100
0001
1000
0001
,
0010
0100
1000
0001
1000
0000
0000
1000
0001
0100
0001
1000
0010
0100
0001
1000
,
1001
0100
0010
0101
1010
0100
0010
1001
,
0110
0000
0001
0000
1000
0000
0001
0010
0100
0000
1000
0000
0011
0000
0100
0000
,
1010
0000
0100
0000
0001
0000
1000
0100
0010
0000
0001
0000
1100
0000
0010
0000
,
1000
0010
0100
0010
1000
0000
0000
1000
0010
0000
0100
0000
1001
0000
0010
0000
,
1100
0000
0010
0000
0001
0000
1000
0100
0010
0000
0001
0000
0100
0000
0011
0000
,
1100
0000
0001
0000
0100
0000
0001
0010
0100
0000
1000
0000
0011
0000
0100
0000
,
0010
1000
0001
0010
0100
1000
0100
0010
0001
1000
0001
0100
0010
1000
0001
1000
,
0100
0010
0001
1000
0001
0000
0000
0001
1000
0100
1000
0000
0010
0100
0001
0010
,
0100
1000
0011
0100
0001
1000
1010
0010
,
1000
0001
0110
1000
0100
0010
1001
1000
,
0001
0100
0010
0000
0100
0001
0010
0000
0100
1000
0010
0000
1000
0100
0010
0000
,
0001
0010
0100
0000
0010
0001
0100
0000
0010
1000
0100
0000
1000
0010
0100
0000
,
MMM1
0010
M1MM
1000
MM1M
0100
MMM1
1000
,
MM1M
0100
MMM1
0010
1MMM
0010
MMM1
1000
,
0001
0100
0010
0000
0100
0001
1000
0000
0100
1000
0001
0000
1000
0100
0010
0000
,
0001
0100
1000
0000
0100
0001
0010
0000
0001
0100
0001
1000
0001
0010
0001
1000
,
1001
0100
0100
0100
1001
0010
0010
0010
,
1100
0001
0001
0001
0110
1000
0011
0100
,
2001
0000
0100
0000
3100
0000
0010
0001
0200
0000
0010
0000
0310
0000
1000
0100
,
0002
0000
0100
0000
0103
0000
0010
0001
0100
0000
0100
0000
0010
0000
0010
0000
,
1010
0100
0100
0100
0011
1000
1000
1000
,
0110
0001
0001
0001
1100
0010
1001
0100
,
2001
0000
0010
0000
3010
0000
0100
0001
0020
0000
0100
0000
0130
0000
1000
0010
,
0002
0000
0010
0000
0013
0000
0100
0001
0010
0000
0010
0000
0100
0000
0100
0000
,
1001
0010
0001
0100
1010
0001
0010
0100
,
1001
0010
1000
0100
0011
1000
0101
0010
,
1002
0000
0100
0000
0103
0000
0010
1000
0200
0000
0010
0000
0310
0000
0001
0100
,
2000
0000
0100
0000
3100
0000
0010
1000
0100
0000
0100
0000
0010
0000
0010
0000
,
1001
0100
0010
1000
0101
0010
0100
1000
,
0011
1000
0010
0100
1010
0100
1001
0010
,
1002
0000
0010
0000
0013
0000
0100
1000
0020
0000
0100
0000
0130
0000
0001
0010
,
2000
0000
0010
0000
3010
0000
0100
1000
0010
0000
0010
0000
0100
0000
0100
0000
,
0001
1000
0010
0000
0100
0010
1000
0000
0001
1000
0100
0000
1000
0100
0010
0000
,
0001
0100
0010
0000
1000
0001
0100
0000
0001
0010
0100
0000
1000
0001
0010
0000
,
0001
0100
1000
0000
0100
0010
1000
0000
0010
1000
0100
0000
1000
0100
0001
0000
,
0100
0010
0001
0000
0010
0001
0100
0000
0010
1000
0001
0000
1000
0001
1000
0000
,
1MMM
0100
MM1M
0001
M1MM
0010
1MMM
0001
,
M1MM
0010
1MMM
0100
MMM1
0100
1MMM
0001
,
1000
0010
0001
0000
0010
0100
0001
0000
0100
0001
0010
0000
0001
0010
1000
0000
,
0010
0100
1000
0000
0100
1000
0010
0000
0100
0000
0001
0000
1000
0000
0001
0000
,
1010
0100
0010
0101
1010
0100
0010
1001
,
0110
0000
0001
0000
1000
0000
0100
1000
0010
0000
1000
0000
0001
0000
0100
0000
,
1010
0000
0100
0000
0001
0000
0010
0001
0100
0000
0001
0000
1000
0000
0010
0000
,
1000
0010
0001
0010
1000
0000
0000
1000
0010
0000
0100
0000
0001
0000
0010
0000
,
1100
0000
0010
0000
0001
0000
1000
0100
0001
0000
0100
0000
0010
0000
1001
0000
,
0110
0000
0001
0000
1000
0000
0001
0100
1000
0000
0100
0000
0010
0000
1000
0000
,
0001
1000
0001
0010
0100
1000
0100
0010
0001
1000
0001
0100
0010
1000
0010
0100
,
0001
0010
0100
1000
0010
0100
0001
0010
0100
0000
1000
0000
0202
0000
0000
0000
,
0303
0000
0000
0000
;

//---------------dance-single - D. Bernardone----------------
#NOTES:
     dance-single:
     D. Bernardone:
     Hard:
     9:
     0.620,0.000,0.183,0.159,0.474:
0000
0000
0000
0000
,
0000
0000
0000
0000
,
0000
0000
0000
0000
,
0000
0000
0000
0000
,
0000
0000
0000
0000
,
0000
0000
0000
0000
,
1000
0100
0000
0000
0010
0001
0000
0000
1000
0100
0000
0000
0010
0001
0000
0000
,
0001
0100
0000
0000
0010
1000
0000
0000
0001
0100
0000
0000
0010
1000
0000
0000
,
0001
0100
0001
0010
0100
0010
0001
1000
,
0100
1000
0010
0100
0001
0010
0100
0010
,
0001
1000
0000
0000
0010
0100
0000
0000
0001
1000
0000
0000
0010
0100
0000
0000
,
0100
0010
0000
0000
1000
0001
0000
0000
0100
0010
0000
0000
1000
0001
0000
0000
,
0010
0100
0010
0000
0001
0100
0001
0000
,
0100
0010
0100
0000
0001
0010
0001
0000
,
1000
0001
0000
0000
0100
0001
0000
0000
0001
1000
0000
0000
0100
1000
0000
0000
,
0001
1000
0000
0000
0010
1000
0000
0000
1000
0001
0000
0000
0010
0001
0000
0000
,
0100
0010
0100
0100
0001
0010
0001
0001
,
1000
0100
1000
1000
0010
0100
0010
0010
,
0100
0001
0000
0000
0010
0001
0000
0000
0010
0100
0000
0000
1000
0100
0000
0000
,
1000
0001
1000
0000
0001
1000
0001
0000
1000
0000
0001
0000
0100
0010
1000
0000
,
0001
0000
0000
0001
0000
0000
0010
0000
0100
0000
0000
0100
0000
0000
1000
0000
,
0010
0000
0000
0000
0101
0000
1000
0001
2000
0000
0000
0000
3100
0000
0000
0000
,
0010
0000
0000
0001
0000
0000
0100
0000
1000
0000
0000
0100
0000
0000
0001
0000
,
0010
0100
0000
1000
0010
0000
0100
0000
1000
0000
0000
0000
0100
0000
0000
0000
,
0001
0000
0000
0010
0000
0000
0100
1000
0001
0000
0000
0100
0000
0000
0010
0000
,
1000
0100
0001
0100
0010
0000
0011
0000
,
0001
0100
1000
0100
0001
0010
1000
0010
,
0001
0001
1000
1000
0010
0000
0011
0000
,
1000
0000
0000
0100
0000
0000
1000
0000
0001
0000
0000
0010
0000
0000
0100
0000
,
1000
0000
0000
0001
0000
0000
0010
0001
0010
0000
0000
0000
1001
0000
0000
0000
,
0001
0000
0000
0010
0000
0000
0100
1000
0100
0000
0000
0010
0000
0000
0001
0000
,
0100
1000
0100
0001
0010
0000
0010
0000
,
0100
0000
0000
1000
0000
0000
0010
0100
0001
0000
0000
0010
0000
0000
1000
0000
,
0010
0000
0000
0100
0000
0000
1000
0010
0100
0000
0000
0000
0001
0000
0000
0000
,
1000
0100
0001
0100
0010
1000
0010
0100
,
1000
0010
0100
0010
1000
0000
0011
0000
,
1000
0001
1000
0000
0101
0000
0000
0000
0001
1000
0001
0000
1010
0000
0000
0000
,
1000
0001
1000
0000
0011
0000
0000
0000
0001
1000
0001
0000
1100
0000
0000
0000
,
0001
0100
0000
0000
1000
0010
0000
0000
0001
0100
0000
0000
1000
0010
0000
0000
,
0100
1000
0000
0000
0010
0001
0000
0000
0100
1000
0000
0000
0010
0001
0000
0000
,
0100
1000
0011
0100
0010
1000
1001
0000
,
0100
0001
1010
0100
0010
0001
1001
0000
,
0001
0100
0000
0000
1000
0001
0000
0000
0010
0100
0000
0000
1000
0001
0000
0000
,
0010
1000
0000
0000
0100
0001
0000
0000
0010
0100
0010
0000
0001
0000
1000
0100
,
2000
0000
0000
3010
1000
0000
0000
0000
0002
0000
0000
0103
0001
0000
0000
0000
,
0020
0000
0000
0130
0010
0000
0000
0000
0100
0000
0000
1000
0001
0000
0010
0000
,
0100
0000
0000
0100
1000
0000
0010
0000
0001
0000
0000
0010
0100
0000
0001
0000
,
1000
0000
0000
1000
0100
0000
0010
0000
0001
0000
0001
0000
0100
0000
0100
0000
,
0010
1000
1100
0000
0100
0001
0011
0000
,
0010
1000
1001
0000
1000
0001
0100
1000
,
0100
0000
0000
0010
1000
0000
0100
0010
0001
0000
0000
0001
0100
0000
0010
1000
,
0001
0000
0000
0010
0001
0000
0010
0100
1000
0000
1000
0000
0001
0000
0001
0000
,
0100
0000
0000
1000
0100
0000
0000
0000
0010
0000
0000
0001
0010
0000
0000
0000
,
0100
0000
0000
1000
0100
0000
0000
0000
0010
0000
0000
0001
0010
0000
0000
0010
,
1000
0000
0100
0001
0100
0000
0010
1000
,
0010
0000
0100
0001
0100
1000
0010
0001
,
0020
0000
0000
0030
1001
0000
0000
0000
0020
0000
0000
0030
0101
0000
0000
0000
,
2000
0000
0000
3000
0110
0000
0000
0000
1000
0000
0000
1000
0100
0000
0000
0000
,
0010
0000
0001
0100
1000
0000
1000
0100
,
0001
0000
0001
0010
1000
0010
0001
0001
,
1000
0001
0010
0000
1000
0010
0001
0000
,
1000
0001
0100
0000
1000
0100
0001
0000
,
0100
0010
0000
0000
1000
0100
0000
0000
0100
0010
0000
0000
0001
0100
0000
0000
,
0010
0100
0000
0000
0001
0010
0000
0000
0010
0100
0000
0000
1000
0010
0000
0000
,
0100
0001
1000
0000
0100
0010
1000
0000
,
0010
0001
0100
0000
1000
0100
0010
0000
,
1000
0010
0000
0000
0100
0010
0000
0000
1000
0100
0000
0000
0010
0100
0000
0000
,
0010
0001
0000
0000
0100
0001
0000
0000
1000
0000
0100
0000
0010
0000
0100
0000
,
2000
0000
0000
3000
1000
0000
0010
0000
1002
0000
0000
0003
0001
0000
0100
0000
,
0020
0000
0000
0030
0010
0000
0100
0001
0200
0000
0000
0000
0301
0000
0000
0000
,
0020
0000
0000
0030
0010
0000
0001
1000
0002
0000
0000
0003
0001
0000
0000
0000
,
0100
0010
1000
0001
0010
0000
0000
0010
2000
0000
0000
0000
3000
0000
0000
0000
,
1002
0000
0000
0003
0001
0000
0010
0001
0200
0000
0000
0300
0100
0000
0010
0000
,
0002
0000
0000
0003
0001
0000
0010
0100
0020
0000
0000
0030
1010
0000
0000
0000
,
0001
1000
0001
0000
0100
0010
0100
0000
0001
0010
0001
0000
1000
0100
1000
0000
,
0001
1000
0001
1000
0001
0000
0010
0000
0010
0000
0000
0000
2002
0000
0000
0000
,
3003
0000
0000
0000
;

//---------------dance-single - W. Hodge----------------
#NOTES:
     dance-single:
     W. Hodge:
     Medium:
     7:
     0.434,0.000,0.024,0.000,0.064: // measure 1
0000
0000
0000
0000
,  // measure 2
0000
0000
0000
0000
,  // measure 3
0000
0000
0000
0000
,  // measure 4
0000
0000
0000
0000
,  // measure 5
0000
0000
0000
0000
,  // measure 6
0000
0000
0000
0000
,  // measure 7
0100
0000
0010
0000
,  // measure 8
0001
0000
1000
0000
,  // measure 9
1000
0010
1000
0100
,  // measure 10
1000
0001
1000
0100
,  // measure 11
0010
0001
0100
0010
,  // measure 12
1000
0001
1000
0100
,  // measure 13
1000
0001
1000
0010
,  // measure 14
1000
0001
1000
0100
,  // measure 15
0010
0001
0100
0010
,  // measure 16
1000
0001
1000
0100
,  // measure 17
1000
0100
0010
0001
,  // measure 18
1000
0100
0010
0001
,  // measure 19
1000
0100
0010
0001
,  // measure 20
0010
0100
1000
0001
0010
0100
1000
0001
,  // measure 21
0010
0000
0000
0010
0100
0000
0000
0100
,  // measure 22
1000
0000
0000
1000
0010
0000
0000
0000
,  // measure 23
1000
0000
0000
0010
0100
0000
0000
0000
,  // measure 24
0100
0010
1000
0000
0001
0000
0000
0000
,  // measure 25
0010
0000
0000
0010
0100
0000
0000
0100
,  // measure 26
1000
0000
0000
1000
0010
0000
0000
0000
,  // measure 27
1000
0100
0010
0001
0100
0010
0100
0001
,  // measure 28
0010
0100
1000
0010
0100
0000
1001
0000
,  // measure 29
0010
0000
0000
0010
0100
0000
0000
0100
,  // measure 30
1000
0000
0000
1000
0010
0000
0000
0000
,  // measure 31
1000
0000
0000
0010
0100
0000
0000
0000
,  // measure 32
0100
0010
1000
0000
0001
0000
0000
0000
,  // measure 33
0010
0000
0000
0010
0100
0000
0000
0100
,  // measure 34
1000
0000
0000
1000
0010
0000
0000
0000
,  // measure 35
1000
0100
0010
0001
0100
0010
0100
0001
,  // measure 36
0010
0100
1000
0010
0100
0000
1001
0000
,  // measure 37
0100
0010
0000
0010
0000
0100
0000
0100
,  // measure 38
0000
0001
0000
0001
0000
0100
0000
0010
,  // measure 39
1000
0001
0000
0001
0010
0100
0000
0100
,  // measure 40
1000
0001
0000
0001
0100
0010
0000
0100
,  // measure 41
0000
0100
0000
0001
0000
0001
0000
0010
,  // measure 42
0000
0010
0000
0100
0000
1000
0000
0010
,  // measure 43
1000
0001
0000
0001
0010
0100
0000
0100
,  // measure 44
1000
0001
0000
0001
0100
0010
0100
0010
,  // measure 45
1000
0000
0000
1000
0100
0000
0000
0000
0100
0000
0000
0100
0010
0000
0000
0000
,  // measure 46
0010
0000
0000
0010
0001
0000
0000
0000
0001
0000
0000
0001
0100
0000
0000
0100
,  // measure 47
0010
1000
0001
0001
0010
0100
1000
1000
,  // measure 48
0010
0100
0001
0001
0010
0100
1000
0010
,  // measure 49
0100
0000
0000
0100
0001
0000
0000
0000
0010
0000
0000
0010
0100
0000
0000
0000
,  // measure 50
1000
0000
0000
1000
0010
0000
0000
0000
0100
0000
0000
0100
0001
0000
0000
0001
,  // measure 51
0100
0010
1000
1000
0100
0010
0001
0001
,  // measure 52
0100
0010
1000
1000
0100
0010
0001
0100
,  // measure 53
0010
0000
1000
0000
0100
0000
0000
0100
0010
0000
0000
0000
0010
0000
0000
0010
,  // measure 54
0100
0000
0000
0000
0100
0000
0000
0100
0010
0000
0000
0000
0001
0000
1000
0000
,  // measure 55
0010
1000
0100
0100
0010
0001
1000
1000
,  // measure 56
0010
0100
0001
0001
0100
0010
1000
0100
,  // measure 57
0010
0000
0001
0000
1000
0000
0000
1000
0010
0000
0000
0000
0010
0000
0000
0010
,  // measure 58
1000
0000
0000
0000
1000
0000
0000
1000
0010
0000
0100
0000
0010
0000
1000
0000
,  // measure 59
0100
0010
0010
0001
0100
0010
0010
1000
,  // measure 60
0100
0010
0010
0001
0100
0010
1000
0010
,  // measure 61
1000
0100
0000
0100
0000
0010
0000
0010
,  // measure 62
0000
0001
0000
0100
0000
0010
0000
0100
,  // measure 63
0001
1000
0000
1000
0100
0010
0000
0010
,  // measure 64
0001
1000
0000
1000
0010
0100
0000
0100
,  // measure 65
0000
0001
0000
0001
0000
0010
0000
0010
,  // measure 66
0000
0100
0000
1000
0000
0010
0000
0100
,  // measure 67
0001
1000
0000
1000
0100
0010
0000
0010
,  // measure 68
0001
1000
0000
1000
0010
0100
0010
0100
,  // measure 69
0001
0010
0001
1000
0010
0000
0100
0001
,  // measure 70
0100
0010
1000
0100
0010
0000
0001
0100
,  // measure 71
0010
0100
0001
0000
1000
0100
0010
0000
,  // measure 72
0001
0010
0100
0000
1000
0100
1000
0000
,  // measure 73
0001
0010
0100
0010
0001
0000
0100
0010
,  // measure 74
1000
0100
0010
0001
1000
0000
0001
0010
,  // measure 75
0100
1000
0001
0000
1000
0100
0010
0000
,  // measure 76
0100
0010
0001
1000
1000
0000
1001
0000
;

//---------------dance-single - W. Hodge----------------
#NOTES:
     dance-single:
     W. Hodge:
     Easy:
     4:
     0.218,0.000,0.016,0.000,0.000:
0000
0000
0000
0000
,
0000
0000
0000
0000
,
0000
0000
0000
0000
,
0000
0000
0000
0000
,
0000
0000
0000
0000
,
0000
0000
0000
0000
,
0010
0000
0001
0000
,
0100
0000
0010
0000
,
1000
0000
0100
0000
,
1000
0000
0100
0000
,
0010
0000
0001
0000
,
0100
0000
0010
0000
,
1000
0000
0001
0000
,
1000
0000
0001
0000
,
0100
0000
0010
0000
,
1000
0000
0100
0000
,
0010
0000
0001
0000
,
0100
0000
0001
0000
,
1000
0000
0001
0000
,
0010
0100
1000
0100
,
0010
0000
0001
0000
,
0100
0000
0000
0010
1000
0000
0000
0000
,
0001
0000
0100
0000
,
0010
1000
0100
0000
,
0010
0000
0000
0001
0100
0000
0000
0000
,
0010
0000
0100
0000
,
0001
1000
0001
0100
,
0010
1000
0100
0010
,
0001
0000
0001
0000
,
1000
0000
0000
0100
0010
0000
0000
0000
,
0001
0000
0000
0100
0010
0000
0000
0000
,
1000
0001
1000
0000
,
0100
0000
0000
0010
0001
0000
0000
0000
,
0010
0000
0000
0001
1000
0000
0000
0000
,
1000
0100
0010
0001
,
0100
0010
0100
1001
,
1000
0100
0000
0100
,
0000
0100
0000
0100
,
1000
0001
0000
0001
,
0100
0010
0000
0010
,
1000
0100
0000
0100
,
0000
0100
0000
0100
,
0010
0001
0000
0001
,
0100
0010
0000
0010
,
1000
0000
0001
0000
,
1000
0000
0001
1000
,
0010
0000
0100
0000
,
0010
0000
0100
0001
,
1000
0000
0001
0000
,
1000
0000
0001
1000
,
0010
0000
0100
0000
,
0010
0000
1000
0001
,
0100
0000
0010
0000
,
0100
0000
0010
0100
,
0001
0000
0010
0000
,
0001
0000
0010
0100
,
1000
0000
0100
0000
,
1000
0000
0100
1000
,
0010
0000
0100
0000
,
0010
0000
0100
0001
,
1000
0000
0001
0000
,
0100
0000
0010
0000
,
1000
0000
0100
0000
,
0010
0000
0001
0000
,
0010
0000
0100
0000
,
1000
0000
0001
0000
,
0100
0000
0010
0000
,
0100
0000
0001
0000
,
1000
0001
1000
0001
,
1000
0001
1000
0001
,
0100
0010
0100
0001
,
1000
0100
0010
0001
,
0100
0010
0100
0010
,
0100
0010
0100
0010
,
1000
0001
1000
0001
,
1000
0001
1000
0001
1000
0000
1001
0000
;

//---------------dance-single - W. Hodge----------------
#NOTES:
     dance-single:
     W. Hodge:
     Beginner:
     1:
     0.101,0.000,0.008,0.000,0.000:
0000
0000
0000
0000
,
0000
0000
0000
0000
,
0000
0000
0000
0000
,
0000
0000
0000
0000
,
0000
0000
0000
0000
,
0000
0000
0000
0000
,
0010
0000
0000
0000
,
1000
0000
0000
0000
,
0001
0000
0000
0000
,
1000
0000
0000
0000
,
0010
0000
0000
0000
,
0100
0000
0000
0000
,
0001
0000
0000
0000
,
0010
0000
0000
0000
,
0100
0000
0000
0000
,
1000
0000
0000
0000
,
0001
0000
0000
0000
,
1000
0000
0000
0000
,
0001
0000
0000
0000
,
1000
0000
0001
0000
,
1000
0000
0000
0000
,
0010
0000
0000
0000
,
0100
0000
0000
0000
,
0001
0000
0000
0000
,
1000
0000
0000
0000
,
0001
0000
0000
0000
,
0100
0000
0010
0000
,
0100
0000
0010
0000
,
1000
0000
0000
0000
,
0001
0000
0000
0000
,
0010
0000
0000
0000
,
0100
0000
1000
0000
,
0100
0000
0000
0000
,
0010
0000
0000
0000
,
0001
0000
1000
0000
,
0001
0000
1000
0000
,
0001
0000
0000
0000
,
1000
0000
0000
0000
,
0100
0000
0000
0000
,
0010
0000
0000
0000
,
0001
0000
0000
0000
,
0100
0000
0000
0000
,
0001
0000
0000
0000
,
1000
0000
0000
0000
,
0001
0000
1000
0000
,
0001
0000
1000
0000
,
0010
0000
0000
0000
,
0100
0000
0000
0000
,
0001
0000
0100
0000
,
0001
0000
0100
0000
,
0010
0000
0000
0000
,
1000
0000
0000
0000
,
0001
0000
1000
0000
,
0001
0000
1000
0000
,
0010
0000
0000
0000
,
1000
0000
0000
0000
,
0100
0000
1000
0000
,
0100
0000
1000
0000
,
0010
0000
0000
0000
,
1000
0000
0000
0000
,
0001
0000
0000
0000
,
1000
0000
0000
0000
,
0001
0000
0000
0000
,
0010
0000
0000
0000
,
0100
0000
0000
0000
,
1000
0000
0000
0000
,
0010
0000
0000
0000
,
0100
0000
0000
0000
,
0001
0000
0000
0000
,
0010
0000
0000
0000
,
0100
0000
0000
0000
,
1000
0000
0001
0000
,
1000
0000
0000
0000
,
0001
0000
0000
0000
,
0010
0000
0001
0000
,
1000
0000
0001
1001
;

//---------------dance-double - D. Bernardone----------------
#NOTES:
     dance-double:
     D. Bernardone:
     Easy:
     3:
     0.252,0.000,0.048,0.191,0.072:
00000000
00000000
00000000
00000000
,
00000000
00000000
00000000
00000000
,
00000001
00000000
00001000
00000000
,
00010000
00000000
10000000
00000000
,
00000000
00000000
00000000
00000000
,
00000000
00000000
00000000
00000000
,
10000000
00000000
00010000
00000000
,
00001000
00000000
00000001
00000000
,
00000100
00000000
00000010
00000000
,
00001000
00000000
00000100
00000000
,
00010000
00010000
00001000
00001000
,
01000000
01000000
00010000
00010000
,
10000000
00000000
10000000
00000000
,
10000000
00000000
10000000
00000000
,
01000000
01000000
00100000
00100000
,
00001000
00001000
00010000
00010000
,
00000100
00000000
00000100
00000000
,
00000100
00000000
00000100
00000000
,
00001000
00001000
00000010
00000010
,
00000100
00000100
00000001
00000001
,
00001000
00000000
00000100
00000000
,
00010000
00000000
00000000
00000000
00000000
00000000
00000M00
00000M00
00001000
00000000
00000000
00000000
00000000
00000000
00000000
00000000
,
01000000
00000000
00000000
00000000
00000000
00000000
00M00000
00M00000
00010000
00000000
00000000
00000000
00000000
00000000
00000000
00000000
,
00100000
00000M00
000000M0
00000M00
00100000
00000000
00000000
00000000
01000000
00000000
00000000
00000000
00000000
00000000
00000000
00000000
,
10000000
00000000
00000000
00000000
00000000
00000000
0000000M
0000M000
01100000
00000000
00000000
00000000
00000000
00000000
00000000
00000000
,
00010000
00000000
00000000
00000000
00000000
00000000
M0000000
M0000000
01000000
00000000
00000000
00000000
00000000
00000000
00000000
00000000
,
00001000
00001000
00010000
00010000
,
00000100
00000100
00001000
00001001
,
00000001
00000000
00000100
00000000
,
00000010
00000000
00000000
00000000
00000000
00000000
00000M00
00000M00
00010000
00000000
00000000
00000000
00000000
00000000
00000000
00000000
,
00001000
00000000
00000000
00000000
00000000
00000000
0M000000
0M000000
00010000
00000000
00000000
00000000
00000000
00000000
00000000
00000000
,
00001000
M0000000
0000000M
M0000000
00001000
00000000
00000000
00000000
00100000
00000000
00000000
00000000
00000000
00000000
00000000
00000000
,
00010000
00000000
00000000
00000000
00000000
00000000
000000M0
00000M00
10010000
00000000
00000000
00000000
00000000
00000000
00000000
00000000
,
10000000
00000000
00000000
00000000
00000000
00000000
0000M000
0000M000
00100000
00000000
00000000
00000000
00000000
00000000
00000000
00000000
,
01000000
01000000
00010000
00010000
,
00100000
00100000
00001000
00011000
,
00010000
00000000
00010000
00000000
,
00010000
00000000
00010000
00000000
,
00000100
00000000
00001000
00000000
,
00000010
00000000
00010000
00000000
,
00000100
00000000
00000100
00000000
,
00000100
00000000
00000100
00000000
,
00000010
00000000
00000001
00000000
,
00000100
00000000
00000010
00000000
,
00002000
00003000
00000200
00000300
,
00020000
00030000
00002000
00203000
,
00320000
01030000
01000000
00100000
,
00100000
10000000
10000000
00010000
,
02000000
03000000
00020000
00030000
,
00200000
00300000
00002000
00023000
,
00030200
00001300
00001000
00000010
,
00000010
00000100
00000100
00000001
,
00002000
00003000
00000020
00000030
,
00020000
00030000
00002000
00023000
,
00032000
00103000
00100000
00010000
,
00010000
01000000
01000000
00100000
,
20000000
30000000
02000000
03000000
,
00200000
00300000
00002000
00023000
,
00032000
00013000
00010000
00000100
,
00000100
00001000
00001000
00000010
,
00000100
00000000
00000100
00000000
,
00000100
00000000
00000100
00000000
,
00000001
00000000
00000010
00000000
,
00001000
00000000
00010000
00000000
,
00100000
00000000
00100000
00000000
,
00100000
00000000
00100000
00000000
,
10000000
00000000
01000000
00000000
,
00010000
00000000
00001000
00000000
,
00000100
00000010
00000010
00000000
,
00001000
00000000
00000000
00000000
00000000
00000000
000M0000
000M0000
00000100
00000000
00000000
00000000
00000000
00000000
00000000
00000000
,
00000010
00000000
00000000
00000000
00000000
00000000
00M00000
00M00000
00000001
00000000
00000000
00000000
00000000
00000000
00000000
00000000
,
00000100
0M000000
M0000000
0M000000
00000100
00000000
00000000
00000000
00000010
00000000
00000000
00000000
00000000
00000000
00000000
00000000
,
00001000
00000000
00000000
00000000
00000000
00000000
00M00000
0M000000
00001001
00000000
00000000
00000000
00000000
00000000
00000000
00000000
,
00000001
00000000
00000000
00000000
00000000
00000000
M0000000
M0000000
00000010
00000000
00000000
00000000
00000000
00000000
00000000
00000000
,
00000100
00000100
00001000
00001000
,
00000010
00000010
00010000
00011000
;

//---------------dance-double - D. Bernardone----------------
#NOTES:
     dance-double:
     D. Bernardone:
     Medium:
     5:
     0.397,0.000,0.271,0.215,0.000:
00000000
00000000
00000000
00000000
,
00000000
00000000
00000000
00000000
,
00010000
00010000
00001000
00001000
,
01000000
01000000
00100000
00200000
,
00000000
00000000
00000000
00000000
,
00000000
00000000
00000000
00300000
,
10000000
10000000
00010000
00010000
,
01000000
01000000
00001000
00001000
,
00010000
00000100
00010000
00000000
00001000
00000000
00001000
00000000
,
00010000
00000010
00010000
00000000
00000100
00000000
00000100
00000000
,
00001000
00000001
00001000
00000000
00000001
00000000
00000001
00000000
,
00000100
00000010
00000100
00000000
00000010
00000000
00000010
00000000
,
00002000
00000100
00000001
00000100
,
00000001
00000010
00000001
00000010
,
00003001
00000100
00000001
00000000
00000100
00000000
00000100
00000000
,
00000010
00001000
00000010
00000000
00001000
00000000
00001000
00000000
,
00000200
00010000
00001000
00010000
,
00001000
00010000
00001000
00010000
,
00010300
00001000
00010000
00000000
00001000
00000000
00001000
00000000
,
01000000
00010000
01000000
00000000
00010000
00000000
00010000
00000000
,
10000000
00000000
00000000
01000000
10000000
00000000
00000000
10000000
,
01000000
00000000
00110000
00000000
,
00010000
00000000
01010000
00000000
,
01000000
00001000
00020000
00030000
,
00000100
00000000
00000000
00000000
00001010
00000000
00000000
00001000
,
00000001
00000000
00000101
00000000
,
00000100
00000010
00000100
00000000
00000010
00000000
00000010
00000000
,
00001000
00000100
00001000
00000000
00000100
00000000
00000100
00000000
,
00010000
00011000
00001000
01001000
,
01000000
01010000
00010000
00110000
,
00100000
01100000
01000000
11000000
,
10000000
10010000
00010000
00110000
,
00200000
01300000
20000000
30010000
,
02000000
03001000
00020000
00031000
,
00020000
00030100
00020000
00030010
,
00002000
00003100
00002000
00003001
,
00000100
00000010
00000100
00000000
00000001
00000000
00001000
00000000
,
00000100
00010000
00000100
00000000
00010000
00000000
00001000
00000000
,
01000000
00010000
00100000
00010000
,
10000000
00010000
01000000
00010000
,
00100000
01000000
00100000
00000000
00010000
00000000
01000000
00000000
,
00001000
00010000
00001000
00000000
00010000
00000000
00000100
00000000
,
00001000
00000010
00001000
00000100
,
00001000
00000001
00000010
00000001
,
00000101
00000000
00001010
00000000
,
00001100
00000000
00010100
00010100
,
00011000
00002000
01003000
02000000
,
03010000
00020000
00130000
00100000
,
01100000
00000000
10010000
00000000
,
00110000
00000000
00101000
00101000
,
00011000
00020000
00030100
00000200
,
00001300
00002000
00003010
00000010
,
00000110
00000001
00000110
00001000
,
00000110
00000000
00000001
00000000
00002000
00003000
00002000
00003000
,
00000200
00000300
00010000
00001000
00010000
00000000
00001000
01000000
,
00001000
00000000
01000000
00010000
01000000
00000000
00010000
00000000
,
01100000
10000000
01100000
00010000
,
01100000
00000000
10000000
00000000
00020000
00030000
00020000
00030000
,
02000000
03000000
00001000
00010000
00001000
00000000
00010000
00000100
,
00010000
00000000
00000100
00001000
00000100
00000000
00001000
00000000
,
00002000
00000010
00000010
00000010
,
00000010
00000010
00000010
00000010
,
00003100
00000100
00010000
00010000
,
00001000
00001000
01000000
01000000
,
00020000
00100000
00100000
00100000
,
00100000
00100000
00100000
00100000
,
01030000
01000000
00001000
00001000
,
00010000
00010000
00000100
00000100
,
00001000
00000000
00000010
00000100
00000001
00000000
00000000
00000010
,
00000001
00000000
00000000
00000001
00000010
00000000
00000000
00000000
,
00000100
00000000
00001100
00000000
,
00000100
00010000
00002000
00003000
,
01000000
00000000
00000000
00000000
10100000
00000000
00000000
00100000
,
01000000
00000000
01010000
00000000
,
01000000
00010000
00100000
00001000
,
01000000
00010000
00100000
11000000
;

//---------------dance-double - D. Bernardone----------------
#NOTES:
     dance-double:
     D. Bernardone:
     Hard:
     8:
     0.523,0.000,0.159,0.159,0.064:
00000000
00000000
00000000
00000000
,
00000000
00000000
00000000
00000000
,
00010000
10000000
01000000
00010000
00001000
00000010
00000001
00000000
,
00000001
00000100
00001000
00000000
00010000
01000000
10000000
00000000
,
00100000
00100000
00100000
00100000
,
00100000
00100000
00100000
00100000
,
10000000
01000000
00010000
00000000
00001000
00000010
00000001
00000000
,
00001000
00000001
00000100
00001000
00010000
00100000
10000000
00000000
,
01000000
00100000
00001000
01000000
,
00100000
10000000
01000000
00100000
,
00001000
00001000
00001000
00000000
00010000
00010000
00010000
00000000
,
00000010
00000010
00000010
00000000
00000100
00000100
00000100
00000000
,
00000001
00000010
00000100
00010000
,
00000010
00000100
00000001
00001000
,
00000010
00000010
00000010
00000000
00010000
00010000
00010000
00000000
,
00000100
00000100
00000100
00000000
00001000
00001000
00001000
00000000
,
00000001
00000010
00000100
00010000
,
00000010
00000100
00001000
00010000
,
00001000
00001000
00001000
00000000
01000000
01000000
01000000
00000000
,
00100000
00100000
00100000
00000000
01000000
01000000
01000000
00010000
,
10000000
00000000
01000000
00010000
00001000
00000000
00001000
00010000
,
01000000
00000000
00000000
00000000
01000000
00000000
00010000
00001000
00010000
00000000
00000000
00000000
01100000
00000000
00000000
00000000
,
10000000
00000000
00000000
00000000
00100000
00000000
00010000
00001000
00010000
00000000
00000000
00000000
01100000
00000000
00000000
00000000
,
00100000
00010000
00001000
00000100
00000001
00000000
00000000
00000000
,
00001000
00000000
00000000
00000000
00000001
00000000
00000100
00000010
00010000
00000000
00000000
00000000
00010000
00000000
00000100
00000000
,
00000010
00000000
00000000
00000000
00000001
00000000
00001000
00000010
00000100
00000000
00000000
00000000
00000000
00000000
00000000
00000000
,
00000001
00000100
00001000
00010000
01000000
00000000
01000000
00000000
,
10000000
01000000
00010000
00001000
00000100
00000000
00000110
00000000
,
00001000
00000000
00001000
00000100
00000001
00000000
00000001
00000100
,
00010000
00000000
00000000
00000000
00010000
00000000
00000100
00000010
00000100
00000000
00000000
00000000
00011000
00000000
00000000
00000000
,
00000010
00000000
00000000
00000000
00000100
00000000
00000001
00001000
00000001
00000000
00000000
00000000
00000101
00000000
00000000
00000000
,
00000010
00010000
00000000
00010000
00001000
00000000
01000000
00000000
00100000
00000000
00000000
00000000
00000000
00000000
00000000
00000000
,
10000000
00000000
00000000
00000000
00100000
00000000
01000000
00001000
00100000
00000000
00000000
00000000
01000000
00000000
10000000
00000000
,
00010000
00000000
00000000
00000000
01000000
00000000
00100000
10000000
00010000
00000000
00000000
00000000
10010000
00000000
00000000
00000000
,
10000000
00100000
00010000
00001000
00010000
00000000
00011000
00000000
,
00000010
00000001
00000010
00001000
00000010
00000000
00000110
00000000
,
00000001
00000011
00000100
00010100
,
00001000
00010010
00000001
00000101
,
00000100
00000100
00000100
00000000
00001000
00001000
00001000
00000000
,
00010000
00010000
00010000
00000000
01000000
01000000
01000000
00000000
,
10000000
11000000
00100000
00101000
,
00010000
01001000
00100000
10100000
,
00100000
00100000
00100000
00000000
00010000
00010000
00010000
00000000
,
00001000
00001000
00001000
00000000
01000000
01000000
01000000
00001000
,
00010000
00000020
00000100
00000000
00010030
00000020
00000100
00000000
,
00010030
00000020
00000100
00000000
00010030
00000010
00000100
00000001
,
00000020
00001000
00000130
00020000
,
00000010
00000000
00031000
00000000
00010000
00001000
00010000
00000000
,
00001000
02000000
00100000
00000000
03001000
02000000
00100000
00000000
,
03001000
02000000
00100000
00000000
03001000
01000000
00100000
10000000
,
02000000
00010000
13000000
00200000
,
01000000
00000000
00310000
00000000
00001000
00010000
00001000
00001000
,
00010000
00000200
00000001
00000000
00010300
00000200
00000010
00000000
,
00010300
00000200
00000001
00000000
00010300
00000100
00000010
00000100
,
00000002
00000000
00000103
00002000
00000010
00000000
00003010
00020000
,
00001000
00000000
00031000
00010000
00000100
00000100
00010000
00000000
,
00001000
00200000
10000000
00000000
00301000
00200000
01000000
00000000
,
00301000
00200000
10000000
00000000
00301000
00100000
01000000
00100000
,
10000000
00000000
00100000
00010000
00100000
00000000
01000000
00010000
,
01000000
00000000
00010000
00001000
00010000
00010000
00000010
00000010
,
00001000
00000100
00010000
00000010
,
00001000
00000100
00010000
00000010
,
00001000
00001000
00000001
00000000
00000100
00000100
00001000
00000000
,
00010000
00010000
01000000
00000000
10000000
10000000
00010000
00000000
,
01000000
00001000
00100000
00010000
,
01000000
00001000
00100000
00010000
,
10000000
10000000
00100000
00000000
00010000
00010000
00001000
00000000
,
00010000
00010000
00000100
00000000
00000010
00000010
00000001
00001000
,
00000020
00000100
00001000
00001030
00000110
00000000
00001000
00000001
,
00000100
00000000
00000000
00000000
00000010
00000000
00010000
00001000
00010000
00000000
00000000
00000000
00000100
00000000
00000000
00000000
,
00011000
00000000
00000000
00000000
00001000
00000000
00100000
01000000
00100000
00000000
00000000
00000000
00010000
00000000
00000000
00000000
,
01000000
00001000
00000000
00001000
00010000
00000000
00000100
00000000
00000001
00000000
00000000
00000000
00000100
00000000
00000000
00000000
,
00001010
00000000
00000000
00000000
00000010
00000000
00010000
00001000
01000000
00000000
00000000
00000000
00100000
00000000
10000000
00000000
,
01000000
00000000
00000000
00000000
10000000
00000000
01000000
00100000
00001000
00000000
00000000
00000000
00010000
00000000
00000000
00000000
,
00000010
00000100
00001000
00000000
00100000
01000000
00010000
00000000
,
00000100
00000010
00001000
00010000
00001000
00000000
00001001
00000000
;

//---------------dance-double - D. Bernardone----------------
#NOTES:
     dance-double:
     D. Bernardone:
     Challenge:
     9:
     0.629,0.000,0.263,0.263,0.163:
00000000
00000000
00000000
00000000
,
00000000
00000000
00000000
00000000
,
10000000
01000000
00010000
00001000
00000100
00001000
00010000
01000000
,
10000000
00100000
00010000
00001000
00000010
00001000
00010000
00100000
,
10000000
00000000
00001000
00000000
,
00010000
00000000
00000001
00000000
,
00000001
00000100
00001000
00010000
01000000
00010000
00001000
00000100
,
00000001
00000010
00001000
00010000
00100000
00010000
00001000
00000010
,
00000001
00000000
00001000
00000100
00001000
00000000
00000010
00000000
00010000
00000000
00001000
00000000
01000000
00000000
00001000
00000000
,
00100000
00000000
00010000
01000000
00010000
00000000
01000000
00000000
00001000
00000000
00010000
00000000
00000010
00000000
00010000
00000000
,
00001000
00010000
01000000
00010000
00001000
00000010
00001000
00010000
,
00001000
00000100
00001000
00010000
00100000
00010000
00001000
00000100
,
00000001
00000000
00010000
00000000
,
00001000
00000000
10000000
00000000
,
00010000
01000000
00001000
00010000
00000100
01000000
00001000
00010000
,
00000010
00100000
00001000
00010000
00001000
10000000
01000000
00100000
,
00001000
00000000
00001000
00000000
,
00010000
00000000
00010000
00000000
,
00001000
00010000
00000001
00000010
00000100
00010000
00001000
10000000
,
00010000
10000000
01000000
00100000
00001000
00010000
00000010
00001000
,
00000001
00000000
00000000
01000000
00010000
00000000
00000000
00000010
,
00001000
00000000
00000000
00000000
00000000
00000000
00010000
00001000
00010000
00000000
00000000
00000000
00000000
00000000
00000000
00000000
,
01001000
00000000
00000000
00000000
00000000
00000000
00000010
00001000
00000010
00000000
00000000
00000000
00000000
00000000
00000000
00000000
,
00001000
00100000
01000000
10000000
00010000
00000000
00000000
00100000
00001000
00000000
00000000
00000000
00000000
00000000
00000000
00000000
,
00000011
00000000
00000000
00000000
00000000
00000000
01000000
00010000
00100000
00000000
00000000
00000000
00000000
00000000
00001000
00000000
,
00000100
00000000
00000000
00000000
00000000
00000000
01000000
00100000
01000000
00000000
00000000
00000000
00000000
00000000
00000000
00000000
,
00000001
00000100
00001000
00010000
01000000
10000000
00100000
00010000
,
00001000
00000010
00000001
00010000
00001000
00000000
00011000
00000000
,
01000000
00000000
00000000
00001000
00000010
00000000
00000000
01000000
,
00100000
00000000
00000000
00000000
00000000
00000000
00000100
00001000
00000100
00000000
00000000
00000000
00000000
00000000
00000000
00000000
,
01010000
00000000
00000000
00000000
00000000
00000000
00001000
00000001
00001000
00000000
00000000
00000000
00000000
00000000
00000000
00000000
,
00010000
00001000
00100000
00010000
01000000
00000000
00000000
00100000
10000000
00000000
00000000
00000000
00000000
00000000
00000000
00000000
,
01010000
00000000
00000000
00000000
00000000
00000000
00000010
00001000
00000100
00000000
00000000
00000000
00000000
00000000
00100000
00000000
,
01000000
00000000
00000000
00000000
00000000
00000000
00000100
00001000
00000100
00000000
00000000
00000000
00000000
00000000
00000000
00000000
,
10000000
01000000
00010000
00001000
00000100
00000001
00000010
00001000
,
00010000
00100000
10000000
00001000
00010000
00000000
00011000
00000000
,
00000001
00000000
00000010
00000100
00000010
00000000
00000001
00000000
00001000
00000000
00000010
00000000
00010000
00000000
00001000
00000000
,
00100000
00000000
00010000
01000000
00010000
00000000
00100000
00000000
00010000
00000000
10000000
00000000
01000000
00000000
00100000
00000000
,
00001000
01000000
00010000
00100000
00001000
01000000
00010000
00100000
,
00001000
01000000
00010000
00100000
00001000
01000000
00010000
00100000
,
00001000
00000000
00010000
00000010
00010000
00000000
00000100
00000000
00001000
00000000
00000001
00000000
00000010
00000000
00000100
00000000
,
00010000
00000000
00001000
00010000
00001000
00000000
01000000
00000000
00010000
00000000
00100000
00000000
00001000
00000000
00010000
00000000
,
00000100
00001000
00000010
00010000
00000100
00001000
00000010
00010000
,
00000100
00001000
00000010
00010000
00000100
00001000
00000010
00010000
,
00000200
00001300
00001100
00000000
00002000
00003001
00001001
00000000
,
00002000
00003010
00001010
00000000
00020000
00030100
00010200
00010300
,
00011000
00000000
00000000
00000000
00002000
00000000
00013000
00001000
00010000
00000000
00000000
00000000
00002000
00000000
01003000
00001000
,
01000000
00000000
00000000
00000000
00020000
00000000
00130000
00010000
00100000
00000000
00100000
00000000
01000000
00000000
01000000
00000000
,
20000000
30010000
10010000
00000000
00020000
01030000
01010000
00000000
,
00002000
00103000
00101000
00000000
00002000
00013000
00021000
00031000
,
01001000
00000000
00000000
00000000
00020000
00000000
00130000
00010000
00100000
00000000
00000000
00000000
00002000
00000000
00013000
00001000
,
00010000
00000000
00000000
00000000
00000200
00000000
00001300
00000100
00001000
00000000
00001000
00000000
00000010
00000000
00000010
00000000
,
00000200
00000301
00000101
00000010
00002000
00003010
00000110
00001000
,
00000200
00010300
00010010
00001000
00200000
00301000
00012000
00013000
,
00010100
00000000
00000100
00000000
00002000
00000000
00003010
00001000
00000010
00000000
00000010
00000000
00020000
00000000
00031000
00010000
,
00001000
00000000
00001000
00000000
02000000
00000000
03010000
01000000
00010000
00000000
00110000
00000000
00100000
00000000
00100000
00000000
,
02000000
13000000
11000000
00100000
20000000
30100000
01100000
01000000
,
00020000
00130000
00101000
00010000
00000200
00010300
00012000
00013000
,
00010010
00000000
00000010
00000000
00002000
00000000
00003001
00001000
00000001
00000000
00000001
00000000
00000200
00000000
00000310
00000100
,
00000010
00000000
00000010
00000000
00002000
00000000
00003100
00001000
00000100
00000000
00010100
00000000
00010000
00000000
00010000
00000000
,
00001000
00000000
00100000
00010000
00100000
00000000
00010000
00000000
01000000
00000000
00100000
00000000
10000000
00000000
01000000
00000000
,
00100000
00000000
00001000
01000000
00001000
00000000
00010000
00000000
00000100
00000000
00001000
00000000
00000010
00000000
00010000
00000000
,
00001000
01000000
10000000
01000000
00010000
00100000
00001000
00001000
,
00010000
00000100
00000001
00000100
00001000
00000010
00010000
00010000
,
00000100
00000000
00000100
00000000
,
01000000
00000000
01000000
00000000
,
00001000
00100000
10000000
00100000
00010000
01000000
00001000
00001000
,
00010000
00000010
00000001
00000010
00001000
00000100
00010000
00010000
,
00002000
00000000
01003000
01010000
00110000
00000000
00000000
00001000
,
00000100
00000000
00000000
00000000
00000000
00000000
00010000
01000000
00010000
00000000
00000000
00000000
00000000
00000000
00000000
00000000
,
00000011
00000000
00000000
00000000
00000000
00000000
00100000
00010000
00100000
00000000
00000000
00000000
00000000
00000000
00000000
00000000
,
00010000
00000010
00000100
00000001
00001000
00000000
00000000
00000010
00010000
00000000
00000000
00000000
00000000
00000000
00000000
00000000
,
10010000
00000000
00000000
00000000
00000000
00000000
00000010
00010000
00000100
00000000
00000000
00000000
00000000
00000000
01000000
00000000
,
00001000
00000000
00000000
00000000
00000000
00000000
00000010
00000100
00000010
00000000
00000000
00000000
00000000
00000000
00000000
00000000
,
00010000
00001000
01000000
00000100
00100000
00000010
00010000
00000001
,
00001000
00000100
00010000
00001000
10000000
00000000
01100000
0MM00000
;
