#TITLE:Legacy;
#SUBTITLE:;
#ARTIST:KaW;
#TITLETRANSLIT:;
#SUBTITLETRANSLIT:;
#ARTISTTRANSLIT:;
#GENRE:Happy Hardcore;
#CREDIT:Sync by HellRazor;
#BANNER:Legacy-bn.png;
#BACKGROUND:Legacy-bg.png;
#LYRICSPATH:;
#CDTITLE:;
#MUSIC:Legacy.ogg;
#OFFSET:0.000;
#SAMPLESTART:103.820;
#SAMPLELENGTH:12.000;
#SELECTABLE:YES;
#DISPLAYBPM:152;
#BPMS:0=152,168=159.6,168.5=152.08,232=152;
#STOPS:136=0.012,232=0.011;
#BGCHANGES:0.000=Legacy-bg.png=1.000=0=0=1=====,
20.000=In The Groove Rebirth/406_JB_HD.mpg=1.000=1=0=1===CrossFade==,
36.000=Legacy-bg.png=1.000=1=0=1===CrossFade==,
40.000=In The Groove Rebirth/877_JumpBack.mpg=1.000=0=0=1=====,
56.000=In The Groove Rebirth/253_JB_HD.mpg=1.000=0=0=1=====,
72.000=In The Groove Rebirth/219_JB_HD.mpg=1.000=0=0=1===SlideDown==,
88.000=In The Groove Rebirth/167_JB_HD.mpg=1.000=0=0=1=====,
104.000=In The Groove Rebirth/503_JB_HD.mpg=1.000=0=0=1===SlideUp==,
120.000=In The Groove Rebirth/419_JB_HD.mpg=1.000=0=0=1=====,
136.000=In The Groove Rebirth/877_JumpBack.mpg=1.000=0=0=1=====,
152.000=In The Groove Rebirth/800_JumpBack.mpg=1.000=0=0=1=====,
168.000=In The Groove Rebirth/260_JB_HD.mpg=0.400=1=0=1=Kaleidoscope2x2==CrossFade==,
184.000=In The Groove Rebirth/318_JB_HD.mpg=0.400=0=0=1=Kaleidoscope2x2==FadeLeft==,
200.000=In The Groove Rebirth/800_JumpBack.mpg=0.400=0=0=1=Kaleidoscope2x2====,
216.000=In The Groove Rebirth/253_JB_HD.mpg=0.400=0=0=1=Kaleidoscope2x2====,
232.000=In The Groove Rebirth/219_JB_HD.mpg=1.000=0=0=1=====,
248.000=In The Groove Rebirth/406_JB_HD.mpg=1.000=0=0=1=====,
264.000=In The Groove Rebirth/877_JumpBack.mpg=1.000=0=0=1=====,
280.000=In The Groove Rebirth/260_JB_HD.mpg=1.000=0=0=1=====,
296.000=Legacy-bg.png=1.000=1=0=1===CrossFade==,
99999=-nosongbg-=1.000=0=0=0 // don't automatically add -songbackground-
;
#BGCHANGES2:232.000=white flash=1.000=0=0=1=====,
300.000=white flash=1.000=0=0=1=====,
;
#KEYSOUNDS:;

//---------------dance-double - Oren G.----------------
#NOTES:
     dance-double:
     Oren G.:
     Challenge:
     9:
     0.673,0.785,0.460,0.486,0.247,450.000,55.000,58.000,14.000,0.000,1.000,0.673,0.785,0.460,0.486,0.247,450.000,55.000,58.000,14.000,0.000,1.000: // measure 1
00000000
00000000
00000000
00000000
,  // measure 2
00000000
00000000
00000000
00000000
,  // measure 3
00000000
00000000
00000000
00000000
,  // measure 4
00000000
00000000
00000000
00000000
,  // measure 5
00000000
00000000
00000000
00000000
,  // measure 6
00020000
00000000
00000010
00030000
00000000
00000000
00000200
00000000
00001000
00000300
00000000
00000000
00020000
00000000
00000100
00030000
,  // measure 7
00000000
00000010
00000100
00010000
00001000
00000100
00000010
00000000
,  // measure 8
00200000
00000000
00001000
00300000
00000000
00000000
00020000
00000000
00100000
00030000
00000000
00000000
02000000
00000000
00001000
03000000
,  // measure 9
00000000
00100000
01000000
10000000
00100000
00010000
00004000
00000000
,  // measure 10
00003020
0000M000
00000000
00000000
00000130
00000000
00011000
00000000
,  // measure 11
00200000
00000000
01000000
00000000
00301000
01000000
00100000
00020000
,  // measure 12
00000000
00001000
00030010
00000000
00001000
00000100
00000010
00000002
,  // measure 13
00000000
00000000
00010003
00000000
00000002
00001000
00000000
00000000
00001003
00000000
00000002
00010000
00000003
00000002
00001000
00000003
,  // measure 14
00000010
00001000
00000001
00000000
00000100
00000001
00001000
00000000
00001010
00000000
00000000
00000000
00010000
00000000
00001000
00000000
,  // measure 15
00200000
00000000
00000000
00000000
01000000
00000000
00000000
00301000
00010000
00000000
00000100
00000000
00001000
00000000
00000020
00000000
,  // measure 16
00000000
00000000
00000000
00000000
00000100
00000000
00000000
00010030
00001000
00000000
01000000
00000000
00010000
00000000
00100000
00000000
,  // measure 17
02100000
00000000
03000000
02100000
00000000
03000000
02100000
00000000
03000000
02000000
10000000
03000000
01000000
00100000
01000000
00000000
,  // measure 18
10000000
01000000
00100000
00000000
00010000
10000000
01000000
00000000
00100000
00000000
00001000
00000000
00010000
00000000
00000100
00000000
,  // measure 19
02000000
00000000
00100000
00000000
03001000
00010000
00000010
00200000
,  // measure 20
00000000
00000000
01000000
00000000
00000000
00000000
00301000
00010000
00001000
00000000
00100000
00000000
01000000
00000000
20000000
00000000
,  // measure 21
00000000
00000000
00001000
00000000
00000000
30000000
20010000
00000000
30000000
20000000
00001000
30000000
20000000
00000000
00010000
30000000
,  // measure 22
10000000
00100000
00000000
01000000
00000000
00000000
00010000
10000000
00000000
10000000
01000000
00000000
00010000
00000000
00001000
00000000
,  // measure 23
00200000
00000000
01000000
00000000
00301000
01000000
00100000
10000000
,  // measure 24
00000000
01000000
00010000
01000000
00100000
00001000
02000000
00010000
,  // measure 25
03000000
00000000
00100000
02000000
00000000
03010000
02000000
10000000
,  // measure 26
03000000
00010000
01000000
00100000
00010000
00001000
00000100
00000000
,  // measure 27
00000020
00000000
00010000
00000000
00001030
00000100
00000010
00000002
,  // measure 28
00000000
00001000
00000103
00000000
00000010
00010000
00001000
02000000
,  // measure 29
00000000
00000000
00100000
00000000
00000000
03010000
00000000
02000000
00001000
03000000
00001000
01000000
00000000
01000000
00010000
00000000
,  // measure 30
10000000
00010000
00100000
00000000
01000000
10000000
00010000
00000000
11000000
00000000
00000000
00000000
00100000
00000000
00010000
00000000
,  // measure 31
02000000
00000000
00100000
00000000
03001000
00010000
00000010
00002000
,  // measure 32
00000000
00003001
00000100
00001000
00000001
00000010
00002000
00000200
,  // measure 33
00000000
00000300
00000020
00000000
00003030
00001000
00000100
00000010
,  // measure 34
00000001
00000010
00000001
00000000
00000010
00000100
00000010
00000000
00000100
00001000
00000100
00000000
00000100
00000010
00000001
00000000
,  // measure 35
00000100
00000000
00001000
00000000
00010000
00000000
00000010
00000000
000M00M0
00000000
00000010
00000000
00001000
00000000
00000100
00010000
,  // measure 36
00001000
00000000
01000000
00000000
00010000
00000000
10000000
00000000
M00M0000
00000000
10000000
00000000
00100000
00000000
01000000
00010000
,  // measure 37
00100000
00000000
00001000
00000000
00010000
00000000
00000100
00000000
000M0M00
00000000
00000100
00000000
00010000
00000000
00001000
01000000
,  // measure 38
00010000
00000000
00100000
00000000
00001000
00000000
01000000
00000000
00010000
00000000
00100000
00000000
10000000
00000000
00100000
00010000
,  // measure 39
10000000
00000000
00100000
00000000
00010000
00000000
00001000
00000000
000MM000
00000000
00001000
00000000
00100000
00000000
00001000
00010000
,  // measure 40
00000100
00000000
00000010
00000000
00000001
00000000
00001000
00000000
0000M00M
00000000
00001000
00000000
00000100
00000000
00000010
00000001
,  // measure 41
00001000
00000000
00000010
00000000
00010000
00000000
00001000
00000000
000MM000
00000000
00001000
00000000
00100000
00000000
00010000
01000000
,  // measure 42
00001000
00010000
00000010
00001000
00001001
00001100
00010100
00000000
,  // measure 43
00000000
00000000
00001001
00000000
00000000
00000110
00000000
00000000
,  // measure 44
00000000
00000000
00001001
00000000
00000000
00011000
00000000
10010000
,  // measure 45
00000000
00000000
01100000
00000000
00000000
10010000
00000000
00000000
,  // measure 46
00000000
00000000
00011000
00000000
00000000
00001001
00000000
00000110
,  // measure 47
00000000
00000000
00011000
00000000
00000000
01100000
00000000
00000000
,  // measure 48
00000000
00000000
10010000
00000000
00000000
00011000
00000000
00001001
,  // measure 49
00000000
00000000
00000110
00000000
00000000
00011000
00000000
00000000
,  // measure 50
00100000
00001000
00010000
00001000
01000000
00000000
00010000
00000000
00100000
00000000
00000000
00000000
11000000
00000000
00000000
00000000
,  // measure 51
00100000
00010000
01010000
00000000
00000000
00010010
00000000
00001000
,  // measure 52
00000001
00000010
00000110
00000000
00000000
00011000
00000000
00110000
,  // measure 53
00000000
10000000
00110000
00000000
00001000
00010100
00000000
00000000
,  // measure 54
00001000
00000010
00000101
00000000
00000000
00010100
00000000
00101000
,  // measure 55
00001000
01000000
01010000
00000000
10000000
10100000
00000000
01000000
,  // measure 56
00010000
00100000
00101000
00000000
00000000
00010010
00000000
01001000
,  // measure 57
00001000
00100000
00101000
00000000
00010000
00010100
00000000
00000000
,  // measure 58
00001000
00000001
00001000
00000010
00010000
00000000
00001000
00000000
00000100
00000000
00000000
00000000
00000101
00000000
00000000
00000000
,  // measure 59
00002000
00000000
00000010
00000000
00003100
00000010
00001000
00020000
,  // measure 60
00000000
00000010
00031000
00000000
01000000
00100000
10000000
00020000
,  // measure 61
00000000
00000000
00100000
00030000
00020000
10000000
00000000
00000000
01000000
00030000
00020000
10000000
00030000
00010000
01000000
00000000
,  // measure 62
00100000
10000000
00010000
00000000
01000000
00001000
00010000
00000000
00010010
00000000
00000000
00000000
00000100
00000000
00000001
00000000
,  // measure 63
00000020
00000000
00000000
00000000
00001000
00000000
00000000
00000031
00000100
00000000
00000010
00000000
00010000
00000000
00002000
00000000
,  // measure 64
00000000
00000000
00000000
00000000
00100000
00000000
00000000
01003000
00010000
00000000
00100000
00000000
01000000
00000000
10000000
00000000
,  // measure 65
20010000
00000000
30000000
200M0000
00000000
30000000
20010000
00000000
30000000
00010000
00100000
00000000
00010000
10000000
00010000
00000000
,  // measure 66
01000000
00100000
01000000
00000000
00010000
10000000
00010000
00000000
00100000
00000000
01000000
00000000
00010000
00000000
00001000
00000000
,  // measure 67
00200000
00000000
01000000
00000000
00301000
01000000
00100000
20000000
,  // measure 68
00000000
01000000
00000000
30100000
00010000
00001000
00000100
00000002
,  // measure 69
00000000
00000003
00000002
00000000
00000000
00000003
00001002
00000000
00000000
00000013
00000002
00000000
00001000
00000003
00000002
00000000
,  // measure 70
00000103
00000001
00000000
00001000
00000000
00000000
00001010
00000000
00000000
00010000
00001000
00000000
00100000
00000000
01000000
00000000
,  // measure 71
20000000
00000000
00100000
00000000
30001000
01000000
00100000
00020000
,  // measure 72
00000000
00031000
00000100
00000010
00000001
00001000
00000100
00000002
,  // measure 73
00000000
00000000
00000010
00001003
00000000
00000100
00000010
00001000
,  // measure 74
00010000
00001000
00010000
00000000
00000100
00001000
00000100
00000000
00010000
00001000
00010000
00000000
00000010
00001000
00000010
00000000
,  // measure 75
00000100
00000000
00001001
00000000
00000000
00000000
00011000
00101000
,  // measure 76
00110000
00000000
00000000
00000000
;

//---------------dance-double - Oren G.----------------
#NOTES:
     dance-double:
     Oren G.:
     Hard:
     8:
     0.597,0.596,0.259,0.301,0.013,432.000,31.000,36.000,0.000,0.000,0.000,0.597,0.596,0.259,0.301,0.013,432.000,31.000,36.000,0.000,0.000,0.000:
00000000
00000000
00000000
00000000
,
00000000
00000000
00000000
00000000
,
00000000
00000000
00000000
00000000
,
00000000
00000000
00000000
00000000
,
00000000
00000000
00000000
00000000
,
00100000
00010000
00000000
01000000
00100000
10000000
00010000
00000000
,
00000000
00000000
00101000
00000000
01000000
00010000
00100000
00000000
,
00001000
00010000
00000000
00000100
00000010
00000001
00000100
00000000
,
00000000
00000000
00001010
00000000
00010000
00000100
00001000
00000000
,
00021000
00000000
00130000
10100000
,
10000000
00000000
01000000
00000000
00100000
00001000
00010000
00000100
,
00000000
00000010
00000001
00000000
00000100
00000010
00010000
00001000
,
00000000
00010000
00001000
00000010
00001000
00010000
00001000
00000100
,
00001000
00010000
00000010
00001000
00000100
00000000
00000010
00000001
,
00000100
00000000
00000000
00000000
00000010
00000000
00000000
00001000
00000100
00000000
00000010
00000000
00001000
00000000
00010000
00000000
,
00000000
00000000
00000000
00000000
01000000
00000000
00000000
00100000
00010000
00000000
01000000
00000000
00001000
00000000
00010000
00000000
,
00100000
00010000
00001000
00010000
01000000
00010000
00001000
00010000
,
00100000
10000000
01000000
00010000
01000000
00100000
00001000
00010000
,
00000100
00000000
00000010
00000000
00001000
00000010
00000001
00000100
,
00000000
00000010
00000000
00010000
00001000
01000000
00010000
00100000
,
00000000
01000000
00010000
01000000
10000000
01000000
00100000
00010000
,
01000000
10000000
01000000
00010000
01000000
00100000
10000000
01000000
,
00100000
00000000
00010000
00000000
01000000
00100000
00010000
00001000
,
00000000
00010000
00000010
00001000
00000100
00000010
00000001
00000100
,
00000000
00000000
00000010
00010000
00000000
00001000
00100000
00010000
,
00000000
10000000
01000000
00010000
00001000
00000100
00000001
00000000
,
00000010
00000000
00000100
00000000
00010000
00001000
00100000
00010000
,
00000000
01000000
10000000
00000000
01000000
00010000
00100000
10000000
,
00000000
00100000
00010000
00100000
01000000
00100000
00001000
00010000
,
00100000
00010000
00001000
00010000
01000000
00000000
10000000
00100000
,
01000000
00000000
00001000
00000000
00010000
01000000
00010000
00001000
,
00000000
00100000
00001000
00010000
00000100
00000010
00000001
00001000
,
00000000
00000000
00000020
00000000
00000030
00010000
00000100
00001000
,
00000010
00000100
00001000
00010000
01000000
00100000
00001000
00010000
,
00000100
00000000
00001100
00000010
00000000
00000100
00001000
00000010
,
00000100
00000000
00000101
00001000
00000000
00000010
00010000
00001000
,
00100000
00000000
00110000
10000000
00000000
00100000
01000000
00010000
,
10010000
00110000
00011000
00001010
,
00000101
00000000
00001000
00000100
00000000
00000010
00000001
00000100
,
00000110
00000000
00010000
00001000
00000000
00100000
00010000
10000000
,
11000000
00000000
00100000
00010000
00000000
01000000
00100000
10000000
,
10010000
00000000
00110000
00000000
00011000
00011000
00011000
00000000
,
00000010
00001000
00000002
00000003
00000010
00000002
00000003
00000001
,
00000100
00000010
00002000
00003000
00000100
00002000
00003000
00000002
,
00000003
00000010
00002000
00003000
00010000
00002000
00003000
00001000
,
00100000
00010000
02000000
03000000
00100000
02000000
03000000
00002000
,
00003000
00100000
00020000
00030000
01000000
00020000
00030000
00010000
,
00100000
01000000
20000000
30000000
00100000
20000000
30000000
00020000
,
00030000
00100000
00002000
00003000
01000000
00002000
00003000
00000000
,
00001000
00010000
00000010
00010000
00002000
00003000
00020000
00030000
,
00000100
00001000
00000002
00000013
00000100
00002000
00003000
00000100
,
00000010
00000001
00002000
00003010
00000100
00000002
00000003
00001001
,
00000000
00000100
00000020
00001030
00000100
00020000
00030000
00001000
,
00100000
00001000
00020000
00030100
00001000
00000020
00000030
00010010
,
00000000
00001000
00200000
00310000
10000000
02000000
03000000
00100000
,
00010000
10000000
00200000
10300000
00010000
02000000
03000000
01100000
,
00000000
01000000
00020000
00130000
00001000
00020000
00030000
00000000
,
00100000
00010000
00001000
00010000
00000010
00000000
00001000
00000000
,
00000101
00000000
00000101
00000000
00001000
00000010
00010000
00001000
,
00000000
00100000
00010000
00000000
10000000
00100000
01000000
00010000
,
00000000
00100000
00001000
00010000
00100000
00010000
00001000
01000000
,
00010000
00100000
01000000
00010000
00001000
00000000
00100000
00010000
,
10000000
00000000
10010000
00000000
01000000
00100000
00010000
00001000
,
00000000
00000000
00000000
00000000
00001010
00000000
00000000
00001000
00000001
00000000
00000010
00000000
00000100
00000000
00001000
00000000
,
00000001
00000100
00001000
00000100
00000010
00001000
00000001
00000010
,
00001000
00010000
00001000
00000100
00000010
00010000
00001000
00010000
,
00100000
00000000
10100000
00000000
01000000
00010000
00100000
00001000
,
00000000
00011000
00000000
00100000
00010000
01000000
00100000
10000000
,
00000000
00100000
00010000
00001000
00010000
01000000
00010000
00001000
,
00000010
00001000
00010000
00001000
00000100
00000001
00000010
00000100
,
00001000
00000000
00001100
00000000
00000010
00000001
00000100
00001000
,
00000000
00000100
00000010
00010000
00001000
01000000
00010000
00100000
,
00000000
00000000
01000000
00020000
00030000
01000000
10000000
00010000
,
01000000
00100000
00010000
00001000
00000010
00000100
00010000
00001000
,
00101000
00000000
01000000
00000000
00000000
00000000
00010000
10000000
,
11000000
00000000
00000000
00000000
;

//---------------dance-single - D. Bernardone----------------
#NOTES:
     dance-single:
     D. Bernardone:
     Hard:
     8:
     0.584,0.596,0.193,0.402,0.113,417.000,23.000,48.000,16.000,2.000,0.000:
0000
0000
0000
0000
,
1000
0000
0000
1000
0000
0000
1000
0000
,
0000
0000
0000
0000
0000
0100
0010
0000
,
0001
0000
0000
0001
0000
0000
0001
0000
,
0000
0000
0000
0010
,
0010
0000
0000
0010
0000
0000
0010
0000
,
0000
0000
0000
0000
0000
0001
1000
0000
,
0100
0000
0000
0100
0000
0000
0100
0000
,
0000
0000
0000
0010
,
2002
0010
0000
3003
,
2000
0000
3200
0000
0310
0001
0100
0010
,
0000
0000
0010
0000
0100
0010
0001
0002
,
0000
0000
0010
0000
2000
0000
3003
0000
1001
0000
0000
0000
0001
0010
0001
0000
,
0010
1000
0010
0000
1000
0000
0000
0000
0020
0000
0000
0030
0101
0000
0010
0000
,
0200
0000
0302
0000
1003
0010
0100
0001
,
0000
0000
0001
1000
1000
0100
0010
0202
,
0000
0000
0000
0000
0000
0000
0000
0000
0303
0000
0000
0000
1000
0010
0100
0000
,
0010
0100
0001
0000
0100
0010
0100
0000
0001
0000
0010
0000
0100
0000
1000
0000
,
0002
0000
0023
0000
0130
1000
0001
0001
,
0000
0000
0000
0000
0010
0000
0010
1000
0010
0000
0100
0000
0010
0000
2000
0000
,
0000
0010
0002
0000
0000
0000
0000
3003
,
1001
0000
0000
1010
0000
0000
0011
0101
,
0010
0000
1000
0000
0100
0001
0100
0001
,
0000
0000
0001
0001
0100
1000
0010
0200
,
0000
0000
0000
0000
0301
0000
1010
0000
0010
0100
0010
0000
1000
0000
0001
0000
,
0010
0000
0100
1000
0010
0100
0001
0000
,
1000
0000
0001
0000
1000
1000
0200
0001
,
0000
0000
0010
0000
1300
0001
1000
0200
,
0000
0001
0001
0000
0010
0000
1000
1000
,
1000
0000
0001
0000
1300
0000
0010
0100
,
0001
0000
1000
0000
0001
0010
0020
1000
,
0000
0100
0001
0031
1000
0010
0100
2000
,
0000
0000
3100
0001
0010
0001
1000
1001
,
0100
1000
0001
0000
0100
0001
1000
0000
0100
1000
0010
0000
0100
0001
0010
0000
,
0001
0100
1000
0000
0001
0100
1000
0000
,
0001
0100
1000
0MM1
1000
0100
0001
0000
,
0001
0010
1000
0000
0001
0010
1000
0000
,
0001
0010
1000
0MM1
1000
0010
0001
0001
,
0100
0010
1000
0MM1
1000
0010
0100
0000
,
0001
0010
0100
10MM
0100
0010
0001
0000
,
0001
0100
0010
1M0M
0010
0100
0001
0000
,
1000
1000
0100
0010
M001
MM01
MMM1
0000
,
1000
0010
0200
0000
0300
0100
0000
0000
,
0001
0010
0200
0300
0000
2000
3000
1000
,
0001
0100
0020
0000
0030
0010
0000
0000
,
1000
0100
0020
0000
0030
0011
0000
1001
,
0010
0100
2000
0000
3000
1000
0000
0000
,
0010
0100
0002
0000
0003
0020
0030
0010
,
0000
0000
0200
0000
0300
0100
0000
0000
,
1000
0001
1000
0001
1000
0000
0100
0000
0012
0000
0000
0000
0103
0000
0000
0000
,
0010
1000
0200
0000
0301
0100
0000
0000
,
1000
0010
0200
0000
1300
0100
0000
0001
,
0010
0010
0200
0000
0301
0200
0000
0300
,
1000
0001
0020
0000
1030
1010
0000
0110
,
0001
1000
0020
0000
0031
0010
0000
0000
,
1000
0100
0020
0000
0130
0010
0000
0001
,
0100
0100
0020
0000
0130
0010
0000
0000
,
1000
0100
1000
0100
1000
0000
0001
0000
2010
0000
0000
0000
3100
0000
0000
0000
,
0010
0001
0100
1000
0100
0100
0010
1000
,
0000
0000
1001
0000
0001
0010
0100
1000
,
0000
0000
0001
0000
0001
0000
0000
0000
0101
0000
0000
0000
0100
0010
0100
0000
,
0010
1000
0010
0000
0200
0000
0000
0000
0302
0000
0000
0000
0013
0000
0100
0000
,
1000
0010
0001
0010
0100
0100
0001
0010
,
0100
0000
0100
0000
1000
0010
0100
0022
,
0000
0000
0000
0000
0000
0000
0000
0000
0033
0000
0000
0000
1000
0100
1000
0000
,
0001
0100
0001
0000
0100
0010
0100
0000
0001
0000
0010
0000
0100
0000
1000
0000
,
0020
0000
0031
0000
0010
0001
0010
1000
,
0100
0000
0000
0000
0100
0000
0100
0010
0001
0000
0100
0000
1000
0000
0001
0000
,
0000
0010
0020
0000
1000
0000
0130
0100
,
0100
0000
0001
0002
0000
0000
0013
0100
,
0200
0000
0301
0000
0100
0001
0100
1000
,
0000
0000
0010
0010
0100
0001
0010
0101
,
0000
0000
0100
1000
0010
0100
0010
1001
,
0010
1000
0001
0000
0010
0001
1000
0000
0010
1000
0100
0000
0010
0001
0100
0000
,
0120
0000
0000
0000
0131
0000
0000
0000
0000
0000
0000
0001
1000
0000
0100
0010
,
0100
0000
0000
0000
;

//---------------dance-single - D. Bernardone----------------
#NOTES:
     dance-single:
     D. Bernardone:
     Beginner:
     1:
     0.143,0.251,0.084,0.075,0.000,101.000,10.000,9.000,0.000,0.000,0.000:
0000
0000
0000
0000
,
1000
0000
0000
0000
,
0000
0000
0000
0000
,
0001
0000
0000
0000
,
0000
0000
0000
0000
,
0100
0000
0000
0000
,
0000
0000
0000
0000
,
0010
0000
0000
0000
,
0000
0000
0000
0000
,
0110
0000
0000
0000
,
1000
0000
0000
0000
,
0001
0000
0000
0000
,
0010
0000
0020
0030
,
0020
0030
0010
0010
,
0010
0000
0000
0000
,
0001
0000
0000
0000
,
1000
0000
0000
0000
,
0010
0000
0100
0000
,
0001
0000
0000
0000
,
1000
0000
0000
0000
,
0200
0300
0200
0300
,
0200
0300
0200
0300
,
0100
0000
0000
0000
,
1000
0000
0000
0000
,
0010
0000
0000
0000
,
1001
0000
0000
0000
,
0001
0000
0010
0000
,
0010
0000
0100
0000
,
0100
0000
0000
0000
,
0000
0000
0000
0000
,
1000
0000
0001
0000
,
0001
0000
0100
0000
,
0010
0000
0000
0000
,
0110
0000
0000
0000
,
0001
0000
0000
0000
,
0001
0000
0000
0000
,
0001
0000
0000
0000
,
0010
0000
0100
0000
,
1000
0000
0000
0000
,
1000
0000
0000
0000
,
1000
0000
0000
0000
,
0010
0000
0100
0000
,
0001
0001
0000
0001
,
0000
1000
0000
1000
,
0000
0010
0000
0010
,
0000
0100
0000
0110
,
0000
0001
0000
0001
,
0000
1000
0000
1000
,
0000
0100
0000
0100
,
0000
0000
0110
0000
,
0000
0010
0000
0010
,
0000
0001
0000
0001
,
0000
0100
0000
0100
,
0000
0010
0000
0010
,
0000
1000
0000
0100
,
0000
0010
0000
0001
,
0000
1000
0000
0010
,
0000
0000
1001
0000
,
0001
0000
0000
0000
,
1000
0000
0000
0000
,
0100
0200
0000
0000
,
0000
0300
0000
0010
,
0010
0000
0000
0000
,
0001
0000
0000
0000
,
1001
0000
0000
0000
,
1000
0000
1000
0000
,
1000
0000
0000
0000
,
0100
0000
0000
0000
,
0010
0000
0000
0000
,
0002
0003
0002
0003
,
0001
0000
0000
0000
,
0100
0000
0000
0000
,
0110
0000
0000
0000
,
1001
0000
0000
0000
,
0100
0100
0000
0000
,
1001
0000
0000
0000
;

//---------------dance-single - D. Bernardone----------------
#NOTES:
     dance-single:
     D. Bernardone:
     Easy:
     4:
     0.368,0.408,0.343,0.134,0.000,251.000,41.000,16.000,0.000,0.000,0.000:
0000
0000
0000
0000
,
1000
0000
0100
0000
,
0100
0000
0000
0000
,
0010
0000
0001
0000
,
0001
0000
0000
0000
,
0100
0000
0010
0000
,
0010
0000
0000
0000
,
1000
0000
0001
0000
,
0001
0000
0000
1000
,
0100
0020
0000
0000
,
0031
0100
1000
0100
,
0010
0010
1000
0100
,
1000
0002
0100
0100
,
0100
1000
0013
0100
,
1000
0010
0001
0010
,
0100
0100
0001
0010
,
2001
0000
0100
0010
,
0100
0010
3001
0100
,
0010
1000
0100
1000
,
0001
0001
0100
0010
,
2000
0000
0100
0000
,
0100
0000
0100
3001
,
0010
0001
0100
0001
,
1000
1000
0100
1000
,
0110
0001
0001
0001
,
1001
1000
0100
0020
,
0001
0001
0031
0010
,
0002
0100
0100
0103
,
0010
0200
0010
0000
,
0010
0310
1000
0001
,
0020
0100
0100
0130
,
0010
0001
0100
0010
,
0020
1000
0100
1030
,
0110
1001
0110
1001
,
0001
0100
1000
0100
,
0001
0100
1000
0100
,
1000
0100
0010
1000
,
0001
0001
1000
1000
,
0100
0010
0001
0010
,
0100
0010
0001
0010
,
0100
0001
0100
0001
,
0100
0000
0100
0000
,
1000
0000
1001
0000
0000
1001
0000
0000
,
0000
0000
0110
0000
0000
1000
0000
1000
,
0000
0000
0110
0000
0000
0110
0000
0000
,
0000
0000
0101
0000
0000
1010
0000
1010
,
0000
0000
1001
0000
0000
1001
0000
0000
,
0000
0000
0110
0000
0000
0001
0000
0001
,
0000
0000
1100
0000
0000
0011
0000
0000
,
0001
0100
1000
0010
,
0001
1001
1000
1001
,
0100
0110
0010
0110
,
1000
1100
0100
1100
,
0010
0011
0001
0011
,
1000
1010
0010
1010
,
0100
0101
0001
0101
,
0100
0110
0001
1001
,
1000
0100
0001
0010
,
1000
1000
0001
0100
,
0020
1030
0100
1000
,
0001
0200
0010
0000
,
0010
0000
0310
1000
,
0001
0001
1000
0100
,
0020
0130
1000
0001
,
1002
0000
0010
0000
,
0010
0010
0013
0100
,
1000
1000
0010
0100
,
0020
1030
0001
0010
,
0200
1000
0000
1000
,
0000
1000
0000
0310
,
0001
0001
1000
0100
,
2000
3001
0010
0100
,
0110
1000
0100
1000
,
1001
0110
1001
0110
,
1000
0001
0000
1000
,
0110
0000
0000
0000
;

//---------------dance-double - D. Bernardone----------------
#NOTES:
     dance-double:
     D. Bernardone:
     Easy:
     3:
     0.283,0.314,0.092,0.218,0.000,200.000,11.000,26.000,0.000,0.000,0.000:
00000000
00000000
00000000
00000000
,
00000000
00000000
00000000
00000000
,
00000000
00000000
00000000
00000000
,
00000000
00000000
00000000
00000000
,
00000000
00000000
00000000
00000000
,
20000000
00000000
00000000
30000000
00000000
00000000
00010000
00000000
,
00000000
00000000
00000000
00100000
,
00200000
00000000
00000000
00300000
00000000
00000000
00001000
00000000
,
00000000
00000000
00000000
01000000
,
00011000
00020000
00000000
00000000
,
00030010
00001000
00000100
00000100
,
00000000
00000010
00000010
00000001
,
00000100
00000200
00000000
00000300
,
00000010
00000010
00000010
00000000
,
00001000
00000100
00010000
00010000
,
00000000
00001000
00100000
00010000
,
02200000
00000000
03300000
00000000
,
10000000
10000000
10000000
00000000
,
01000000
00100000
00001000
00001000
,
00000000
00010000
00010000
00000100
,
00001000
00000020
00000000
00000030
,
00000100
00000100
00000100
00000000
,
00000001
00001000
00000010
00000010
,
00000000
00010000
00001000
00100000
,
10020000
00000000
01000000
00000000
,
01000000
00000000
01000000
00000000
,
10030000
01000000
10000000
01000000
,
00010000
00010000
00001000
00010000
,
00000100
00002000
00000000
00003000
,
00000001
00000001
00000100
00000000
,
00000010
00000100
00000001
00000100
,
00001000
00001000
00010000
00001000
,
00012000
00000000
00100000
00000000
,
01003000
00010000
00100000
01000000
,
10000000
00000000
00000000
00000000
,
00010000
00000000
00000000
00000000
,
01000000
00000000
00000000
00000000
,
00001000
00000000
00000100
00000000
,
00000010
00000000
00000000
00000000
,
00001000
00000000
00000000
00000000
,
00000001
00000000
00000000
00000000
,
00001000
00000000
00000010
00000000
,
00010000
00010000
00000000
00010000
,
00000000
00001000
00000000
00001000
,
00000000
00100000
00000000
00100000
,
00000000
01000000
00000000
10010000
,
00000000
10000000
00000000
10000000
,
00000000
00100000
00000000
00100000
,
00000000
01000000
00000000
01000000
,
00001000
00010000
00001000
00010000
,
00000100
00001000
00001000
00001000
,
00001000
00000010
00000010
00000010
,
00000010
00000100
00000100
00000100
,
00000100
00000110
00000000
00001001
,
00000001
00001000
00000100
00000100
,
00000100
00010000
00001000
00001000
,
00001000
01000000
00010000
00010000
,
00010000
00100000
01000000
10000000
,
00020000
01000000
01000000
01030000
,
00002000
00010000
00010000
00013000
,
00000200
00002000
00000000
00003300
,
00001000
00000001
00001000
00000010
,
00000200
00000001
00000001
00000301
,
00002000
00000010
00000010
00003010
,
00022000
00000000
00033000
00000000
,
00100000
00001000
01000000
00010000
,
20000000
01000000
01000000
31000000
,
00200000
00010000
00010000
00310000
,
02000000
00002000
00000000
03003000
,
00020000
00000000
00030200
00000000
,
00002300
00000001
00000001
00003001
,
00000020
00000100
00000100
00000130
,
00001001
00010000
00000100
00010000
,
00001000
01000000
10000000
01000000
,
00100000
10010000
00000000
01000000
,
00011000
00000000
00000000
00000000
;

//---------------dance-single - D. Bernardone----------------
#NOTES:
     dance-single:
     D. Bernardone:
     Medium:
     5:
     0.372,0.377,0.259,0.117,0.000,266.000,31.000,14.000,0.000,0.000,0.000:
0000
0000
0000
0000
,
1000
0000
0000
0001
0000
0000
1000
0000
,
0000
0000
0000
0010
,
0100
0000
0000
0001
0000
0000
0100
0000
,
0000
0000
0000
0010
,
1000
0000
0000
0001
0000
0000
1000
0000
,
0000
0000
0000
0100
,
0010
0000
0000
0001
0000
0000
0010
0000
,
0000
0000
0000
0100
,
2000
0002
0000
3003
,
0010
0000
0001
0000
0100
0001
0100
0000
,
0010
0010
1000
0100
,
1000
0002
0000
0000
,
0000
0000
0100
0010
,
1003
0000
0100
0000
1000
0001
1000
0000
,
0010
0100
0001
0100
,
2010
0000
0100
0100
,
0100
0010
0100
0010
,
3001
0000
0100
0000
0010
1000
0010
0000
,
0100
0001
0010
0100
,
1000
0020
0000
0000
,
0100
0000
0100
0000
,
1030
0000
1000
0000
0001
0100
0001
0000
,
0010
0100
1000
0100
,
0012
0100
0100
0100
,
1003
0100
0010
0001
,
1000
0000
0010
0000
1000
0100
1000
0000
,
0001
0010
0100
0010
,
0001
0200
0000
0000
,
0010
0010
0010
1000
,
0301
0000
0010
0000
0100
1000
0100
0000
,
1000
0010
0100
0001
,
2100
0010
0010
0010
,
0001
0100
0001
0100
,
3001
0001
0001
0100
,
0010
0010
0010
1000
,
0100
0100
0100
1000
,
0001
0010
0100
0010
,
0001
0001
0001
1000
,
0010
0010
0010
0100
,
0001
0001
0001
0010
,
0100
0000
1000
0000
0100
0010
0001
0000
,
1000
0000
1001
0000
0000
0101
0000
0000
,
0100
0000
0010
0000
0000
1010
0000
1100
,
0000
0000
0110
0000
0000
0110
0000
0000
,
0000
0000
1100
0000
0000
1001
0000
0011
,
0000
0000
0001
0000
0000
0101
0000
0000
,
0100
0000
0010
0000
0000
1010
0000
0101
,
0000
0000
1001
0000
0000
1001
0000
0000
,
1000
0100
0010
0001
2000
0000
3100
0000
,
0010
0001
1000
0000
0000
1001
0000
0000
,
1000
0010
0100
0000
0000
0110
0000
0101
,
0000
0000
0001
0000
0000
1001
0000
0000
,
0000
0000
1000
0000
0000
1100
0000
0011
,
0000
0000
0001
0000
0000
1001
0000
0000
,
1000
0001
0100
0000
0000
0110
0000
1010
,
0000
0000
1100
0000
0000
1100
0000
0000
,
0001
0100
0010
1000
0002
0000
0013
0000
,
0100
0000
1000
0000
0001
0100
0001
0000
,
0010
0100
1000
0010
,
0100
0002
0000
0000
,
1000
1000
1000
0100
,
0013
0000
0100
0000
1000
0010
1000
0000
,
0001
0010
0100
1000
,
0102
0000
0010
0010
,
0010
1000
0100
0010
,
1003
0000
0100
0000
1000
0001
1000
0000
,
0010
0000
0100
0100
0001
0000
1000
0000
,
0100
0020
0000
0000
,
1000
0000
0001
0100
,
0031
0000
1000
0000
0010
0100
0010
0000
,
1000
0001
0010
0100
,
2001
0010
0001
0010
,
0001
0100
0010
0100
,
3010
0000
0110
0000
0000
0100
0001
0001
,
0001
0000
0000
0000
;

//---------------dance-single - D. Bernardone----------------
#NOTES:
     dance-single:
     D. Bernardone:
     Challenge:
     10:
     0.830,0.787,0.527,0.804,0.243,535.000,63.000,96.000,20.000,0.000,0.000:
0000
0000
0000
0000
,
1001
0000
0010
1001
0000
0100
1001
0000
,
1000
0001
0100
0000
0010
0010
0110
0000
,
0101
0000
0100
1010
0000
1000
0101
0000
,
0001
0010
0100
0000
0000
1000
0110
0000
,
1001
0000
0010
1100
0000
0001
1100
0000
,
0100
0000
0010
0000
0001
0000
0000
0000
0100
0000
0010
1000
0010
0000
0100
0000
,
0101
0000
1000
1010
0000
0001
0110
0000
,
1000
0000
0100
0000
0011
0000
0100
0000
1000
0000
0001
0000
0100
0010
1000
0001
,
0020
0000
0000
0000
2000
0000
3000
0000
0031
0000
0000
0100
0000
0000
0100
0000
,
0020
1030
0020
0130
0002
1000
0010
0023
,
000M
0030
0100
0000
1000
0010
0100
0002
,
0000
0000
0100
0000
2003
0000
0000
0000
3100
0010
0100
0000
0010
0001
1000
0000
,
0010
0000
0000
0000
0100
0000
0000
0000
0001
0000
0000
0000
0000
0000
0000
0000
2000
0000
0000
0000
0000
0000
0000
0000
0000
0000
0000
0000
0000
0000
0000
3000
0021
0000
0000
0000
0000
0000
0000
0000
0000
0000
0000
0000
0000
0000
0000
0000
0031
0000
0000
0000
0000
0000
0000
0000
1000
0000
0000
0000
0000
0000
0000
0000
,
0200
0301
0200
0310
0002
0010
1000
2003
,
000M
3000
0100
0010
0010
0001
0100
2010
,
0M00
0000
00M0
0000
0000
0000
0000
0000
0100
0000
0000
0000
3010
0100
0010
0000
,
1000
0100
1000
0000
0100
0010
0001
0000
0100
0000
1000
0000
0100
0000
0010
0000
,
2000
3001
0200
0301
0020
0100
0100
0032
,
00M0
0003
1000
1000
0100
0010
0001
0200
,
0000
1000
1000
0010
0000
0001
0000
0310
,
2000
0000
0000
0100
0000
0000
3010
0100
,
0200
0301
2000
3001
0200
0010
0001
0302
,
0M00
0003
1000
1000
0100
0010
0001
2010
,
0000
0000
0100
0001
0100
0001
0100
0001
,
3010
0100
0001
0010
1000
0010
0002
0000
,
0203
1300
0200
0310
2000
0100
0001
3002
,
M000
0003
0100
0000
0010
1000
0100
0020
,
0000
0000
0100
0000
0100
0000
0000
0000
1000
0000
0000
0000
0031
0100
0010
0000
,
1000
0100
0000
0000
0200
0000
0000
0000
0310
0000
0000
0000
0001
0000
0100
0000
,
0020
0031
0020
1030
0200
1000
0010
0320
,
0M00
0030
0001
0001
1000
0010
1000
0012
,
0000
0000
0100
1000
0100
1000
0100
0010
,
0013
0100
1000
0000
0100
1000
0001
0000
0010
0001
0100
0000
0001
1000
0010
0000
,
0100
0000
0001
1000
0001
0000
0010
0000
0200
0000
1000
0000
1300
0000
0010
0100
,
0002
0000
1000
0000
1003
0000
0100
0010
0100
0000
1000
0000
1000
0000
0001
0100
,
0020
0000
0100
0000
1030
0000
0100
0010
0100
0000
1000
0000
0010
0000
0100
0001
,
2000
0000
0100
0000
0001
0000
3010
0000
0200
0000
0001
0000
1000
0000
0310
1000
,
0001
0000
0010
0000
1000
0000
0010
0000
0100
0000
1000
0000
0010
0000
1000
0100
,
0010
0000
0001
0000
0100
0000
1000
0000
0100
0000
0010
0000
1000
0000
0001
0010
,
0100
0000
1000
0000
0010
0000
1000
0000
0100
0000
0010
0000
0001
0000
1000
0010
,
0200
0000
0001
0000
0320
0000
1030
0000
1001
0000
1000
0001
1001
0000
0000
M00M
,
0100
0000
0100
0000
2020
0000
0000
3030
0001
0000
1020
0000
1000
0000
0030
0000
,
0001
0000
0001
0000
0110
0000
0000
1000
0100
0000
0220
0000
0000
0330
1001
0000
,
0100
0000
0100
0000
0012
0000
0000
1003
0010
0000
0201
0000
0001
0000
0300
0000
,
0010
0000
1000
0000
0021
0000
0031
1000
0000
0001
0200
0000
0010
0300
1001
0000
,
0010
0000
0010
0000
1002
0000
0000
1003
0100
0000
0210
0000
0010
0000
0300
0000
,
0001
0000
0100
0000
2010
0000
0000
3001
0010
0000
0200
0000
1000
0300
0011
0000
,
0001
0000
0001
0000
2200
0000
0000
3300
0010
0000
0201
0000
0001
0000
0300
0000
,
1000
0010
0100
0010
1000
0000
0100
0000
0202
0000
0000
0303
2020
0000
0000
3030
,
0001
0100
1001
0001
0010
1100
1000
0001
,
1000
0000
1000
0000
1010
0000
0010
0100
0001
0000
0101
0000
1000
0000
0101
0000
,
0010
0000
1000
0000
1100
0000
0100
0010
0001
0000
0102
0000
0010
0000
0000
0003
,
1000
0100
1001
0010
0100
0101
1000
1010
,
0001
0000
0010
0000
0110
0000
1000
0010
0100
0000
0101
0000
0001
0000
0010
0000
,
0100
0000
0100
0000
0110
0000
0001
0100
0010
0000
1010
0000
0001
0000
0011
0000
,
0100
0010
0110
1000
0001
0011
0001
0100
,
0001
0010
0100
0010
0001
0000
1000
0000
2200
0000
0000
3300
0022
0000
0000
0033
,
2000
0100
3002
0100
2003
0010
0010
3002
,
M000
0003
0100
0000
0010
0010
1000
0200
,
0000
0000
0010
0000
0010
0000
0000
0000
0001
0000
0000
0000
1300
0010
1000
0000
,
0001
0000
0000
0000
1000
0000
0000
0000
0000
0000
0000
0000
0000
0000
0000
0000
0200
0000
0000
0000
0000
0000
0000
0000
0000
0000
0000
0000
0000
0000
0000
0300
1002
0000
0000
0000
0000
0000
0000
0000
0000
0000
0000
0000
0000
0000
0000
0000
0013
0000
0000
0000
0000
0000
0000
0000
0100
0000
0000
0000
0000
0000
0000
0000
,
2000
0010
3002
0010
2003
0100
0010
3010
,
M100
0000
2000
0000
3001
0100
0001
2100
,
0000
0M00
0000
00M0
0000
0000
0000
0000
3010
0100
0010
0000
1000
0100
0010
0000
,
0001
1000
0001
0000
0100
0010
1000
0000
0100
0000
0001
0000
0100
0000
0010
0000
,
0002
0100
2003
0100
3002
0010
0010
1003
,
010M
0000
0100
0100
0010
0001
0100
0020
,
0000
0001
0001
0000
0200
0000
0300
0100
,
0100
0000
1000
0200
0000
0300
0001
0130
,
0002
0010
2003
0010
3002
0100
0100
1003
,
001M
0000
0010
0010
0100
0001
1000
0012
,
0000
0000
0010
1000
0010
1000
0010
0103
,
0001
0010
0100
0000
0010
0001
0100
0000
0001
1000
0100
0000
1000
0010
0100
0000
,
0220
0000
0000
0330
1001
0000
0000
M00M
0000
M00M
0000
1000
0001
0000
0100
0010
,
0220
0330
0000
0000
;

//---------------dance-double - D. Bernardone----------------
#NOTES:
     dance-double:
     D. Bernardone:
     Medium:
     6:
     0.364,0.408,0.059,0.109,0.000,284.000,7.000,13.000,0.000,0.000,0.000: // measure 1
00000000
00000000
00000000
00000000
,  // measure 2
00000000
00000000
00000000
00000000
,  // measure 3
00000000
00000000
00000000
00000000
,  // measure 4
00000000
00000000
00000000
00000000
,  // measure 5
00000000
00000000
00000000
00000000
,  // measure 6
10000000
00000000
00000000
00010000
00000000
00000000
00001000
00000000
,  // measure 7
00000000
00000000
00000000
00010000
,  // measure 8
00010000
00000000
00000000
00001000
00000000
00000000
00000001
00000000
,  // measure 9
00000000
00000000
00000000
00000100
,  // measure 10
00020010
00002000
00000000
00033000
,  // measure 11
00100000
00000000
00010000
00000000
01000000
00100000
10000000
00100000
,  // measure 12
10000000
01000000
00010000
00001000
,  // measure 13
00010000
00000200
00000010
00001000
,  // measure 14
00000010
00001000
00000310
00000001
,  // measure 15
00000100
00000000
00000010
00000000
00001000
00000100
00010000
00000100
,  // measure 16
00010000
00000000
00001000
00000000
01000000
00010000
10000000
02000000
,  // measure 17
00000000
00000000
00100000
00100000
,  // measure 18
00100000
00100000
00010000
13000000
,  // measure 19
00100000
00000000
01000000
00000000
00001000
00010000
00001000
00010000
,  // measure 20
00000100
00000010
00000001
00000100
,  // measure 21
00000010
00002000
00000000
00000000
,  // measure 22
00010000
00000000
00000000
00000100
00000000
00000000
00003010
00000000
,  // measure 23
00010000
00000000
00001000
00000000
00100000
00010000
10000000
00010000
,  // measure 24
10000000
00000000
01000000
00000000
00100000
00010000
10000000
00200000
,  // measure 25
00000000
01000000
00010000
01000000
,  // measure 26
00010000
10300000
01000000
00100000
,  // measure 27
00001000
00000000
00010000
00000000
00000010
00001000
00000010
00000100
,  // measure 28
00000001
00001000
00000100
00010000
,  // measure 29
00001000
02000000
00000000
00000000
,  // measure 30
00010000
00100000
10000000
00100000
,  // measure 31
03010000
00000000
10000000
00000000
01000000
00100000
00001000
00100000
,  // measure 32
00010000
00000000
01000000
00000000
00100000
10000000
00010000
00200000
,  // measure 33
00000000
00001000
01000000
00010000
,  // measure 34
00301000
00011000
00010000
00011000
,  // measure 35
00000100
00001000
00000100
00000000
00000010
00000000
00000010
00000000
,  // measure 36
00000001
00000100
00000001
00000000
00001000
00000000
00001000
00000000
,  // measure 37
00000100
00010000
00000100
00000000
00001000
00000000
00001000
00000000
,  // measure 38
00000010
00010000
00001000
00100000
,  // measure 39
00010000
01000000
00010000
00000000
10000000
00000000
10000000
00000000
,  // measure 40
01000000
00100000
01000000
00000000
10000000
00000000
10000000
00000000
,  // measure 41
00010000
01000000
00010000
00000000
00100000
00000000
00100000
00000000
,  // measure 42
00001000
00010000
00000100
00000010
,  // measure 43
00000001
00000000
00001000
00000000
00000000
00000001
00000000
00000000
,  // measure 44
00000100
00000000
00001000
00000000
00000000
00010000
00000000
00100000
,  // measure 45
00000000
00000000
10000000
00000000
00000000
01000000
00000000
00000000
,  // measure 46
00000000
00000000
10000000
00000000
00000000
01010000
00000000
01010000
,  // measure 47
00000000
00000000
00010000
00000000
00000000
00100000
00000000
00000000
,  // measure 48
00001000
00000000
00010000
00000000
00000000
00000100
00000000
00000010
,  // measure 49
00000000
00000000
00000001
00000000
00000000
00000001
00000000
00000000
,  // measure 50
00000100
00000010
00000100
00000010
00020000
00000000
00031000
00000000
,  // measure 51
00100000
01000000
00010000
01000000
,  // measure 52
00100000
00001000
00010000
00000010
,  // measure 53
00000100
00001000
00000100
00000010
,  // measure 54
00001000
00000100
00010000
00001000
,  // measure 55
00100000
01000000
00100000
00001000
,  // measure 56
01000000
00100000
01000000
00001000
,  // measure 57
00010000
00000100
00000010
00000100
,  // measure 58
00010000
00000010
00000100
00000010
,  // measure 59
00010000
00000000
00010000
00000000
00001000
00010000
00001000
00010000
,  // measure 60
00000010
00010000
00000100
00001000
,  // measure 61
00000010
00000200
00000000
00000000
,  // measure 62
00001000
00000010
00000301
00001000
,  // measure 63
00000100
00000000
00000010
00000000
00000001
00000100
00000001
00001000
,  // measure 64
00000100
00000000
00010000
00000000
00001000
00010000
00001000
00200000
,  // measure 65
00000000
00000000
00010000
00010000
,  // measure 66
01000000
10000000
01300000
10000000
,  // measure 67
00100000
00000000
01000000
00000000
00001000
00010000
00001000
00010000
,  // measure 68
00000100
00000010
00000001
00000100
,  // measure 69
00000010
00020000
00000000
00000000
,  // measure 70
00100000
00000000
00000000
00001000
00000000
00000000
01030000
00000000
,  // measure 71
10000000
00000000
00100000
00000000
01000000
00001000
01000000
00001000
,  // measure 72
00010000
00000000
00000100
00000000
00001000
00000010
00001000
00000002
,  // measure 73
00000000
00000010
00000010
00000010
,  // measure 74
00001000
00000100
00001000
00000103
,  // measure 75
00000010
00000000
00011000
00000000
00000000
00001000
00100000
00000000
,  // measure 76
10010000
00000000
00000000
00000000
;
