#TITLE:Last Man Standing;
#SUBTITLE:;
#ARTIST:Hybrid;
#TITLETRANSLIT:;
#SUBTITLETRANSLIT:;
#ARTISTTRANSLIT:;
#GENRE:Drum & Bass;
#CREDIT:Sync by HellRazoR;
#BANNER:Last Man Standing-bn.png;
#BACKGROUND:Last Man Standing-bg.png;
#LYRICSPATH:;
#CDTITLE:;
#MUSIC:Last Man Standing.ogg;
#OFFSET:0.004;
#SAMPLESTART:90.042;
#SAMPLELENGTH:15.300;
#SELECTABLE:YES;
#DISPLAYBPM:128.000:64.000;
#BPMS:0.000=128.000,96.000=256.000,152.000=64.000,154.000=128.000,282.000=64.000;
#STOPS:;
#BGCHANGES:0.000=Last Man Standing-bg.png=1.000=0=0=1=====,
16.000=In The Groove Rebirth/206_JB_HD.mpg=1.000=1=0=1===CrossFade==,
32.000=In The Groove Rebirth/208_JB_HD.mpg=1.000=0=0=1=====,
48.000=In The Groove Rebirth/311_JB_HD.mpg=1.000=0=0=1=====,
64.000=In The Groove Rebirth/408_JB_HD.mpg=1.000=0=0=1=====,
80.000=In The Groove Rebirth/308_JB_HD.mpg=1.000=0=0=1=====,
96.000=In The Groove Rebirth/255_JB_HD.mpg=1.000=0=0=1=Kaleidoscope2x2====,
128.000=In The Groove Rebirth/203_JB_HD.mpg=1.000=0=0=1=Kaleidoscope2x2====,
152.000=Last Man Standing-bg.png=2.000=0=0=1====1^0^0^1=,
152.750=Last Man Standing-bg.png=3.000=1=0=1===CrossFade=0^0^1^1=CrossFade,
153.500=Last Man Standing-bg.png=2.000=1=0=1===CrossFade==,
154.000=In The Groove Rebirth/204_JB_HD.mpg=1.000=0=0=1=====,
170.000=In The Groove Rebirth/255_JB_HD.mpg=1.000=0=0=1=====,
186.000=In The Groove Rebirth/1154_JumpBack.mpg=1.000=0=0=1=====,
202.000=In The Groove Rebirth/206_JB_HD.mpg=1.000=0=0=1=====,
218.000=In The Groove Rebirth/308_JB_HD.mpg=1.000=0=0=1=====,
234.000=In The Groove Rebirth/208_JB_HD.mpg=1.000=0=0=1=====,
250.000=In The Groove Rebirth/408_JB_HD.mpg=1.000=0=0=1=====,
266.000=In The Groove Rebirth/311_JB_HD.mpg=1.000=0=0=1=====,
282.000=Last Man Standing-bg.png=1.000=0=0=1=====,
99999=-nosongbg-=1.000=0=0=0 // don't automatically add -songbackground-
;
#BGCHANGES2:64.000=flash=1.000=0=0=1====0.5^0.5^0.5^1=,
96.000=flash=1.000=0=0=1====0.5^0.5^0.5^1=,
128.000=flash=1.000=0=0=1====0.5^0.5^0.5^1=,
152.000=flash=1.000=0=0=1====0.5^0.5^0.5^1=,
218.000=flash=1.000=0=0=1====0.5^0.5^0.5^1=,
282.000=flash=1.000=0=0=1====0.5^0.5^0.5^1=,
;
#KEYSOUNDS:;

//---------------dance-single - R. Uchima----------------
#NOTES:
     dance-single:
     R. Uchima:
     Challenge:
     11:
     0.768,0.000,0.125,0.024,1.000:
0000
0000
0000
0000
,
0000
0000
0000
0000
,
0000
0000
0000
0000
,
0000
0000
0000
0000
,
0100
0000
1000
0000
0010
0000
1000
0000
0100
1000
0100
0010
0100
1000
0100
0010
,
0001
0000
0100
0000
0010
0000
0100
0000
0001
0010
0001
0100
0001
0010
0001
0100
,
0010
0000
0100
0000
0010
0000
1000
0000
0100
0010
0100
1000
0100
0010
0100
1000
,
0100
0000
0000
0000
0110
0000
0000
0000
1100
0000
0000
0000
0000
0000
0000
0000
MM00
0000
0001
0000
0000
0010
0000
0000
0001
0000
0000
0000
0000
0000
0100
0000
0000
0010
0000
0000
0100
0000
0000
0000
0000
0000
0110
0000
0000
0000
0000
0000
,
1010
0000
0010
0100
0001
0000
0010
0000
0100
1000
0100
0010
0001
0010
0001
0100
,
0010
0000
1000
0100
0010
0000
0001
0000
0100
0010
1000
0100
0010
0100
1000
0001
,
0010
0000
0001
0100
0010
0000
1000
0000
0100
0010
0001
1000
0100
0010
0001
0100
,
0010
0000
0010
0100
0001
0000
0010
0000
0100
1000
0010
0100
0001
0010
0100
1000
,
0001
0000
0100
0010
1000
0000
0001
0000
0010
0100
0010
0001
1000
0100
1000
0001
,
0100
0000
0010
1000
0100
0000
0010
0000
0001
0100
0010
0100
0001
1000
0010
1000
,
0100
0000
0010
0001
1000
0000
1000
0000
0010
1000
0001
0100
0010
1000
0100
0010
,
0001
0000
0000
0000
0101
0000
0000
0000
0110
0000
0000
0000
0000
0000
0000
0000
0MM0
0000
1000
0000
0000
0001
0000
0000
1000
0000
0000
0000
0000
0000
0100
0000
0000
0010
0000
0000
0100
0000
0000
0000
0000
0000
1100
0000
0000
0000
0000
0000
,
0110
0000
0010
0001
1000
0100
1000
0000
1000
0100
0010
0001
0010
0100
1000
0001
,
0100
0000
0010
1000
0100
1000
0010
0000
1000
0010
0100
0001
0010
0100
1000
0001
,
1000
0000
0010
0100
0001
0100
0010
0000
1000
0001
0100
0001
0010
0100
1000
0010
,
0100
0000
0100
0001
0010
0001
0100
0000
0010
1000
0010
0100
0001
0010
0001
0100
,
0010
0000
1000
0010
0001
0010
1000
0000
1000
0010
0100
0010
0100
0001
0010
0100
,
0010
0000
0001
0100
1000
0100
0001
0000
0100
0010
1000
0100
0010
0001
1000
0001
,
0010
0000
0001
1000
0010
1000
0001
0000
1000
0100
0010
0001
0100
0001
0010
0001
,
1000
0000
1000
0010
0100
0010
1000
0000
1000
0100
0010
0001
1000
0010
1000
0100
,
0020
0000
0000
0000
,
0000
0000
0000
0000
,
0000
0000
0000
0000
,
0000
0000
0000
0000
,
0000
0000
0000
0000
,
0000
0000
0000
0000
,
0000
0000
0000
0000
,
0000
0000
0000
0000
,
0002
0000
0000
0000
,
0000
0000
0000
0000
,
0000
0000
0000
0000
,
0000
0000
0000
0000
,
0000
0000
0000
0000
,
0000
0000
0000
0000
0000
0000
0000
0000
0000
0000
0000
0000
0000
0000
0000
0033
,
0004
0000
00M0
4000
0000
0000
0040
0000
3033
0000
0000
0000
1000
0000
1000
0100
,
0010
0000
0100
0000
0010
0001
0100
0001
0010
0000
0001
0000
1000
0000
0100
0010
,
0001
0000
0100
0000
0010
1000
0100
1000
0010
0000
1000
0000
0001
0000
1000
0010
,
0100
0000
0010
0000
0100
0001
0100
1000
0100
0000
0010
0000
1000
0000
0100
0010
,
0001
0000
0100
0000
0010
1000
0010
0001
0010
0000
1000
0000
0100
0000
1000
0010
,
0100
0000
0001
0000
0100
1000
0100
0001
1000
0000
0100
0000
0010
0000
0001
0100
,
0010
0000
0100
0000
0010
0001
0010
1000
0001
0000
0100
0000
0010
0000
1000
0100
,
0010
0000
0001
0000
0100
0001
0010
0001
0100
0000
0010
0000
1000
0000
0100
0010
,
0100
0000
1000
0000
0010
1000
0100
1000
0010
0000
1000
0000
0001
0000
0010
0100
,
0010
0000
0001
0000
0001
0100
0010
0001
0010
0000
1000
0000
0100
0000
0010
0001
,
0100
0000
0010
0000
1000
0010
0100
1000
0100
0000
0001
0000
0010
0000
0100
1000
,
0001
0000
0010
0000
0100
0010
0001
0100
1000
0000
0100
0000
0001
0000
0010
0100
,
1000
0000
0100
0000
0010
0100
1000
0010
0001
0000
0010
0000
1000
0000
0100
0010
,
0001
0000
1000
0000
0010
0001
0010
1000
0001
0000
0100
0000
0010
0000
0100
0010
,
1000
0000
0010
0000
0100
1000
0100
0001
1000
0000
0001
0000
0100
0000
0010
1000
,
0100
0000
0000
0000
0000
0000
0010
0000
0000
0000
0000
0000
0001
0000
0000
0100
0000
0000
0010
0000
0000
0000
0000
0000
0101
0000
0000
0000
0110
0000
0000
0000
1010
0000
0000
0000
0000
0000
0000
0000
M0M0
0000
0100
0000
0000
0001
0000
0000
,
0100
0000
0100
0010
0100
0000
0110
0000
1000
0100
0010
0001
1000
0000
0010
0100
,
0001
0010
0100
1000
0010
0100
0001
0000
1000
0100
0001
0100
1000
0000
0010
0100
,
0001
0010
1000
0010
0001
0010
0100
0000
0010
0100
1000
0100
1000
0000
0001
0100
,
0010
0100
1000
0100
0010
0100
0001
0000
0010
0100
1000
0010
0100
0000
0001
0100
,
0001
0010
0001
0100
0010
1000
0100
0000
1000
0100
0010
0001
0010
0000
0100
1000
,
0010
0100
0010
0001
0010
0100
0001
0000
0100
0010
1000
0010
0100
0000
0010
1000
,
0001
0010
1000
0010
0100
1000
0100
0000
1000
0010
0100
0010
1000
0000
0010
0100
,
0010
0000
0000
0001
0000
0000
0010
0000
0000
0100
0000
0000
0010
0000
0000
1000
0000
0000
0001
0000
0000
0000
0000
0000
0101
0000
0000
0000
1001
0000
0000
0000
1010
0000
0000
0000
0000
0000
0000
0000
M0M0
0000
0100
0000
0000
0001
0000
0000
,
0100
0000
0010
1000
0010
0000
1010
0000
1000
0100
0010
0001
0010
0000
0001
0010
,
0100
0010
0001
1000
0001
0100
0010
0100
0001
0010
0100
1000
0100
0000
0010
0001
,
0100
0010
0100
1000
0100
0010
1000
0100
0010
0100
0001
0100
0010
0000
0010
0001
,
0100
0010
1000
0100
0001
0100
1000
0010
0100
0001
0100
0010
1000
0000
0010
0100
,
1000
0100
0010
0100
0010
1000
0010
0001
0010
1000
0100
0010
0001
0000
0001
0100
,
0010
0100
0010
1000
0100
0010
0100
0001
0100
0010
0100
1000
0001
0000
0001
0100
,
1000
0100
0001
1000
0100
0010
0100
1000
0010
0100
0001
0010
0100
0000
1000
0100
,
0010
0001
0010
0100
0001
0100
0010
0001
1000
0100
0010
1000
0010
0100
1000
0001
,
0010
0100
0010
0001
1000
0100
0001
1000
0020
0000
0000
0000
0030
0000
0000
0000
;

//---------------dance-single - R. Uchima----------------
#NOTES:
     dance-single:
     R. Uchima:
     Hard:
     7:
     0.456,0.000,0.243,0.055,0.098:
0000
0000
0000
0000
,
0000
0000
0000
0000
,
0000
0000
0000
0000
,
0000
0000
0000
0000
,
1000
0000
0010
0000
0100
0001
0100
0001
,
0010
0000
0100
0000
1000
0010
1000
0010
,
0100
0000
0001
0000
0010
0100
0010
0100
,
1000
0000
0100
0000
0010
0000
0000
0000
0000
0001
0000
0000
0101
0000
0000
0000
0000
0000
1010
0000
0000
0000
0000
0000
,
0010
1000
0100
1000
0010
0100
0001
0000
,
0001
0010
0100
1000
0010
0100
0010
0000
,
1000
0100
0010
0001
0100
0010
0100
0000
,
0010
1000
0010
0100
0001
0100
0010
0000
,
0100
0001
0010
0100
1000
0001
0100
0000
,
0010
1000
0100
1000
0010
1000
0001
0000
,
0010
0001
0100
0001
0010
0001
1000
0000
,
0001
0000
0100
0000
0010
0000
0000
0000
0000
1000
0000
0000
1100
0000
0000
0000
0000
0000
0011
0000
0000
0000
0000
0000
,
0001
0000
0010
0001
0010
0000
0001
0000
0100
0000
0000
0000
0110
0000
0000
0000
,
0010
0000
1000
0001
1000
0000
0100
0000
0010
0000
0000
0000
0011
0000
0000
0000
,
0001
0000
0100
0010
0100
0000
0010
0000
1000
0000
0000
0000
1010
0000
0000
0000
,
0010
0000
1000
0100
1000
0000
0001
0000
0100
0000
0000
0000
0101
0000
0000
0000
,
0001
0000
1000
0010
1000
0000
0001
0000
1000
0000
0000
0000
1100
0000
0000
0000
,
0100
0000
0010
0100
0010
0000
0100
0000
1000
0000
0000
0000
1001
0000
0000
0000
,
0001
0000
0100
0001
0100
0000
0001
0000
0010
0000
0000
0000
0110
0000
0000
0000
,
0100
0000
0010
0001
0010
0000
0001
0000
0100
0000
0010
0000
1000
0000
0001
0000
,
2002
0000
0000
0000
,
0000
0000
0000
0000
,
0000
0000
0000
0000
,
0000
0000
0000
0000
,
0000
0000
0000
0000
,
0000
0000
0000
0000
,
0000
0000
0000
0000
,
0000
0000
0000
0000
,
0003
0000
000M
000M
0000
0000
0000
0000
,
0000
0000
0000
0000
,
0000
0000
0000
0000
,
0000
0000
0000
0000
,
0000
0000
0000
0000
,
0000
0000
0000
0000
,
3020
0000
0000
0200
0030
0000
0002
0303
0101
0000
0010
0000
1000
0000
0100
0000
,
1000
0010
0100
0000
0010
0100
0001
0010
,
0001
0100
0010
0000
1000
0100
0010
0100
,
1000
0010
1000
0000
0001
0010
0100
0010
,
0001
0100
0001
0000
1000
0010
0100
0001
,
0010
0100
1000
0000
0001
0100
0010
1000
,
0100
0010
0001
0000
1000
0001
1000
0100
,
1000
0010
1000
0000
0001
1000
0001
0010
,
0001
0100
0001
0000
0010
0001
0100
1000
,
0100
0001
0100
0000
0010
1000
0100
0001
,
0100
1000
0100
0000
1000
0010
0001
0010
,
0100
0001
0010
0000
0001
0010
1000
0010
,
0100
1000
0010
0000
0100
0001
0010
1000
,
0010
0001
1000
0000
0100
1000
0010
0001
,
0010
1000
0001
0000
1000
0001
1000
0001
,
0100
0000
0000
0010
0000
0000
0100
0000
0000
0000
0000
0000
1000
0000
0001
0000
1000
0000
0000
0000
0000
0010
0000
0000
,
1000
0100
1100
0000
1000
0000
1010
0010
,
0100
0001
0010
0000
0001
0000
0101
0100
,
0010
1000
0100
0000
1000
0000
1001
0001
,
0100
0010
1000
0000
0001
0000
1001
1000
,
0010
0100
0001
0000
0010
0000
0110
0100
,
1000
0010
0100
0000
0100
0000
0110
0100
,
0001
0010
0100
0000
0010
0000
0110
0100
,
1000
0000
0000
0001
0000
0000
0100
0000
0000
0010
0000
0000
0100
0000
0001
0000
1000
0000
0000
0000
0000
0010
0000
0000
,
1000
0000
0001
0000
0011
0000
0000
0000
0010
0000
0001
0010
0001
0000
0100
0000
,
0010
0000
0100
0000
0110
0000
0000
0000
0010
0000
1000
0100
1000
0000
0010
0000
,
0100
0000
0001
0000
0101
0000
0000
0000
0001
0000
0010
0100
0010
0000
0100
0000
,
1000
0000
0010
0000
1010
0000
0000
0000
1000
0000
0001
0100
0001
0000
0010
0000
,
0100
0000
1000
0000
1100
0000
0000
0000
0010
0000
0001
1000
0001
0000
0100
0000
,
0001
0000
0010
0000
0011
0000
0000
0000
1000
0000
0010
1000
0010
0000
1000
0000
,
0010
0000
0100
0000
0110
0000
0000
0000
0010
0000
1000
0001
1000
0000
0100
0000
,
0010
0000
0001
0000
0011
0000
0000
0000
0001
0000
0100
0010
0100
0000
0010
0000
,
1000
0100
0110
0010
0220
0000
0330
0000
;

//---------------dance-single - R. Uchima----------------
#NOTES:
     dance-single:
     R. Uchima:
     Medium:
     5:
     0.318,0.000,0.353,0.031,0.004:
0000
0000
0000
0000
,
0000
0000
0000
0000
,
0000
0000
0000
0000
,
0000
0000
0000
0000
,
0001
0000
0010
0000
0001
0010
0001
0000
,
0100
0000
0010
0000
1000
0100
1000
0000
,
0001
0000
0100
0000
0010
1000
0010
0000
,
1010
0100
0101
0001
,
1001
0000
1000
0000
0010
0100
0010
0000
,
1000
0000
0001
0000
0010
0001
0010
0000
,
0001
0000
0100
0000
0010
1000
0010
0000
,
1000
0000
0100
0000
0010
0001
0010
0000
,
0100
0000
1000
0000
0010
0100
0010
0000
,
1000
0000
0001
0000
0100
0001
0100
0000
,
0010
0000
1000
0000
0100
1000
0100
0000
,
0110
0010
1001
1000
,
0101
0001
0011
0011
,
0010
0100
1100
1100
,
1000
0010
0110
1001
,
0001
1000
1001
0110
,
0010
1000
1010
0101
,
0001
0010
0011
1100
,
1000
0100
1100
0011
,
0001
0100
0101
0110
,
2002
0000
0000
0000
,
0000
0000
0000
0000
,
0000
0000
0000
0000
,
0000
0000
0000
0000
,
0000
0000
0000
0000
,
0000
0000
0000
0000
,
0000
0000
0000
0000
,
0000
0000
0000
0000
,
0MM0
0000
0000
0000
,
0000
0000
0000
0000
,
0000
0000
0000
0000
,
0000
0000
0000
0000
,
0000
0000
0000
0000
,
0000
0000
0000
0000
,
3003
0000
0000
0000
0000
MMMM
0000
0000
0110
0000
0000
0000
0100
0000
0000
0000
,
0010
1000
1001
0001
,
0100
0001
0101
0100
,
0010
1000
1100
0100
,
0010
0001
1001
1000
,
0010
0100
0110
0010
,
1000
0100
1100
1000
,
0010
0100
0110
0010
,
1000
0001
1001
1000
,
0001
0010
1100
1000
,
0100
0010
1001
1000
,
0100
1000
0011
0001
,
0100
0001
1010
1000
,
0010
0100
1001
0001
,
1000
0100
0011
0001
,
1000
0010
0101
0001
,
1001
1000
1100
0100
,
0010
0001
0010
0000
0001
0000
1000
0000
,
0010
0100
0010
0000
0100
0000
0010
0000
,
1000
0100
1000
0000
0010
0000
0100
0000
,
0001
0100
0001
0000
0010
0000
0100
0000
,
1000
0100
1000
0000
0010
0000
1000
0000
,
0001
1000
0001
0000
0100
0000
0001
0000
,
0010
0001
0010
0000
0110
0000
0100
0000
,
1100
1000
1010
0010
,
0100
0001
1000
0000
0010
0000
1000
0000
,
0100
0010
0001
0000
0010
0000
0001
0000
,
0100
0001
1000
0000
0010
0000
1000
0000
,
0100
1000
0001
0000
0100
0000
0010
0000
,
1000
0010
0100
0000
0010
0000
1000
0000
,
0001
0010
0100
0000
0010
0000
0001
0000
,
0100
0010
1000
0000
0010
0000
1000
0000
,
0010
0100
0001
0000
2002
0000
3003
0000
;

//---------------dance-single - R. Uchima----------------
#NOTES:
     dance-single:
     R. Uchima:
     Easy:
     3:
     0.205,0.000,0.212,0.024,0.004:
0000
0000
0000
0000
,
0000
0000
0000
0000
,
0000
0000
0000
0000
,
0000
0000
0000
0000
,
1000
0000
1001
0000
,
0001
0000
1001
0000
,
0010
0000
0110
0000
,
0100
0001
0010
0100
,
1000
0000
1100
0000
,
0100
0000
0110
0000
,
0010
0000
0011
0000
,
0001
0000
0101
0000
,
0100
0000
0110
0000
,
0010
0000
1010
0000
,
1000
0000
1001
0000
,
0001
0100
0010
1000
,
0001
0010
0001
0000
,
0100
0010
0100
0000
,
0010
1000
0010
0000
,
1000
0100
1000
0000
,
0100
0010
0100
0000
,
0010
0001
0010
0000
,
0001
1000
0001
0000
,
0001
0010
0100
1000
,
0002
0000
0000
0000
,
0000
0000
0000
0000
,
0000
0000
0000
0000
,
0000
0000
0000
0000
,
0000
0000
0000
0000
,
0000
0000
0000
0000
,
0000
0000
0000
0000
,
0000
0000
0000
0000
,
MMM0
0000
0000
0000
,
0000
0000
0000
0000
,
0000
0000
0000
0000
,
0000
0000
0000
0000
,
0000
0000
0000
0000
,
0000
0000
0000
0000
,
M000
0000
0000
0M00
0000
0000
00M3
0000
1001
0000
0000
0000
0000
0000
0000
0000
,
1001
0000
0001
1000
,
0010
0100
0110
0000
,
0110
0000
0100
0001
,
0010
0001
0011
0000
,
0011
0000
0001
1000
,
0010
1000
1010
0000
,
1010
0000
0010
1000
,
0100
0010
0110
0000
,
1001
0000
0001
0100
,
0001
1000
1001
0000
,
0110
0000
0010
1000
,
0100
1000
1100
0000
,
0011
0000
0001
0100
,
0010
1000
1010
0000
,
0101
0000
0001
0100
,
0001
1000
0001
0010
,
0001
0000
0100
0010
,
0100
0000
0010
1000
,
0010
0000
1000
0001
,
1000
0000
0001
1000
,
0001
0000
0100
0010
,
0100
0000
0010
1000
,
0010
0000
1000
0100
,
1000
0100
0010
0001
,
1000
0000
0001
0100
,
0010
0000
0100
0010
,
1000
0000
0010
1000
,
0100
0000
1000
0100
,
0010
0000
0100
0010
,
0001
0000
0010
0001
,
1000
0000
0001
1000
,
0010
0100
0220
0330
;

//---------------dance-single - R. Uchima----------------
#NOTES:
     dance-single:
     R. Uchima:
     Beginner:
     1:
     0.093,0.000,0.047,0.000,0.000: // measure 1
0000
0000
0000
0000
,  // measure 2
0000
0000
0000
0000
,  // measure 3
0000
0000
0000
0000
,  // measure 4
0000
0000
0000
0000
,  // measure 5
0100
0000
0000
0000
,  // measure 6
0010
0000
0000
0000
,  // measure 7
0001
0000
0000
0000
,  // measure 8
1001
0000
0000
0000
,  // measure 9
0010
0000
0000
0000
,  // measure 10
1000
0000
1000
0000
,  // measure 11
0100
0000
0000
0000
,  // measure 12
1000
0000
1000
0000
,  // measure 13
0001
0000
0000
0000
,  // measure 14
0010
0000
0010
0000
,  // measure 15
0100
0000
0000
0000
,  // measure 16
0110
0000
0000
0000
,  // measure 17
0010
0000
0010
0000
,  // measure 18
0001
0000
0000
0000
,  // measure 19
1000
0000
1000
0000
,  // measure 20
0001
0000
0000
0000
,  // measure 21
0100
0000
0100
0000
,  // measure 22
0010
0000
0000
0000
,  // measure 23
1000
0000
1000
0000
,  // measure 24
0001
0000
0000
0000
,  // measure 25
1001
0000
0000
0000
,  // measure 26
0000
0000
0000
0000
,  // measure 27
0000
0000
0000
0000
,  // measure 28
0000
0000
0000
0000
,  // measure 29
0000
0000
0000
0000
,  // measure 30
0000
0000
0000
0000
,  // measure 31
0000
0000
0000
0000
,  // measure 32
0000
0000
0000
0000
,  // measure 33
0000
0000
0000
0000
,  // measure 34
0000
0000
0000
0000
,  // measure 35
0000
0000
0000
0000
,  // measure 36
0000
0000
0000
0000
,  // measure 37
0000
0000
0000
0000
,  // measure 38
0000
0000
0000
0000
,  // measure 39
0000
0000
1001
0000
,  // measure 40
1000
0000
0010
0000
,  // measure 41
0010
0000
1000
0000
,  // measure 42
1000
0000
0001
0000
,  // measure 43
0000
0000
0100
0000
,  // measure 44
0100
0000
0001
0000
,  // measure 45
0001
0000
0010
0000
,  // measure 46
0010
0000
0001
0000
,  // measure 47
0000
0000
1000
0000
,  // measure 48
1000
0000
0001
0000
,  // measure 49
0001
0000
0010
0000
,  // measure 50
0010
0000
0001
0000
,  // measure 51
0000
0000
0100
0000
,  // measure 52
0000
0000
0010
0000
,  // measure 53
0000
0000
1000
0000
,  // measure 54
0000
0000
0001
0000
,  // measure 55
0001
0000
0001
0000
,  // measure 56
0000
0000
0100
0000
,  // measure 57
0100
0000
0100
0000
,  // measure 58
0000
0000
0010
0000
,  // measure 59
0010
0000
0010
0000
,  // measure 60
0000
0000
1000
0000
,  // measure 61
1000
0000
1000
0000
,  // measure 62
0000
0000
0110
0000
,  // measure 63
0000
0000
0001
0000
,  // measure 64
0000
0000
1000
0000
,  // measure 65
1000
0000
1000
0000
,  // measure 66
0000
0000
0010
0000
,  // measure 67
0010
0000
0010
0000
,  // measure 68
0000
0000
0100
0000
,  // measure 69
0100
0000
0100
0000
,  // measure 70
0000
0000
0001
0000
,  // measure 71
0000
0000
1001
0000
;

//---------------dance-double - R. Uchima----------------
#NOTES:
     dance-double:
     R. Uchima:
     Challenge:
     10:
     0.737,0.000,0.102,0.039,0.977:
00000000
00000000
00000000
00000000
,
00000000
00000000
00000000
00000000
,
00000000
00000000
00000000
00000000
,
00000000
00000000
00000000
00000000
,
00010000
00001000
00100000
00000000
00010000
00000000
01000000
00100000
10000000
00000000
00010000
00000000
01000000
00001000
00100000
00000000
,
00001000
00010000
00000100
00000000
00001000
00000000
00000010
00001000
00000100
00000000
00000010
00000000
00000001
00000100
00000010
00000000
,
00001000
00000100
00000010
00000000
00000100
00000000
00010000
00001000
00100000
00000000
00010000
00000000
01000000
00100000
10000000
00000000
,
00010000
00000000
00000000
00000000
10000000
00000000
00000000
00000000
10001000
00000000
00000000
00000000
00001000
00000000
00000000
00000000
00000000
00000000
00010000
00000000
00000000
00001000
00000000
00000000
00010000
00000000
00000000
00000000
00000000
00000000
00000001
00000000
00000000
00001000
00000000
00000000
00000001
00000000
00000000
00000000
00000000
00000000
00000001
00000000
00000000
00000000
00000000
00000000
,
00001000
00000000
00000010
00010000
00000100
00000000
00010000
00000000
01001000
00000000
01000000
00000000
00010000
00000000
01000000
00000000
,
00100000
00000000
10000000
01000000
00100000
00000000
01000000
00000000
00110000
00000000
00010000
00000000
00100000
00000000
00001000
00000000
,
01000000
00000000
00001000
00010000
00000100
00000000
00010000
00000000
00001001
00000000
00001000
00000000
00000100
00000000
00010000
00000000
,
00000010
00000000
00010000
00001000
01000000
00000000
00001000
00000000
00100100
00000000
00000100
00000000
00010000
00000000
00001000
00000000
,
01000000
00000000
00010000
10000000
01000000
00000000
00100000
00000000
00110000
00000000
00100000
00000000
00001000
00000000
00010000
00000000
,
00000010
00000000
00001000
00000010
00010000
00000000
00000010
00000000
00101000
00000000
00001000
00000000
10000000
00000000
00010000
00000000
,
01000000
00000000
00100000
10000000
00010000
00000000
00100000
00000000
00101000
00000000
00010000
00000000
00000010
00000000
00001000
00000000
,
00001000
00000000
00000000
00000000
00000001
00000000
00000000
00000000
00010001
00000000
00000000
00000000
00010000
00000000
00000000
00000000
00000000
00000000
00001000
00000000
00000000
00010000
00000000
00000000
00001000
00000000
00000000
00000000
00000000
00000000
10000000
00000000
00000000
00010000
00000000
00000000
10000000
00000000
00000000
00000000
00000000
00000000
10000000
00000000
00000000
00000000
00000000
00000000
,
00001000
00000000
00100000
00010000
10000000
00000000
01000000
00000000
10000000
00100000
01000000
00000000
00010000
00100000
00001000
00100000
,
00010000
00000000
00100000
00001000
00010000
00000000
00001000
00000000
00010000
00000010
00001000
00000000
00000010
00001000
00000100
00000010
,
00000001
00000000
00000010
00000100
00001000
00000000
00000100
00000000
00001000
00000100
00010000
00000000
00001000
00100000
00010000
00100000
,
01000000
00000000
10000000
00010000
01000000
00000000
00010000
00000000
00100000
00001000
00010000
00000000
00001000
00010000
00000100
00001000
,
00000100
00000000
00000010
00000001
00000100
00000000
00000010
00000000
00001000
00000100
00001000
00000000
00000100
00010000
00001000
00100000
,
00001000
00000000
00100000
00010000
10000000
00000000
01000000
00000000
00100000
00010000
00100000
00000000
00001000
00010000
00000010
00001000
,
00000010
00000000
00001000
00000001
00000100
00000000
00000010
00000000
00001000
00000010
00010000
00000000
00000010
00010000
00001000
00100000
,
00010000
00000000
00100000
00010000
10000000
00000000
00100000
00000000
01000000
00010000
00100000
00000000
00001000
00100000
00000100
00010000
,
00000002
00000000
00000000
00000000
,
00000000
00000000
000M0000
00M00000
0MMMMMM0
00M00000
000M0000
00000000
00000000
00000000
00000000
00000000
00000000
00000000
00000000
00000000
,
M0000000
M0000000
M0000000
M0000000
M0000000
M0000000
00000000
00000000
00000000
00000000
00000000
00000000
00000000
00000000
00000000
00000000
00000000
00000000
00000000
00000000
00000000
00000000
00000000
00000000
00000000
00000000
00000000
00000000
00000000
00000000
00000000
00000000
,
M0000000
M0000000
M0000000
M0000000
M0000000
00000000
00000000
00000000
00000000
00000000
00000000
00000000
00000000
00000000
00000000
00000000
00000000
00000000
00000000
00000000
00000000
00000000
00000000
00000000
00000000
00000000
00000000
00000000
00000000
00000000
00000000
00000000
,
M0000000
M0000000
M0000000
M0000000
00000000
00000000
00000000
00000000
00000000
00000000
00000000
00000000
00000000
00000000
00000000
00000000
00000000
00000000
00000000
00000000
00000000
00000000
00000000
00000000
00000000
00000000
00000000
00000000
00000000
00000000
00000000
00000000
,
M0000000
M0000000
M0000000
00000000
00000000
00000000
00000000
00000000
00000000
00000000
00000000
00000000
00000000
00000000
00000000
00000000
00000000
00000000
00000000
00000000
00000000
00000000
00000000
00000000
00000000
00000000
00000000
00000000
00000000
00000000
00000000
00000000
,
M0000000
M0000000
00000000
00000000
00000000
00000000
00000000
00000000
00000000
00000000
00000000
00000000
00000000
00000000
00000000
00000000
00000000
00000000
00000000
00000000
00000000
00000000
00000000
00000000
00000000
00000000
00000000
00000000
00000000
00000000
00000000
00000000
,
M0000000
00000000
00000003
00000000
,
2MMMMMMM
00000000
00000000
00000000
,
00000M00
00000000
00000000
00000M00
00000000
00000000
00000M00
00000000
00000000
00000M00
00000000
00000000
00000M00
00000000
00000000
00000M00
00000000
00000000
00000M00
00000000
000M000M
00000M00
0000M0M0
00000000
00000M00
00000000
00000000
00000000
00000000
00000000
00000000
00000000
00000000
00000000
00000000
00000000
00000000
00000000
00000000
00000000
00000000
00000000
00000000
00000000
00000000
00000000
00000000
00000000
,
00000M00
00000M00
00000M00
00000M00
00000000
00000000
00000000
00000000
00000000
00000000
00000000
00000000
00000000
00000000
00000000
00000000
00000000
00000000
00000000
00000000
00000000
00000000
00000000
00000000
00000000
00000000
00000000
00000000
00000000
00000000
00000000
00000000
,
00000M00
00000M00
00000M00
00000000
00000000
00000000
00000000
00000000
00000000
00000000
00000000
00000000
00000000
00000000
00000000
00000000
00000000
00000000
00000000
00000000
00000000
00000000
00000000
00000000
00000000
00000000
00000000
00000000
00000000
00000000
00000000
00000000
,
00000M00
00000M00
00000000
00000000
00000000
00000000
00000000
00000000
00000000
00000000
00000000
00000000
00000000
00000000
00000000
00000000
00000000
00000000
00000000
00000000
00000000
00000000
00000000
00000000
00000000
00000000
00000000
00000000
00000000
00000000
00000000
00000000
,
00000M00
00000000
00000000
00000000
,
30000200
00000000
00000000
20000000
00000000
00000000
00200000
30300300
10100100
00000000
00000100
00000000
10000000
00000000
00001000
00100000
,
00010000
00000000
01000000
00000000
00001000
00010000
00001000
00100000
00001000
00000000
00010000
00000100
00001000
00000000
00000010
00001000
,
00000010
00000100
00000001
00000000
00000100
00000010
00001000
00000001
00001000
00000000
00000100
00010000
00001000
00000000
00010000
00001000
,
00100000
00010000
10000000
00000000
00010000
00100000
00010000
01000000
00010000
00000000
01000000
00100000
10000000
00000000
00100000
01000000
,
00100000
10000000
00010000
00000000
00100000
00001000
00010000
00000010
00001000
00000000
00000001
00000100
00000010
00000000
00000100
00000001
,
00001000
00000010
00010000
00000000
00000100
00010000
00001000
01000000
00010000
00000000
01000000
00010000
00100000
00000000
00010000
10000000
,
01000000
00100000
00010000
00000000
00100000
00001000
00100000
00001000
00010000
00000000
00000100
00010000
00001000
00000000
00010000
00000010
,
00001000
00000100
00000010
00000000
00000001
00001000
00000001
00001000
00000100
00000000
00001000
00000100
00000010
00000000
00000100
00001000
,
00000100
00010000
00001000
00000000
01000000
00001000
10000000
00010000
00100000
00000000
00010000
01000000
00100000
00000000
10000000
00010000
,
01000000
00001000
00010000
00000000
00000100
00001000
00000001
00010000
00000010
00000000
00010000
00000010
00001000
00000000
00000100
00010000
,
00001000
01000000
00010000
00000000
01000000
00010000
00100000
00001000
00100000
00000000
00001000
01000000
00010000
00000000
01000000
00001000
,
00010000
00000100
00001000
00000000
00000001
00001000
00000100
00010000
00001000
00000000
00010000
00000010
00001000
00000000
00000010
00010000
,
00001000
01000000
00010000
00000000
10000000
00010000
00100000
00001000
00010000
00000000
00000100
00010000
00001000
00000000
00010000
00000010
,
00000100
00000001
00000100
00000000
00000010
00001000
00000010
00010000
00000010
00000000
00001000
00000010
00000100
00000000
00000010
00001000
,
00000100
00010000
00001000
00000000
01000000
00010000
01000000
00001000
01000000
00000000
00010000
10000000
01000000
00000000
00100000
01000000
,
10000000
00000000
00000000
00100000
00000000
00000000
01000000
00000000
00000000
00000000
00000000
00000000
00100000
00000000
00000000
01000000
00000000
00000000
00001000
00000000
00000000
00100000
00000000
00000000
00000010
00000000
00000000
00000000
00100000
00000000
00000000
00000000
00100010
00000000
00000000
00000000
00100000
00000000
00000000
00000000
00000000
00000000
00000010
00000000
00000000
00100000
00000000
00000000
,
00000010
00000000
01000000
00000100
01000000
00000000
00000100
00000000
00010000
00001000
00100000
00001000
00100000
00000000
00001000
00010000
,
00001000
00000000
01000000
00000000
00001000
00010000
00000100
00001000
00000010
00000100
00000001
00001000
00000100
00000000
00010000
00001000
,
00100000
00000000
00010000
00000000
10000000
01000000
00100000
00010000
00100000
00001000
00010000
00000010
00001000
00000000
00000100
00001000
,
00000001
00000000
00000001
00000000
00001000
00000100
00010000
00000100
00100000
00010000
01000000
00010000
10000000
00000000
00100000
10000000
,
00010000
00000000
01000000
00000000
00001000
01000000
00001000
00010000
00000010
00010000
00000100
00001000
00000010
00000000
00001000
00000001
,
00000100
00000000
00000010
00000000
00010000
00000010
00010000
00001000
01000000
00010000
10000000
01000000
00100000
00000000
01000000
00100000
,
00010000
00000000
01000000
00000000
00001000
00100000
00001000
00010000
00000100
00001000
00000010
00001000
00000001
00000000
00001000
00000100
,
00010000
00000000
00000000
00000000
00000000
00000000
00000010
00000000
00000000
00000000
00000000
00000000
00001000
00000000
00000000
00000100
00000000
00000000
00010000
00000000
00000000
00000100
00000000
00000000
01000000
00000000
00000000
00000000
00000100
00000000
00000000
00000000
01000100
00000000
00000000
00000000
00000100
00000000
00000000
00000000
00000000
00000000
01000000
00000000
00000000
00000100
00000000
00000000
,
01000000
00000000
00000010
00100000
00000010
00000000
00010000
00000000
00000001
00000100
00000010
00001000
00000100
00000000
00001000
00000100
,
00010000
00001000
00010000
00000000
00001000
00100000
00010000
00100000
00001000
01000000
00010000
10000000
00010000
00000000
10000000
00010000
,
00100000
00000100
00001000
00000000
00001000
00000100
00010000
00000100
00001000
00000001
00001000
00000010
00000100
00000000
00000010
00001000
,
00000100
00100000
00001000
00000000
00100000
00010000
01000000
00010000
10000000
00100000
01000000
00010000
00100000
00000000
00010000
00100000
,
00000100
00010000
00000100
00000000
00010000
00001000
00010000
00000010
00001000
00000100
00000001
00000100
00000010
00000000
00000100
00010000
,
00001000
00010000
00001000
00000000
00010000
00001000
00010000
00001000
00100000
00010000
01000000
00100000
10000000
00000000
00100000
01000000
,
00100000
00010000
00100000
00000000
01000000
00001000
00010000
00000100
00001000
00000010
00001000
00000100
00000010
00000000
00000100
00000010
,
00001000
00000010
00000001
00000000
00000010
00000001
00001000
00000100
00010000
00001000
00100000
00001000
01000000
00000000
00010000
10000000
,
01000000
10000000
00100000
01000000
00010000
00100000
00001000
00010000
00010100
00000000
00000000
00000000
00000000
00000000
00000000
00000000
;

//---------------dance-double - R. Uchima----------------
#NOTES:
     dance-double:
     R. Uchima:
     Hard:
     8:
     0.565,0.000,0.149,0.039,0.251:
00000000
00000000
00000000
00000000
,
00000000
00000000
00000000
00000000
,
00000000
00000000
00000000
00000000
,
00000000
00000000
00000000
00000000
,
00100000
00010000
10000000
00100000
01000000
00001000
00100000
00001000
,
00010000
00000100
00001000
00000010
00000100
00000010
00001000
00000001
,
00000010
00000100
00000010
00000001
00001000
00000010
00010000
00000100
,
00010000
00000000
00000000
00000000
00001000
00000000
00000000
00000000
00100000
00000000
00000000
00000000
00010000
00000000
00000000
00000000
00000000
00000000
00100000
00000000
00000000
00010000
00000000
00000000
00100000
00000000
00000000
00000000
00000000
00000000
00010000
00000000
00000000
00100000
00000000
00000000
00010000
00000000
00000000
00000000
00000000
00000000
00100000
00000000
00000000
00000000
00000000
00000000
,
01000000
10000000
00100000
01000000
00001000
00001000
00100000
00100000
,
00010000
01000000
00001000
00010000
00000100
00000100
00000010
00000010
,
00000001
00001000
00000100
00010000
00001000
00001000
01000000
01000000
,
00100000
10000000
01000000
00010000
01000000
01000000
00100000
00100000
,
00001000
00010000
00000010
00000100
00001000
00001000
00000100
00000100
,
00000001
00000010
00000001
00001000
00000100
00000100
00010000
00010000
,
00001000
01000000
00010000
01000000
10000000
10000000
01000000
01000000
,
00001000
00000000
00000000
00000000
00010000
00000000
00000000
00000000
00000100
00000000
00000000
00000000
00001000
00000000
00000000
00000000
00000000
00000000
00000100
00000000
00000000
00001000
00000000
00000000
00000100
00000000
00000000
00000000
00000000
00000000
00001000
00000000
00000000
00000100
00000000
00000000
00001000
00000000
00000000
00000000
00000000
00000000
00000010
00000000
00000000
00000000
00000000
00000000
,
00001010
00000000
00001000
00000000
00000010
00000000
00000100
00000000
00000010
00000100
00000010
00000000
00001000
00000000
00000001
00000000
,
00001000
00000000
00000100
00000000
00010000
00000000
00001000
00000000
00100000
00010000
00100000
00000000
00010000
00000000
01000000
00000000
,
00100000
00000000
10000000
00000000
01000000
00000000
00100000
00000000
00010000
10000000
00010000
00000000
00100000
00000000
00001000
00000000
,
00010000
00000000
00000100
00000000
00010000
00000000
00001000
00000000
00010000
00000010
00010000
00000000
00000010
00000000
00000100
00000000
,
00000001
00000000
00000010
00000000
00000100
00000000
00001000
00000000
00000010
00001000
00000010
00000000
00001000
00000000
00000100
00000000
,
00010000
00000000
00001000
00000000
00100000
00000000
00010000
00000000
01000000
00100000
01000000
00000000
00100000
00000000
10000000
00000000
,
01000000
00000000
00100000
00000000
00010000
00000000
00100000
00000000
00001000
01000000
00001000
00000000
00010000
00000000
00000100
00000000
,
00001000
00000000
00000001
00000000
00000010
00000000
00000001
00000000
00000100
00000010
00000100
00000000
00000010
00000000
00001000
00000000
,
00020020
00000000
00000000
00000000
,
00000000
00000000
00000000
00000000
,
00000000
00000000
00000000
00000000
,
00000000
00000000
00000000
00000000
,
00000000
00000000
00000000
00000000
,
00000000
00000000
00000000
00000000
,
00000000
00000000
00000000
00000000
,
00000000
00000000
00000000
00000000
,
00000030
00000000
00000000
00000000
00000000
MMM0MMMM
000000M0
00000000
00000000
00000000
00000000
00000000
00000000
00000000
00000000
00000000
,
00000000
00000000
00000000
00000000
,
00000000
00000000
00000000
00000000
,
00000000
00000000
00000000
00000000
,
00000000
00000000
00000000
00000000
,
00000000
00000000
00000000
00000000
,
00032000
00000000
00000000
02000000
00000000
00000000
00200000
03303000
01101000
00000000
01000000
00000000
00001000
00000000
00100000
00010000
,
00100000
00000000
00010000
00000000
01000000
00000000
00010000
00000000
10000000
00000000
01000000
00000000
00100000
00000000
00010000
00100000
,
00001000
00000000
00010000
00000000
00000100
00000000
00010000
00000000
00000100
00000000
00001000
00000000
00000010
00000000
00000100
00000001
,
00000100
00000000
00000001
00000000
00000010
00000000
00000100
00000000
00001000
00000000
00000100
00000000
00010000
00000000
00001000
00010000
,
00001000
00000000
00010000
00000000
00001000
00000000
00100000
00000000
00010000
00000000
01000000
00000000
00100000
00000000
10000000
01000000
,
10000000
00000000
00010000
00000000
00100000
00000000
00001000
00000000
00100000
00000000
00001000
00000000
00010000
00000000
00000100
00001000
,
00000100
00000000
00001000
00000000
00000010
00000000
00000100
00000000
00000001
00000000
00000100
00000000
00000010
00000000
00001000
00000100
,
00010000
00000000
00001000
00000000
00100000
00000000
00010000
00000000
01000000
00000000
00100000
00000000
01000000
00000000
00010000
10000000
,
01000000
00000000
00100000
00000000
00010000
00000000
00100000
00000000
00001000
00000000
00010000
00000000
00000100
00000000
00001000
00000100
,
00000010
00000000
00000001
00000000
00000100
00000000
00000010
00000000
00001000
00000000
00000100
00000000
00010000
00000000
00001000
00100000
,
00010000
00000000
01000000
00000000
00100000
00000000
01000000
00000000
00010000
00000000
10000000
00000000
01000000
00000000
00100000
00010000
,
01000000
00000000
00001000
00000000
00010000
00000000
00000100
00000000
00001000
00000000
00000100
00000000
00000010
00000000
00000001
00000010
,
00000001
00000000
00000010
00000000
00000001
00000000
00000100
00000000
00000010
00000000
00001000
00000000
00000100
00000000
00010000
00001000
,
00010000
00000000
00000100
00000000
00010000
00000000
00001000
00000000
01000000
00000000
00010000
00000000
00100000
00000000
00001000
00010000
,
00000010
00000000
00000100
00000000
00000001
00000000
00001000
00000000
00000100
00000000
00010000
00000000
00001000
00000000
00100000
00010000
,
10000000
00000000
00000000
00000000
00000000
00000000
00100000
00000000
00000000
00000000
00000000
00000000
01000000
00000000
00000000
00000000
00000000
00000000
00010000
00000000
00000000
00000000
00000000
00000000
01000000
00000000
00000000
00000000
00001000
00000000
00000000
00000000
00010000
00000000
00000000
00000000
00000010
00000000
00000000
00000000
00000000
00000000
00001000
00000000
00000000
00000001
00000000
00000000
,
00001000
00000000
00000010
00001000
00000010
00000000
00010000
00000000
00010010
00000000
00000010
00000000
00001000
00000000
00000100
00010000
,
00001000
00000000
00010000
00000000
00001000
00000000
00100000
00000000
00110000
00000000
00010000
00000000
01000000
00000000
00100000
01000000
,
00100000
00000000
10000000
00000000
01000000
00000000
00100000
00000000
00110000
00000000
00010000
00000000
00100000
00000000
00001000
00010000
,
00000100
00000000
00001000
00000000
00000010
00000000
00000100
00000000
00000110
00000000
00000010
00000000
00001000
00000000
00000001
00000010
,
00000100
00000000
00000010
00000000
00000100
00000000
00001000
00000000
00001100
00000000
00000100
00000000
00010000
00000000
00001000
00100000
,
00010000
00000000
01000000
00000000
00100000
00000000
10000000
00000000
11000000
00000000
01000000
00000000
00100000
00000000
00010000
00100000
,
00001000
00000000
00010000
00000000
00000100
00000000
00001000
00000000
00001100
00000000
00000100
00000000
00000010
00000000
00000001
00000100
,
00000010
00000000
00000000
00000000
00000000
00000000
00001000
00000000
00000000
00000000
00000000
00000000
00000010
00000000
00000000
00000000
00000000
00000000
00010000
00000000
00000000
00000000
00000000
00000000
00000100
00000000
00000000
00000000
00010000
00000000
00000000
00000000
00001000
00000000
00000000
00000000
00100000
00000000
00000000
00000000
00000000
00000000
00010000
00000000
00000000
10000000
00000000
00000000
,
00010000
00000000
01000000
00010000
01000000
00000000
00100000
00000000
10100000
00000000
10000000
00000000
01000000
00000000
00100000
00010000
,
00100000
00010000
00100000
00000000
00010000
00000000
01000000
00000000
01001000
00000000
00001000
00000000
00010000
00000000
00000100
00001000
,
00000100
00001000
00000100
00000000
00000010
00000000
00000001
00000000
00000011
00000000
00000010
00000000
00000001
00000000
00000100
00000010
,
00000100
00000010
00000100
00000000
00000010
00000000
00001000
00000000
00001100
00000000
00000100
00000000
00010000
00000000
00001000
00010000
,
00001000
00010000
00001000
00000000
00100000
00000000
00010000
00000000
00110000
00000000
00100000
00000000
01000000
00000000
10000000
01000000
,
10000000
01000000
10000000
00000000
00100000
00000000
01000000
00000000
01010000
00000000
00010000
00000000
00100000
00000000
00010000
00100000
,
00010000
00100000
00010000
00000000
00100000
00000000
00001000
00000000
00011000
00000000
00010000
00000000
00000100
00000000
00001000
00000010
,
00001000
00000010
00001000
00000000
00000010
00000000
00000100
00000000
00000110
00000000
00000010
00000000
00001000
00000000
00000100
00010000
,
00000100
00010000
00000100
00000000
00001000
00000000
00000010
00000000
00010010
00000000
00000000
00000000
00000000
00000000
00000000
00000000
;

//---------------dance-double - R. Uchima----------------
#NOTES:
     dance-double:
     R. Uchima:
     Medium:
     6:
     0.345,0.000,0.149,0.016,0.008:
00000000
00000000
00000000
00000000
,
00000000
00000000
00000000
00000000
,
00000000
00000000
00000000
00000000
,
00000000
00000000
00000000
00000000
,
00000100
00000000
00001000
00000000
00000010
00000100
00000010
00000000
,
00001000
00000000
00000100
00000000
00010000
00001000
00010000
00000000
,
00001000
00000000
00010000
00000000
00001000
00010000
00000100
00000000
,
00010100
00011000
00101000
00011000
,
00010000
00000000
00001000
00000000
00100000
00010000
00100000
00010000
,
01000000
00000000
00100000
00000000
10000000
01000000
10000000
01000000
,
00100000
00000000
00010000
00000000
00100000
00001000
00010000
00001000
,
00010000
00000000
00000100
00000000
00001000
00000010
00000100
00000010
,
00001000
00000000
00000010
00000000
00000100
00000001
00000010
00000001
,
00000100
00000000
00000010
00000000
00001000
00000100
00000010
00000100
,
00001000
00000000
00000100
00000000
00010000
00001000
00100000
00000000
,
00110000
00011000
00001100
00011000
,
00001000
01000000
00100000
01000000
00100000
00000000
10000000
00000000
,
01000000
00100000
01000000
00100000
00010000
00000000
00100000
00000000
,
00001000
00010000
00001000
00010000
00000100
00000000
00001000
00000000
,
00000010
00000100
00000010
00000100
00000001
00000000
00000010
00000000
,
00000100
00001000
00000100
00001000
00000100
00000000
00010000
00000000
,
00001000
00100000
00001000
00100000
00010000
00000000
01000000
00000000
,
00100000
10000000
00100000
10000000
01000000
00000000
00100000
00000000
,
00010000
00100000
00001000
00010000
00000100
00000000
00010000
00000000
,
00022000
00000000
00000000
00000000
,
00000000
00000000
00000000
00000000
,
00000000
00000000
00000000
00000000
,
00000000
00000000
00000000
00000000
,
00000000
00000000
00000000
00000000
,
00000000
00000000
00000000
00000000
,
00000000
00000000
00000000
00000000
,
00000000
00000000
00000000
00000000
,
MMM00MMM
00000000
00000000
00000000
,
00000000
00000000
00000000
00000000
,
00000000
00000000
00000000
00000000
,
00000000
00000000
00000000
00000000
,
00000000
00000000
00000000
00000000
,
00000000
00000000
00000000
00000000
00000000
00000000
00000000
00000000
00000000
00000000
00000000
00000000
00000000
00M00M00
00000000
00000000
,
M000000M
00000000
00000000
0M0000M0
00000000
00000000
00M00M00
00033000
00011000
00000000
00000000
00000000
00001000
00000000
00100000
00000000
,
00010000
00000000
00100000
00000000
00010000
00000000
01000000
00100000
,
01000000
00000000
00010000
00000000
10000000
00000000
01000000
00100000
,
00010000
00000000
00100000
00000000
00001000
00000000
00010000
00000100
,
00001000
00000000
00000010
00000000
00000100
00000000
00000001
00000010
,
00000001
00000000
00000100
00000000
00000010
00000000
00001000
00000100
,
00000010
00000000
00000100
00000000
00001000
00000000
00000100
00010000
,
00001000
00000000
00010000
00000000
00001000
00000000
00100000
00010000
,
01000000
00000000
00100000
00000000
10000000
00000000
01000000
00100000
,
00100000
00000000
00100000
00000000
00001000
00000000
00010000
00000100
,
00000100
00000000
00001000
00000000
00000010
00000000
00000100
00000001
,
00000001
00000000
00000010
00000000
00000100
00000000
00001000
00000100
,
00000100
00000000
00010000
00000000
00001000
00000000
00100000
00010000
,
00010000
00000000
01000000
00000000
00100000
00000000
10000000
01000000
,
01000000
00000000
00100000
00000000
00010000
00000000
00100000
00001000
,
00001000
01000000
01010000
00011000
,
00001010
00000000
00011000
00000000
00001000
00000000
00010000
00000100
,
00000100
00001000
00001000
00000000
00000010
00000000
00000100
00000001
,
00000001
00001000
00001000
00000000
00000100
00000000
00010000
00001000
,
00001000
00100000
00100000
00000000
00010000
00000000
01000000
00100000
,
00100000
10000000
10000000
00000000
01000000
00000000
00100000
00010000
,
00010000
01000000
01000000
00000000
00001000
00000000
00010000
00000100
,
00000100
00001000
00001000
00000000
00000010
00000000
00000100
00000001
,
00000001
00001000
00001000
00000000
00001001
00000000
00011000
00000000
,
10010000
00000000
00011000
00000000
00001000
00000000
00010000
00001000
,
00100000
00001000
00010000
00000000
00001000
00000000
01000000
00010000
,
01000000
00100000
01000000
00000000
00010000
00000000
10000000
01000000
,
00100000
00010000
00100000
00000000
00100000
00000000
00001000
00010000
,
00001000
00010000
00000100
00000000
00001000
00000000
00000010
00000100
,
00000010
00000100
00000001
00000000
00001000
00000000
00000010
00001000
,
00000010
00001000
00000100
00000000
00010000
00000000
00010000
00000100
,
00001000
00000100
00010000
00000000
00001000
00000000
00100000
00010000
,
00100000
00010000
00100000
00000000
10100000
00000000
00000000
00000000
;

//---------------dance-double - R. Uchima----------------
#NOTES:
     dance-double:
     R. Uchima:
     Easy:
     2:
     0.159,0.000,0.188,0.016,0.004:
00000000
00000000
00000000
00000000
,
00000000
00000000
00000000
00000000
,
00000000
00000000
00000000
00000000
,
00000000
00000000
00000000
00000000
,
00010000
00000000
01000000
00000000
,
00100000
00000000
10000000
00000000
,
01000000
00000000
00100000
00000000
,
00010000
00100000
00010000
00110000
,
00101000
00000000
00010000
00000000
,
00000100
00000000
00001000
00000000
,
00000010
00000000
00000100
00000000
,
00000001
00000000
00000010
00000000
,
00000001
00000000
00001000
00000000
,
00000100
00000000
00010000
00000000
,
00001000
00000000
01000000
00000000
,
01000000
00001000
00010000
00000010
,
00001000
00000000
00001100
00000000
,
00000100
00000000
00010100
00000000
,
00010000
00000000
00011000
00000000
,
00001000
00000000
00101000
00000000
,
00100000
00000000
01100000
00000000
,
01000000
00000000
11000000
00000000
,
10000000
00000000
10010000
00000000
,
00010000
00000000
00110000
00000000
,
00022000
00000000
00000000
00000000
,
00000000
00000000
00000000
00000000
,
00000000
00000000
00000000
00000000
,
00000000
00000000
00000000
00000000
,
00000000
00000000
00000000
00000000
,
00000000
00000000
00000000
00000000
,
00000000
00000000
00000000
00000000
,
00000000
00000000
00000000
00000000
,
M000000M
00000000
00000000
00000000
,
00000000
00000000
00000000
00000000
,
00000000
00000000
00000000
00000000
,
00000000
00000000
00000000
00000000
,
00000000
00000000
00000000
00000000
,
00000000
00000000
00000000
00000000
,
M000000M
00000000
00000000
M000000M
00000000
00000000
M000000M
00033000
00011000
00000000
00000000
00000000
00000000
00000000
00000000
00000000
,
00001000
00000000
00100000
00000000
,
00010000
00000000
01000000
00000000
,
00100000
00000000
10000000
00000000
,
00010000
00000000
00100000
00000000
,
00001000
00000000
00010000
00000000
,
00000100
00000000
00001000
00000000
,
00000010
00000000
00000100
00000000
,
00000001
00001000
00001001
00000000
,
00000010
00000000
00010000
00000000
,
00000100
00000000
00010000
00000000
,
00001000
00000000
01000000
00000000
,
00010000
00000000
00100000
00000000
,
00001000
00000000
01000000
00000000
,
00010000
00000000
10000000
00000000
,
00010000
00000000
00100000
00001000
,
00010000
00000100
00011000
00000000
,
00010100
00000000
00000100
00000000
,
00000110
00000000
00000010
00000000
,
00000011
00000000
00000001
00000000
,
00001001
00000000
00001000
00000000
,
00001100
00000000
00000100
00000000
,
00010100
00000000
00010000
00000000
,
00011000
00000000
00001000
00100000
,
00101000
00011000
00010000
00000000
,
00000100
00000000
00001000
00000000
,
00000010
00000000
00000100
00000000
,
00000001
00000000
00000010
00000000
,
00000100
00000000
00001000
00000000
,
00000100
00000000
00010000
00000000
,
00001000
00000000
00100000
00000000
,
00010000
00000000
01000000
00000000
,
00001000
00100000
00101000
00000000
;
