#TITLE:Lady Bug;
#SUBTITLE:;
#ARTIST:Coconut;
#TITLETRANSLIT:;
#SUBTITLETRANSLIT:;
#ARTISTTRANSLIT:;
#GENRE:Bubblegum Dance;
#CREDIT:Sync by HellRazoR;
#BANNER:Lady Bug-bn.png;
#BACKGROUND:Lady Bug-bg.png;
#LYRICSPATH:;
#CDTITLE:;
#MUSIC:Lady Bug.ogg;
#OFFSET:0.009;
#SAMPLESTART:68.561;
#SAMPLELENGTH:12.000;
#SELECTABLE:YES;
#DISPLAYBPM:133.000:67.000;
#BPMS:0.000=133.000,148.000=66.500,150.000=133.000;
#STOPS:;
#BGCHANGES:0.000=Lady Bug-bg.png=1.000=0=0=1=====,
8.000=In The Groove Rebirth/243_JB_HD.mpg=1.000=0=0=1=====,
24.000=In The Groove Rebirth/502_JB_HD.mpg=1.000=0=0=1=====,
40.000=In The Groove Rebirth/902_JumpBack.mpg=1.000=0=0=1=====,
56.000=In The Groove Rebirth/1144_JumpBack.mpg=1.000=0=0=1=====,
72.000=In The Groove Rebirth/320_JB_HD.mpg=1.000=0=0=1=====,
88.000=In The Groove Rebirth/218_JB_HD.mpg=1.000=0=0=1=====,
104.000=In The Groove Rebirth/519_JB_HD.mpg=1.000=0=0=1===SlideRight==,
120.000=In The Groove Rebirth/1166_JumpBack.mpg=1.000=1=0=1===CrossFade==,
136.000=In The Groove Rebirth/1159_JumpBack.mpg=1.000=0=0=1===SlideRight==,
148.000=Lady Bug-bg.png=1.000=0=0=1=====,
149.000=Lady Bug-bg.png=1.000=0=0=1====0^0^1^1=,
149.167=Lady Bug-bg.png=1.000=0=0=1====0^1^0^1=,
149.333=Lady Bug-bg.png=1.000=0=0=1====1^0^0^1=,
149.500=Lady Bug-bg.png=1.000=0=0=1=====,
150.000=In The Groove Rebirth/502_JB_HD.mpg=1.000=0=0=1=====,
166.000=In The Groove Rebirth/243_JB_HD.mpg=1.000=0=0=1===SlideRight==,
182.000=In The Groove Rebirth/902_JumpBack.mpg=1.000=0=0=1=Checkerboard2File2x2=Lady Bug-bg.png===,
198.000=Lady Bug-bg.png=1.000=0=0=1=Checkerboard2x2=In The Groove Rebirth/218_JB_HD.mpg=SlideLeft==,
214.000=Lady Bug-bg.png=1.000=0=0=1=====,
99999=-nosongbg-=1.000=0=0=0 // don't automatically add -songbackground-
;
#BGCHANGES2:88.000=yellow flash=1.000=0=0=1=====,
120.000=yellow flash=1.000=0=0=1=====,
148.000=white flash=1.000=0=0=1=====,
182.000=white flash=1.000=0=0=1=====,
214.000=white flash=1.000=0=0=1=====,
;
#KEYSOUNDS:;

//---------------dance-single - W. Hodge----------------
#NOTES:
     dance-single:
     W. Hodge:
     Challenge:
     9:
     0.672,0.000,0.070,0.229,0.333:
0000
0000
0000
0000
,
0000
0000
0000
0000
,
1000
0000
1000
0000
0M01
0000
0010
0000
0100
1000
0100
1000
0010
0000
M100
0000
,
0001
0000
0001
0000
0100
0000
0010
0000
1M00
0001
1000
0001
0010
0000
0100
0000
,
1000
0000
100M
0000
0010
0000
0100
0000
0001
0010
0001
0010
0100
0000
100M
0000
,
0000
0000
01M0
100M
0000
0000
01M0
100M
,
0010
0000
0010
0000
1000
0000
001M
0000
0100
0001
0100
0001
0010
0000
0100
0000
,
10M0
0000
1000
0000
0001
0000
0100
0000
0010
1000
0M10
1000
0001
0000
0010
0000
,
0001
0000
0001
0000
1M00
0000
0010
0000
0100
0001
0100
0001
0010
0000
010M
0000
,
0000
0000
0000
0000
M010
0000
010M
0000
1000
0000
1000
0000
020M
0300
0010
0000
,
0001
M001
0100
0010
1000
1000
010M
0010
,
0000
0100
0010
M100
0000
0100
1000
0100
,
001M
0010
0100
0010
0001
0M01
0010
0100
,
0000
2000
310M
2000
3100
2000
3100
M010
,
0001
0001
1000
0100
001M
0010
0100
1000
,
0000
00M1
0100
0001
0000
0001
M010
0001
,
1000
1000
0100
001M
0100
1000
0010
0100
,
000M
0010
1000
0010
0000
M010
0100
0010
,
1000
0000
01M1
0000
1000
0000
0100
001M
,
0001
0100
0010
1000
0M01
0000
1001
0010
,
0100
010M
1000
0010
0100
0000
M001
0000
,
0010
0000
1001
0M00
0020
0130
0020
1030
,
0M01
0000
0001
1000
0001
0000
0001
0000
0010
0100
M010
0100
0010
0000
0100
0000
,
1000
0000
1000
0000
001M
0000
0100
0000
0001
0010
0001
0010
0100
0000
100M
0000
,
0010
0000
0010
0100
0010
0000
0010
0000
1M00
0001
1000
0001
1000
0000
0100
0000
,
0010
M010
0002
0103
1000
00MM
2000
3100
,
0001
0000
0001
0100
M001
0000
0001
0000
1000
0010
1000
0010
1000
0000
0M01
0000
,
0010
0000
0010
0000
0100
0000
1000
0000
001M
1000
0010
1000
0001
0000
0010
0000
,
0100
0000
010M
1000
0100
0000
0100
0000
0010
0001
0010
0001
M010
0000
0100
0000
,
1000
0001
2000
3M10
0004
MM03
0002
0013
,
1000
0400
030M
0010
0001
0000
0000
1M00
,
0010
0001
0010
1000
010M
0010
0001
0100
,
0001
0000
10M0
0100
0010
0000
0001
0000
0010
0000
0000
0000
M000
0000
0100
0000
,
1000
0000
0010
0000
0001
0000
M010
0000
0100
0000
0001
0010
0100
0000
1000
0000
,
00M1
0000
0100
0010
1000
0000
0001
0000
0100
0000
000M
0000
0000
0000
0010
0000
,
1000
0000
0100
0000
00M1
0000
0100
0000
1000
0000
0100
0010
0001
0000
10M0
0000
,
0100
0000
1000
0100
0010
0000
0001
0000
0M10
0000
0000
0000
0000
0000
0001
0000
,
20M2
0000
0000
0000
0000
0000
0M00
0000
0000
0003
0000
0000
3001
0000
1000
0000
0001
0000
2000
0000
0000
3000
0000
0000
0001
0000
0000
0000
0000
0000
0001
0000
0000
1000
0000
0000
0M01
0000
0000
0000
0000
0000
0001
0000
0000
0000
0000
0000
,
0010
0100
0010
0100
0010
0000
010M
0000
1000
0000
1000
0000
0010
0000
0100
0000
,
M001
0010
0001
0010
0100
0000
1000
0000
0010
0000
001M
0100
0010
0000
0010
0000
,
1000
0001
1000
0001
10M0
0000
0100
0000
0010
0000
0010
0000
0002
0000
M103
0000
,
1000
0000
00MM
0000
2000
0000
3100
0000
00M1
0000
0001
0100
0001
0000
0001
0000
,
1000
0010
1M00
0010
1000
0000
0001
0000
0010
0000
0010
0000
010M
0000
1000
0000
,
0010
1000
0010
1000
0001
0000
0M10
0000
0100
0000
0100
1000
0100
0000
0100
0000
,
M010
0001
0010
0001
0010
0000
0100
0000
1000
0000
00M1
0000
2000
0000
3010
0000
,
0001
0000
MM00
0000
0002
0000
0013
0000
1000
0000
1000
0001
10M0
0000
1000
0000
,
0100
0010
0100
0010
0100
0000
M010
0000
0001
0000
0001
0000
0110
0000
0010
0000
,
100M
0100
1000
0100
0010
0000
0001
0000
0100
0000
M100
0010
0100
0000
0100
0000
,
0001
1000
0001
1000
0M01
0000
0010
0000
0100
0000
0100
0000
2000
0000
301M
0000
,
0001
0000
MM00
0000
0002
0000
0013
0000
1000
0000
1000
0010
1M00
0000
1000
0000
,
0001
0100
0001
0100
0001
0000
10M0
0000
0100
0000
0100
0000
0011
0000
0001
0000
,
M100
0001
0100
0001
1000
0000
0100
0000
0010
0000
0M10
0001
0010
0000
0010
0000
,
0100
1000
0100
1000
010M
0000
0010
0000
0001
0000
1000
0000
0002
0000
01M3
0000
,
1000
00MM
2000
3100
2002
00M0
3003
0000
;

//---------------dance-double - M. Simmons----------------
#NOTES:
     dance-double:
     M. Simmons:
     Challenge:
     9:
     0.727,0.107,0.298,0.328,0.443:
00000000
00000000
00000000
00000000
,
00000000
00000000
00000000
00000000
00000000
00000000
00000100
00010000
00001000
00000010
00000000
00000000
,
00000001
00000000
00000100
00000000
00000010
00000000
00010000
00000000
00000100
00001000
00000100
00001000
00000100
00000000
00010000
00000000
,
00010000
00000000
00001000
00000000
00100000
00000000
00001000
00000000
01000000
00010000
01000000
00010000
01000000
00000000
01001000
00000000
,
00001000
00000000
00010000
00000000
00100000
00000000
01000000
00000000
00001000
00100000
00001000
00100000
00001000
00000000
00100000
00000000
,
00000000
00000000
01000000
00110000
00000000
00000000
00000100
00001010
,
00000001
00000000
00000100
00000000
00000010
00000000
00010000
00000000
00000010
00010000
00000010
00001000
00000010
00000000
00010000
00000000
,
00001000
00000000
00010000
00000000
01000000
00000000
10000000
00000000
00010000
01000000
00010000
01000000
00010000
00000000
00110000
00000000
,
01000000
00000000
10000000
00000000
00001000
00000000
01000000
00000000
00001000
00010000
00001000
00010000
00001000
00000000
00010000
00000000
,
00000000
00000000
00001000
00010010
00000000
00000000
00010000
00101000
,
00002000
00023000
00030200
00000320
00002030
00023000
00030020
00010030
,
00000000
00000000
00000000
00001000
00010000
00000000
00001000
00000000
01000000
00000000
00000000
00010000
00100000
00000000
01000000
00000000
,
00200000
00302000
02003000
23000000
32000000
03020000
00230000
01300000
,
00000000
00100000
00110000
00100000
00101000
00001000
00011000
00010000
,
00020000
00030020
00000230
00002300
00023000
00030020
00020030
00031000
,
00000000
00000000
00000000
00010000
00000100
00000000
00010000
00000000
00001000
00000000
00000000
01000000
00100000
00000000
01000000
00000000
,
00002000
00203000
20300000
30200000
00320000
02030000
03002000
00013000
,
00000000
00000000
00000000
00000010
00000100
00000000
00000010
00000000
00001000
00000000
00000001
00000000
00000010
00000000
00000100
00000000
,
00020000
00000000
00230000
00000000
02300000
00000000
03010000
00100000
,
01000000
00010000
00001000
00000100
00000000
00000000
00001001
00000000
,
00000001
00000010
00000001
00000010
00000001
00000000
00001100
00000000
,
00110000
00000000
00000000
00000000
00000000
00000000
00000000
00000000
00001000
00000000
00001000
01000000
00001000
00000000
00100000
00000000
,
00010000
00000000
10000000
00100000
10000000
00000000
00010000
00000000
00100000
01000000
00100000
00010000
00100000
00000000
00100000
00000000
,
00001000
00000000
00010000
00000000
00000100
00000000
00000010
00000000
00000001
00000010
00000001
00000010
00000100
00000000
00001010
00000000
,
00000010
00000000
00000100
00001000
00000100
00000000
00001000
00000000
00010000
00001000
00010000
00001000
00010000
00000000
00010000
00000000
,
00000000
00000000
00000100
00010100
00000000
00000000
00100000
00110000
,
00001000
00000000
01000000
00010000
01000000
00000000
00001000
00000000
00100000
00010000
00100000
00010000
00100000
00000000
00100000
00000000
,
00001000
00000000
00010000
00000000
00000010
00000000
00000100
00000000
00001000
00010000
00001000
00010000
00001000
00000000
00010000
00000000
,
00000100
00000000
00000010
00000100
00000010
00000000
00001000
00000000
00010000
00001000
00010000
00001000
00100000
00000000
00010000
00000000
,
01100000
00000000
00000000
00010000
00100000
00000000
01000000
00000000
00000000
00000000
00000000
00100000
00010000
00000000
01000000
00000000
,
00001000
00000000
00010000
00001000
00010000
00000000
00000010
00000000
00001000
00000000
00000010
00000000
00000000
00000000
00010000
00000000
,
00000010
00000000
00001000
00000010
00001000
00000000
00000100
00000000
00010000
00000000
00001000
00000000
01000000
00000000
00100000
00000000
,
10000000
00000000
00010000
00100000
00010000
00100000
00001000
00100000
00010000
00000000
01000000
00000000
00000000
00000000
00011000
00000000
,
00000000
00000000
00010010
00000000
00000000
00000000
00000010
00000000
00000100
00000000
00000010
00010000
00000010
00000000
00010000
00001000
,
00010000
00000000
00000100
00001000
00000100
00010000
00000100
00010000
00001000
00000000
01000000
00000000
00000000
00000000
00100000
00000000
,
10000000
00010000
10000000
01000000
10000000
00000000
00010000
00000000
01000000
00000000
00001000
00000000
00100000
00000000
01000000
00000000
,
00100000
00000000
00001000
00010000
00001000
00000000
00010000
00000000
00000010
00000000
00010000
00000000
00000100
00000000
00010000
00000000
,
00001000
00000000
00000000
00000000
00000000
00000000
00000000
00000000
00000000
00000000
00000000
00000000
10000000
00000000
01000000
00000000
00010000
00000000
00001000
00000000
00000000
00000000
00000000
00000000
00010000
00000000
00000000
00000000
00000000
00000000
00000100
00000000
00000000
00010000
00000000
00000000
00000010
00000000
00000000
00000000
00000000
00000000
00000100
00000000
00000000
00000000
00000000
00000000
,
00000010
00001000
00000001
00001000
00000010
00000000
00000010
00000000
00010000
00000000
00000100
00000000
00000010
00000000
00000100
00000000
,
00010000
00001000
00010000
00001000
00010000
00000000
01000000
00000000
00100000
00000000
00010000
01000000
00100000
00000000
01000000
00000000
,
00010000
10000000
00010000
10000000
00010000
00000000
01000000
00000000
00000000
00000000
00000000
00000000
00100000
00000000
01010000
00000000
,
00000000
00000000
00000000
00000000
00000100
00000000
00001010
00000000
00000001
00000000
00001000
00000100
00010000
00000000
00001000
00000000
,
00001000
01000000
00001000
01000000
00001000
00000000
00100000
00000000
00100000
00000000
01000000
10000000
01000000
00000000
01000000
00000000
,
00100000
00001000
00100000
00001000
00100000
00000000
00011000
00000000
00010000
00000000
00000010
00010000
00000010
00000000
00000100
00000000
,
00000100
00000001
00000100
00000001
00000100
00000000
00000010
00000000
00000000
00000000
00000000
00000000
00010010
00000000
00000100
00000000
,
00000000
00000000
00000000
00000000
00101000
00000000
01000000
00000000
00100000
00000000
10000000
01000000
10000000
00000000
10000000
00000000
,
00010000
01000000
00010000
01000000
00010000
00000000
00100000
00000000
01000000
00000000
00100000
00001000
01000000
00000000
00001000
00000000
,
00010000
00000100
00010000
00000100
00010000
00000000
00011000
00000000
00010000
00000000
00000010
00001000
00000010
00000000
00000100
00000000
,
00000001
00001000
00000001
00001000
00000001
00000000
00000011
00000000
00000000
00000000
00000000
00000000
00001001
00000000
00000100
00000000
,
00000000
00000000
00000000
00000000
10010000
00000000
00100000
00000000
00010000
00000000
01000000
00001000
01000000
00000000
00001000
00000000
,
00100000
00010000
00100000
00001000
00100000
00000000
00100000
00000000
00001000
00000000
00010000
00000000
00000010
00000000
00000100
00000000
,
00000010
00010000
00001000
00010000
00000010
00000000
00010010
00000000
00010000
00000000
00001000
01000000
00001000
00000000
00100000
00000000
,
01000000
10000000
01000000
10000000
01000000
00000000
01100000
00000000
00100000
00000000
00000000
00001000
01000000
00000000
00100000
00000000
,
01000000
00000000
00000000
00010000
00100000
00000000
01000000
00000000
00220000
00000000
00000000
00000000
00330000
00000000
00000000
00000000
;

//---------------dance-double - M. Simmons----------------
#NOTES:
     dance-double:
     M. Simmons:
     Hard:
     8:
     0.531,0.000,0.149,0.080,0.134:
00000000
00000000
00000000
00000000
,
00000000
00000000
00000000
00000000
,
00010000
00001000
01000000
00100000
01000000
00001000
00100000
01000000
,
10000000
00010000
01000000
00100000
00010000
00001000
00010000
00000100
,
00000010
00000001
00001000
00000010
00000100
00000001
00000010
00000100
,
00000000
00000000
00010000
00010010
00000000
00000000
00001000
00101000
,
00001000
01000000
00100000
01000000
00010000
00100000
01000000
10000000
,
00010000
01000000
00001000
00100000
00001000
00010000
00000010
00000100
,
00000001
00000010
00001000
00010000
00000010
00010000
00000010
00000100
,
00000000
00000000
00000010
00001010
00000000
00000000
00000100
00000101
,
00000001
00000010
00000100
00010000
00001000
01000000
00001000
00100000
,
00000000
01000000
00000000
10000000
,
00010000
01000000
00010000
00100000
01000000
00100000
00001000
00010000
,
00000000
00000200
00010300
00000200
00010300
00000200
00010300
00010100
,
00000100
00000010
00000001
00001000
00000010
00000100
00000010
00010000
,
00000000
00000100
00000000
00010000
,
00001000
01000000
00001000
00010000
00001000
00100000
00001000
00010000
,
00000000
00001000
00010000
00001000
,
02000000
00000000
03200000
00000000
02300000
00000000
03010000
00100000
,
01000000
10000000
01000000
00100000
00000000
00000000
00011000
00000000
,
00001000
00010000
00000100
00010000
00000010
00000000
00010010
00000000
,
00011000
00000000
00000000
00000000
00010000
00000000
00000000
00000000
00000010
00000000
00000100
00000010
00000100
00000000
00000001
00000000
,
00001001
00000000
00001000
00000000
00000100
00000000
00010000
00000000
00000010
00010000
00000010
00010000
00000010
00000000
00001000
00000000
,
00000100
00010000
00001000
01000000
00100000
10000000
00010000
00100000
,
01000000
00000000
00100000
00000000
00001000
00000000
01000000
00000000
00100000
01000000
00100000
01000000
00100000
00000000
01000000
00000000
,
00000000
00000000
00001000
00100000
00000000
00000000
01000000
00100000
,
00001000
00000000
00010000
00000000
00000010
00000000
00000100
00000000
00000010
00001000
00000010
00001000
00000010
00000000
00000100
00000000
,
00000001
00000010
00000100
00001000
00000010
00010000
00000100
00010000
,
00001000
00000000
00100000
00000000
01000000
00000000
10000000
00000000
00010000
10000000
00010000
10000000
00010000
00000000
01000000
00000000
,
00000000
00000000
00001000
00010000
00000000
00000000
00010000
00000100
,
00001100
00000010
00000100
00000001
,
00001000
00000100
00010000
00001000
,
01000000
00100000
00010000
00001000
,
10000000
01000000
00100000
00001000
,
00010000
00000010
00000100
00000001
,
00001000
00000100
00000010
00001000
,
00010000
00000010
00000100
00000010
,
00001000
00000000
00000000
00000000
00000000
00000000
00000010
00010000
00000010
00010000
00000000
00000000
00001000
00000000
00000000
00010000
00000000
00000000
00100000
00000000
00000000
01000000
00000000
00000000
,
00010000
10000000
00010000
10000000
00010000
00000000
00100000
00000000
01000000
00000000
00100000
00000000
00001000
00000000
01000000
00000000
,
00000100
00000010
00000001
00001000
00000010
00000100
00000010
00010000
,
00000100
00010000
00000100
00010000
00000100
00000000
00000010
00000000
00000000
00000000
00000000
00000000
00000100
00000000
00010000
00000000
,
00000000
00000000
00001000
01000000
00100000
01000000
00001000
00100000
,
01000000
10000000
01000000
10000000
01000000
00000000
00100000
00000000
00001000
00000000
00010000
00000000
00000010
00000000
00000100
00000000
,
00000001
00000010
00000001
00001000
00000010
00000100
00000010
00010000
,
00000100
00010000
00000100
00010000
00000100
00000000
00010000
00000000
00000000
00000000
00000000
00000000
00001000
00000000
00100000
00000000
,
00000000
00000000
00010000
01000000
00100000
01000000
00001000
00100000
,
01000000
00100000
01000000
00100000
01000000
00000000
00100000
00000000
00001000
00000000
00010000
00000000
00000010
00000000
00000100
00000000
,
00000001
00000010
00001000
00010000
00000010
00000100
00000010
00010000
,
00000100
00010000
00000100
00010000
00000100
00000000
00010000
00000000
00000000
00000000
00000000
00000000
00011000
00000000
00001000
00000000
,
00000000
00000000
00011000
00010000
00001000
01000000
00100000
10000000
,
00010000
00100000
00010000
00100000
00010000
00000000
01000000
00000000
00100000
00000000
10000000
00000000
00010000
00000000
00100000
00000000
,
01000000
00100000
00001000
00010000
00000100
00000010
00000001
00001000
,
00000010
00000001
00000010
00000001
00000010
00000000
00001000
00000000
00000000
00000000
00000000
00000000
00010100
00000000
00001000
00000000
,
00000000
00000000
01001000
00010000
00022000
00000000
00000000
00033000
;

//---------------dance-double - M. Simmons----------------
#NOTES:
     dance-double:
     M. Simmons:
     Medium:
     5:
     0.352,0.000,0.159,0.159,0.000:
00000000
00000000
00000000
00000000
,
00000000
00000000
00000000
00000000
,
00000000
00000000
00000000
00000000
,
00000000
00000000
00000000
00000000
,
00000000
00000000
00000000
00000000
,
00000000
00000000
00000000
00000000
,
00000010
00000100
00020000
00031000
,
00100000
00010000
02000000
03010000
,
00100000
01000000
20000000
30010000
,
00000000
00000000
00010000
01000000
00000000
00000000
00010000
01000000
,
00010000
00000000
00100000
00000000
01000000
00100000
01000000
00000000
,
00000000
00100000
00001000
00010000
,
00000100
00000000
00010000
00000000
00000010
00010000
00000010
00000000
,
00000000
00001000
00000010
00001000
00000010
00000000
00001010
00000000
,
00000001
00000000
00000010
00000000
00000100
00001000
00000100
00000000
,
00000000
00010000
00001000
00010000
,
00000010
00000000
00010000
00000000
00000100
00010000
00000100
00000000
,
00010000
00001000
01000000
00100000
,
01100000
00000000
01010000
00000000
10100000
00000000
10000000
01000000
,
00100000
00010000
00100000
00001000
00000000
00000000
00011000
00000000
,
00010000
00000100
00010000
00000100
00010000
00000000
00010100
00000000
,
00011000
00000000
00000000
00000000
00022000
00033000
00022000
00033000
,
00010000
00000010
00010000
00000000
00000100
00010000
00000100
00000000
,
00000010
00000000
00000001
00000000
00001000
00000010
00001000
00000000
,
00000010
00010000
00000010
00000000
00010000
00001000
00010000
00000000
,
00001000
00200000
01300000
20000000
,
30010000
01000000
00010000
00000000
00010000
00100000
00010000
00000000
,
01000000
00000000
00001000
00000000
00100000
00001000
00100000
00000000
,
00001000
00010000
00001000
00000000
00010000
00000100
00010000
00000000
,
00000200
00001000
00000000
00000310
,
00000001
00000000
00001000
00000000
,
00000010
00000000
00010000
00000000
,
00001000
00100000
00001000
01000000
,
00100000
10000000
00010000
00100000
,
01000000
00000000
00100000
00000000
,
00001000
00000000
00010000
00000000
,
00000100
00010000
00001000
00000100
,
00000220
00000330
00002002
00003003
00000001
00000010
00000001
00000000
,
00001000
00000100
00001000
00000000
00000100
00000000
00010000
00000000
,
00001000
00100000
00001000
00000000
01000000
00001000
01000000
00000000
,
00100000
10000000
00100000
00000000
00000000
00000000
01000000
00010000
,
00000000
00000000
01000000
00010000
00100000
00000000
01000000
00000000
,
00100000
00001000
00100000
00000000
00001000
00000000
00010000
00000000
,
00000010
00010000
00000010
00000000
00000100
00000000
00000001
00000000
,
00000010
00000100
00000010
00000000
00000000
00000000
00000001
00001000
,
00000000
00000000
00000001
00001000
00000010
00001000
00000010
00000000
,
00000010
00001000
00000010
00000000
00000100
00000000
00000010
00000000
,
00010000
00000100
00010000
00000000
00001000
00010000
00001000
00000000
,
00001000
01000000
00001000
00000000
00100000
00000000
01100000
00000000
,
01000000
00000000
10010000
00000000
00010000
01000000
00010000
00000000
,
00100000
01000000
00100000
00000000
00001000
00000000
01000000
00000000
,
00001000
00010000
00001000
00000000
00010000
00000100
00010000
00000000
,
00000010
00010000
00000010
00000000
00000100
00000000
00000110
00000000
,
00000010
00000000
00001001
00000000
00002002
00000000
00000000
00003003
;

//---------------dance-double - M. Simmons----------------
#NOTES:
     dance-double:
     M. Simmons:
     Easy:
     3:
     0.264,0.000,0.090,0.209,0.000:
00000000
00000000
00000000
00000000
,
00000000
00000000
00000000
00000000
,
00000000
00000000
00000000
00000000
,
00000000
00000000
00000000
00000000
,
00000000
00000000
00000000
00000000
,
00000000
00000000
00000000
00000000
,
00001000
00000000
00010000
00000000
,
00000100
00000000
00000010
00000000
,
00000001
00000000
00000100
00000000
,
00000000
00000000
00000010
00010000
00000000
00000000
00000010
00010000
,
00000000
00001000
00000000
00100000
,
00000000
00010000
00000000
10000000
,
00000000
01000000
00000000
00100000
,
00000000
00110000
00110000
00110000
,
00010000
00100000
00000000
00001000
,
00000000
00010000
00000000
00000010
,
00000000
00000100
00000000
00000010
,
00000000
00001000
00000000
00000001
,
00001001
00001000
00001000
00000100
,
00000010
00000100
00010000
00001000
,
01000000
00100000
10000000
00010000
,
10010000
00000000
01100000
00000000
,
00010000
00100000
02000000
03100000
,
00001000
01000000
00001000
00010000
,
00000100
00000010
00000002
00001003
,
00000010
00000000
00000100
00000010
00000000
00000000
00000100
00000010
,
00000000
00010000
00000200
00010300
,
00001000
01000000
00200000
10300000
,
01000000
10000000
00020000
01030000
,
00100000
00000000
01000000
00100000
00000000
00000000
01000000
00010000
,
00000000
00000000
00100000
00000000
,
01000000
00000000
00100000
00000000
,
00001000
00000000
00010000
00000000
,
00000010
00000000
00000100
00000000
,
00000001
00000000
00001000
00000000
,
00000100
00000000
00000010
00000000
,
00000100
00000000
00010000
00000000
,
00011000
00000000
00202000
00303000
00001000
00000000
01000000
00000000
,
00200000
01300000
00010000
10000000
,
02000000
03100000
00001000
01000000
,
00002000
00000000
00013000
00000000
00000100
00000000
00000010
00000100
,
00000000
00000000
00000010
00000100
00000000
00000000
00000010
00000000
,
00000002
00001003
00000010
00000100
,
00000020
00001030
00000100
00010000
,
00000200
00000000
00010300
00000000
00001000
00000000
00100000
00001000
,
00000000
00000000
00100000
00001000
00000000
00000000
01000000
00000000
,
00020000
01030000
00100000
10000000
,
02000000
13000000
00010000
01000000
,
00200000
00000000
01300000
00000000
00001000
00000000
00010000
00001000
,
00000000
00000000
00010000
00000100
00000000
00000000
00010000
00000000
,
00000020
00000130
00000010
00001000
,
00000002
00000013
00000100
00000010
,
00000002
00000000
00001003
00000000
00000100
00000000
00010000
00001000
,
00000000
00000000
00010000
00001000
00022000
00000000
00000000
00033000
;

//---------------dance-single - D. Bernardone----------------
#NOTES:
     dance-single:
     D. Bernardone:
     Beginner:
     1:
     0.112,0.000,0.040,0.000,0.000:
0000
0000
0000
0000
,
0000
0000
0000
0000
,
1000
0000
1000
0000
,
0001
0000
1001
0000
,
1000
0000
1000
0000
,
0000
0010
0000
0010
,
0010
0000
0010
0000
,
0100
0000
0110
0000
,
0010
0000
0010
0000
,
0000
0100
0000
0100
,
0100
0000
0000
0000
,
0000
0000
0000
0000
,
0001
0000
0000
0000
,
0000
0000
0000
0000
,
0010
0000
0000
0000
,
0000
0000
0000
0000
,
0100
0000
0000
0000
,
0000
0000
0000
0000
,
1000
0000
0000
0000
,
1000
0000
0000
0000
,
0001
0000
0000
0000
,
0001
0000
0000
0000
,
0010
0000
0010
0000
,
0100
0000
0000
0000
,
1000
0000
1000
0000
,
0000
0001
0000
0100
,
0100
0000
0100
0000
,
0010
0000
0000
0000
,
1000
0000
1000
0000
,
0000
0001
0000
0010
,
0010
0000
0000
0000
,
0000
0000
0000
0000
,
0001
0000
0000
0000
,
0010
0000
0000
0000
,
0100
0000
0000
0000
,
0000
0000
0000
0000
,
1000
0000
0000
0000
,
1001
0000
1000
0000
,
1000
0000
0100
0000
,
0000
0000
0010
0000
,
0010
0000
0000
0001
,
0000
0100
0100
0000
,
0100
0000
0010
0000
,
0000
0000
1000
0000
,
1000
0000
0000
0100
,
0000
1000
1000
0000
,
0100
0000
0010
0000
,
0010
0000
0001
0000
,
1000
0000
0010
0000
,
0010
0000
0100
0000
,
0001
0000
1000
0000
,
1000
0000
0100
0000
,
0010
0000
0001
0000
,
0001
0000
0110
0000
;

//---------------dance-single - D. Bernardone----------------
#NOTES:
     dance-single:
     D. Bernardone:
     Easy:
     2:
     0.172,0.000,0.169,0.020,0.000: // measure 1
0000
0000
0000
0000
,  // measure 2
0000
0000
0000
0000
,  // measure 3
1000
0000
0001
0000
,  // measure 4
1000
0000
0010
0010
,  // measure 5
0100
0000
0001
0000
,  // measure 6
0000
0100
0000
0010
,  // measure 7
1000
0000
0100
0000
,  // measure 8
1000
0000
0010
0010
,  // measure 9
0100
0000
0001
0000
,  // measure 10
0000
1000
0000
1000
,  // measure 11
0100
0000
0100
0000
,  // measure 12
0000
0010
0000
0010
,  // measure 13
0001
0000
0001
0000
,  // measure 14
0000
1000
1000
1000
,  // measure 15
0010
0000
0010
0000
,  // measure 16
0000
0100
0000
0100
,  // measure 17
0001
0000
0010
0000
,  // measure 18
0000
0100
0000
0100
,  // measure 19
1000
0000
0000
0000
,  // measure 20
0001
0000
0001
0000
,  // measure 21
0100
0000
0100
0000
,  // measure 22
0010
0000
0000
0000
,  // measure 23
1000
0000
0100
0000
,  // measure 24
1000
1000
0100
0100
,  // measure 25
0010
0000
1001
0000
,  // measure 26
0000
0001
0000
0010
,  // measure 27
0100
0000
1000
0000
,  // measure 28
0010
0010
1000
1000
,  // measure 29
0001
0000
0110
0000
,  // measure 30
0002
0100
0000
0010
,  // measure 31
1003
0000
0000
0000
,  // measure 32
0100
0000
0000
0000
,  // measure 33
0010
0000
0000
0000
,  // measure 34
0001
0000
0001
0000
,  // measure 35
1000
0000
0000
0000
,  // measure 36
0010
0000
0000
0000
,  // measure 37
0100
0000
0000
0000
,  // measure 38
0002
0000
1003
0000
,  // measure 39
0001
0000
0000
1001
,  // measure 40
0000
0000
1000
0000
,  // measure 41
0110
0000
0000
1001
,  // measure 42
0000
1001
0001
0000
,  // measure 43
0010
0000
0000
1001
,  // measure 44
0000
0000
0001
0000
,  // measure 45
0110
0000
0000
1001
,  // measure 46
0000
1001
1000
0000
,  // measure 47
0100
0000
0000
1001
,  // measure 48
0000
0001
0100
0000
,  // measure 49
0110
0000
0000
1001
,  // measure 50
0000
1000
0100
0000
,  // measure 51
0010
0000
0000
1001
,  // measure 52
0000
0001
0100
0000
,  // measure 53
0110
0000
0000
1001
,  // measure 54
0000
0010
0110
0000
;

//---------------dance-single - D. Bernardone----------------
#NOTES:
     dance-single:
     D. Bernardone:
     Medium:
     5:
     0.281,0.000,0.080,0.040,0.000:
0000
0000
0000
0000
,
0000
0000
0000
0000
,
0001
0000
0100
0000
,
0010
1000
0100
0100
,
0010
0000
0001
1000
,
0000
0000
0010
0000
0100
0100
0100
0000
,
0001
0000
0010
0000
,
0100
1000
0001
0100
,
0010
0000
1000
0001
,
0000
0000
0100
0000
0010
0010
0010
0000
,
1000
0100
0001
0100
,
0000
1000
0000
1000
,
0001
0100
1000
0100
,
0000
0001
1000
0001
,
1000
0010
0001
0010
,
0000
1000
0000
1000
,
0001
0010
1000
0010
,
0000
0001
1000
0001
,
0100
0000
0100
0000
,
0010
1000
0100
0000
,
0010
0001
0100
0010
,
1000
0000
0200
0320
,
0031
1000
0010
0010
,
0100
0001
0100
0000
1001
0000
0110
0000
,
0010
0000
1000
0000
0100
0010
0001
0000
,
0000
0100
0000
0100
,
0010
1000
0001
0001
,
0010
0000
0100
0000
1000
0001
1000
0000
,
0010
0100
0001
0001
,
0020
1000
0000
1000
,
0130
0000
0010
0000
,
0001
0000
1000
0000
,
0010
0000
0100
0000
,
0001
1000
0001
1000
,
0001
0000
0010
0000
,
0100
0000
1000
0000
,
0010
0000
0100
0000
,
0020
0000
0130
0100
0001
0000
0010
0000
,
0001
0001
0010
0000
0010
0000
0100
0000
,
1000
0010
0100
0000
0001
0000
1000
0000
,
0001
0100
1000
0000
0000
0000
0100
0000
,
0000
0001
0010
0100
,
0010
0010
0100
0000
1000
0000
0010
0000
,
0100
0001
0010
0000
0100
0000
1000
0000
,
0001
0010
1000
0000
0000
0000
0010
0000
,
0000
0001
1001
1000
,
0010
0010
0100
0000
0001
0000
0010
0000
,
0100
0010
0001
0010
0001
0000
1000
0000
,
0010
0100
0001
0000
0000
0000
0011
0000
,
0000
1100
1000
0010
,
1000
1000
0001
0000
0010
0000
0100
0000
,
1000
0010
0100
0010
0100
0000
0001
0000
,
1000
0010
0001
0000
0000
0000
1010
0000
,
0000
0101
1001
0000
;

//---------------dance-single - D. Bernardone----------------
#NOTES:
     dance-single:
     D. Bernardone:
     Hard:
     8:
     0.585,0.133,0.269,0.189,0.139:
0000
0000
0000
0000
,
0000
0000
0000
0000
0000
0000
1000
0100
1000
0002
0000
0003
,
0100
0010
1000
0100
0010
0010
0010
0100
,
0001
0100
1000
0010
0110
0110
1000
0001
,
0010
0100
1000
0001
0100
0100
0100
0010
,
0000
0000
0001
0010
0000
0000
1000
0100
,
1000
0001
0100
0010
1000
1000
1000
0001
,
0010
0100
1000
0010
0110
0110
0001
1000
,
0100
0010
0100
1000
0001
0001
0001
0100
,
0000
0000
1000
0100
0000
0000
0001
0010
,
0200
0300
2000
3000
0002
0003
0020
0030
,
0110
1100
0011
1010
,
2000
3000
0002
0003
0100
0010
1000
0010
,
0000
1000
0100
0001
0100
0001
0100
0001
,
0200
0300
2000
3000
0020
0030
0200
0300
,
0101
1010
1100
1001
,
0002
0003
0020
0030
0100
1000
0010
1000
,
1001
0110
0101
1100
,
0001
0000
0001
0000
0001
0000
0010
0100
,
1000
0010
0100
0001
0000
000M
0000
0001
,
0010
0100
1000
0001
1000
0000
1010
0000
,
0100
0000
0000
0000
0002
0000
0203
0320
,
1030
0100
0010
0100
1100
1100
0001
0100
,
0010
0000
1000
0000
0100
0000
1000
0000
0001
0100
0001
0000
1000
0000
1000
0000
,
0100
0010
0001
1000
1010
0011
1000
0010
,
0000
0000
0010
0100
0000
0000
0001
0010
,
0001
1000
0010
0100
0101
0101
1000
0100
,
0010
0000
0001
0000
1000
0000
0001
0000
1000
0100
1000
0000
0001
0000
0001
0000
,
0100
0010
1000
0001
0101
1100
0001
0100
,
0020
0000
0001
0001
0000
0000
1000
1030
,
1010
1000
0001
1000
,
0001
0000
1000
0000
0010
0100
0010
0100
,
0001
0001
0001
0010
1000
0000
0010
0001
,
1000
0000
0001
0000
1000
0000
0010
0000
1000
0000
0001
0100
0010
0000
1000
0000
,
0001
0010
0001
1000
0100
0000
1000
0010
,
1000
0001
0100
0001
1000
1000
0100
0010
,
0010
0000
0100
0010
0001
0000
0100
0000
1000
0000
0100
0000
0001
0000
1000
0000
,
0002
0000
0000
0000
0000
0000
1003
0010
1000
0002
0000
0000
0013
0000
0000
0100
0000
0000
1000
0000
0000
0001
0000
0000
,
0100
0010
0100
0000
0001
0000
0001
0000
1000
0000
0100
0000
1000
0000
0001
0000
,
0100
0010
0100
0010
0100
0000
0001
0000
1000
0000
0100
0000
0010
0000
0001
0000
,
1000
0010
0100
0000
0001
0000
1000
0000
0000
0000
0000
0000
1000
0000
0100
0000
,
0000
0000
0010
0100
1000
0001
0100
0010
,
1000
0001
1000
0000
0100
0000
0100
0000
0010
0000
0001
0000
1000
0000
0010
0000
,
0100
0001
0100
0001
0100
0000
0010
0000
1000
0000
0100
0000
1000
0000
0001
0000
,
0100
0010
1000
0000
0001
0000
0010
0000
0000
0000
0000
0000
0100
0000
1000
0000
,
0000
0000
0001
1000
0010
0100
0001
0100
,
0010
1000
0010
1000
0010
0000
0100
0000
0001
0000
0010
0000
0100
0000
1000
0000
,
0001
0100
0010
0100
0001
0000
1000
0000
0100
0000
0010
0000
0001
0000
1000
0000
,
0010
1000
0100
1000
0010
0000
0100
0000
0000
0000
0000
0000
0001
0000
1000
0000
,
0000
0000
0100
1000
0010
0100
0001
0010
,
0001
1000
0001
1000
0001
0000
0100
0000
0010
0000
1000
0000
0001
0000
0010
0000
,
0100
1000
0100
0010
0100
0000
1000
0000
0001
0000
0100
0000
0010
0000
1000
0000
,
0100
1000
0010
1000
0100
0000
0010
0000
0000
0000
0000
0000
0001
0000
1000
0000
,
0000
0000
0010
1000
0110
0000
0000
0000
;
