#TITLE:King's Theme;
#SUBTITLE:(Pixel Remix);
#ARTIST:Renard;
#TITLETRANSLIT:;
#SUBTITLETRANSLIT:;
#ARTISTTRANSLIT:;
#GENRE:Classical Techno;
#CREDIT:Sync by HellRazoR;
#BANNER:King's Theme-bn.png;
#BACKGROUND:King's Theme-bg.png;
#LYRICSPATH:;
#CDTITLE:;
#MUSIC:King's Theme.ogg;
#OFFSET:-0.021;
#SAMPLESTART:34.483;
#SAMPLELENGTH:12.000;
#SELECTABLE:YES;
#DISPLAYBPM:174.000:87.000;
#BPMS:0.000=174.000,72.000=87.000,76.000=174.000,260.000=87.000,264.000=174.000;
#STOPS:;
#BGCHANGES:0.000=King's Theme-bg.png=1.000=0=0=1=====,
16.000=In The Groove Rebirth/252_JB_HD.mpg=1.000=0=0=1=====,
32.000=In The Groove Rebirth/255_JB_HD.mpg=1.000=0=0=1=====,
48.000=In The Groove Rebirth/320_JB_HD.mpg=1.000=0=0=1=====,
64.000=In The Groove Rebirth/1159_JumpBack.mpg=1.000=0=0=1=====,
72.000=King's Theme-bg.png=1.000=0=0=1=====,
76.000=In The Groove Rebirth/274_JB_HD.mpg=1.000=0=0=1=====,
92.000=In The Groove Rebirth/255_JB_HD.mpg=1.000=0=0=1===FadeLeft==,
108.000=In The Groove Rebirth/1124_JumpBack.mpg=1.000=0=0=1=====,
124.000=In The Groove Rebirth/320_JB_HD.mpg=1.000=0=0=1===FadeRight==,
140.000=In The Groove Rebirth/252_JB_HD.mpg=1.000=1=0=1===CrossFade==,
172.000=In The Groove Rebirth/800_JumpBack.mpg=1.000=0=0=1=====,
188.000=In The Groove Rebirth/1124_JumpBack.mpg=1.000=0=0=1===FadeUp==,
204.000=In The Groove Rebirth/274_JB_HD.mpg=1.000=0=0=1=====,
220.000=In The Groove Rebirth/1159_JumpBack.mpg=1.000=0=0=1=====,
236.000=In The Groove Rebirth/255_JB_HD.mpg=1.000=0=0=1=====,
252.000=In The Groove Rebirth/800_JumpBack.mpg=1.000=0=0=1=====,
260.000=King's Theme-bg.png=1.000=1=0=1===CrossFade==,
264.000=In The Groove Rebirth/320_JB_HD.mpg=1.000=0=0=1=====,
280.000=In The Groove Rebirth/274_JB_HD.mpg=1.000=0=0=1===FadeDown==,
296.000=In The Groove Rebirth/252_JB_HD.mpg=1.000=0=0=1=====,
312.000=In The Groove Rebirth/1159_JumpBack.mpg=1.000=1=0=1===CrossFade==,
328.000=King's Theme-bg.png=1.000=0=0=1=====,
99999=-nosongbg-=1.000=0=0=0 // don't automatically add -songbackground-
;
#BGCHANGES2:16.000=white flash=1.000=0=0=1=====,
48.000=yellow flash=1.000=0=0=1=====,
72.000=white flash=1.000=0=0=1=====,
108.000=white flash=1.000=0=0=1=====,
172.000=yellow flash=1.000=0=0=1=====,
236.000=white flash=1.000=0=0=1=====,
296.000=white flash=1.000=0=0=1=====,
328.000=yellow flash=1.000=0=0=1=====,
;
#KEYSOUNDS:;

//---------------dance-single - NEMORIGINAL----------------
#NOTES:
     dance-single:
     NEMORIGINAL:
     Challenge:
     10:
     0.980,0.000,0.322,1.000,0.169:
0000
0000
0000
0000
,
0000
0000
0000
0000
,
0000
0000
0000
0000
,
0000
0000
0000
0000
,
1000
0100
0001
0100
1000
0010
0100
0001
,
1000
0010
0001
0010
1000
0100
0010
0001
,
1000
0010
0001
1000
0100
0001
0010
0100
,
1000
0010
0001
1000
0100
0001
1000
0010
,
0100
0001
1000
0010
1000
0010
0100
0001
,
0010
0001
0010
0100
1000
0010
1000
0100
,
2000
0000
00M0
3200
M000
000M
0320
0M00
,
M000
0032
00M0
M000
0203
000M
0320
0M00
,
0031
0000
0010
0000
1000
0000
0001
0100
0001
0000
0010
0000
0100
0000
1000
0000
,
0010
0000
0100
0000
0001
0000
1000
0010
1000
0000
0100
0000
0001
0000
0100
0000
,
1000
0000
0010
0000
0100
0000
0001
0010
0001
0000
0010
0000
1000
0000
0010
0000
,
0001
0000
1000
0000
0010
0000
0100
0000
0001
0100
0001
0000
1000
0010
1000
0010
,
1000
0000
0001
0000
0100
0000
0010
1000
0010
0000
0100
0000
0001
0000
0010
0000
,
0100
0000
1000
0000
0010
0000
1000
0100
1000
0000
0010
0000
0100
0000
0001
0010
,
0002
0000
0000
0000
0M00
0000
2003
0000
000M
0000
0000
0000
3020
0000
0000
0000
1030
0100
0010
0001
1000
0100
0010
0001
1000
0010
0100
0001
1000
0010
0100
0001
,
0200
0000
0310
02M0
0000
1300
M200
0000
,
0301
020M
0000
0310
02M0
1300
M200
0000
,
0320
0000
1030
M020
0000
0130
0M20
0000
,
0031
002M
0000
M031
002M
0130
0M20
0000
,
2030
0000
3100
2M00
0000
3010
20M0
0000
,
3001
200M
0000
3100
2M00
3001
200M
0000
,
3002
0000
0103
0M02
0000
1003
M002
0000
,
0013
00M2
0000
0103
0M02
1003
M002
0000
,
0203
0010
0310
02M0
1000
1300
M200
0001
,
0301
020M
0010
0310
02M0
1300
M100
0100
,
0M20
1000
1030
M020
0100
0130
0M20
0001
,
0031
0M20
0001
M031
002M
0130
0M10
0010
,
20M0
0100
3100
2M00
0010
3010
20M0
0001
,
3001
200M
0100
3100
2M00
3001
100M
1000
,
M002
0100
0103
0M02
1000
1003
M002
0010
,
0013
00M2
0100
0103
0M02
1003
M001
0001
,
100M
0200
0302
2003
3020
0032
2003
3001
,
000M
0002
0203
2300
3002
0023
2030
3001
,
000M
0002
0023
2030
3002
0203
2300
3001
,
000M
0000
0002
0000
0203
0000
2300
0000
3200
0000
0302
0000
0023
0000
0031
0100
,
0001
0020
2030
3002
0203
2300
3002
1003
,
M000
2000
3020
0032
2003
3200
0302
1003
,
M000
2000
3200
0302
2003
3020
0032
1003
,
M000
0000
2000
0000
3020
0000
0032
0000
0023
0000
2030
0000
3200
0000
1300
0010
,
1000
0010
0100
0001
0101
0001
0010
0100
,
1010
1000
0010
0100
0101
0001
0101
0001
,
000M
0001
0011
0010
0100
1000
1010
0010
,
0100
0001
0101
0100
0110
0010
1010
1000
,
M000
1000
0100
0010
0011
0001
1000
0010
,
1010
1000
0010
0100
0101
0001
0011
0010
,
00M0
0010
0011
0001
0010
0100
1010
1000
,
M000
0000
1000
0000
1010
0000
0010
0000
1001
0000
1000
0000
0001
0010
0100
1000
,
0001
0100
2000
3100
0001
0010
2000
3010
,
0001
0100
0002
0103
0010
1000
0020
1030
,
0002
0003
1002
M003
2010
30M0
0120
0M30
,
0201
030M
0120
0M30
2001
300M
1200
M300
,
1000
0010
0002
0013
1000
0100
0002
0103
,
1000
0010
2000
3010
0100
0001
0200
0301
,
2000
3000
2001
300M
0102
0M03
0210
03M0
,
1020
M030
0210
03M0
1002
M003
0021
003M
,
0002
0103
2000
3100
0002
0013
2000
3010
,
0002
0103
0002
0103
0020
1030
0020
1030
,
0002
0003
1002
M003
2010
30M0
0120
0M30
,
0201
030M
0120
0M30
2001
300M
1200
M300
,
2000
3010
0002
0013
2000
3100
0002
0103
,
2000
3010
2000
3010
0200
0301
0200
0301
,
2000
0000
0000
0000
0000
0000
0000
0000
3020
0000
0000
0000
0000
0000
0000
0000
1030
0100
0010
0001
1000
0100
0010
0001
1000
0010
0100
0001
1000
0010
0100
0001
,
0200
0000
0310
02M0
0000
1300
M200
0000
,
0301
020M
0000
0310
02M0
1300
M200
0000
,
0320
0000
1030
M020
0000
0130
0M20
0000
,
0031
002M
0000
M031
002M
0130
0M20
0000
,
2030
0000
3100
2M00
0000
3010
20M0
0000
,
3001
200M
0000
3100
2M00
3001
200M
0000
,
3002
0000
0103
0M02
0000
1003
M002
0000
,
0013
00M2
0000
0103
0M02
1003
M002
0000
,
0203
0010
0310
02M0
1000
1300
M200
0001
,
0301
020M
0010
0310
02M0
1300
M100
0100
,
0M20
1000
1030
M020
0100
0130
0M20
0001
,
0031
0M20
0001
M031
002M
0130
0M10
0010
,
20M0
0100
3100
2M00
0010
3010
20M0
0001
,
3001
200M
0100
3100
2M00
3001
100M
1000
,
M002
0100
0103
0M02
1000
1003
M002
0010
,
0013
0000
00M2
0000
0100
0000
0103
0000
0001
0100
0010
0000
1000
0000
0001
1000
,
0002
0000
0003
0000
;

//---------------dance-single - NEMORIGINAL----------------
#NOTES:
     dance-single:
     NEMORIGINAL:
     Hard:
     9:
     0.617,0.000,0.008,0.483,0.008:
0000
0000
0000
0000
,
0000
0000
0000
0000
,
0000
0000
0000
0000
,
0000
0000
0000
0000
,
1000
0000
0001
0100
0001
0000
0100
0000
,
0010
0000
1000
0010
1000
0000
0100
0000
,
1000
0000
0001
0010
0001
0000
0010
0000
,
0100
0000
1000
0001
0100
0000
0010
1000
,
0010
0000
1000
0100
1000
0000
0001
0000
,
0100
0000
0010
1000
0010
0000
1000
0100
,
0020
0000
0000
0032
0000
0000
0203
0000
,
0000
0320
0000
0000
2030
0000
3200
0000
,
1300
0001
1000
0001
1000
0000
0010
0100
,
0001
0100
0001
0100
0001
0000
1000
0100
,
0010
0001
0010
0001
0010
0000
0001
0100
,
0010
1000
0010
1000
0100
0000
1000
0000
,
0010
0100
0010
0100
0001
0000
0100
0001
,
0100
0010
1000
0100
0010
0000
0001
0010
,
0200
0000
0000
2300
0000
0000
3002
0000
0000
0203
0000
0000
0320
0000
2030
0000
,
3001
00M0
0100
0001
0000
0100
0001
M000
,
0100
0010
0000
100M
0100
0010
0001
0000
,
1000
0M00
0001
0100
00M0
0001
1000
0000
,
0010
0100
0000
0001
1000
0100
0010
M000
,
0001
0000
1000
0010
0000
0100
0001
00M0
,
1000
0100
0000
0010
0M01
1000
0010
000M
,
0100
0000
0001
0100
0000
0M10
1000
0000
,
0100
0010
0M00
0001
1000
0010
0100
00M0
,
0001
1000
1000
0001
1000
1000
0001
0M00
,
1000
0100
0000
0010
0M01
1000
0010
000M
,
0100
0001
0001
0100
0001
0001
0100
M000
,
0010
1000
00M0
0100
0010
0001
1000
0M00
,
0010
0100
0001
1000
M000
1000
0100
0000
,
0100
0010
00M0
0010
0001
1000
0010
0000
,
0100
0010
1000
0001
000M
0001
0010
0000
,
0010
0100
0M00
0100
1000
0001
0100
0010
,
1000
0100
1000
0100
1000
0100
1000
0100
,
0M00
1000
0010
1000
0010
1000
0010
1000
,
M000
1000
0001
1000
0001
1000
0001
1000
,
M000
0001
1000
0001
1000
0001
1000
0001
,
000M
0100
0010
0100
0010
0100
0010
0100
,
0M00
0001
0010
0001
0010
0001
0010
0001
,
000M
1000
0100
0010
0001
1000
0010
0100
,
0M00
0100
0010
1000
0001
0010
0100
1000
,
0001
0100
0001
0000
0200
0310
0100
0000
,
0020
1030
0010
0000
2000
3001
0020
0030
,
0000
0000
0002
0003
0000
0000
2000
3000
,
0000
0000
0020
0030
0200
0300
0002
0003
,
0010
0100
1000
0000
0200
0310
0001
0000
,
2000
3010
0100
0000
0002
0013
0002
0003
,
0000
0000
0200
0300
0000
0000
0020
0030
,
0000
0000
2000
3000
0200
0300
0020
0030
,
0001
0010
0001
0010
00M0
1000
0010
1000
,
0010
1000
M000
0001
0100
0001
0100
0001
,
0100
0M00
2000
0000
3002
0000
2003
0000
,
3200
0320
0032
0203
,
0310
1000
0010
1000
M000
0001
0100
0001
,
0100
0001
000M
1000
0100
1000
0001
0010
,
0001
000M
2000
0000
3020
0000
0230
0000
,
0302
2003
3200
0320
,
0031
0100
1000
0100
0001
0M00
1000
0100
,
0010
0001
1000
00M0
0001
0010
1000
0010
,
0001
0M00
2000
0000
3020
0000
0230
0000
,
0302
2003
3200
0320
,
0031
1000
0100
1000
0001
00M0
1000
0001
,
0100
0001
1000
0M00
0001
1000
0100
1000
,
0020
0000
0032
0000
0023
0000
0230
0001
,
1300
0M00
0010
1000
0000
0010
1000
000M
,
0010
0100
0000
M001
0010
0100
1000
0000
,
0001
00M0
1000
0010
0M00
1000
0001
0000
,
0100
0010
0000
1000
0001
0010
0100
000M
,
1000
0000
0001
0100
0000
0010
1000
0M00
,
0001
0010
0000
0100
10M0
0001
0100
M000
,
0010
0000
1000
0010
0000
01M0
0001
0000
,
0010
0100
00M0
1000
0001
0100
0010
0M00
,
1000
0001
0001
1000
0001
0001
1000
00M0
,
0001
0010
0000
0100
10M0
0001
0100
M000
,
0010
1000
1000
0010
1000
1000
0010
000M
,
0100
0001
0M00
0010
0100
1000
0001
00M0
,
0100
0010
1000
0001
000M
0001
0010
0000
,
0010
0100
0M00
0100
1000
0001
0100
0000
,
0010
0100
0001
1000
M000
1000
0100
0000
,
0100
0010
00M0
0010
0001
1000
0010
0100
,
0220
0000
0000
0000
,
0330
0000
0000
0000
;

//---------------dance-single - NEMORIGINAL----------------
#NOTES:
     dance-single:
     NEMORIGINAL:
     Medium:
     7:
     0.577,0.000,0.618,0.474,0.008: // measure 1
0000
0000
0000
0000
,  // measure 2
0000
0000
0000
0000
,  // measure 3
0000
0000
0000
0000
,  // measure 4
0000
0000
0000
0000
,  // measure 5
1000
0001
1000
0001
,  // measure 6
0100
0000
0010
0000
0100
0000
0010
1000
,  // measure 7
0100
0010
0100
0010
,  // measure 8
0001
0000
1000
0000
0001
1000
0010
0100
,  // measure 9
0001
0100
0001
0100
,  // measure 10
0010
0000
1000
0000
0010
0000
1000
0100
,  // measure 11
0020
0000
0000
0032
0000
0000
0203
0000
,  // measure 12
0000
0320
0000
0000
2030
0000
3020
0000
,  // measure 13
0130
0000
0001
1000
0100
0000
1000
0000
,  // measure 14
0010
0000
0100
0001
1000
0000
0100
0010
,  // measure 15
0001
0000
1000
0001
0100
0000
0010
0000
,  // measure 16
1000
0000
0100
0010
0001
1000
0010
0000
,  // measure 17
0100
0000
0001
1000
0100
0000
0010
0000
,  // measure 18
0001
0000
0100
0010
1000
0000
0010
0100
,  // measure 19
0002
0000
0000
2003
0000
0000
3020
0000
0000
0230
0000
0000
0302
0000
2003
3000
,  // measure 20
1001
0000
0000
0110
0000
1010
0000
0000
,  // measure 21
1001
0000
0000
1100
0000
0011
0000
0001
,  // measure 22
0101
0000
0000
0110
0000
0000
MMMM
0000
,  // measure 23
0000
0011
0000
1010
0000
0011
0000
0000
,  // measure 24
0110
0000
0000
0101
0000
0011
0000
0000
,  // measure 25
0110
0000
0000
1010
0000
0110
0000
0001
,  // measure 26
1001
0000
0000
1100
0000
0000
MMMM
0000
,  // measure 27
0000
0110
0000
0011
0000
0101
0000
0000
,  // measure 28
1100
0000
0000
1001
0000
0011
0000
0000
,  // measure 29
1001
0000
0000
0110
0000
1010
0000
0100
,  // measure 30
0110
0000
0000
0101
0000
0000
MMMM
0000
,  // measure 31
0000
1010
0000
0110
0000
0011
0000
0000
,  // measure 32
1100
0000
0000
0101
0000
1100
0000
0000
,  // measure 33
0110
0000
0000
0101
0000
1010
0000
1000
,  // measure 34
1001
0000
0000
0110
0000
0000
MMMM
0000
,  // measure 35
0000
0101
0000
1010
0000
0010
0100
1000
,  // measure 36
0100
0001
0100
0001
0100
0001
0100
0001
,  // measure 37
0000
0010
0100
0010
0100
0010
0100
0010
,  // measure 38
0000
0010
0100
1000
0100
1000
0100
1000
,  // measure 39
0000
1000
0100
0010
0100
0001
0100
1000
,  // measure 40
0000
1000
0010
1000
0010
1000
0010
1000
,  // measure 41
0000
0100
0010
0100
0010
0100
0010
0100
,  // measure 42
0000
0100
0010
0001
0010
0001
0010
0001
,  // measure 43
0000
0001
0010
0100
0010
1000
0010
0001
,  // measure 44
0001
10M0
M200
0000
,  // measure 45
0320
0000
0032
0203
,  // measure 46
0000
0320
0000
2030
,  // measure 47
0000
3200
0320
0032
,  // measure 48
0000
0000
0203
0000
,  // measure 49
2300
0000
3002
0023
,  // measure 50
0000
2030
0000
3200
,  // measure 51
0000
0302
2003
3020
,  // measure 52
0031
0100
0001
0100
0000
0010
1000
0010
,  // measure 53
1000
0010
0000
1000
0100
1000
0100
1000
,  // measure 54
0001
020M
0320
2030
,  // measure 55
3200
0320
0032
0203
,  // measure 56
0310
1000
0010
1000
0000
0001
0100
0001
,  // measure 57
0100
0001
0000
0010
0100
0010
0100
0010
,  // measure 58
0001
200M
3020
0230
,  // measure 59
0302
2003
3200
0320
,  // measure 60
0031
0100
0001
0100
0001
0000
1000
0010
,  // measure 61
1000
0000
0001
0100
0001
0000
1000
0100
,  // measure 62
1000
M002
0023
0230
,  // measure 63
2300
3002
0203
0320
,  // measure 64
1030
0010
1000
0000
0100
1000
0100
0000
,  // measure 65
0010
0100
0010
0000
0001
0010
0001
0000
,  // measure 66
0100
0000
0000
0000
0M20
0000
0000
0000
2030
0000
0000
0000
3002
0000
0000
0003
,  // measure 67
1001
0000
0000
0110
0000
0101
0000
0000
,  // measure 68
1001
0000
0000
0011
0000
1100
0000
1000
,  // measure 69
1010
0000
0000
0110
0000
0000
MMMM
0000
,  // measure 70
0000
1100
0000
0101
0000
1100
0000
0000
,  // measure 71
0110
0000
0000
1010
0000
1100
0000
0000
,  // measure 72
0110
0000
0000
0101
0000
0110
0000
1000
,  // measure 73
1001
0000
0000
0011
0000
0000
MMMM
0000
,  // measure 74
0000
0110
0000
1100
0000
1010
0000
0000
,  // measure 75
0011
0000
0001
1000
0000
1000
0100
0000
,  // measure 76
1001
0000
0010
0100
0000
0100
0010
1000
,  // measure 77
1010
0000
0010
1000
0000
1000
0010
0000
,  // measure 78
0000
1000
0001
1000
0000
1000
0001
0000
,  // measure 79
0011
0000
0001
1000
0000
1000
0010
0000
,  // measure 80
0110
0000
0010
1000
0000
1000
0001
0100
,  // measure 81
0101
0000
0001
0100
0000
0000
1001
0000
,  // measure 82
0000
0000
1000
0000
0100
0000
0010
0000
0004
0000
0000
0003
1000
0000
0010
0000
,  // measure 83
2002
0000
0000
0000
0000
0000
0000
3003
;

//---------------dance-single - NEMORIGINAL----------------
#NOTES:
     dance-single:
     NEMORIGINAL:
     Easy:
     4:
     0.336,0.000,0.330,0.017,0.008:
0000
0000
0000
0000
,
0000
0000
0000
0000
,
0000
0000
0000
0000
,
0000
0000
0000
0000
,
1000
0001
1000
0000
,
0001
1000
0001
0000
,
0100
0010
0100
0000
,
0010
0100
0010
1000
,
0001
0000
0001
0000
,
1000
0000
1000
0000
,
0001
0000
0000
0010
0000
0000
0100
0000
,
0000
1000
0000
0000
0001
0000
1000
0000
,
0001
0100
0010
0000
,
0010
1000
0100
0000
,
0100
1000
0001
0000
,
0001
1000
0010
0100
,
0001
1000
0100
0000
,
0100
1000
0010
0100
,
0001
0000
0000
1000
0000
0000
0010
0000
0000
0100
0000
0000
0001
0000
1000
0000
,
0001
0000
0000
0010
0000
0001
0000
0000
,
1000
0000
0000
0100
0000
0010
0000
0000
,
0001
0000
0000
0011
0000
0000
0000
0000
,
0000
0001
0000
1000
0000
0010
0000
0000
,
0100
0000
0000
0001
0000
0010
0000
0000
,
0100
0000
0000
1000
0000
0100
0000
0000
,
1000
0000
0000
1100
0000
0000
0000
0000
,
0000
1000
0000
0001
0000
1000
0000
0000
,
0001
0000
0000
1000
0000
0010
0000
0000
,
1000
0000
0000
0010
0000
0100
0000
0000
,
0010
0000
0000
0101
0000
0000
0000
0000
,
0000
1000
0000
0010
0000
1000
0000
0000
,
0001
0000
0000
0100
0000
0010
0000
0000
,
0100
0000
0000
0001
0000
0010
0000
0000
,
0001
0000
0000
1010
0000
0000
0000
0000
,
0000
0100
0000
0010
0000
0000
0010
0000
,
1000
0001
1000
0000
,
0001
1000
0001
0000
,
0100
0010
0100
0000
,
0010
1000
0010
0100
,
0001
1000
0001
0000
,
1000
0001
1000
0000
,
0100
0010
0100
0000
,
0010
0001
0100
0010
,
1000
0000
0100
0000
,
0010
0000
0001
0100
,
0000
0010
0000
1000
,
0000
0100
0010
0001
,
0000
0000
0100
0000
,
0010
0000
1000
0100
,
0000
0010
0000
0001
,
0000
1000
0010
0100
,
0001
0101
0000
1010
,
0000
1100
0000
0011
,
0001
0100
0010
1000
,
0100
0010
0001
0100
,
0010
1010
0000
0101
,
0000
0011
0000
1100
,
0100
1000
0010
0100
,
0001
1000
0100
0010
,
0000
0001
0001
0010
,
0010
0100
0100
1000
,
1000
0001
0010
0100
,
1000
0001
0100
0010
,
0000
1000
1000
0010
,
0010
0100
0100
0001
,
0001
0010
0100
1000
,
1000
0000
0000
0010
0000
0100
0000
0000
,
0001
0000
0000
0010
0000
0100
0000
0000
,
1000
0000
0000
0110
0000
0000
0000
0000
,
0000
0100
0000
0001
0000
0100
0000
0000
,
0010
0000
0000
0100
0000
0010
0000
0000
,
1000
0000
0000
0100
0000
0010
0000
0000
,
0001
0000
0000
0101
0000
0000
0000
0000
,
0000
0001
0000
1000
0000
0001
0000
0000
,
1001
0000
0000
1001
0000
0000
1001
0000
,
0000
0110
0000
0000
0110
0000
0110
0000
,
1001
0000
0000
1001
0000
0000
1001
0000
,
0000
0110
0000
0000
0110
0000
0110
0000
,
0110
0000
0000
1001
0000
0000
0110
0000
,
0000
1001
0000
0000
0110
0000
1001
0000
,
1100
0000
0000
0011
0000
0000
1100
0000
,
0000
0011
0000
0000
1100
0000
0110
0000
,
2002
0000
0000
0000
0000
0000
0000
3003
;

//---------------dance-single - NEMORIGINAL----------------
#NOTES:
     dance-single:
     NEMORIGINAL:
     Beginner:
     1:
     0.137,0.000,0.051,0.000,0.000:
0000
0000
0000
0000
,
0000
0000
0000
0000
,
0000
0000
0000
0000
,
0000
0000
0000
0000
,
0001
0000
0000
0000
,
0001
0000
0000
0000
,
1000
0000
0000
0000
,
1000
0000
0000
0000
,
0010
0000
0000
0000
,
0010
0000
0000
0000
,
1000
0000
1000
0000
,
0001
0000
0001
0000
,
0010
0000
0000
0000
,
0010
0000
0000
0000
,
0100
0000
0000
0000
,
0100
0000
0000
0000
,
1000
0000
0000
0000
,
1000
0000
0000
0000
,
0001
0000
0001
0000
,
1000
0000
1000
0000
,
1000
0000
0000
0000
,
0001
0000
0001
0000
,
0001
0000
0000
0000
,
0010
0000
0010
0000
,
0010
0000
0000
0000
,
0100
0000
0100
0000
,
0100
0000
0000
0000
,
1000
0000
1000
0000
,
1000
0000
0000
0000
,
0010
0000
0010
0000
,
0010
0000
0000
0000
,
0100
0000
0100
0000
,
0100
0000
0000
0000
,
0001
0000
0001
0000
,
0001
0000
0000
0000
,
1000
0000
1000
0000
,
1000
0000
1000
0000
,
1000
0000
1000
0000
,
1000
0000
1000
0000
,
1001
0000
0001
0000
,
0001
0000
0001
0000
,
0001
0000
0001
0000
,
0001
0000
0000
0000
,
0110
0000
0010
0000
,
0010
0000
0010
0000
,
0010
0000
0010
0000
,
0010
0000
0010
0000
,
0110
0000
0100
0000
,
0100
0000
0100
0000
,
0100
0000
0100
0000
,
0100
0000
0000
0000
,
1001
0000
0000
0000
,
0001
0000
0000
0000
,
1000
0000
0000
0000
,
0000
0000
0000
0000
,
1001
0000
0000
0000
,
1000
0000
0000
0000
,
0001
0000
0000
0000
,
0000
0000
0000
0000
,
1000
0000
0000
0000
,
0100
0000
0000
0000
,
0010
0000
0000
0000
,
0001
0000
0000
0000
,
1000
0000
0000
0000
,
0010
0000
0000
0000
,
0100
0000
0001
0000
,
1000
0000
1000
0000
,
1000
0000
0000
0000
,
0001
0000
0001
0000
,
0001
0000
0000
0000
,
0100
0000
0100
0000
,
0100
0000
0000
0000
,
0010
0000
0010
0000
,
0010
0000
0000
0000
,
1000
0000
0000
0000
,
1000
0000
0000
0000
,
0001
0000
0000
0000
,
0001
0000
0000
0000
,
0010
0000
0000
0000
,
0010
0000
0000
0000
,
0100
0000
0000
0000
,
0100
0000
0000
0000
,
1001
0000
0000
0000
;

//---------------dance-double - M. Simmons----------------
#NOTES:
     dance-double:
     M. Simmons:
     Challenge:
     10:
     0.719,0.000,0.466,0.279,0.068:
00000000
00000000
00000000
00000000
,
00000000
00000000
00000000
00000000
,
00000000
00000000
00000000
00000000
,
00000000
00000000
00000000
00000000
,
00110000
00000000
00000000
00100000
00000000
00000000
00001000
00000000
00000000
00010000
00000000
00000000
00010000
00000000
00000000
00000000
000M0000
00000000
00000100
00000000
00000000
00000010
00000000
00000000
,
00000110
00000000
00000000
00000100
00000000
00000000
00010000
00000000
00000000
00001000
00000000
00000000
00001000
00000000
00000000
00000000
0000M000
00000000
01000000
00000000
00000000
00100000
00000000
00000000
,
01100000
00000000
00000000
01000000
00000000
00000000
00010000
00000000
00000000
00100000
00000000
00000000
00100000
00000000
00000000
00000000
00M00000
00000000
01000000
00000000
00000000
10000000
00000000
00000000
,
10010000
00000000
00100000
00000000
00001000
00000000
00020000
00000000
00030000
00000000
001M0010
00000000
00000000
00M000M0
00001000
00000000
,
00001000
00000000
00000000
00010000
00000000
00000000
00000100
00000000
00000000
00000010
00000000
00000000
00000010
00000000
00000000
00000000
000000M0
00000000
00000100
00000000
00000000
00001000
00000000
00000000
,
00001001
00000000
00000000
00000001
00000000
00000000
00000100
00000000
00000000
00000010
00000000
00000000
00000010
00000000
00000000
00000000
000000M0
00000000
00010000
00000000
00000000
00001000
00000000
00000000
,
02000000
00000000
03000000
0M200000
00000000
00300000
20M00000
00000000
,
30000000
M2000000
00000000
03000000
0M200000
00000000
00301000
00M00000
,
00101000
00000000
00000000
00001000
00000000
00000000
00010000
00000000
00000000
00000010
00000000
00000000
00000010
00000000
00000000
00000000
000000M0
00000000
00000100
00000000
00000000
00000010
00000000
00000000
,
00001010
00000000
00000000
00000010
00000000
00000000
00010000
00000000
00000000
00001000
00000000
00000000
00001000
00000000
00000000
00000000
0000M000
00000000
00100000
00000000
00000000
00010000
00000000
00000000
,
10010000
00000000
00000000
01000000
00000000
00000000
00001000
00000000
00000000
00010000
00000000
00000000
00010000
00000000
00000000
00000000
000M0000
00000000
00001000
00000000
00000000
00010000
00000000
00000000
,
00010100
00000000
00010000
00000000
00001000
00000000
00020000
00000000
00030000
00000000
010M0100
00000000
00000000
0M000M00
00010000
00000000
,
00010000
00001000
01000000
00100000
00100000
00000000
10000000
01000000
,
11000000
01000000
00010000
00001000
00001000
00000000
00010000
00001000
,
00011000
00000000
00000000
01000100
00000000
00000000
00011000
00000000
00000000
00100010
00000000
00000000
01000010
00000000
00100100
00000000
,
00001000
00100000
00010000
20000000
00000000
31000000
00010000
00001000
,
00000100
00000010
00010000
00000010
00000100
00000100
00000010
00001000
,
00000001
00000010
00001000
00020000
00000000
00030100
00010000
00001000
,
01000000
00100000
10000000
01000000
00100000
00100000
00010000
01000000
,
00001000
00010000
00000010
00000002
00000000
00000013
00001000
00000100
,
00010000
00001000
01000000
00100000
01000000
01000000
00001000
00100000
,
01000000
00010000
00001000
00020000
00000000
00031000
00010000
00000010
,
00000100
00000001
00001000
00000100
00000010
00000010
00000100
00001000
,
00000001
00000100
00000010
00020000
00000000
00031000
01000000
00010000
,
10000000
01000000
00100000
00010000
01000000
01000000
00001000
00010000
,
00000100
00010000
00000010
00000200
00000000
00000310
00001000
00000001
,
00000100
00000001
00001000
00000100
00010000
00010000
00001000
00000010
,
00000001
00000100
00001000
00020000
00000000
00031000
01000000
00100000
,
10000000
01000000
10000000
00010000
01000000
01000000
00001000
00100000
,
01000000
00010000
00001000
00020000
00000000
00030100
00000010
00001000
,
00000010
00000000
00000001
00000000
00001000
00000000
00000010
00000000
00010000
00001000
00010000
00000000
00001000
00000000
01000000
00000000
,
00100000
10000000
01000000
00010000
00001000
00000100
00000001
00001001
,
00000000
00000001
00000010
00001000
00010000
00100000
10000000
10010000
,
00000000
10000000
00100000
00010000
00001000
00000100
00000001
00001001
,
00000000
00000001
00000010
00001000
00010000
01000000
10000000
10010000
,
00000000
01000000
00000100
00010000
00001000
00100000
00000010
00100010
,
00000000
00001000
00010000
00000100
01000000
00001000
00010000
00011000
,
00000000
00000010
00100000
00001000
00010000
00000100
01000000
01000100
,
00000000
00002000
00023000
02030000
23000000
30020000
00032000
00003002
,
00001003
00000010
00000400
00000010
,
00000304
00001000
00001003
00001100
,
00000000
00000400
00001000
00040300
,
00001000
04030000
13000000
10010000
,
00000000
40000000
01000000
30400000
,
00010000
00304000
00013000
00011000
,
00000000
00040000
00000010
00030004
,
00000010
00000000
00000000
00000000
00040003
00000000
00000000
00000000
00030100
00000000
00000000
00000000
00000100
00010000
00000100
00000000
,
00010100
00000100
00010000
00100000
00000000
01000000
00010000
00000010
,
00000000
00000100
00001000
00100000
00000000
01000000
00001000
00000010
,
00000110
00000101
00001010
00011000
,
01001000
01010000
10100000
10010000
,
00000000
10000000
00010000
00001000
00000000
00001000
00000001
00001000
,
00000000
00001000
00010000
10000000
00000000
10000000
00010000
10000000
,
01000000
11000000
01100000
00110000
,
00010100
00001100
00000110
00000011
,
00001001
00000010
00100000
00001000
00000000
01000000
00000100
00010000
,
00000000
00001000
00100000
00000010
00000000
00010000
00000100
01000000
,
00001000
00011000
00110000
01100000
,
00110000
00011000
00001010
00000110
,
00000000
00000001
00000010
00001000
00000000
00100000
10000000
00100000
,
00000000
00001000
00000010
00000001
00000000
00000010
00001000
00100000
,
01100000
00000000
10010000
00000000
01002000
00010000
00000010
00003001
,
00001000
00010000
00000100
00020000
00000000
00031000
01000000
10000000
,
01000000
00010000
10000000
01000000
00010000
00010000
00001000
00000100
,
00000010
00001000
00000001
00000200
00000000
00000301
00001000
00000100
,
00000010
00000100
00010000
00001000
01000000
01000000
00100000
10000000
,
00010000
01000000
00001000
00020000
00000000
00030100
00000010
00001000
,
00010000
00000010
00000100
00000010
00001000
00001000
00000001
00000100
,
00000001
00001000
00000100
00000020
00000000
00000130
00010000
00001000
,
01000000
00100000
10000000
01000000
00010000
00010000
01000000
00100000
,
00001000
00010000
00000010
00000200
00000000
00000310
00001000
00000100
,
00010000
00001000
01000000
00100000
10000000
10000000
01000000
00010000
,
00001000
00000100
00000010
00002000
00000000
00003010
00000100
00000001
,
00001000
00000100
00010000
00001000
00100000
00100000
01000000
10000000
,
00010000
01000000
00001000
00020000
00000000
00030010
00000100
00000001
,
00001000
00000100
00000010
00001000
00010000
00010000
00001000
01000000
,
00100000
00010000
00100000
20000000
00000000
30010000
00100000
01000000
,
00010000
00000000
00001000
00000000
00000100
00000000
00000010
00000000
00001000
00000001
00001000
00000000
00000001
00000000
00000010
00000200
,
00000020
00000000
00000000
00000000
,
00000330
00000000
00000000
00000000
;

//---------------dance-double - M. Simmons----------------
#NOTES:
     dance-double:
     M. Simmons:
     Hard:
     8:
     0.613,0.000,0.347,0.237,0.013:
00000000
00000000
00000000
00000000
,
00000000
00000000
00000000
00000000
,
00000000
00000000
00000000
00000000
,
00000000
00000000
00000000
00000000
,
10000000
01000000
00010000
00001000
00010000
00000000
00000000
00000000
,
00010000
00000100
00000001
00000100
00001000
00000000
00000000
00000000
,
00000010
00000100
00000001
00001000
00000100
00000000
00000000
00000000
,
00010000
00001000
01000000
00100000
01000000
00100000
00000000
00000000
,
10000000
01000000
00100000
00010000
00100000
00000000
00000000
00000000
,
00001000
00010000
00000010
00000100
00000010
00000000
00000000
00000000
,
00000200
00000000
00000000
00000302
00000000
00000000
00002003
00000000
,
00000000
00003200
00000000
00000000
00010300
00000000
00011000
00000000
,
00001000
01000000
00100000
10000000
00010000
00000000
00000000
00000000
,
01000000
00001000
00010000
00000100
00000010
00000000
00000000
00000000
,
00000100
00010000
00001000
00100000
00001000
00000000
00000000
00000000
,
00010000
00001000
01000000
00100000
01000000
00010000
00000000
00000000
,
10000000
01000000
00100000
00001000
00010000
00000000
00000000
00000000
,
00000010
00000100
00000001
00001000
00000100
00000000
00000000
00000000
,
00000110
00000000
00000000
00011000
00000000
00000000
01100000
00000000
00000000
10010000
00000000
00000000
02001000
00000000
10000000
00000000
,
03010000
00000000
00100000
00001000
00000000
00010000
00000010
00000000
,
00000100
00000010
00000000
00000100
00000001
00001000
00001100
00000000
,
00000100
00000000
00010000
00001000
00000000
01000000
00010000
00000000
,
10000000
01000000
00000000
00010000
00001000
00000100
00001100
00000000
,
00000010
00000000
00001000
00000001
00000000
00000010
00000100
00000000
,
00010000
00001000
00000000
01000000
00100000
10000000
10010000
00000000
,
00010000
00000000
01000000
00001000
00000000
00100000
01000000
00000000
,
00010000
00001000
00000000
00000100
00000010
00000100
00000110
00000000
,
00000010
00000100
00001000
00000100
00000000
00000010
00001000
00000000
,
00000100
00001000
00000100
00001100
00000000
00000100
00000100
00000000
,
00010000
00001000
01000000
00100000
00000000
01000000
00010000
00000000
,
10000000
01000000
10000000
11000000
00000000
00010000
00010000
00000000
,
01000000
00001000
00100000
00010000
00000000
00100000
00001000
00000000
,
00010000
00000100
00010000
00010100
00000000
00000100
00000100
00000000
,
00000010
00000001
00001000
00000010
00000000
00001000
00000001
00000000
,
00000100
00001000
00010000
00011000
00000000
00001000
00001000
00001000
,
00010000
01000000
10000000
00010000
01000000
00100000
01000000
00001000
,
00000000
00010000
00000100
00000010
00000001
00001000
00000010
00010000
,
00000000
00001000
01000000
00100000
10000000
00010000
00100000
00001000
,
00000000
00010000
00000100
00001000
00000010
00000100
00000010
00010000
,
00000000
00001000
00100000
00010000
10000000
01000000
10000000
00010000
,
00000000
00100000
00001000
00010000
00000010
00000100
00000010
00010000
,
00000000
00001000
00010000
00000100
00010000
00001000
01000000
00100000
,
00000000
01000000
00010000
00100000
00001000
00010000
00000010
00000100
,
00000110
00000100
00000101
00000001
,
00001001
00000100
00010100
00010100
,
00001000
00101000
00010000
10010000
,
01000000
10010000
01100000
01100000
,
01000000
00010000
00101000
00001000
,
00011000
00010000
00010100
00000110
,
00000010
00001001
00000010
00010010
,
00001000
00011000
01001000
01001000
,
00001000
00010000
00000100
00000000
00010000
00001000
01000000
00000000
,
00100000
10000000
00010000
00000000
00100000
00001000
00010000
00000000
,
00000100
00000020
00000032
00000203
,
00002300
00023000
00032000
00203000
,
00310000
10000000
01000000
00000000
10000000
00010000
01000000
00000000
,
00001000
00010000
00000010
00000000
00000100
00000010
00001000
00000000
,
00000100
00020000
00032000
02003000
,
03200000
20300000
30020000
00230000
,
00301000
00010000
00000100
00000000
00001000
00000001
00000100
00000000
,
00000010
00010000
00000010
00000000
00010000
00001000
00100000
00000000
,
00010000
02000000
03002000
00023000
,
00030200
00000320
00000032
00002003
,
00003010
00000100
00000010
00000000
00010000
00001000
00100000
00000000
,
00010000
01000000
00100000
00000000
10000000
01000000
00010000
00001000
,
00010000
00000000
00010100
00000000
00000100
00000010
00000001
00001000
,
00000010
00000000
00000100
00001000
00000000
00010000
00001000
00000000
,
01000000
00100000
00000000
10000000
00010000
10000000
10010000
00000000
,
00010000
00000000
00100000
00001000
00000000
00010000
00000010
00000000
,
00000100
00000010
00000000
00001000
00000001
00000100
00000101
00000000
,
00000001
00000000
00001000
00000100
00000000
00010000
00001000
00000000
,
00100000
00010000
00000000
01000000
00010000
01000000
01010000
00000000
,
00010000
00000000
10000000
01000000
00000000
00100000
00001000
00000000
,
00010000
00000010
00000000
00000100
00000010
00000100
00000010
00000100
,
00000010
00000100
00000001
00001000
00000000
00000100
00001000
00000100
,
00000000
00010000
00001000
01000000
01100000
01000000
00010000
10000000
,
01000000
00100000
00010000
01000000
00000000
00001000
00010000
00001000
,
00000000
00010000
00000100
00000010
00000110
00000100
00001000
00000001
,
00000100
00000010
00001000
00000100
00000000
00010000
00001000
00010000
,
00000000
00001000
01000000
00100000
10100000
01000000
00010000
10000000
,
01000000
00010000
00001000
00010000
00000000
00000100
00001000
00000100
,
00000000
00000000
00000010
00000000
00000001
00000000
00001000
00000000
00000010
00001000
00000010
00000000
00000100
00000000
00000010
00000000
,
00002002
00000000
00000000
00000000
,
00003003
00000000
00000000
00000000
;

//---------------dance-double - M. Simmons----------------
#NOTES:
     dance-double:
     M. Simmons:
     Easy:
     4:
     0.308,0.000,0.051,0.186,0.000:
00000000
00000000
00000000
00000000
,
00000000
00000000
00000000
00000000
,
00000000
00000000
00000000
00000000
,
00000000
00000000
00000000
00000000
,
01000000
00010000
00100000
00000000
,
00002000
00000000
00013000
00000000
,
00010000
00000100
00001000
00000000
,
00000020
00000000
00000130
00000000
,
00000010
00001000
00000001
00000000
,
00000200
00000000
00000301
00000000
,
00001000
00000000
00000000
00000100
00000000
00000000
00010000
00000000
,
00000000
00001000
00000000
00000000
00100000
00000000
00100000
00000000
,
01000000
10000000
00010000
00000000
,
02000000
00000000
03100000
00000000
,
10000000
00010000
00100000
00000000
,
00200000
00000000
00301000
00000000
,
00010000
00000100
00001000
00000000
,
00000020
00000000
00000130
00000000
,
00011000
00000000
00000000
00000000
,
00001000
00000000
00000000
01000000
00000000
00000000
00100000
00000000
,
00000000
10000000
00000000
00000000
01000000
00000000
00100000
00000000
,
00010000
00000000
00000000
00100000
00000000
00000000
00001000
00000000
,
00000000
00010000
00000000
00000000
00000100
00000000
00000010
00000000
,
00000100
00000000
00000000
00010000
00000000
00000000
00001000
00000000
,
00000000
00100000
00000000
00000000
00001000
00000000
00010000
00000000
,
00001000
00000000
00000000
01000000
00000000
00000000
00100000
00000000
,
00000000
10000000
00000000
00000000
00010000
00000000
10000000
00000000
,
00010000
00000000
00000000
00100000
00000000
00000000
00001000
00000000
,
00000000
00010000
00000000
00000000
00000010
00000000
00000100
00000000
,
00000010
00000000
00000000
00001000
00000000
00000000
00000001
00000000
,
00000000
00000010
00000000
00000000
00000100
00000000
00001000
00000000
,
00000100
00000000
00000000
00010000
00000000
00000000
00001000
00000000
,
00000000
00100000
00000000
00000000
00010000
00000000
10000000
00000000
,
00010000
00000000
00000000
01000000
00000000
00000000
00100000
00000000
,
00000000
10000000
00000000
00000000
00100000
00000000
01000000
00000000
,
00100000
00000000
01000000
00000000
00010000
00000000
00100000
00001000
,
00000000
00000000
00100000
00000000
00001000
00000000
00010000
00000100
,
00000000
00000000
00000010
00000000
00000001
00000000
00001000
00000010
,
00000000
00000000
00000100
00000000
00000010
00000000
00010000
00001000
,
00000000
00000000
00100000
00000000
00010000
00000000
10000000
01000000
,
00000000
00000000
10000000
00000000
00010000
00000000
00100000
00001000
,
00000000
00000000
00010000
00000000
00000100
00000000
00001000
00000010
,
00000000
00000000
00000100
00000000
00000010
00000000
00001000
00000010
,
00000000
00000000
00010000
00000000
,
00001000
00000000
01000000
01100000
,
00000000
01000000
00000000
00010000
,
00000000
00100000
00001000
00101000
,
00000000
00000000
00001000
00000000
,
00010000
00000000
00000100
00001100
,
00000000
00001000
00000000
00000010
,
00000000
00000100
00000001
00001000
,
00001001
00000002
00000000
00000023
,
00000000
00000230
00000000
00002300
,
00000000
00003010
00010000
00001000
,
00100000
00010000
10000000
01000000
,
10000000
20000000
00000000
32000000
,
00000000
03200000
00000000
00320000
,
00000000
00130000
00001000
00010000
,
00000010
00000100
00000010
00001000
,
00000001
00000020
00000000
00000230
,
00000000
00020300
00000000
00032000
,
00000000
01003000
00100000
10000000
,
00010000
01000000
00010000
00100000
,
00001000
00020000
00000000
00032000
,
00000000
00023000
00000000
00032000
,
00013000
00000000
00000000
00000000
,
00001000
00000000
00000000
01000000
00000000
00000000
00100000
00000000
,
00000000
10000000
00000000
00000000
01000000
00000000
00100000
00000000
,
00010000
00000000
00000000
00100000
00000000
00000000
00001000
00000000
,
00000000
00010000
00000000
00000000
00000010
00000000
00000100
00000000
,
00000010
00000000
00000000
00001000
00000000
00000000
00000001
00000000
,
00000000
00000100
00000000
00000000
00000001
00000000
00001000
00000000
,
00000100
00000000
00000000
00010000
00000000
00000000
00001000
00000000
,
00000000
00100000
00000000
00000000
00010000
00000000
10000000
00000000
,
00100000
00000000
00000000
01000000
00000000
00000000
00001000
00000000
,
00000000
00010000
00000000
00000000
00000100
00000000
00000010
00000000
,
00000001
00000000
00000000
00001000
00000000
00000000
00000010
00000000
,
00000000
00010000
00000000
00000000
00001000
00000000
00010000
00000000
,
00001000
00000000
00000000
00100000
00000000
00000000
00010000
00000000
,
00000000
01000000
00000000
00000000
00100000
00000000
10000000
00000000
,
00100000
00000000
00000000
01000000
00000000
00000000
00001000
00000000
,
00000000
00010000
00000000
00000000
00000100
00000000
00001000
00000000
,
00001100
00000000
00000000
00000000
;

//---------------dance-double - M. Simmons----------------
#NOTES:
     dance-double:
     M. Simmons:
     Medium:
     6:
     0.517,0.000,0.491,0.186,0.008:
00000000
00000000
00000000
00000000
,
00000000
00000000
00000000
00000000
,
00000000
00000000
00000000
00000000
,
00000000
00000000
00000000
00000000
,
00001000
00000000
00010000
00000100
00001000
00000000
00000010
00000000
,
00000100
00000000
00000010
00001000
00000001
00000000
00000100
00000000
,
00000010
00000000
00010000
00001000
00010000
00000000
00001000
00000000
,
01000000
00000000
00100000
10000000
00000000
10010000
00000000
00000000
,
00010000
00000000
01000000
00010000
00100000
00000000
00001000
00000000
,
00010000
00000000
00000100
00001000
00000001
00000000
00000100
00000000
,
00000020
00000000
00000000
00020030
00000000
00000000
00032000
00000000
,
00000000
02003000
00000000
00000000
03100000
00000000
00100000
00000000
,
10000000
00000000
00010000
00100000
00010000
00000000
00100000
00000000
,
00001000
00000000
00010000
00000010
00010000
00000000
00000010
00000000
,
00000100
00000000
00001000
00010000
00001000
00000000
00100000
00000000
,
01000000
00000000
00010000
00001000
00000000
00010000
00000000
00001000
,
00001000
00000000
00010000
00000100
00010000
00000000
00000010
00000000
,
00000100
00000000
00000010
00000100
00000010
00000000
00001000
00000000
,
00001001
00000000
00000000
00000010
00000000
00000000
00000100
00000000
00000000
00000010
00000000
00000000
00000100
00000000
00000010
00000000
,
00000100
00000000
00000010
00001000
00000000
00001000
00000010
00000000
,
00000010
00001000
00000000
00001000
00000010
00000000
00010000
00000000
,
00001000
00000000
01000000
00001000
00000000
00001000
01000000
00000000
,
01000000
00001000
00000000
00001000
01000000
00000000
01000000
00000000
,
00010000
00000000
10000000
00010000
00000000
00010000
10000000
00000000
,
10000000
00010000
00000000
00010000
10000000
00000000
00100000
00000000
,
01000000
00000000
00001000
01000000
00000000
01000000
00001000
00000000
,
00001000
01000000
00000000
01000000
00001000
00000000
00001000
00000000
,
00010000
00000000
00000100
00001000
00000000
00001000
00000001
00000000
,
00000001
00001000
00000000
00001000
00000010
00000000
00010000
00000000
,
00001000
00000000
00010000
00001000
00000000
00001000
01000000
00000000
,
01000000
00100000
00000000
00100000
10000000
00000000
00010000
00000000
,
01000000
00000000
00001000
00010000
00000000
00010000
00000100
00000000
,
00000100
00000010
00000000
00000010
00000001
00000000
00001000
00000000
,
00000001
00000000
00000100
00000010
00000000
00000010
00010000
00000000
,
00010000
00001000
00000000
00001000
01000000
00000000
01000000
00000000
,
01000000
00100000
10000000
00000000
00010000
00000000
00000000
00110000
,
00000000
00100000
00001000
00000000
00010000
00000000
00000000
00010100
,
00000000
00000100
00000010
00000000
00000100
00000000
00000000
00001001
,
00000000
00000001
00000100
00000000
00000010
00000000
00000000
00001010
,
00000000
00000010
00010000
00000000
00001000
00000000
00000000
00101000
,
00000000
00001000
01000000
00000000
00100000
00000000
00000000
01100000
,
00000000
01000000
00100000
00000000
10000000
00000000
00000000
10010000
,
00000000
00010000
00100000
00000000
00001000
00000000
00000000
00101000
,
00000000
00000000
00001100
00000000
,
00110000
00000000
01001000
00011000
,
00000000
00011000
00000000
00001010
,
00000000
00011000
00110000
01001000
,
00000000
00000000
00011000
00000000
,
00000110
00000000
00001001
00010010
,
00000000
00011000
00000000
10010000
,
00000000
01100000
00110000
00101000
,
00010000
00000200
00001300
00000020
,
00000130
00000020
00001030
00000002
,
00000103
00001010
00000110
00001010
,
00000011
00000110
00000011
00000110
,
00000100
00020000
00031000
02000000
,
03100000
20000000
30010000
00200000
,
00310000
00110000
00011000
00110000
,
00011000
00001100
00011000
00001100
,
00000100
00020000
00031000
00200000
,
00310000
20000000
31000000
00020000
,
00031000
00011000
00001100
00000110
,
00000011
00000110
00001100
00011000
,
00001000
00200000
00310000
02000000
,
03001000
00020000
00030100
00000020
,
00000130
00000000
00000110
00000000
00000100
00000010
00000100
00000010
,
00000100
00000000
00010000
00000100
00000000
00000100
00010000
00000000
,
00010000
00000100
00000000
00000100
00010000
00000000
00001000
00000000
,
00011000
00000000
00001000
01000000
00000000
01000000
00010000
00000000
,
00010000
01000000
00000000
01000000
00010000
00000000
10000000
00000000
,
10010000
00000000
10000000
00100000
00000000
00100000
10000000
00000000
,
10000000
00100000
00000000
00100000
10000000
00000000
00010000
00000000
,
00110000
00000000
00100000
00001000
00000000
00001000
00100000
00000000
,
00100000
00001000
00000000
00001000
00010000
00001000
00010000
00000000
,
00011000
00000000
00010000
00000100
00000000
00000100
00000010
00000000
,
00000010
00000100
00000000
00000100
00001000
00000000
00000001
00000000
,
00001001
00000000
00000001
00000100
00000000
00000100
00000010
00000000
,
00000010
00010000
00000000
00010000
00001000
00000000
00010000
00000000
,
00011000
00000000
00001000
01000000
00000000
01000000
00100000
00000000
,
00100000
10000000
00000000
10000000
00010000
00000000
10000000
00000000
,
10010000
00000000
01000000
00010000
00000000
00010000
00100000
00000000
,
00100000
00001000
00000000
00001000
00010000
00001000
00010000
00000000
,
00022000
00000000
00000000
00000000
,
00033000
00000000
00000000
00000000
;
