#TITLE:July;
#SUBTITLE:O-Cho 8bit Remix;
#ARTIST:☺;
#TITLETRANSLIT:;
#SUBTITLETRANSLIT:;
#ARTISTTRANSLIT:;
#GENRE:Dance;
#CREDIT:Sync by HellRazoR;
#BANNER:July (O-Cho 8bit Remix)-bn.png;
#BACKGROUND:July (O-Cho 8bit Remix)-bg.png;
#LYRICSPATH:;
#CDTITLE:;
#MUSIC:July (O-Cho 8bit Remix).ogg;
#OFFSET:-0.0362;
#SAMPLESTART:22.580;
#SAMPLELENGTH:11.160;
#SELECTABLE:YES;
#DISPLAYBPM:170.000;
#BPMS:0.000=170.000;
#STOPS:;
#BGCHANGES:0.000=July (O-Cho 8bit Remix)-bg.png=1.000=0=0=1=====,
16.000=In The Groove Rebirth/174_JB_HD.mpg=1.000=0=0=1=====,
32.000=In The Groove Rebirth/217_JB_HD.mpg=1.000=0=0=1=====,
48.000=In The Groove Rebirth/824_JumpBack.mpg=1.000=0=0=1=====,
64.000=In The Groove Rebirth/1125_JumpBack.mpg=1.000=0=0=1=====,
80.000=In The Groove Rebirth/318_JB_HD.mpg=1.000=0=0=1=====,
96.000=In The Groove Rebirth/511_JB_HD.mpg=1.000=0=0=1=====,
112.000=In The Groove Rebirth/514_JB_HD.mpg=1.000=0=0=1===FadeDown==,
128.000=In The Groove Rebirth/217_JB_HD.mpg=1.000=0=0=1=====,
144.000=In The Groove Rebirth/824_JumpBack.mpg=1.000=0=0=1===FadeUp==,
160.000=In The Groove Rebirth/174_JB_HD.mpg=1.000=0=0=1=====,
176.000=In The Groove Rebirth/1125_JumpBack.mpg=1.000=0=0=1=====,
192.000=In The Groove Rebirth/514_JB_HD.mpg=0.400=0=0=1=Checkerboard1File2x2====,
208.000=In The Groove Rebirth/511_JB_HD.mpg=0.400=0=0=1=Checkerboard2File2x2=July (O-Cho 8bit Remix)-bg.png===,
224.000=In The Groove Rebirth/318_JB_HD.mpg=1.000=0=0=1=====,
240.000=In The Groove Rebirth/217_JB_HD.mpg=1.000=0=0=1=====,
256.000=In The Groove Rebirth/1125_JumpBack.mpg=1.000=0=0=1=====,
272.000=In The Groove Rebirth/824_JumpBack.mpg=1.000=0=0=1=====,
288.000=In The Groove Rebirth/174_JB_HD.mpg=1.000=0=0=1=====,
304.000=In The Groove Rebirth/514_JB_HD.mpg=1.000=0=0=1===FadeDown==,
320.000=In The Groove Rebirth/318_JB_HD.mpg=1.000=0=0=1=====,
336.000=In The Groove Rebirth/511_JB_HD.mpg=1.600=0=0=1=====,
350.000=July (O-Cho 8bit Remix)-bg.png=1.000=1=0=1===CrossFade=0^1^0^1=,
352.000=July (O-Cho 8bit Remix)-bg.png=1.000=0=0=1=====,
99999=-nosongbg-=1.000=0=0=0 // don't automatically add -songbackground-
;
#BGCHANGES2:128.000=white flash=1.000=0=0=1=====,
288.000=white flash=1.000=0=0=1=====,
;
#KEYSOUNDS:;

//---------------dance-single - M. Simmons----------------
#NOTES:
     dance-single:
     M. Simmons:
     Challenge:
     12:
     1.000,0.944,0.437,0.318,1.000:
0000
0000
0000
0000
,
0000
0000
0000
0000
,
0000
0000
0000
0000
,
0000
0000
0000
0000
,
1000
0000
0100
0000
0010
0001
0000
1000
0010
0000
0100
0001
0000
1000
0100
0000
,
0010
0000
0100
0000
1000
0010
0000
0100
0001
0000
1000
0100
0000
0010
0001
0000
,
1010
0000
0110
0000
0010
1000
0000
0100
0001
0000
0100
1000
0000
0010
0001
0000
,
0011
0000
0110
0000
0101
0000
0001
1000
0001
0000
0000
0000
1100
0000
0000
0000
,
0001
0000
0100
0010
1000
0000
0100
0010
0001
0000
0010
0100
1000
0000
0001
0100
,
0010
0000
0100
0001
1000
0000
0100
0010
0001
0010
0100
0000
1000
0010
0100
0000
,
0010
0000
1000
0100
0010
0000
0100
0010
0001
0000
0100
0010
0100
0000
0010
1000
,
0020
0000
2030
0000
3002
0000
0023
0000
2030
0000
3000
0101
0000
0001
0100
0001
,
1000
0000
0100
0010
0001
0000
0100
0010
0100
0000
0001
0010
0001
0000
0100
0001
,
0010
0000
0001
0100
0010
0000
0100
0001
0010
0001
0010
0100
1000
0001
0100
0010
,
1000
0001
1000
0010
1000
0001
1000
0001
0100
0010
0100
0001
0100
0010
0100
0000
,
0001
0000
0101
0000
1000
0000
0100
1000
0100
0000
1000
0000
0101
0000
0010
0000
,
1010
0000
0001
0100
0010
0000
1000
0100
0010
0000
0100
1000
0001
0000
0100
0010
,
1000
0000
0001
0100
0001
0000
1000
0100
0010
0001
0100
0000
0010
1000
0010
0000
,
0100
0000
0001
1000
0100
0000
1000
0010
1000
0000
0100
1000
0010
0000
0100
0010
,
0200
0000
0302
0000
2003
0000
3200
0000
0320
0000
0030
0101
0000
0001
1000
0001
,
0100
0000
0010
1000
0010
0000
0100
0001
1000
0000
0010
1000
0100
0000
1000
0010
,
0100
0000
0010
1000
0001
0000
0010
0100
1000
0000
0001
0100
0010
1000
0001
0100
,
0001
1000
0001
0100
0001
1000
0001
0010
0100
1000
0100
0010
0100
1000
0100
0000
,
0010
0000
0101
0000
0010
0000
1000
0001
1000
0000
0100
0000
0110
0000
00M0
0000
,
1001
0000
0001
0010
0000
0010
0100
0000
0100
1000
0000
1000
0002
0000
0010
0000
,
0103
0000
0010
1000
0000
1000
0001
1000
0001
0100
0001
1000
0001
0100
0001
0M00
,
0000
0000
1000
0100
0000
0100
0010
0000
0010
0001
0000
0001
2000
0000
0200
0000
,
3000
0000
0000
0020
0000
0300
0032
0000
0000
1003
0001
0100
0001
1000
0001
M000
,
0000
0000
0100
0001
0000
0001
1000
0000
1000
0100
0000
0100
0020
0000
0100
0000
,
0030
0000
0100
0000
1000
0000
0001
0100
0010
0100
0001
0100
0001
1000
0100
M000
,
0000
0000
0010
0001
0000
0001
0100
0000
0100
0010
0000
0010
2000
0000
0001
0000
,
3000
0000
0001
0000
0011
0000
0100
0000
0010
1000
0100
0010
0001
1000
001M
0100
,
0020
0000
0000
0100
0000
0000
0001
0000
000M
1000
0000
0000
0130
0000
0010
0000
,
1000
0000
0000
0100
0000
0000
0010
0000
0011
0000
0001
0000
1001
0000
1000
0000
,
1020
0000
0000
0100
0000
0000
0001
0000
000M
1000
0000
0000
0130
0000
0010
0000
,
1000
0000
0100
0000
0110
0000
0000
0000
0100
0000
1000
0000
0001
0100
0010
0100
,
0002
0000
0000
1000
0000
0000
0100
0000
0M00
0010
0000
0000
1003
0000
0001
0000
,
0010
0000
1000
0000
0010
0000
0200
0000
0000
1000
0300
0000
0M10
0000
0100
0000
,
0001
1000
0100
0010
0001
1000
0010
0100
0001
0010
0100
1000
0001
0100
0010
0000
,
0100
0001
0000
1001
0000
0000
1010
0000
0000
0000
M001
0000
M001
0000
0000
0000
,
0010
0100
1000
0010
0100
0001
0010
0101
,
1001
0000
1010
0000
1000
0000
0001
0010
0100
0000
1100
0000
0011
0000
0000
0000
,
0002
0203
2300
3020
0032
1003
0010
0100
,
0000
0000
0001
1000
0001
0000
0000
0010
0100
0000
1000
0000
0011
0000
0000
0000
,
0001
0010
0100
1000
0010
0100
0001
1100
,
1001
0000
0011
0000
1000
0000
0100
0010
0100
0000
1000
0000
0001
0000
0000
0000
,
2000
3020
0032
0203
2300
3001
0100
0110
,
0000
0000
0010
1000
0010
0000
0100
0001
0010
0000
0100
0000
1010
0000
0000
0000
,
0101
0000
0001
1000
0000
0000
0010
0000
0100
1000
0000
0000
,
0100
0000
0010
1000
0010
0100
0002
0000
1000
1000
M003
1000
,
0001
0000
0100
0010
0000
0000
0100
0000
0001
0010
0000
0000
,
0010
0000
0001
0100
0010
1000
0020
0000
0100
0100
0M00
0130
,
0001
0000
0001
1000
0000
1000
0100
0010
0001
0010
0000
0100
,
1000
0000
1000
0001
0100
0010
0200
0000
0001
0001
000M
0301
,
0100
0000
0010
1000
0000
0100
0001
0000
0100
1000
0000
0001
,
0101
0010
1000
1001
0001
0100
0101
0000
0001
1000
0000
0001
,
0010
0000
0100
1000
0100
0010
0001
0000
1000
1001
0000
0001
,
0100
0010
1000
0010
0100
0001
1000
0000
1000
0100
0000
1000
,
0010
0000
0100
0010
1000
0001
0100
0000
0011
0000
0101
0000
,
1010
0000
0001
1000
0000
0001
0010
0000
0100
0010
0000
1000
,
0010
0000
0001
0100
0010
1000
0100
0000
0010
0001
0000
1000
,
0100
0010
0001
1000
0010
0100
0101
0000
0001
1000
0000
0100
,
0010
0000
0001
1000
0001
0010
0001
0000
0001
1000
0100
1000
,
1100
0000
0010
0110
0000
0100
0101
0000
0000
1100
0000
0000
,
0001
0000
0100
0000
0010
1000
0000
0001
0010
0000
0001
0100
0000
0001
1000
0000
,
1000
0000
0001
0000
0100
0001
0000
0010
0100
0000
1000
0100
0000
0010
0001
0000
,
0001
0000
1000
0000
0100
1000
0000
0010
0100
0000
0001
0010
0000
0001
0100
0000
,
0100
0000
0010
0000
1000
0010
0000
0100
0010
0000
1000
0100
0000
0100
1000
0000
,
1001
0000
0001
0000
0100
0001
0000
0010
0100
0000
1000
0001
0000
1000
0100
0000
,
0100
0000
0010
0000
0001
0100
0000
0001
0010
0000
0001
1000
0000
0100
0010
0000
,
0010
0000
0100
0000
1000
0100
0000
0010
0100
0000
1000
0010
0000
1000
0001
0000
,
0001
0000
0100
0000
0110
0000
0010
0000
1001
0000
0000
0000
0001
0010
0100
1000
,
0100
0000
0010
0001
0000
0001
1000
0000
1000
0010
0000
0100
0001
0000
1000
0000
,
0100
0000
0010
0001
0000
0001
1000
0010
0100
0010
1000
0001
0100
0001
0010
0000
,
0000
0000
0100
1000
0000
1000
0001
0000
0001
0100
0000
0010
1000
0000
2010
0000
,
0000
0000
0010
3000
0000
0100
0000
0000
0001
1000
0100
1000
0001
0100
0010
0000
,
0000
0000
1000
0001
0000
0001
0010
0000
0010
0100
0000
1000
0010
0000
1001
0000
,
0000
0000
0001
0000
0010
0100
0000
0100
1000
0010
0100
0010
1000
0001
0010
0000
,
0100
0000
1000
0001
0100
0010
1000
0000
0001
0000
0100
0010
1000
0001
0100
0000
,
0010
0000
1000
0100
0010
0001
1000
0100
1000
0000
0000
0000
1001
0000
0000
0000
,
1001
0000
0001
0100
0010
0000
1000
0100
0010
0000
0100
1000
0001
0000
0100
0010
,
1000
0000
0001
0100
0001
0000
1000
0100
0010
0001
1000
0000
0100
0010
0100
0000
,
0010
0000
0001
1000
0010
0000
1000
0001
0100
0000
0010
1000
0001
1000
0010
0000
,
0200
0000
0320
0000
2030
0000
3200
0000
0302
0000
0003
1100
0000
1000
0001
0010
,
0001
0000
1000
0010
0100
0000
0010
1000
0001
0000
0100
0001
1000
0000
0100
0010
,
0001
0000
1000
0100
0010
0000
0100
1000
0001
0100
0010
1000
0001
1000
0100
1000
,
0010
1000
0010
0100
0010
1000
0010
0100
0001
0100
0001
1000
0001
0010
0001
0000
,
0000
0000
1100
0000
0000
0000
0010
0100
1000
00M0
0M00
M000
0000
0000
0M0M
0000
,
0101
0000
0000
0000
;

//---------------dance-single - M. Simmons----------------
#NOTES:
     dance-single:
     M. Simmons:
     Hard:
     9:
     0.672,0.665,0.270,0.350,0.465:
0000
0000
0000
0000
,
0000
0000
0000
0000
,
0000
0000
0000
0000
,
0000
0000
0000
0000
,
1000
0000
0100
0000
0010
0001
0000
0001
1000
0000
0010
0000
0100
0000
0010
0000
,
0000
1000
0010
0100
0001
1000
0100
0010
,
0000
0000
0100
0000
1000
0001
0000
0001
0010
0000
0100
0000
1000
0000
0010
0000
,
0000
0100
0110
0100
0110
0000
1001
0000
,
0002
0000
0100
0000
0000
0000
1003
0000
0200
0000
0000
0320
0000
0000
0031
0000
,
0000
1100
0100
1000
1001
0000
1001
0000
,
0001
0100
0010
1000
0010
0100
0010
1000
,
0002
0000
2003
0000
3200
0000
0320
0000
0230
0000
0000
1000
0300
0000
0000
0000
,
0001
0000
0100
0000
0010
0000
0100
0000
0002
0000
0000
0023
0000
0000
0130
0000
,
0000
1000
0001
0100
0101
0001
0001
0000
,
1000
0100
1000
0100
0010
0001
0010
0001
,
0000
0000
1001
0000
0000
0000
0001
1000
0001
0000
0000
0000
0110
0000
0000
0000
,
0120
0000
0100
0000
0000
0000
1030
0000
0100
0000
0000
0010
0000
0000
0001
0000
,
0000
1000
0000
0001
1001
0000
1100
0000
,
0001
0100
0010
0100
0001
1000
0010
0100
,
0020
0000
2030
0000
3002
0000
0023
0000
0230
0000
0000
0310
0000
0000
0000
0000
,
0001
0000
1000
0000
0100
0000
1000
0000
0020
0000
0000
0230
0000
0000
0301
0000
,
0000
1100
0000
1001
0000
0101
0001
0000
,
1000
0010
0100
0001
1000
0100
0010
0001
,
0000
0000
1001
0000
0000
0000
0001
1000
0001
0000
0000
0000
1100
0000
0000
0000
,
0010
0000
0000
0001
0000
0000
1000
0000
0000
0010
0000
0000
0110
0000
0000
0000
,
0100
0000
0000
0001
0000
0000
1000
0000
0100
0010
0100
0010
0100
0000
1000
0000
,
0000
0000
0001
0000
0000
0010
0000
0000
0100
0000
0000
1000
0000
0000
0002
0000
,
0000
0000
0100
0000
0000
0000
0013
0000
0100
1000
0100
1000
0100
0000
0010
0000
,
0000
0000
0001
0000
0000
1000
0000
0000
0010
0000
0000
1000
0000
0000
1001
0000
,
0000
0000
0001
0000
1000
0000
0100
0000
0010
0001
0010
0001
0010
0000
0100
0000
,
0000
1000
0100
0010
0000
0001
1000
0010
,
0000
0000
0100
0000
0010
0000
0100
0000
0040
0400
0000
0000
0000
0000
0000
0300
,
0030
0000
0000
1000
0000
0000
0001
0000
0000
0010
0000
0000
0100
0000
1000
0000
,
0100
0000
0000
0010
0000
0000
0001
0000
1000
0000
0010
0000
0100
0000
0010
0000
,
1000
0000
0000
0001
0000
0000
0010
0000
0000
0100
0000
0000
1000
0000
0001
0000
,
0010
0000
0100
0000
0010
0000
0000
0000
0001
0000
1000
0000
0001
1000
0001
1000
,
0001
0000
0000
0100
0000
0000
0010
0000
0000
1000
0000
0000
0100
0000
0010
0000
,
0100
0000
1000
0000
0010
0000
0200
0000
0000
0310
0000
0000
1000
0000
0001
0000
,
4000
0004
0000
0000
0000
0000
0003
0000
0040
0000
0000
0000
0000
3030
0000
0000
,
1000
0001
0000
0100
0000
0000
0001
0000
0000
0000
1000
0000
1000
0000
0000
0000
,
0001
0010
0100
0010
0001
0000
0000
1000
,
1000
0000
1000
0000
0000
0000
0001
0010
0001
0000
1000
0000
1000
0000
0000
0000
,
0010
0100
0010
1000
0001
0010
0100
0001
,
0000
0000
0100
0000
0000
0000
1000
0001
1000
0000
0010
0000
0010
0000
0000
0000
,
0100
0010
1000
0001
0010
0000
0000
0100
,
0100
0000
0100
0000
0000
0000
1000
0001
1000
0000
0010
0000
0010
0000
0000
0000
,
0100
0010
1000
0001
0010
0100
1000
0100
,
0000
0000
0010
0001
0010
0000
0001
0010
0001
0000
0010
0000
0010
0000
0000
0000
,
0100
0000
1000
0010
0000
0200
0000
0000
0302
0000
0000
1003
,
0100
0110
1001
0000
,
0010
0000
0000
1000
0000
0002
0000
0000
0023
0000
0000
0130
,
1000
1100
0011
0000
,
0001
0000
0000
1000
0000
0020
0000
0000
0230
0000
0000
0310
,
1000
1001
0011
0000
,
0100
0000
0000
1000
0000
0020
0000
0000
2030
0000
0000
3001
,
1000
0001
1000
0001
1000
0001
1000
0000
0000
0000
0000
0000
,
0010
0000
0100
0001
0000
1000
0100
0000
0010
0100
0000
0000
,
2000
0000
3020
0000
0230
0000
0310
0000
0000
0000
0000
0000
,
0001
0000
1000
0100
0000
0010
0100
0000
1000
0000
0001
0000
,
0100
0000
0010
1000
0000
0010
1000
0000
0010
2000
0000
0000
,
3001
0000
0010
0100
0000
1000
0100
0000
0010
0001
0000
0000
,
2000
0000
3002
0000
2003
0000
3001
0000
0000
0000
0000
0000
,
1000
0000
0010
0100
0000
0010
1000
0000
0001
0000
1000
0000
,
0100
0000
0010
0100
0000
0010
0200
0300
0000
1001
0000
0000
,
0010
0000
1000
0000
0000
0100
0000
0000
0010
0000
0000
0001
0000
0000
1000
0000
,
0010
0000
0100
0000
0000
0010
0000
0000
1000
0000
0000
0001
0000
0000
0010
0000
,
0100
0000
1000
0000
0000
0100
0000
0000
0010
0000
0000
0001
0000
0000
1000
0000
,
0010
0000
0100
0000
0000
0010
0000
0000
1000
0000
0000
0001
0000
0000
0010
0000
,
0100
0000
1000
0000
0000
0010
0000
0000
0100
0000
0000
0010
0000
0000
1000
0000
,
0100
0000
0010
0000
0000
0001
0000
0000
0010
0000
0000
0100
0000
0000
1000
0000
,
0001
0000
1000
0000
0000
0001
0000
0000
1000
0000
0000
0100
0000
0000
0010
0000
,
0100
0000
0010
0000
0000
0100
0000
0000
1001
0000
0000
0000
0040
0000
0000
0000
,
0130
0000
0000
0010
0000
0000
1000
0000
0000
0001
0000
0000
0110
0000
0000
0000
,
1000
0000
0000
0001
0000
0000
0100
0000
0001
1000
0001
1000
0001
0000
0010
0000
,
0000
0000
0100
0000
0000
1000
0000
0000
0010
0000
0000
0100
0000
0000
0020
0000
,
0000
0000
0100
0000
0000
0000
1030
0000
0001
1000
0001
1000
0001
0000
0010
0000
,
0000
0000
0100
0000
0000
1000
0000
0000
0001
0000
0000
0010
0000
0000
0110
0000
,
0000
0000
0010
0000
0001
0000
1000
0000
0010
0100
0010
0100
0010
0000
1000
0000
,
0000
0001
0010
0100
0000
1000
0100
0010
,
0000
0001
1000
0001
1001
0000
0010
0000
,
0100
0000
0020
0000
0000
0000
1030
0000
0200
0000
0000
0320
0000
0000
0031
0000
,
0000
1001
0000
0100
0010
0000
0010
0000
,
1000
0000
0100
0000
0000
0000
0010
0000
0001
0000
0000
1000
0000
0000
0001
0000
,
0100
0000
0010
0000
1000
0000
0010
0000
0100
0000
0000
0101
0000
0000
0000
0000
,
0001
0000
2000
0000
0000
0000
3100
0000
0020
0000
0000
0230
0000
0000
0301
0000
,
0000
0100
0000
1000
0000
0001
1000
0000
,
0001
0000
0100
0000
0010
0000
0000
0000
1000
0000
0100
0000
0020
0000
0100
0030
,
0000
0000
1001
0000
0000
0000
0001
1000
0001
0000
0000
0000
0MM0
0000
0000
0000
,
0110
0000
0000
0000
;

//---------------dance-double - M. Simmons----------------
#NOTES:
     dance-double:
     M. Simmons:
     Challenge:
     12:
     0.940,0.875,0.390,0.366,1.000:
00000000
00000000
00000000
00000000
,
00000000
00000000
00000000
00000000
,
00000000
00000000
00000000
00000000
,
00000000
00000000
00000000
00000000
,
00000100
00000000
00010000
00000000
00001000
01000000
00000000
01000000
00100000
00000000
00100000
01000000
00000000
01000000
00001000
00000000
,
00010000
00000000
00000100
00000000
00000100
00010000
00000000
00010000
00000010
00000000
00000010
00001000
00000000
00001000
00000100
00000000
,
00010000
00000000
01000000
00000000
01000000
00010000
00000000
00010000
00001000
00000000
00001000
00000100
00000000
00000100
00000010
00000000
,
00001000
00000001
00000110
00000000
00011000
00000000
01001000
00000000
,
00010000
00000000
00001000
00000000
01000000
00001000
01000000
00100000
10000000
00000000
01000000
00100000
00000000
00001000
00100000
00001000
,
00010000
00000000
00000010
00000000
00000100
00001000
00000000
00010000
00001000
00000000
01000000
00000000
00010000
01000000
00100000
00000000
,
01000000
00000000
00001000
00000000
00000100
00000000
00000010
00000000
00010000
00000000
00001000
00010000
00000100
00001000
00000010
00000000
,
00000100
00000000
00001000
00000000
00010000
00000000
01000000
00000000
00100000
00000000
00000000
00010000
01000000
00000000
01000000
00100000
,
00000000
00000000
10000000
00000000
01000000
00000000
00100000
00000000
00100000
00000000
00010000
01000000
00000000
00100000
00010000
00000000
,
00001000
00000000
00000100
00000000
00000010
00000000
00000001
00000000
00000010
00000000
00001000
00000100
00010000
00000001
00010000
00000000
,
00001000
00010000
00001000
00100000
00001000
00010000
00001000
00100000
00010000
00100000
00001000
00010000
00000010
00001000
00000002
00000000
,
00000003
00000000
00020010
00000000
00000000
00000000
00031000
01000000
00100000
00000000
00000000
00000000
11000000
00000000
00000000
00000000
,
01000000
00000000
00100000
00000000
00001000
00010000
00000100
00001000
00000001
00000000
00000100
00000010
00010000
00001000
00010000
00000000
,
00000010
00000000
00000100
00000000
00000001
00000010
00001000
00010000
00001000
01000000
00100000
00000000
10000000
00010000
10000000
00000000
,
01000000
00000000
00100000
00001000
00010000
00000000
00001000
00100000
00010000
00000000
01000000
00100000
10000000
01000000
00100000
00000000
,
00002000
00000000
00023000
00000000
00030010
00001000
00000010
00000000
00000200
00000000
00000300
00000001
00000010
00000000
00000010
00000100
,
00001000
00000000
00000100
00000000
00010000
00001000
00100000
00010000
01000000
00000000
00100000
10000000
01000000
10000000
00020000
00000000
,
00000000
00000000
00230000
00000000
00000000
00302000
00000000
00000000
00013000
00000000
00000100
00000010
00000100
00000000
00001000
00000001
,
00001000
00000010
00010000
00001000
00010000
00000100
00001000
00000100
00010000
00001000
01000000
00100000
01000000
00001000
00020000
00000000
,
00030000
00000000
00011000
00000000
00000000
00000000
00001000
10000000
00001000
00000000
00000000
00000000
00010000
00000000
00000000
00000000
,
00010010
00000000
00000000
00000020
00000000
00000000
00000230
00000000
00000000
00000301
00000000
00000000
00001000
00000000
00000100
00000000
,
00020000
00000000
00000000
00032000
00000000
00000000
02003000
00000000
03200000
00000000
00300000
00200000
00000000
00000000
01300000
00000000
,
00000000
00000000
00002000
00000000
00000000
00023000
00000000
00000000
00030200
00000000
00000000
00000320
00000000
00000000
00000230
00000300
,
00000200
00000000
00001000
00000000
00000000
00000000
00002300
00000000
00003010
00000100
00000001
00001000
00000100
00001000
00000001
00000000
,
00000000
00000000
00020000
00000000
00000000
00032000
00000000
00000000
02003000
00000000
00000000
03200000
00000000
00000000
10300000
00000000
,
00000000
10000000
01000000
00010000
00001000
00000100
00000010
00000001
,
00000000
00000000
00000010
00000000
00001000
00000100
00000000
00000000
00011000
00000000
00001000
01000000
00000000
00100000
20000000
00000000
,
00000000
00000000
30010000
00000000
00100000
01000000
00000000
01000000
10000000
00010000
00100000
01000000
00100000
00001000
00010000
00000100
,
00001000
00000000
00000010
00001000
00000000
00000000
00001100
00000000
00000000
00010100
00000000
00000000
00011000
00000000
00110000
00000000
,
01100000
00000000
00000000
11000000
00000000
00000000
10010000
00000000
00100000
00000000
01000000
00000000
00100000
00000000
01000000
00000000
,
00100000
00000000
00000000
00101000
00000000
00000000
00100010
00000000
00000000
00010001
00000000
00000000
00001100
00000000
00001010
00000000
,
00001100
00000000
00000100
00000000
00020000
00000000
00000000
00000000
00031000
00000000
01000000
00000000
00000100
00010000
00001000
01000000
,
00100000
00000000
00000000
01100000
00000000
00000000
01001000
00000000
00000000
00010100
00000000
00000000
00001100
00000000
00001001
00000000
,
00001010
00000000
00001000
00000000
00000100
00000000
00000020
00000000
00000000
00000130
00000000
00000000
00000110
00000000
00010100
00000000
,
00001000
00010000
00001000
01000000
00100000
10000000
01000000
00100000
00001000
00010000
00000010
00000100
00000001
00001000
00000100
00000000
,
00010000
00001000
00000000
02000000
00000000
00000000
00100000
00000000
03000000
00000000
10100000
00000000
10100000
00000000
00000000
00000000
,
00010000
00100000
01000000
00010000
00001000
00010000
00010000
00010000
,
00000100
00000000
00000100
00000000
00000000
00000000
00000010
00000001
00000010
00000000
00000100
00000000
00010000
00000000
00000000
00000000
,
00001000
00100000
01000000
00010000
00001000
00000100
00000001
00002000
,
00000000
00000000
00003100
00000000
00000000
00000000
00010000
00001000
00010000
00000000
00011000
00000000
01010000
00000000
00000000
00000000
,
00100000
10000000
01000000
00010000
00001000
00000100
00000100
00000100
,
00000010
00000000
00001000
00000000
00000000
00000000
00000001
00010000
00000001
00000000
00001000
00000000
00000001
00000000
00000000
00000000
,
00000010
00000100
00010000
00001000
01000000
10000000
01000000
00002000
,
00000000
00000000
00013000
00001000
00100000
00000000
01000000
10000000
00100000
00000000
01000000
00000000
00011000
00000000
00000000
00000000
,
00000200
00000000
00000310
00000001
00000000
00001001
00000000
00000000
00001100
00000000
00000000
00001000
,
00011000
01001000
20100000
00000000
,
30020000
00000000
00130000
01000000
00000000
11000000
00000000
00000000
10010000
00000000
00000000
01000000
,
00001000
00000000
00000000
00000010
00000000
00000000
00000001
00000000
00010000
00001000
00000000
10000000
,
00010000
00000000
01000000
00010000
00000000
00100000
01000000
00000000
00100000
00000100
00000000
00100000
,
00000010
00000000
01000000
00000010
00000000
01000000
00000100
00000000
00000100
00010000
00000000
00010000
,
00000001
00000000
00000001
00000010
00000000
00000010
00001000
00000000
00001000
00000010
00000000
00000010
,
00000100
00010000
00001000
01000000
00100000
01000000
00001000
00000000
00010000
00001000
00000000
00001000
,
00010000
00000000
00000100
00001000
00000100
00000010
00000100
00000000
00010000
00001000
00000000
00001000
,
01000000
00000000
00100000
00000000
10000000
00000000
01000000
00000000
01000000
00100000
00000000
00100000
,
00001000
00000000
00001000
00010000
00000001
00000100
00000010
00000000
00001000
00000000
00010000
00000000
,
00000100
00000000
00000001
00000010
00000000
00000010
00001000
00010000
00001000
01000000
00000000
00100000
,
10000000
00000000
10000000
01000000
00100000
00001000
00010000
00000000
00000100
00010000
00000000
00000000
,
00010000
00000000
00000010
00000000
00010000
00000000
00000001
00000000
00000010
00000100
00000000
00000100
,
00010000
00000000
00010000
00100000
10000000
00010000
00100000
00000000
00010000
00000000
00100000
00000000
,
00001000
00000000
00010000
00000100
00000000
00001000
00000010
00000000
00000000
00001010
00000000
00000000
,
00000001
00000000
00001000
00000000
00000100
00010000
00001000
01000000
00100000
00000000
10000000
01000000
00000000
00100000
01000000
00000000
,
00100000
00000000
00001000
00000000
00010000
00000010
00000000
00000100
00000001
00000000
00001000
00000100
00000000
00001000
00000010
00000000
,
00011000
00000000
00001000
00000000
01000000
00100000
00000000
10000000
00010000
00000000
00100000
01000000
00000000
00100000
00001000
00000000
,
00010000
00000000
00000100
00000000
00000010
00000001
00000000
00000010
00000100
00000000
00001000
00000001
00000000
00000100
00001000
00000000
,
00010000
00000000
00001000
00000000
01000000
00100000
00000000
10000000
01000000
00000000
00100000
00001000
00000000
00010000
00000100
00000000
,
00000010
00000000
00000100
00000000
00010000
00001000
00000000
00010000
00000100
00000000
00000100
01000000
00000000
01000000
00100000
00000000
,
10000000
00000000
01000000
00000000
10000000
00010000
00000000
01000000
00001000
00000000
00010000
00000100
00000000
00001000
00000001
00000000
,
00000010
00000000
00000100
00000000
00010000
00001000
00000000
00001000
00010000
00000000
00000000
00000000
00001000
01000000
00100000
10000000
,
01000000
00000000
00100000
00010000
00000000
01000000
00001000
00000000
00010000
00000100
00000000
00010000
00001000
00000000
00020000
00000000
,
00030001
00000000
00000010
00000100
00000000
00001000
00000001
00000010
00000200
00000000
00000000
00000000
00020300
00000000
00031000
00000000
,
01000000
00000000
00100000
00000000
10000000
01000000
00000000
00100000
00010000
00000000
00100000
00001000
00000000
00000000
00010000
00000000
,
00000200
00000000
00000000
00000000
00000020
00000000
00000030
00000000
00001300
00000010
00000100
00000001
00001000
00000100
00010000
00000000
,
00000000
00000000
00002000
00000000
01003000
00100000
00000000
10000000
01000000
00000000
00100000
00020000
00000000
00000000
02030000
00000000
,
03000000
00000000
00001000
00000000
00010000
00000000
00000100
00000000
00000010
00000100
00001000
00000010
00000100
00000010
00010000
00000000
,
00000000
00000000
00001000
00000000
01000000
00100000
00000000
10000000
01000000
00000000
10000000
00010000
00000000
01000000
00010000
00000000
,
00000000
00000000
00110000
00000000
00000000
00101000
00000000
00000000
00100100
00000000
00000000
00000000
00011000
00000000
00000000
00000000
,
00010000
00000000
00000100
00000000
00000010
00001000
00000000
00010000
00100000
00000000
01000000
00001000
10000000
01000000
00100000
00000000
,
00001000
00000000
00010000
00000000
00000100
00000010
00000100
00001000
00000001
00000010
00000100
00000000
00010000
00001000
01000000
00000000
,
00100000
00000000
10000000
01000000
00010000
00000000
00001000
00000100
00000010
00000000
00001000
00000001
00000010
00000100
00010000
00000000
,
00001000
00000000
01000000
00000000
00100000
10000000
00010000
00000000
01000000
00000000
00000000
00001000
01000000
00000000
00001000
00010000
,
00000100
00000000
00000010
00000000
00001000
00010000
00000000
00000001
00000100
00000000
00000010
00001000
00000100
00010000
00002000
00000000
,
00000000
00000000
02003000
00000000
00000000
03100000
00000000
00000000
10000000
00000000
01000000
10000000
00010000
01000000
00001000
00010000
,
00001000
00100000
00001000
00010000
00000010
00010000
00001000
01000000
00010000
01000000
00100000
10000000
01000000
00100000
00001000
00000000
,
00000000
00000000
00010100
00000000
00000000
00000000
00000100
00010000
00001000
00000000
00000000
00000000
00000000
00000000
00000000
00000000
,
10010000
00000000
00000000
00000000
;

//---------------dance-double - M. Simmons----------------
#NOTES:
     dance-double:
     M. Simmons:
     Hard:
     9:
     0.675,0.665,0.374,0.231,0.533:
00000000
00000000
00000000
00000000
,
00000000
00000000
00000000
00000000
,
00000000
00000000
00000000
00000000
,
00000000
00000000
00000000
00000000
,
00001000
00010000
00000000
00001000
00000000
00100000
00000000
00010000
,
00000000
10000000
00000000
00010000
00000000
01000000
00000000
00100000
,
01000000
00010000
00000000
00100000
00000000
00001000
00000000
00010000
,
00001000
00010000
00000100
00001000
00000100
00000000
00001100
00000000
,
00000100
00000000
00010000
00000000
00001000
00100000
00000000
00100000
00001000
00000000
00010000
00001000
00000000
00001000
00100000
00000000
,
00000000
00000000
00010000
00000000
10000000
00000000
00010000
00000000
00100000
01000000
00100000
00000000
00010000
10000000
00010000
00000000
,
20100000
00000000
00100000
00000000
00000000
00000000
30010000
00000000
00200000
00000000
00000000
00302000
00000000
00000000
00103000
00000000
,
01000000
00000000
00100000
00000000
01000000
00000000
00100000
00000000
01000000
00000000
00000000
10010000
00000000
00000000
00000000
00000000
,
00001000
00000000
00010000
00000000
00001000
00100000
00000000
00100000
01000000
00000000
00010000
00001000
00000000
00001000
00000100
00000000
,
00000000
00001010
00000000
00001001
00000000
00000100
00000100
00000000
,
00001010
00000000
00001100
00000000
00011000
00000000
00010010
00010000
,
00000000
01010000
00000000
00010000
10000000
00000000
00000000
00000000
,
00010000
00000000
10000000
00000000
01000000
00100000
00000000
00100000
00001000
00000000
00010000
00000010
00000000
00000010
00000100
00000000
,
00000000
00000000
00000010
00000000
00001000
00000000
00000001
00000000
00000010
00000001
00000010
00000000
00000001
00000010
00000001
00000000
,
00001002
00000000
00001000
00000000
00000000
00000000
00000103
00000000
00000002
00000000
00000000
00002003
00000000
00000000
00003100
00000000
,
00010000
00000000
00001000
00000000
01000000
00000000
00010000
00000000
10000000
00000000
00000000
10010000
00000000
00000000
00000000
00000000
,
10000000
00000000
01000000
00000000
00100000
00001000
00000000
00001000
01000000
00000000
00010000
00100000
00000000
00100000
00001000
00000000
,
00000000
00011000
00000000
00010100
00000000
00000010
00000010
00000000
,
00000101
00000000
00001010
00000000
00011000
00000000
00110000
00100000
,
00000000
01100000
00000000
10000000
10010000
00000000
11000000
00000000
,
00100000
00000000
00000000
00001000
00000000
00000000
00010000
00000000
00000000
00000010
00000000
00000000
00000100
00000000
00000000
00000000
,
00000010
00000000
00000000
00010000
00000000
00000000
00001000
00000000
00001000
00100000
00001000
00000000
01000000
00000000
00100000
00000000
,
00000000
00000000
10000000
00000000
00000000
01000000
00000000
00000000
00100000
00000000
00000000
00001000
00000000
00000000
00020000
00000000
,
00000000
00000000
00001000
00000000
00000000
00000000
00030100
00000000
00000100
00001000
00000100
00000000
00000010
00000000
00000100
00000000
,
00000000
00000000
00001000
00000000
00000000
00000001
00000000
00000000
00000100
00000000
00000000
00000010
00000000
00000000
00010010
00000000
,
00000000
00001000
00001000
01000000
00100000
00100000
10000000
00010000
,
00000000
00000000
00100000
00000000
00000000
01000000
00000000
00000000
00100000
00000000
00000000
00001000
00000000
00000000
00011000
00000000
,
00000000
00000000
00000010
00000000
00000000
00000100
00000000
00000000
00000040
00004000
00000000
00000000
00000000
00000000
00003030
00000000
,
00000000
00000000
00000000
00000001
00000000
00000000
00001000
00000000
00000000
00000100
00000000
00000000
00010000
00000000
00001000
00000000
,
01000000
00000000
00000000
00100000
00000000
00000000
10000000
00000000
01000000
00000000
00100000
00000000
00001000
00000000
00010000
00000000
,
00000100
00000000
00000000
00000010
00000000
00000000
00000100
00000000
00000000
00010000
00000000
00000000
00001000
00000000
01000000
00000000
,
00010000
10000000
00010000
00000000
00100000
01000000
00120000
00000000
,
10030000
00000000
00000000
00010000
00000000
00000000
00100000
00000000
00000000
01000000
00000000
00000000
00100000
00000000
00001000
00000000
,
00010000
00000000
00001000
00000000
00010000
00000000
00000100
00000000
00000000
00001000
00000000
00000000
00000100
00000000
00000010
00000000
,
00000004
00004000
00000000
00000000
00000000
00000000
00000000
00000000
00000000
00000000
00000000
00000000
00000000
00000000
00003003
00000000
,
00000001
00000010
00000000
00000100
00000000
00000000
00001100
00000000
00000000
00000000
00000100
00000000
00000100
00000000
00000000
00000000
,
00000100
00001000
00000100
00010000
00001000
00000000
00000000
01000000
,
00100000
00000000
01000000
00000000
00000000
00000000
00010000
10000000
00010000
00000000
00100000
00000000
00100000
00000000
00000000
00000000
,
01000000
00100000
01000000
00100000
00001000
00010000
00001000
00010000
,
00000000
00010010
00000000
00000000
00000010
00000010
00000100
00000000
,
00000001
00000100
00000001
00001000
00000100
00000000
00000000
00010000
,
00001000
00000000
00010000
00000000
00000000
00000000
00001000
00010000
00001000
00000000
00100000
00000000
00100000
00000000
00000000
00000000
,
00010000
01000000
00100000
01000000
00010000
01000000
00100000
01000000
,
00000000
00000000
00010000
10000000
00010000
00000000
10000000
00010000
10000000
00000000
01000000
00000000
01000000
00000000
00000000
00000000
,
10000000
00000000
01000000
00100000
00000000
00000000
00100000
00000000
00001000
00100000
00000000
00000000
,
00100000
00000000
00010000
00100000
00000000
00010000
00200000
00000000
00000000
00000000
00000000
00000000
,
00301000
00000000
00010000
00001000
00000000
00000000
00001000
00000000
00001000
00000100
00000000
00000000
,
00000010
00000000
00000100
00000010
00000000
00000100
00000020
00000000
00000000
00000000
00000000
00000000
,
00000130
00000000
00000100
00000001
00000000
00000001
00001000
00000000
00001000
00000100
00000000
00000100
,
00010000
00000000
00010000
00001000
00000000
00001000
00100000
00000000
00100000
00020000
00000000
00000000
,
10030000
00000000
00010000
00100000
00000000
00100000
00001000
00000000
00001000
00010000
00000000
00010000
,
00000100
00010000
00000100
00010000
00001000
00010000
00001000
00000000
00000000
01000100
00000000
00000000
,
00001000
00000000
00010000
00001000
00000000
00001000
01000000
00000000
01000000
00100000
00000000
00100000
,
10000000
00000000
10000000
01000000
00000000
01000000
00010000
00000000
00000000
00000000
00000000
00000000
,
00010000
00000000
00001000
00000100
00000000
00000100
00000010
00000000
00000110
00000000
00001001
00000000
,
00000110
00000000
00000010
00000100
00000000
00000010
00000100
00000000
00000010
00010000
00000000
00000000
,
00001000
00000000
01000000
00001000
00000000
00001000
01000000
00000000
01000000
00100000
00000000
00100000
,
10100000
00000000
01010000
00000000
10010000
00000000
01010000
00000000
00000000
00000000
00000000
00000000
,
00001000
00000000
00010000
00000100
00000000
00000100
00000010
00000000
00000020
00000000
00000032
00000000
,
00001003
00000000
00000010
00010000
00000000
00000010
00010000
00000000
00000000
00001100
00000000
00000000
,
00000100
00000000
00001000
00000000
00000000
00000010
00000000
00000000
00010000
00000000
00000000
00001000
00000000
00000000
01000000
00000000
,
00000000
00000000
00100000
00000000
00000000
10000000
00000000
00000000
00010000
00000000
00000000
00100000
00000000
00000000
00001000
00000000
,
00011000
00000000
00010000
00000000
00000000
00000100
00000000
00000000
00000010
00000000
00000000
00000001
00000000
00000000
00001000
00000000
,
00000000
00000000
00000010
00000000
00000000
00010000
00000000
00000000
00001000
00000000
00000000
01000000
00000000
00000000
00100000
00000000
,
10100000
00000000
10000000
00000000
00000000
00010000
00000000
00000000
00100000
00000000
00000000
00001000
00000000
00000000
00010000
00000000
,
00000000
00000000
00000100
00000000
00000000
00000010
00000000
00000000
00000100
00000000
00000000
00010000
00000000
00000000
00001000
00000000
,
00020000
00031000
00000000
00001000
02000000
03100000
00000000
00100000
,
20000000
30010000
01000000
00010000
01000000
00000000
20020000
30000000
,
10030000
00000000
00000000
00010000
00000000
00000000
00100000
00000000
00000000
01000000
00000000
00000000
00020000
00000000
00000000
00000000
,
00031000
00000000
00000000
00000100
00000000
00000000
00000010
00000000
00001000
00000010
00001000
00000000
00000010
00000000
00001000
00000000
,
00000000
00000000
00000100
00000000
00000000
00010000
00000000
00000000
00001000
00000000
00000000
01000000
00000000
00000000
00200000
00000000
,
00000000
00000000
01000000
00000000
00000000
00000000
10300000
00000000
10000000
00010000
10000000
00000000
00010000
00000000
00100000
00000000
,
00000000
00000000
00001000
00000000
00000000
00010000
00000000
00000000
00000100
00000000
00000000
00010000
00000000
00000000
00010100
00000000
,
00000000
00001000
01000000
00001000
00010000
00001000
00010000
00000100
,
00000000
00000000
00000100
00000000
00000000
00000010
00000000
00000000
00000001
00000000
00000000
00001000
00000000
00000000
00000020
00000000
,
00000000
00000000
00010030
00000000
00000000
00001000
00000000
00000000
00011000
00000000
00000000
00000000
00000100
00000000
00000000
00000000
,
00010200
00000000
00010000
00000000
00000000
00000000
00010300
00000000
00000200
00000000
00000000
00020300
00000000
00000000
00031000
00000000
,
00000000
02000000
00000000
03010000
01010000
00000000
01100000
00000000
,
10200000
00000000
10000000
00000000
00000000
00000000
01300000
00000000
00010000
00000000
00000000
00100000
00000000
00000000
00001000
00000000
,
00010000
00000000
00000100
00000000
00010000
00000000
00001000
00000000
00020000
00000000
00000000
00030010
00000000
00000000
00000000
00000000
,
00000001
00000000
00001000
00000000
00000100
00000010
00000000
00000010
00000001
00000000
00000100
00000010
00000000
00000010
00001000
00000000
,
00000000
00000000
00000200
00000000
00000000
00000000
00020300
00000000
00000000
00000000
00031000
00000000
00010000
00001000
00100000
00000000
,
00010000
00000000
01000000
00100000
00000000
00000000
01000000
00000000
00010000
00000000
01000000
00010000
00000000
00000000
01000000
00000000
,
00000000
00001000
00000000
00011000
00010100
00000000
00000000
00000000
,
11000000
00000000
00000000
00000000
;

//---------------dance-single - M. Simmons----------------
#NOTES:
     dance-single:
     M. Simmons:
     Beginner:
     1:
     0.091,0.140,0.016,0.000,0.000:
0000
0000
0000
0000
,
0000
0000
0000
0000
,
0000
0000
0000
0000
,
0000
0000
0000
0000
,
1000
0000
0000
0000
,
0000
0000
0000
0000
,
0001
0000
0000
0000
,
0100
0000
0000
0000
,
0010
0000
0000
0000
,
1000
0000
0000
0000
,
0001
0000
0000
0000
,
0100
0000
0000
0000
,
0001
0000
0000
0000
,
1000
0000
0000
0000
,
0100
0000
0000
0000
,
0010
0000
0000
0000
,
0001
0000
0000
0000
,
1000
0000
0000
0000
,
0010
0000
0000
0000
,
0100
0000
0000
0000
,
0010
0000
0000
0000
,
1000
0000
0000
0000
,
0001
0000
0000
0000
,
0010
0000
0000
0110
,
0000
0000
0000
0000
,
1000
0000
0000
0000
,
0001
0000
0000
0000
,
0100
0000
0000
0000
,
0001
0000
0000
0000
,
1000
0000
0000
0000
,
0100
0000
0000
0000
,
0010
0000
0000
0000
,
0001
0000
0000
0000
,
1000
0000
0000
0000
,
0010
0000
0000
0000
,
0100
0000
0000
0000
,
0010
0000
0000
0000
,
1000
0000
0000
0000
,
0001
0000
0000
0000
,
0000
0000
0000
0000
,
0001
0000
0000
0000
,
1000
0000
0000
0000
,
0100
0000
0000
0000
,
0010
0000
0000
0000
,
0001
0000
0000
0000
,
0010
0000
0000
0000
,
0100
0000
0000
0000
,
0000
0000
0000
0000
,
1000
0000
0000
0000
,
0100
0000
0000
0000
,
0010
0000
0000
0000
,
0100
0000
0000
0000
,
1000
0000
0000
0000
,
0001
0000
0000
0000
,
0100
0000
0000
0000
,
0010
0000
0000
0000
,
0100
0000
0000
0000
,
0001
0000
0000
0000
,
1000
0000
0000
0000
,
0100
0000
0000
0000
,
1000
0000
0000
0000
,
0001
0000
0000
0000
,
0010
0000
0000
0000
,
0100
0000
0000
0000
,
0010
0000
0000
0000
,
0000
0000
0000
0000
,
0001
0000
0000
0000
,
0000
0000
0000
0000
,
0001
0000
0000
0000
,
1000
0000
0000
0000
,
0100
0000
0000
0000
,
0010
0000
0000
0000
,
0001
0000
0000
0000
,
0010
0000
0000
0000
,
0100
0000
0000
0000
,
1000
0000
0000
0000
,
0001
0000
0000
0000
,
0100
0000
0000
0000
,
0001
0000
0000
0000
,
0000
0000
0000
0000
,
0001
0000
0000
0000
,
1000
0000
0000
0000
,
0100
0000
0000
0000
,
0010
0000
0000
0000
,
0100
0000
0000
0000
,
1000
0000
0000
0000
,
0001
0000
0000
0000
,
0000
0000
0000
0000
,
1001
0000
0000
0000
;

//---------------dance-single - M. Simmons----------------
#NOTES:
     dance-single:
     M. Simmons:
     Easy:
     4:
     0.348,0.385,0.270,0.143,0.000:
0000
0000
0000
0000
,
0000
0000
0000
0000
,
0000
0000
0000
0000
,
0000
0000
0000
0000
,
1000
0001
0100
0010
,
0100
0001
1000
0100
,
0010
0001
1000
0001
,
0100
0010
0110
0000
,
0010
0000
1000
0000
,
0001
0000
0000
0000
1000
0000
1000
0100
,
1000
0000
0001
0000
,
0010
0100
0010
0110
,
0100
0000
1000
0000
,
0001
0000
0000
0000
0100
0000
0100
0010
,
0100
0000
0001
0000
,
1000
1000
1001
0000
,
0001
0000
0010
0000
,
0001
0000
0000
0000
1000
0000
1000
0001
,
1000
0000
0010
0000
,
0100
0000
0001
0011
,
0010
0000
0100
0000
,
1000
0000
0000
0000
0001
0000
0001
0100
,
0001
0000
1000
0000
,
0100
0010
0110
0000
,
0200
0000
0000
1300
,
0002
0000
0013
0010
,
0200
0000
0000
0000
0000
0000
0000
0010
,
0300
0000
0000
0000
0001
1000
0001
0000
,
2000
0000
0000
0000
0000
0000
0000
3001
,
0000
0200
0000
0000
0310
0000
0010
0000
,
1000
0001
1001
1000
,
0010
0020
0200
0000
,
0330
0001
1000
0100
,
1000
0001
1001
1001
,
1001
0001
0100
0010
,
1000
0100
0110
0110
,
0110
0100
1000
0001
,
0100
0010
0100
1001
,
0001
0010
0100
1000
,
0001
0010
0100
0110
,
0200
0000
1300
0000
,
1001
0000
0002
0013
,
0100
0000
1000
0000
0100
0000
0010
0001
,
0000
0000
1001
1001
,
0010
1000
0100
0010
,
0001
0000
1001
0000
,
0001
0100
0010
1000
,
2002
0000
0000
3003
,
0001
0010
0000
0100
,
1000
0010
0000
0100
,
0010
1000
0000
0001
,
1000
0001
1001
0000
,
0010
1000
0100
0010
,
0100
1000
0110
0000
,
0010
1000
0001
0100
,
2002
0000
0000
3003
,
0001
1000
0000
0100
,
0000
0010
0010
0000
,
0010
0001
0000
1000
,
0000
0010
0100
0110
,
0110
0100
0000
0001
,
0000
1000
0001
0000
,
1000
0100
0000
0010
,
0000
0100
0110
0000
,
0100
0000
1000
0000
,
0010
0000
0100
0110
,
0100
0000
0001
0000
,
1000
0000
0000
0000
0100
0000
0100
0010
,
0100
0000
0010
0000
,
0001
0000
1000
1001
,
1000
0000
0001
0000
,
1000
0001
1000
0000
,
0020
0000
0000
0130
,
0002
0000
0000
0000
1000
0000
0000
1003
,
0000
0020
0000
0000
0000
0000
0000
0130
,
0000
0000
0000
0000
1001
0000
0000
0001
,
0000
2000
0000
0000
0000
0000
0000
3100
,
0000
0010
0000
0000
0002
0000
0000
1003
,
0000
0010
0100
0001
,
1000
0100
0010
0000
,
0100
1000
0001
0100
,
0010
1000
1001
1001
,
0001
0010
0100
1000
,
0010
0100
0010
0110
,
0100
0001
1000
0100
,
0010
0001
1001
1001
,
1000
0010
0100
0001
,
1000
0100
0010
0000
,
0110
0000
0000
0000
;

//---------------dance-single - M. Simmons----------------
#NOTES:
     dance-single:
     M. Simmons:
     Medium:
     6:
     0.525,0.560,0.310,0.231,0.091:
0000
0000
0000
0000
,
0000
0000
0000
0000
,
0000
0000
0000
0000
,
0000
0000
0000
0000
,
0001
0010
0000
0100
0000
1000
0000
0001
,
0000
0100
0000
0010
0000
1000
0000
0001
,
0010
0100
0000
1000
0000
0001
0000
0100
,
0000
0010
0100
0010
0100
0000
1001
0000
,
0001
1000
0000
1000
0010
0000
0100
0000
,
0001
0000
0010
0000
0100
1000
0100
0000
,
0010
0001
0000
0001
1000
0000
0010
0000
,
0100
0001
1000
0000
1001
0000
0110
0000
,
0100
1000
0000
0001
0100
0000
0010
0000
,
1000
0000
0010
0000
0100
0001
0100
0000
,
0010
1000
0010
0000
0100
0001
0100
0000
,
0001
1000
0001
1000
0001
0000
1001
0000
,
1000
0100
0000
0010
0001
0000
1000
0000
,
0010
0000
0100
0000
0010
1000
0010
0000
,
0100
0001
0000
0001
1000
0000
0100
0000
,
0010
0100
0010
0000
0110
0000
1001
0000
,
0001
0100
0000
0010
1000
0000
0001
0000
,
0100
0000
0001
0000
1000
0100
0010
0000
,
0100
1000
0100
0000
0010
0100
0010
0000
,
0001
1000
0001
1000
0001
0000
1001
0000
,
0002
0010
0000
1000
0000
0013
0000
0001
,
2000
0100
0000
0010
0000
3001
0000
0001
,
0020
0100
0000
1000
0000
0130
0000
0010
,
0002
1000
0000
0100
0000
0013
0001
1000
,
2000
0100
0000
0010
0000
3001
0000
1000
,
0200
0010
0000
0001
0000
0310
0000
0010
,
0002
1000
0000
0100
0000
0013
0000
0001
,
1000
0100
1000
0004
4000
0000
0000
0000
,
3003
0000
0000
0001
0000
0000
1000
0000
0000
0100
0000
0000
0010
0000
0100
0000
,
0010
0000
0000
0100
0000
0000
0010
0000
0100
0000
0000
0000
1001
0000
0000
0000
,
0001
0000
0000
0100
0000
0000
0010
0000
0000
0100
0000
0000
0001
0000
1000
0000
,
0001
1001
0110
1100
,
0010
0000
0000
0001
0000
0000
0010
0000
0000
0100
0000
0000
1000
0000
0001
0000
,
1000
0000
0000
0010
0000
0000
0100
0000
0000
0010
0000
0000
1000
0000
0004
0000
,
0040
0000
0000
0033
,
0002
0000
0000
0010
0000
0100
0103
0000
,
0010
1000
0010
0000
0110
0000
0000
0002
,
0000
0003
0000
2200
3300
0011
0000
1010
,
0200
0320
2030
3002
,
0013
0100
0000
0100
0010
0000
0110
0000
,
0100
1000
0100
0000
0011
0000
0000
0001
,
1000
0001
0000
0022
0033
0110
0000
1001
,
0002
0203
0320
2030
,
3001
0020
0030
0100
0020
0030
1001
0000
,
0001
1000
0100
1000
,
1010
0110
0101
0000
,
0001
1000
0100
0010
,
0110
1001
0110
0000
,
0010
1000
0001
0100
,
0001
0000
0000
1000
0000
0000
0100
0000
0010
0001
0000
0010
,
0001
1000
0010
0100
,
2002
0000
0000
3003
,
0001
1000
0100
0010
,
0100
0000
1000
0000
0001
0000
1000
0000
0000
0000
0000
0000
,
0010
0100
0010
1000
,
1001
0101
0011
0010
,
0100
1000
0001
0100
,
0010
0000
1000
0000
0100
0000
0010
0000
0000
0000
0000
0000
,
0100
1000
0001
0010
,
2000
0001
3010
0000
,
0001
1000
0000
0100
0000
0010
0000
0001
,
0000
1000
0000
0010
0000
0100
0000
0010
,
1000
0010
0000
0100
0000
0001
0000
1000
,
0000
0100
0000
0010
0000
0100
1000
0100
,
1000
0100
0000
0010
0000
0001
0000
1000
,
0000
0010
0000
0100
0000
0010
0000
1000
,
0010
1000
0000
0001
0100
0001
0000
1000
,
0001
0010
0100
1000
0100
0000
0012
0000
,
1003
0000
0000
0010
0000
0000
0100
0000
0000
0010
0000
0000
1000
0000
0000
0000
,
0001
0000
0000
0010
0000
0000
0100
0000
0010
0000
0000
0000
0110
0000
0000
0000
,
1001
0000
0001
0000
0000
1000
0000
0000
0010
0000
0000
0100
0000
0000
0020
0000
,
0000
0000
1000
0000
0400
0000
0000
0330
,
0000
0000
0001
0000
0000
1000
0000
0000
0100
0000
0000
1000
0000
0000
0001
0000
,
0000
0000
0100
0000
0000
0010
0000
0000
2000
0000
0000
0000
0000
0000
3100
0000
,
0000
0010
0000
0001
0000
1000
0000
0010
,
0000
1000
0100
1000
0100
0000
0110
0000
,
0100
1000
0000
1000
0100
0000
0010
0000
,
0001
1000
1010
0101
,
0001
0000
1000
0000
0100
1000
0100
0000
,
0010
0100
0010
0100
0010
0000
0110
0000
,
0100
1000
0001
0100
,
0010
0000
0100
0000
0001
0100
0001
0000
,
1000
0001
1000
0000
0010
0100
0010
0000
,
1000
0001
0100
0001
1000
0000
0000
0000
,
1001
0000
0000
0000
;

//---------------dance-double - M. Simmons----------------
#NOTES:
     dance-double:
     M. Simmons:
     Easy:
     3:
     0.286,0.350,0.151,0.215,0.000:
00000000
00000000
00000000
00000000
,
00000000
00000000
00000000
00000000
,
00000000
00000000
00000000
00000000
,
00000000
00000000
00000000
00000000
,
00001000
00000000
01000000
00000000
,
00100000
00000000
10000000
00000000
,
00010000
00000000
00100000
00000000
,
00001000
00100000
00001000
00000000
,
00010000
00000000
00000100
00000000
,
00001000
00000000
00000100
00000100
,
00000100
00000000
00000010
00000000
,
00000001
00000001
00000000
00001000
,
00001000
00000000
00000010
00000000
,
00010000
00000000
00001000
00001000
,
00001000
00000000
00000000
00000000
01000000
00000000
00000000
01100000
,
00000000
00000000
01000000
00000000
,
00010000
00000000
00100000
00000000
,
00001000
00000000
00010000
00010000
,
00010000
00000000
00000100
00000000
,
00000010
00000100
00000000
00000100
,
00000010
00000000
00000001
00000000
,
00001000
00000000
00000010
00000010
,
00000010
00000000
00010000
00000000
,
00001000
00100000
00101000
00000000
,
00002000
00000000
00000000
00000000
,
02003000
00000000
00000000
00000000
,
03200000
00000000
00000000
00000000
,
20300000
00000000
00000000
00000000
,
30020000
00000000
00000000
00000000
,
00230000
00000000
00000000
00000000
,
02300000
00000000
00000000
00000000
,
03100000
00000000
00101000
00000000
,
00001000
00000000
00010000
00000000
,
00000100
00000000
00000010
00000100
,
00000010
00000000
00000001
00000000
,
00001000
00000000
00000020
00000000
,
00010030
00000000
00001000
00000000
,
01000000
00000000
00100000
00000000
,
10000000
00010000
10000000
00010000
,
00200000
00000000
00000000
01000000
00300000
01000000
01000000
00000000
,
20000000
00000000
30010000
00000000
,
00110000
00000000
00100000
00001000
,
00100000
00001000
00010000
00000010
,
00000100
00000010
00001000
00000001
,
00002000
00000000
00003100
00000000
,
00010100
00000000
00000100
00010000
,
00001000
01000000
00100000
10000000
,
20020000
00000000
00000000
30030000
,
00100000
00000000
00001000
00000000
,
00010000
00001000
00010000
00000000
,
00000100
00000000
00000010
00000000
,
00000100
00000010
00000200
00000000
,
00001300
00000001
00000100
00000010
,
00010000
00001000
00020000
00000000
,
00031000
01000000
00100000
01000000
,
00002000
00000000
00000000
00000000
,
00013000
00000100
00000010
00000001
,
00002000
00000000
00003010
00000000
,
00000010
00010000
00001000
01000000
,
00020000
00100000
10030000
00000000
,
00010000
00100000
00001000
00010000
,
00000200
00000010
00001300
00000000
,
00000100
00000010
00000001
00001000
,
00001001
00000000
00000110
00000000
,
00000001
00000000
00001000
00000000
,
00000100
00000000
00010000
00000000
,
00011000
00000000
00001000
00000000
,
01000000
00000000
00100000
10000000
,
10100000
00000000
00100000
00000000
,
01000000
00000000
00010000
00000000
,
00110000
00000000
00101000
00000000
,
00000000
00001000
00010000
00000000
,
00020000
00000000
00000000
00000000
,
00032000
00000000
00000000
00000000
,
00023000
00000000
00000000
00000000
,
00030020
00000000
00000000
00000000
,
00000230
00000000
00000000
00000000
,
00000302
00000000
00000000
00000000
,
00002003
00000000
00000000
00000000
,
00003200
00000000
00000000
00000000
,
00010300
00001000
00100000
00010000
,
10000000
00100000
01100000
01100000
,
01000000
00001000
00010000
00000100
,
00000010
00000100
00000110
00000110
,
00000100
00001000
00000001
00001000
,
00000100
00010000
00011000
00011000
,
00001000
01000000
00100000
01000000
,
00010000
10000000
01000000
00000000
,
00110000
00000000
00000000
00000000
;

//---------------dance-double - M. Simmons----------------
#NOTES:
     dance-double:
     M. Simmons:
     Medium:
     8:
     0.559,0.560,0.207,0.159,0.310:
00000000
00000000
00000000
00000000
,
00000000
00000000
00000000
00000000
,
00000000
00000000
00000000
00000000
,
00000000
00000000
00000000
00000000
,
00001000
00010000
00000000
00001000
00000000
00010000
00000000
00000100
,
00000000
00010000
00000000
00000100
00000000
00000010
00000000
00000100
,
00000000
00000010
00000000
00000001
00000000
00001000
00000000
00000010
,
00000100
00000010
00001000
00000010
00001000
00000000
00001010
00000000
,
00000010
00010000
00001000
01000000
,
00100000
00000000
10000000
00000000
00010000
00100000
01000000
10000000
,
01000000
00100000
00001000
00010000
,
00000010
00000100
00000010
00001000
00000001
00000000
00001001
00000000
,
00000001
00001000
00000100
00010000
,
00001000
00000000
01000000
00000000
00100000
10000000
01000000
00100000
,
00010000
00100000
00001000
00010000
,
00000010
00000100
00000110
00000000
,
00000001
00001000
00000100
00010000
,
00001000
00000000
00100000
00000000
00010000
00100000
00001000
00010000
,
00000100
00001000
00000010
00000100
,
00000010
00010000
00001000
00100000
00010000
00000000
00110000
00000000
,
00010000
00100000
01000000
10000000
,
00100000
00000000
01000000
00000000
00010000
10000000
01000000
10000000
,
00010000
01000000
00010000
00100000
,
00001000
00100000
00001000
00000000
00101000
00000000
00000000
00000000
,
00002000
00000000
00000000
00010000
00000000
00000000
00010000
00000000
00000000
00010000
00000000
00000000
00013000
00000000
00000000
00000000
,
00020000
00000000
00000000
00001000
00000000
00000000
00001000
00000000
00001000
00000000
00000000
00001000
00000000
00000000
00031000
00000000
,
00000000
00000000
00002000
00000000
00000000
01000000
00000000
00000000
01000000
00000000
00000000
01000000
00000000
00000000
01003000
00000000
,
00000000
00000000
00000000
00000000
00000000
00000000
00000000
00000000
00001000
00010000
00001000
00000000
00000000
00000000
00011000
00000000
,
00000000
00000000
00000200
00000000
00000000
00000010
00000000
00000000
00000010
00000000
00000000
00000010
00000000
00000000
00000310
00000000
,
00000000
00000000
00000002
00000000
00000000
00001000
00000000
00000000
00001000
00000000
00001000
00000000
00000000
00000000
00001003
00000000
,
00000000
00000100
00000000
00010100
00000000
00001000
00000000
00101000
,
00000000
00000000
00001000
00000000
00000000
00000000
01000000
00000000
00100000
10000000
00100000
10000000
00100000
10000000
00100000
10000000
,
00100000
00000000
00000000
01000000
00000000
00000000
00010000
00000000
00000000
00100000
00000000
00000000
00001000
00000000
00010000
00000000
,
00001000
00000000
00000000
00010000
00000000
00000000
00000100
00000000
00010000
00000000
00000100
00000000
00010000
00000000
00000100
00000000
,
00010000
00000000
00000000
00001000
00000000
00000000
01000000
00000000
00000000
00100000
00000000
00000000
10000000
00000000
00010000
00000000
,
10000000
00000000
00010000
00000000
10000000
00000000
00000000
00000000
00010000
00000000
00100000
00000000
00001000
00100000
00001000
00100000
,
00001000
00000000
00000000
00010000
00000000
00000000
00000100
00000000
00000000
00000010
00000000
00000000
00000100
00000000
00001000
00000000
,
00000100
00000010
00000001
00001000
00000000
00000010
00001000
00000040
,
00004000
00000000
00000000
00003030
,
00001020
00000000
00000000
00001000
00000030
00000000
00001000
00000000
00000000
00000000
00000001
00000000
00000001
00000000
00000000
00000000
,
00010000
00001000
00101000
00000000
,
00020000
00000000
00000000
00000000
00000000
00000000
00030000
10000000
00010000
00000000
10000000
00000000
10010000
00000000
00000000
00000000
,
00010000
00100000
00001000
00100000
00010000
00100000
00001000
00010000
,
00000000
00010100
00000000
00000000
00000000
00000100
00000100
00000000
,
00000010
00000001
00001001
00000000
,
00000020
00000000
00000000
00000000
00000000
00000000
00000000
00010030
00001000
00000000
00010000
00000000
00000100
00000000
00000000
00000000
,
00010000
00001000
00010000
00000100
00010000
00001000
00010000
00000100
,
00000000
00010000
00000000
00001000
00001000
00001000
00001000
00000000
,
01000000
00100000
10000000
00010000
,
00100000
00000000
01000000
00100000
00000000
01000000
00200000
00000000
00000000
00000000
00000000
00000000
,
00310000
00100000
00001000
00010000
,
00000010
00000000
00000100
00000001
00000000
00000100
00000002
00000000
00000000
00000000
00000000
00000000
,
00001003
00000000
00001000
00000100
00000000
00000100
00010000
00000000
00010000
00001000
00000000
00001000
,
00100000
00000000
00100000
00010000
00000000
00010000
20000000
00000000
00000000
00000000
00000000
00000000
,
30100000
00000000
00100000
01000000
00000000
01000000
00001000
00000000
00001000
00010000
00000000
00010000
,
00000100
00010000
00000100
00010000
00000100
00010000
00000100
00000000
00000000
00000000
00000000
00000000
,
00000100
00000000
00000100
00000010
00000000
00000010
00000001
00000000
00000001
00001000
00000000
00001000
,
00000010
00000000
00001000
00000000
00000100
00000000
00000010
00000000
00000000
00001001
00000000
00000000
,
00000001
00000000
00000001
00000100
00000000
00000100
00001000
00000000
00001000
00000000
00010000
00000000
,
00001000
00000000
01000000
00010000
00000000
10000000
00020000
00000000
00000000
00100000
00000000
00000000
,
01030000
00000000
01000000
00001000
00000000
00001000
00010000
00000000
00010000
00000100
00000000
00000100
,
00000010
00000000
00000001
00000000
00001000
00000000
00001200
00000000
00000000
00000000
00000000
00000000
,
00010300
00000000
00010000
00001000
00000000
00001000
01000000
00000000
01000000
00000000
10000000
00000000
,
01000000
00000000
01000000
00010000
00000000
00010000
10010000
00000000
00000000
10000000
00000000
00000000
,
00010000
00100000
00000000
00001000
00000000
00010000
00000000
00000010
,
00000000
00000100
00000000
00000010
00000000
00001000
00000100
00001000
,
00000100
00010000
00000000
00001000
00000000
01000000
00000000
00100000
,
00000000
10000000
00000000
00010000
00000000
00100000
00010000
00100000
,
00010000
00100000
00000000
00001000
00000000
00010000
00000000
00000010
,
00000000
00000100
00000000
00000010
00000000
00001000
00000001
00001000
,
00000001
00001000
00000000
00000010
00001000
00000010
00000000
00010000
,
00001000
00011000
00100020
00000000
,
00002030
00000000
00000000
00000100
00000000
00000000
00000100
00000000
00000000
00000100
00000000
00000000
00003100
00000000
00000000
00000000
,
00000200
00000000
00000000
00010000
00000000
00000000
00010000
00000000
00010000
00000000
00000000
00010000
00000000
00000000
00010300
00000000
,
00000000
00000000
00020000
00000000
00000000
00001000
00000000
00000000
00001000
00000000
00000000
00001000
00000000
00000000
00031000
00000000
,
00000000
00000000
00000000
00000000
00000000
00000000
00000000
00000000
00100000
00010000
00100000
00000000
00010000
00000000
00110000
00000000
,
00000000
00000000
02000000
00000000
00000000
10000000
00000000
00000000
10000000
00000000
00000000
10000000
00000000
00000000
13000000
00000000
,
00000000
00000000
00020000
00000000
00000000
00100000
00000000
00000000
00100000
00000000
00100000
00000000
00000000
00000000
00130000
00000000
,
00000000
00001000
00000000
00011000
00000000
00010000
00000000
00010010
,
00000000
00001000
00000001
00001000
00000100
00000000
00001100
00000000
,
00001000
00000010
00000000
00000100
00000010
00001000
00000000
00001100
,
00000000
00000100
00000000
00010000
00001000
00000000
00101000
00000000
,
00010000
01000000
00000000
00100000
10000000
00010000
00000000
10000000
,
00010000
10000000
00010000
10000000
00010000
00000000
00110000
00000000
,
00100000
00001000
00000000
00001000
00010000
00000100
00000000
00000100
,
00000020
00000000
00000100
00000000
00001000
00000000
00000130
00000100
,
00010000
00000000
00010000
00001000
00010000
00000000
00001000
01000000
,
00100000
01000000
00010000
10000000
01000000
00000000
00000000
00000000
,
00010100
00000000
00000000
00000000
;
