#TITLE:Journey;
#SUBTITLE:;
#ARTIST:Draigun;
#TITLETRANSLIT:;
#SUBTITLETRANSLIT:;
#ARTISTTRANSLIT:;
#GENRE:Electro;
#CREDIT:Sync by HellRazoR;
#BANNER:Journey-bn.png;
#BACKGROUND:Journey-bg.png;
#LYRICSPATH:;
#CDTITLE:;
#MUSIC:Journey.ogg;
#OFFSET:-0.480;
#SAMPLESTART:53.719;
#SAMPLELENGTH:12.000;
#SELECTABLE:YES;
#DISPLAYBPM:100:141;
#BPMS:0=100,32=101.3,36=102.6,40=105.2,44=108.4,48=111.5,52=112.8,56=116.2,60=118,64=121.3,68=124.7,72=127,76=129.1,80=131.3,84=133.5,88=136.8,92=138.8,96=141;
#STOPS:;
#BGCHANGES:0.000=Journey-bg.png=1.000=0=0=1=====,
8.000=Journey-bg.png=1.000=1=0=1===CrossFade=1^0^0^1=CrossFade,
10.000=Journey-bg.png=1.000=1=0=1===CrossFade=0^1^0^1=CrossFade,
12.000=Journey-bg.png=1.000=1=0=1===CrossFade=0^0^1^1=CrossFade,
14.000=Journey-bg.png=1.000=1=0=1===CrossFade==,
16.000=In The Groove Rebirth/408_JB_HD.mpg=1.000=0=0=1=====,
32.000=In The Groove Rebirth/411_JB_HD.mpg=1.200=0=0=1=====,
40.000=In The Groove Rebirth/411_JB_HD.mpg=1.400=0=0=1=====,
48.000=In The Groove Rebirth/800_JumpBack.mpg=1.400=0=0=1=====,
56.000=In The Groove Rebirth/800_JumpBack.mpg=1.600=0=0=1=====,
64.000=In The Groove Rebirth/1139_JumpBack.mpg=1.600=0=0=1=====,
72.000=In The Groove Rebirth/1139_JumpBack.mpg=1.800=0=0=1=====,
80.000=In The Groove Rebirth/406_JB_HD.mpg=1.800=0=0=1=====,
88.000=In The Groove Rebirth/406_JB_HD.mpg=2.000=0=0=1=====,
96.000=In The Groove Rebirth/317_JB_HD.mpg=1.000=0=0=1=====,
112.000=In The Groove Rebirth/178_JB_HD.mpg=1.000=0=0=1=====,
128.000=In The Groove Rebirth/163_JB_HD.mpg=1.000=0=0=1=====,
144.000=In The Groove Rebirth/175_JB_HD.mpg=1.000=0=0=1=====,
160.000=In The Groove Rebirth/411_JB_HD.mpg=1.000=0=0=1=====,
176.000=In The Groove Rebirth/406_JB_HD.mpg=1.000=0=0=1=====,
192.000=In The Groove Rebirth/1139_JumpBack.mpg=1.000=0=0=1=====,
208.000=In The Groove Rebirth/408_JB_HD.mpg=1.000=0=0=1=====,
224.000=Journey-bg.png=1.000=0=0=1=====,
99999=-nosongbg-=1.000=0=0=0 // don't automatically add -songbackground-
;
#BGCHANGES2:16.000=white flash=1.000=0=0=1=====,
32.000=white flash=1.000=0=0=1=====,
96.000=white flash=1.000=0=0=1=====,
112.000=yellow flash=1.000=0=0=1=====,
144.000=white flash=1.000=0=0=1=====,
160.000=white flash=1.000=0=0=1=====,
224.000=flash=1.000=0=0=1====0.5^0.5^0.5^1=,
;
#KEYSOUNDS:;

//---------------dance-single - M. Simmons----------------
#NOTES:
     dance-single:
     M. Simmons:
     Easy:
     3:
     0.291,0.260,0.083,0.055,0.000:
0000
0000
0000
0000
,
0000
0000
0000
0000
,
0001
0000
1000
0000
,
0100
0100
1000
0100
,
0010
0001
0100
0001
,
1000
0010
0100
0100
,
0100
0010
1000
0001
,
0010
0100
0010
0010
,
0001
0010
0001
1000
,
0010
0100
0110
0000
,
0010
0100
0001
0010
,
0001
1000
0010
0010
,
0010
1000
0001
0010
,
0001
1000
1001
0000
,
1000
0010
0100
0010
,
1000
0001
1000
1000
,
1000
0010
1000
0001
,
0010
0100
0110
0000
,
0010
0001
0010
0100
,
1000
0001
0100
0100
,
0100
0010
0100
0001
,
1000
0010
1001
0000
,
1000
0010
1000
0001
,
0100
0010
0100
0100
,
0100
0010
1000
0001
,
0100
0001
1000
0100
,
0010
0100
0010
0100
,
1000
0001
1000
0001
,
0100
0010
0100
0001
,
1000
0100
0001
0100
,
1000
0001
0100
0010
,
0100
1000
0100
0010
,
0100
0001
1000
0100
,
1000
0001
0100
0010
,
0100
0001
1000
0100
,
1000
0001
0100
0010
,
0100
0010
1000
0001
,
0010
0100
0010
0100
,
1000
0001
1000
0010
,
0100
0001
1000
0001
,
0100
0010
0100
0001
,
1000
0100
1000
0001
,
0100
0010
0100
0001
,
0100
0010
1000
0100
,
0010
0100
1000
0001
,
0100
0010
0100
0001
,
1000
0100
0010
0100
,
0010
0001
1000
0001
,
0002
0100
0000
0013
,
0200
1000
0000
0310
,
0020
0001
0000
0031
,
2000
0100
0000
3001
,
0100
0010
0100
0001
,
1000
0100
0110
0110
,
0100
1000
0001
0100
,
0010
0100
1001
1001
,
0220
0000
0000
0330
;

//---------------dance-single - M. Simmons----------------
#NOTES:
     dance-single:
     M. Simmons:
     Challenge:
     9:
     0.605,0.488,0.293,0.165,0.215:
0000
0000
0000
0000
,
0000
0000
0000
0000
,
1000
0000
0000
00M0
0000
0000
0000
0000
01M1
0000
0000
0000
0000
0M00
0000
0000
,
0010
0000
1000
0100
1100
MM00
1100
0100
,
1000
0101
110M
0101
,
0020
0000
0000
0000
0130
0000
0000
0000
0010
0001
0000
0000
0010
0000
1000
0000
,
0001
1001
0M11
1001
,
0200
0000
0000
0000
1300
0000
0000
0010
0000
0100
0010
0000
1000
0000
0001
0000
,
0100
0010
1000
0001
0100
0010
0100
0001
,
1000
0000
0100
0000
0010
0000
0100
0000
1000
0001
0000
0000
0110
0000
0010
0000
,
1000
0001
0100
0001
1000
0010
0100
0010
,
0100
0000
0001
0000
1000
0000
0000
0010
0000
0100
0010
0000
1000
0000
0001
0000
,
1001
0100
0001
1000
0100
0010
0100
1000
,
0001
0000
0100
0000
0010
0000
0100
0000
0010
1000
0000
0000
1001
0000
0001
0000
,
0100
0001
1000
0100
0010
1000
0010
0001
,
1000
0000
0010
0000
0100
0000
0000
0001
0000
1000
0001
0000
0100
0000
0001
0000
,
1000
0100
0010
0001
1000
0001
0100
0010
,
1000
0000
0100
0000
1000
0000
0010
0000
0001
0010
0000
0000
1010
0000
0100
0000
,
0001
1000
0100
1000
0010
0001
0010
0100
,
0010
0000
1000
0000
0001
0000
0000
0100
0000
0001
1000
0000
0100
0000
0010
0000
,
1000
0010
0001
1000
0001
0100
0010
0001
,
0010
0000
1000
0000
0001
0000
0100
0000
0001
1000
0000
0000
1001
0000
0100
0000
,
0010
1000
0001
0010
1000
0010
0100
1000
,
0010
0000
0100
0000
0010
0000
0000
1000
0000
0001
0100
0000
0010
0000
0100
0000
,
0001
1000
0100
0010
0001
0100
0010
1000
,
0001
0000
0100
0000
0001
0000
1000
0000
0100
0010
0100
0000
1000
0001
0000
0001
,
0100
0010
1000
0001
0010
0001
1000
0100
,
0010
0000
0001
0000
0100
0000
0010
0100
0000
0001
0010
0000
1100
0000
0110
0000
,
0011
0010
0100
1000
0001
0100
0010
1000
,
0001
0000
0010
0000
0001
0000
1000
0000
0100
0010
0000
0010
0001
0000
0100
0000
,
0010
1000
0010
0100
0001
1000
0100
0010
,
0001
0000
0010
0000
0100
0000
1000
0000
0001
1000
0001
0000
1100
0000
0011
0000
,
1000
0000
0000
0010
0100
0000
0001
0000
0010
0000
0100
0000
1000
0000
0001
0000
,
0100
0000
0000
0010
1000
0000
0001
0000
0010
0100
0010
0000
0001
1000
0000
1000
,
0100
0000
0000
0010
0001
0000
1000
0000
0010
0000
0100
0000
0001
0000
0010
0000
,
0100
0000
0000
0010
0001
0000
1000
0000
0010
0000
0100
0000
0001
0100
0001
0000
,
1000
0000
0000
0010
1000
0000
0001
0000
0010
0000
0100
0000
1000
0000
0010
0000
,
0100
0000
0000
0001
0100
0000
0010
0000
0100
0001
0100
0000
0010
1000
0000
1000
,
0100
0000
0000
0001
0100
0000
0010
0000
0001
0000
1000
0000
0010
0000
0100
0000
,
1000
0000
0000
1000
0100
0000
0001
0000
1000
0000
0100
0000
0010
0001
0010
0001
,
0010
0100
0110
0010
0001
1000
1100
0000
,
0001
0000
0100
0000
1010
0000
0100
0000
0001
0000
0010
0000
0100
0010
0100
0000
,
0010
0001
1001
1000
0010
0100
0101
0000
,
1000
0100
0110
1000
0001
0010
0100
0010
,
0001
0100
0010
0100
0001
1000
0100
1000
,
0100
0000
0010
0000
0001
0000
0100
0000
0010
1000
0000
0001
1000
0000
0010
0000
,
0100
0001
1000
0010
1000
0001
0010
0100
,
1000
0001
0100
0010
1010
1000
0011
0001
,
0200
0320
2030
3002
,
0013
0100
1000
0001
0010
0001
1001
0001
,
2000
3020
0230
0302
,
1003
0100
0010
0001
0100
0010
0110
1000
,
0002
0203
0320
2030
,
3001
0010
0100
1000
0010
0100
0101
0110
,
0200
0320
2030
3002
,
0013
0000
0100
0000
1000
0000
0001
0000
0100
0010
0100
0000
0001
1000
0001
0000
,
0101
0000
0000
0000
;

//---------------dance-double - M. Simmons----------------
#NOTES:
     dance-double:
     M. Simmons:
     Challenge:
     10:
     0.587,0.494,0.193,0.037,0.069:
00000000
00000000
00000000
00000000
,
00000000
00000000
00000000
00000000
,
00001010
00000000
00110000
00000000
,
00011000
00000000
00000100
00010000
00100010
00000000
00000010
00010000
,
01000100
10000000
01000000
00000000
00000010
00000001
00000010
00000000
,
01000000
00000000
10000000
00000000
00001000
00000000
01000000
00000000
00000100
00000010
00000000
00000100
00001000
00000000
00001000
00000000
,
00000100
00000010
00000001
00000000
10000000
00001000
01000000
00000000
,
00200000
00000000
01300000
00000100
00000020
00000000
00000130
01000000
,
00100000
10000000
01000000
00010000
00001000
00000100
00000010
00001000
,
00000100
00000000
01000000
00000000
00100000
00000000
01000000
00000000
00001000
00010000
00000000
00000010
00000001
00000000
00000010
00000000
,
00010000
00000100
01000000
00010000
10000000
01000000
00100000
00000010
,
00000100
00000000
00000001
00000000
00001000
00000000
00000100
00001000
00000000
00000010
00000100
00000000
00000001
00000100
00000010
00000000
,
00010000
00010000
01000000
01000000
10000000
10000000
00001000
00001000
,
01000000
00000000
00000100
00000000
00100000
00000000
00010000
00000000
10000000
00010000
00000000
00100000
00001000
00000000
00010000
00000000
,
00000001
00000100
00000010
00010000
00100000
00001000
00000010
00010000
,
00100000
01000000
00010000
00000100
00001000
01000000
00010000
00000100
,
00001000
00010000
00001000
00100000
00001000
01000000
00010000
10000000
,
01000000
00000000
00100000
00000000
00001000
00000000
00010000
00000000
00000100
00000010
00000000
00001000
00000010
00000000
00000001
00000000
,
00010000
00010000
01000000
01000000
10000000
10000000
00010000
00010000
,
01000000
00000100
00000010
00001000
00010000
00000010
00000001
00000010
,
00010000
00001000
01000000
00010000
00100000
00000100
00001000
00000010
,
00010000
00000001
01000000
00000100
10000000
00001000
00100000
00000010
,
00010000
00001000
10000000
01000000
10000000
00100000
00010000
00001000
,
00010000
00000100
00000010
00001000
00010000
00000100
00010000
00000001
,
00000100
00000010
00010000
00001000
10000000
00010000
01000000
00100000
,
01100000
01000000
00001000
00010000
00000010
00000001
00000010
00000100
,
00000101
00000001
00001000
00000100
00000010
00001000
00010000
00100000
,
00110000
00010000
00001000
00000010
00001000
00010000
00100000
00010000
,
00011000
00001000
01000000
00010000
10000000
01000000
00100000
00010000
,
00110000
00001000
00010000
00000010
00010000
00100000
01000000
00010000
,
01100000
10000000
00100000
01000000
00010000
00001000
00000100
00000010
,
00001001
00000001
00010000
00001000
10000000
00001000
00010000
00000001
,
00000100
00000010
00010000
00001000
01000000
10000000
01000000
00001000
,
00010000
00000010
00010000
00100000
01000000
00100000
00010000
00000010
,
00001000
00000100
00001000
00000100
00000010
00000001
00000100
00000001
,
00001000
00010000
10000000
01000000
10000000
00010000
00001000
00000001
,
00000010
00000100
01000000
00010000
10000000
00001000
00000010
00000001
,
00001000
00000100
00010000
00001000
10000000
10000000
01000000
01000000
,
10000000
00100000
01000000
00001000
00010000
00000010
00000001
00000010
,
00001000
00000001
00000100
00000001
00001000
00000100
01000000
00001000
,
00010000
01000000
10000000
00010000
10010000
01000000
10010000
00000000
,
01000000
00000000
00001000
00000000
00010000
00000000
00000010
00000000
00001000
00000100
00000000
00000010
00000001
00000000
00001010
00000000
,
00000100
00000010
00010000
00001000
01010000
00100000
01010000
00000000
,
10000000
01000000
00010000
00001000
00010000
00010000
00001000
00001000
,
00000100
00000010
00001000
00000001
00000101
00000010
00001100
00000000
,
00010000
00000000
00001000
00000000
10000000
00000000
01000000
00000000
00010000
00001000
00000000
00010000
00000100
00000000
00000110
00000000
,
00001000
00000001
00000100
00000010
00010000
00010000
00001000
00000000
,
01000000
00010000
10000000
01000000
10000000
00100000
00010000
00001000
,
00010000
00000100
00001000
00000001
00000010
00001000
00010000
00000010
,
00000001
00000010
00000100
00000001
00010000
00001000
00100000
00100000
,
00010000
10000000
00010000
01000000
00100000
00010000
00001000
10000000
,
01000000
00010000
00001000
00000100
00000001
00001000
00010000
10000000
,
01000000
10000000
00001000
00100000
01000000
00010000
00001000
00010000
,
00000100
00000010
00001000
00000010
00000001
00000001
00001000
00001000
,
00000010
00000100
00000010
00010000
00001000
10000000
01000000
00100000
,
10000000
00010000
00001000
00000100
00000001
00001000
00000100
01000000
,
02000200
00000000
00000000
03000300
;

//---------------dance-single - M. Simmons----------------
#NOTES:
     dance-single:
     M. Simmons:
     Beginner:
     1:
     0.094,0.128,0.055,0.000,0.000:
0000
0000
0000
0000
,
0000
0000
0000
0000
,
0000
0000
0000
0000
,
0000
0000
0000
0000
,
1000
0000
0100
0000
,
1000
0000
0001
0000
,
0100
0000
0001
0000
,
1000
0000
0010
0000
,
0100
0000
0000
0000
,
0010
0000
0000
0000
,
1000
0000
0000
0000
,
0001
0000
0000
0000
,
0100
0000
0000
0000
,
0001
0000
0000
0000
,
1000
0000
0000
0000
,
0100
0000
0000
0000
,
0010
0000
0000
0000
,
0100
0000
0000
0000
,
1000
0000
0000
0000
,
0001
0000
0000
0000
,
0100
0000
0000
0000
,
0010
0000
0000
0000
,
0100
0000
0000
0000
,
0010
0000
0000
0000
,
1000
0000
0001
0000
,
1000
0000
0000
0000
,
0100
0000
0010
0000
,
0100
0000
0000
0000
,
1000
0000
0001
0000
,
0100
0000
0000
0000
,
0010
0000
0100
0000
,
0010
0000
0000
0000
,
1001
0000
0010
0000
,
0010
0000
0000
0000
,
0110
0000
0100
0000
,
0100
0000
0000
0000
,
1001
0000
0001
0000
,
1000
0000
0000
0000
,
0110
0000
0100
0000
,
0010
0000
0100
0000
,
1001
0000
0000
0000
,
0100
0000
0000
0000
,
0001
0000
0000
0000
,
1000
0000
0000
0000
,
0100
0000
0000
0000
,
1000
0000
0000
0000
,
0001
0000
0000
0000
,
0100
0000
0000
0000
,
0010
0000
0000
0000
,
0100
0000
0000
0000
,
0010
0000
0000
0000
,
1000
0000
0000
0000
,
0001
0000
0000
0000
,
0100
0000
0000
0000
,
0001
0000
0000
0000
,
1000
0000
0000
0000
,
0110
0000
0000
0000
;

//---------------dance-double - M. Simmons----------------
#NOTES:
     dance-double:
     M. Simmons:
     Hard:
     8:
     0.490,0.416,0.174,0.064,0.000:
00000000
00000000
00000000
00000000
,
00000000
00000000
00000000
00000000
,
10010000
00000000
00001001
00000000
,
10010000
00000000
00001000
00010000
00011000
00000000
00000001
00001000
,
00001001
00000220
00001000
00000330
,
00000010
00000000
00010000
00000000
00000100
00000000
00100000
01000000
,
10000000
20020000
00001000
30030000
,
01000000
00000000
00001000
00010000
00000100
00000000
00001000
00000001
,
00000100
00000010
00010000
00000000
00001000
01000000
00010000
00000000
,
10000000
01000000
00100000
01000000
10000000
00001000
00010000
00000000
,
00000100
00001000
00000100
00000000
00001000
00000010
00000100
00000000
,
00000010
00001000
00000010
00000100
00000001
00001000
00000100
00000000
,
00010000
00001000
00100000
00000000
00010000
00100000
00001000
00000000
,
01000000
00100000
01000000
00010000
10000000
01000000
00100000
00000000
,
01000000
10000000
00010000
00000000
00100000
01000000
00010000
00000000
,
00001000
00010000
00000100
00000010
00000001
00001000
00000010
00000000
,
00000100
00000110
00000101
00000010
,
00001000
00000100
00010000
00001000
00100000
00000000
00000000
00000000
,
00010000
10010000
01001000
00100000
,
01000000
00010000
10000000
01000000
00100000
00100000
00100000
00000000
,
00010000
01010000
00101000
00010000
,
00001000
00010000
00000100
00000010
00000001
00000000
00000000
00000000
,
00000010
00010010
00101000
00010000
,
10000000
01000000
10000000
00010000
01000000
00010000
01000000
00010000
,
10000000
01000000
10000000
00010000
00100000
01000000
00010000
00001000
,
00010000
00000100
00001000
00000010
00000100
00000010
00000100
00000010
,
00001000
00000001
00000100
00000001
00001000
00000100
00000010
00001000
,
00010000
00100000
01000000
00010000
10000000
00010000
10000000
00010000
,
01000000
00100000
00010000
00001000
00010000
00001000
01000000
00100000
,
10000000
00010000
01000000
00010000
10000000
00010000
10000000
00010000
,
01000000
00001000
00010000
00000100
00001000
00000001
00000100
00000010
,
00000100
00000001
00001000
00000100
00000010
00000100
00000010
00000100
,
00001000
00000010
00001000
00000000
00000010
00000100
00000001
00000000
,
00001000
00000100
00010000
00001000
00100000
00000000
00110000
00000000
,
01000000
00100000
10000000
00000000
00010000
01000000
00010000
00000000
,
00100000
01000000
00010000
00001000
00010000
00000000
00000100
00010100
,
00000100
00001000
00000010
00000000
00001000
00000001
00000100
00000000
,
00000010
00000001
00000010
00001000
00000100
00010000
00011000
00000000
,
00001000
10000000
01000000
10000000
00010000
01000000
00100000
00000000
,
01000000
00100000
10000000
01000000
00010000
00001000
00010000
00001000
,
00100000
00010000
10000000
00000000
01000000
10000000
00010000
00000000
,
01000000
00001000
00010000
00000100
00010000
00000000
00000000
00000000
,
00001000
00010000
00000010
00000000
00000100
00000010
00000100
00000000
,
00000001
00001000
00000100
00010000
00000010
00000100
00000010
00000000
,
00000100
00000001
00001000
00000000
00000100
00010000
00001000
00000000
,
01000000
00100000
01000000
00010000
10000000
00000000
00000000
00000000
,
01000000
00100000
00010000
00100000
00001000
01000000
10000000
00000000
,
01000000
00010000
10000000
01000000
00200000
00000000
01000000
00000000
,
00301000
00010000
00000100
00010000
00001000
01000000
00001000
00010000
,
00000010
00010000
00001000
00100000
00001000
00010000
00001000
00010000
,
00000100
00000010
00001000
00000010
00000100
00001000
00000100
00000010
,
00000100
00010000
00001000
01000000
00100000
01000000
00010000
10000000
,
01000000
00100000
00010000
00100000
00001000
01000000
00010000
10000000
,
01000000
10000000
00010000
00100000
01000000
00010000
00001000
00010000
,
00000100
00000010
00000001
00001000
00000010
00000100
00000001
00000100
,
00000010
00000001
00000010
00001000
00000100
00000010
00000100
00010000
,
00022000
00000000
00000000
00033000
;

//---------------dance-double - M. Simmons----------------
#NOTES:
     dance-double:
     M. Simmons:
     Medium:
     5:
     0.333,0.284,0.037,0.083,0.000:
00000000
00000000
00000000
00000000
,
00000000
00000000
00000000
00000000
,
10000000
00000000
00010000
00000000
,
00001000
00000000
00000001
00000100
00000010
00000000
00010000
01000000
,
00100000
00000000
11000000
00000000
,
00010000
00000000
01000000
00000000
00100000
00000000
01000000
00010000
,
01000000
00001000
00011000
00010000
,
00000100
00000000
00001000
00000010
00000100
00000000
00000010
00001000
,
00000001
00000000
00000100
00000000
00000001
00001000
00000100
00000000
,
00010000
00000000
00001000
00000000
01000000
00010000
10000000
00000000
,
01000000
00000000
10000000
00000000
00100000
01000000
00100000
00000000
,
01000000
00000000
00010000
00000000
00100000
00010000
00100000
00000000
,
00001000
00000000
00010000
00000000
00000100
00001000
00000010
00000000
,
00000100
00000000
00000010
00000000
00001000
00000001
00001000
00000000
,
00000010
00000000
00000100
00000000
00000001
00001000
00000100
00000000
,
00010000
00000000
00001000
00000000
00100000
00010000
10000000
00000000
,
00010000
00000000
01000000
00000000
00100000
01000000
00010000
00000000
,
10000000
00000000
01000000
00000000
00100000
01000000
10000000
00000000
,
00010000
00000000
01000000
00000000
00100000
01000000
00010000
00000000
,
10000000
00000000
01000000
00000000
00100000
00001000
00010000
00000000
,
00000100
00000000
00001000
00000000
00000010
00000100
00000010
00000000
,
00001000
00000000
00000001
00000000
00000100
00000001
00001000
00000000
,
00000100
00000000
00000010
00000000
00000100
00010000
00001000
00000000
,
00010000
00000000
00001000
00000000
00100000
00010000
00100000
00000000
,
00001000
01000000
00100000
01000000
,
00010000
00000000
10000000
00000000
01000000
00100000
00010000
00100000
,
00001000
00010000
00000100
00001000
,
00000010
00000000
00000100
00000000
00000001
00000000
00000001
00000010
,
00000100
00010000
00011000
00001000
,
01000000
00000000
00100000
00000000
01000000
00100000
10000000
00010000
,
00100000
01000000
01100000
10000000
,
00010000
00000000
00100000
00000000
00001000
00010000
00000100
00001000
,
00000001
00000100
00000010
00000001
,
00000010
00000000
00001000
00000000
00000100
00010000
00001000
00010000
,
00000100
00010000
00001000
01000000
,
00100000
00000000
01000000
00000000
00010000
00000000
01000000
00100000
,
10000000
01000000
00100000
00010000
,
00100000
00000000
00001000
00000000
00010000
00000100
00001000
00000001
,
00000100
00000010
00000100
00001000
,
00010000
00000000
00100000
00000000
01000000
10000000
01000000
00010000
,
01000000
00020000
00000000
00130000
,
00001000
00020000
00000000
00030100
,
00001000
00000020
00000000
00000130
,
00000010
00000000
00002000
00000000
00000000
00000000
00003100
00010000
,
00010000
00002000
00000000
00103000
,
01000000
20000000
00000000
30100000
,
01000000
00020000
00000000
00130000
,
01000000
00020000
00000000
00031000
,
00010000
00000100
00001000
00000010
,
00000100
00000010
00001000
00000100
,
00010000
00001000
00100000
00010000
,
10000000
00010000
01000000
00100000
,
01000000
00010000
00100000
00001000
,
00010000
00000010
00000100
00000001
,
00000100
00000010
00000001
00000010
,
00001000
00000001
00000100
00001000
,
00020000
00030000
00000000
00000000
;

//---------------dance-double - M. Simmons----------------
#NOTES:
     dance-double:
     M. Simmons:
     Easy:
     3:
     0.278,0.257,0.101,0.018,0.000:
00000000
00000000
00000000
00000000
,
00000000
00000000
00000000
00000000
,
00000000
00000000
00000000
00000000
,
00000000
00000000
00000000
00000000
,
00000100
00000110
00000100
00000000
,
00000001
00000100
00000001
00001000
,
00000100
00010100
00000100
00000000
,
00010000
00001000
00010000
00001000
,
01000000
00100000
01000000
00010000
,
10000000
01000000
01000000
00000000
,
10000000
00010000
01000000
00100000
,
01000000
00001000
00001000
00000000
,
00010000
00000100
00001000
00000100
,
00010000
00000010
00000010
00000000
,
00000100
00000010
00000100
00000010
,
00001000
00000001
00001000
00000001
,
00000100
00000001
00001000
00000100
,
00010000
00001000
00001000
00000000
,
00100000
00010000
00100000
01000000
,
10000000
00010000
01000000
00000000
,
00100000
01000000
00010000
10000000
,
01000000
00100000
00010000
00000000
,
00100000
00001000
00010000
00000100
,
00001000
00000001
00001000
00000001
,
00000100
00000010
00000100
00000001
,
00001000
00000100
00010000
00001000
,
00010000
00001000
00100000
01000000
,
10000000
00010000
01000000
00010000
,
00100000
00001000
00010000
00000100
,
00001000
00000100
00000010
00000100
,
00000010
00000001
00001000
00000001
,
00000100
00000010
00000100
00000001
,
00001000
00000100
00010000
00001000
,
00010000
00000010
00000100
00000010
,
00010000
00001000
00100000
00010000
,
01000000
00010000
10000000
00010000
,
01000000
00100000
01000000
00010000
,
10000000
01000000
00100000
00010000
,
00100000
00001000
00010000
00000010
,
00000100
00000010
00001000
00000001
,
00001001
00000100
00000100
00000100
,
00001010
00000010
00000010
00000000
,
00011000
00001000
00010000
00001000
,
00101000
00001000
00100000
00100000
,
00110000
00010000
01000000
00010000
,
10010000
00010000
10000000
00000000
,
01100000
01000000
00010000
01000000
,
10010000
00100000
00001000
00001000
,
00010000
00000100
00001000
00000001
,
00000100
00000010
00000200
00000001
,
00000310
00000100
00000010
00000100
,
00000010
00001000
00000100
00010000
,
00001000
01000000
00100000
01000000
,
00010000
00010000
02000000
00100000
,
03100000
00100000
10000000
00010000
,
00100000
00001000
00010000
00000100
,
00010100
00000000
00000000
00000000
;

//---------------dance-single - M. Simmons----------------
#NOTES:
     dance-single:
     M. Simmons:
     Hard:
     7:
     0.473,0.411,0.147,0.083,0.046:
0000
0000
0000
0000
,
0000
0000
0000
0000
,
2200
0000
0010
3300
,
0001
0000
0100
0010
0100
0000
0001
1000
,
0001
0100
0101
0000
,
1000
0000
0100
0000
1000
0100
0010
0001
,
1000
0001
1001
0000
,
0100
0000
0010
0100
0010
0000
1001
0000
,
0100
0010
0100
0010
0100
0001
1000
0000
,
0001
1000
0001
1000
0001
0010
0100
0000
,
1000
0100
1000
0100
1000
0001
1000
0000
,
0001
0100
0001
0100
0001
1000
0001
0000
,
1000
0010
1000
0010
1000
0100
0010
0000
,
0100
0010
0100
0010
0100
1000
0001
0000
,
0100
0001
0010
0001
0100
0001
1000
0000
,
1000
0100
1000
0010
1000
0001
1000
0000
,
0100
1000
0001
0100
0000
0010
0100
0001
,
1000
0100
1000
0001
0000
0100
0010
0100
,
0010
1000
0001
0100
0000
0001
1000
0001
,
0010
0100
1000
0001
0000
0100
0010
0100
,
0001
1000
0100
0010
0000
0100
0010
0001
,
1000
0001
0010
1000
0000
0010
0001
1000
,
0001
0010
0100
1000
0000
0001
0100
0010
,
0100
0001
0100
0001
0000
1000
0100
0010
,
0100
1000
0001
0100
0010
0000
0110
0000
,
0100
0001
1000
0100
0010
0000
0110
0000
,
0100
1000
0001
0010
1000
0000
0110
0000
,
0001
1000
0001
0000
0100
0010
0001
0000
,
0010
1000
0001
0100
0001
0000
1001
0000
,
0100
0010
1000
0001
0010
0000
0110
0000
,
0100
1000
0001
0100
0001
0000
1001
0000
,
0100
0010
0100
0000
0001
0010
1000
0010
,
0001
1000
0001
0100
0010
0100
0001
1000
,
0100
0010
0001
0010
0100
1000
0001
0100
,
0001
1000
0010
0100
0010
1000
0001
0010
,
1000
0010
0001
1000
0001
0100
0001
0100
,
0010
1000
0010
0100
0001
1000
0100
0010
,
1000
0010
0001
1000
0001
0100
0001
0100
,
0010
0100
0001
1000
0100
1000
0010
0100
,
0010
1000
0001
0010
0100
1000
0001
0010
,
0100
1000
0001
0000
0100
0001
1000
0000
,
0100
0000
0010
0000
0100
0000
0000
0000
0110
0000
0000
0000
1001
0000
0000
000M
,
0100
0010
0100
0000
0001
1000
0100
0000
,
0010
0000
1000
0000
0010
0000
0001
0000
1000
0000
0001
0000
1001
0000
0000
M000
,
0100
0010
0100
0000
0001
1000
0100
0000
,
1000
0000
0001
0000
0010
0000
0100
0000
1000
0000
0000
0000
1001
0000
0000
M000
,
0001
0100
0010
0000
0100
0010
1000
0000
,
0100
0000
0010
0000
0001
0000
0010
0000
0100
0000
1000
0000
1001
0000
0000
000M
,
0020
0000
0100
0000
0100
0000
0000
0000
0130
0000
0000
00M0
0000
0000
0000
0000
,
0200
0000
0001
0000
0001
0000
0000
0000
0301
0000
0000
0M00
0000
0000
0000
0000
,
0002
0000
1000
0000
1000
0000
0000
0000
1003
0000
0000
000M
0000
0000
0000
0000
,
2000
0100
0100
0000
0010
0010
3010
0000
,
0200
0000
0001
0000
0010
0000
0000
0000
0301
0000
0000
0M00
0000
0000
0000
0000
,
2000
0000
0100
0000
0001
0000
0000
0000
3010
0000
0000
M000
0000
0000
0000
0000
,
0002
0000
0100
0000
1000
0000
0000
0000
0013
0000
0000
000M
0000
0000
0000
0000
,
0010
0100
0001
0000
1000
0100
1000
0000
,
1001
0000
0000
0000
;

//---------------dance-single - M. Simmons----------------
#NOTES:
     dance-single:
     M. Simmons:
     Medium:
     5:
     0.324,0.282,0.083,0.073,0.000:
0000
0000
0000
0000
,
0000
0000
0000
0000
,
0000
0000
0000
0000
,
0000
0000
0000
0000
,
0001
0100
0001
0000
1000
0000
0100
0000
,
1000
0001
0100
0000
0010
0000
0010
0000
,
0100
0001
1000
0000
0100
0000
0100
0000
,
0010
0001
0010
0000
0100
1000
0100
0000
,
1000
0001
0010
0100
,
0010
0001
1000
0001
,
0100
0010
0100
0001
,
1000
0100
1000
0001
,
0100
0010
0100
0001
,
1000
0100
1000
0001
,
0010
0100
1000
0001
,
0100
0010
1000
0001
,
0100
0010
0100
0001
,
1000
0100
1000
0001
,
0010
0100
0010
0100
,
1000
0010
1000
0001
,
0100
0001
0010
1000
,
0010
0001
1000
0001
,
0100
0010
0001
0010
,
0100
0001
1000
0001
,
0100
0010
0100
0000
0001
0000
1000
0000
,
0100
0010
0100
0000
1000
0000
0001
0000
,
0100
0010
1000
0000
0010
0000
0100
0000
,
0001
0100
0001
0000
1000
0000
0100
0000
,
0010
0100
0010
0000
0100
0000
1000
0000
,
0001
0100
0001
0000
0100
0000
0010
0000
,
1000
0001
0010
0000
0100
0000
1000
0000
,
0001
1000
0001
0000
0100
0000
0010
0000
,
0200
0000
0001
0000
0000
0310
0100
0000
,
0002
0000
1000
0000
0000
0013
0001
0000
,
0200
0000
0010
0000
0000
0301
0100
0000
,
0020
0000
1000
0000
0000
0130
0010
0000
,
2000
0000
0100
0000
0000
3001
1000
0000
,
0002
0000
0010
0000
0000
1003
0001
0000
,
2000
0000
0010
0000
0000
3010
1000
0000
,
0200
0000
0010
0000
0000
0301
0100
0000
,
1000
0001
0100
0010
,
0100
0000
0001
0000
1000
0100
1000
0100
,
1000
0001
0100
0010
,
0100
0000
0001
0000
1000
0001
1000
0001
,
1000
0010
0100
0010
,
1000
0000
0100
0000
0010
0001
0010
0001
,
0010
0100
1000
0001
,
0100
0000
0010
0000
1000
0100
0010
0001
,
0010
0100
1000
0001
,
0100
0001
1001
1001
,
0100
0010
0100
0010
,
1000
0001
0011
0011
,
0010
0100
1000
0001
,
0100
0010
1010
1010
,
0100
0010
1000
0001
,
0100
0010
0110
0110
,
1001
0000
0000
0000
;
