#TITLE:Indulgence;
#SUBTITLE:;
#ARTIST:KaW;
#TITLETRANSLIT:;
#SUBTITLETRANSLIT:;
#ARTISTTRANSLIT:;
#GENRE:Hardcore;
#CREDIT:Sync by HellRazor;
#BANNER:Indulgence-bn.png;
#BACKGROUND:Indulgence-bg.png;
#LYRICSPATH:;
#CDTITLE:;
#MUSIC:Indulgence.ogg;
#OFFSET:-0.041;
#SAMPLESTART:24.600;
#SAMPLELENGTH:12.000;
#SELECTABLE:YES;
#BPMS:0.000=156.000;
#STOPS:;
#BGCHANGES:0.000=Indulgence-bg.png=1.000=0=0=1=====,
16.000=In The Groove Rebirth/1358_JumpBack.mpg=1.000=0=0=1=====,
32.000=In The Groove Rebirth/263_JB_HD.mpg=1.000=0=0=1=====,
48.000=In The Groove Rebirth/1150_JumpBack.mpg=1.000=0=0=1=SongBgWithMovieViz====,
64.000=In The Groove Rebirth/901_JumpBack.mpg=1.000=0=0=1=====,
80.000=In The Groove Rebirth/314_JB_HD.mpg=1.000=0=0=1=====,
96.000=In The Groove Rebirth/264_JB_HD.mpg=1.000=0=0=1=SongBgWithMovieViz====,
112.000=In The Groove Rebirth/875_JumpBack.mpg=1.000=0=0=1=====,
128.000=In The Groove Rebirth/890_JumpBack.mpg=1.000=0=0=1=====,
144.000=In The Groove Rebirth/1358_JumpBack.mpg=1.000=0=0=1=====,
160.000=In The Groove Rebirth/408_JB_HD.mpg=1.000=0=0=1=====,
176.000=In The Groove Rebirth/263_JB_HD.mpg=1.000=0=0=1=====,
192.000=In The Groove Rebirth/1151_JumpBack.mpg=1.000=0=0=1=SongBgWithMovieViz====,
208.000=In The Groove Rebirth/264_JB_HD.mpg=1.000=1=0=1=SongBgWithMovieViz==CrossFade==,
224.000=In The Groove Rebirth/314_JB_HD.mpg=1.000=0=0=1=====,
240.000=In The Groove Rebirth/1358_JumpBack.mpg=1.000=0=0=1=====,
256.000=In The Groove Rebirth/901_JumpBack.mpg=1.000=0=0=1=====,
272.000=In The Groove Rebirth/890_JumpBack.mpg=1.000=0=0=1=====,
288.000=In The Groove Rebirth/1150_JumpBack.mpg=1.000=0=0=1=====,
304.000=Indulgence-bg.png=1.000=0=0=1=====,
99999=-nosongbg-=1.000=0=0=0 // don't automatically add -songbackground-
;
#BGCHANGES2:16.000=white flash=1.000=0=0=1=====,
64.000=white flash=1.000=0=0=1=====,
112.000=white flash=1.000=0=0=1=====,
192.000=white flash=1.000=0=0=1=====,
224.000=white flash=1.000=0=0=1=====,
256.000=white flash=1.000=0=0=1=====,
304.000=flash=1.000=0=0=1====0.5^0.5^0.5^1=,
;
#KEYSOUNDS:;

//---------------dance-single - D. Bernardone----------------
#NOTES:
     dance-single:
     D. Bernardone:
     Hard:
     10:
     0.853,0.000,0.400,0.225,0.700:
0000
0000
0000
0000
,
0000
0000
0000
0000
,
0000
0000
0000
0000
,
0000
0000
0000
0000
0000
0000
0000
0000
1000
0100
0000
0010
0001
0000
0000
0000
,
1000
0000
0001
0000
0010
0100
0010
0100
1000
0000
0001
0000
0100
0010
0100
0010
,
1000
0000
0001
0000
1000
0000
0100
0000
0010
0000
0001
0000
0100
0010
0000
0010
,
1000
0000
0001
0000
0010
0100
0010
0001
1000
0000
0100
0000
0010
0100
1000
0100
,
0010
0000
0001
0000
1000
0010
0100
0000
0101
0000
0000
0100
0010
0100
0010
0000
,
1000
0000
1000
0000
0001
0100
0010
1000
0100
0000
0100
0000
1000
0010
0100
0001
,
0010
0000
0010
0000
0001
0000
1000
0000
0001
0000
0001
0000
0100
0010
0000
0100
,
0001
0000
0010
0000
0100
1000
0001
1000
0010
0000
0010
0000
0100
0001
1000
0001
,
0010
0000
0010
0000
0001
1000
0100
0000
0011
0000
0000
0001
0100
0001
0100
0000
,
1001
0000
0000
0000
0010
0000
1000
0200
0000
0000
0000
0000
0310
0000
0001
0200
,
0000
0000
0000
0000
0310
0000
1000
0002
0000
0000
1003
0000
0100
0000
0010
0000
,
0110
0000
0000
0000
0001
0000
1000
0200
0000
0000
0000
0000
0310
0000
0001
2000
,
0000
0000
3001
0000
0100
0000
0010
0000
0100
0001
0000
1000
0010
0000
0000
0000
,
1000
0000
0001
0000
0010
0001
1000
0001
0100
0000
0001
0000
0100
0010
1000
0001
,
0010
0000
0001
0000
1000
0000
0010
0000
0100
0000
0001
0000
0100
0001
0000
0001
,
0010
0000
0100
0000
1000
0001
0100
0010
1000
0000
0001
0000
0100
0010
1000
0010
,
0100
0000
0001
0000
0010
0001
1000
0000
0110
0000
0000
1000
0100
0010
0001
0000
,
0101
0000
0100
0000
0010
1000
0001
0010
0100
0000
0100
0000
1000
0010
0100
0010
,
1000
0000
1000
0000
0001
0100
0010
1000
0010
0000
0010
0000
1000
0000
0001
0000
,
0101
0000
0001
0000
1000
0100
0010
0001
0010
0000
0010
0000
0001
1000
0100
1000
,
0010
0000
0010
0000
1000
0100
0010
0100
1000
0000
0000
1000
0010
0100
0010
0000
,
1000
0001
0010
0100
0001
0100
1000
0010
,
0001
0000
0010
0000
0100
0000
0001
0000
1000
0100
0000
1000
0001
0000
0010
0000
,
0100
1000
0001
1000
0010
0100
0010
1000
0001
0010
0100
1000
0001
0100
0001
1000
,
0010
0100
0001
0010
0001
0000
1001
0000
0101
0000
0000
0000
1100
0000
0000
0000
,
1000
0001
0010
0100
1000
0001
0100
0010
,
1000
0000
0100
0000
0010
0000
0001
0000
1000
0001
1000
0000
0100
0010
0100
0010
,
0100
1000
0100
1000
0010
0100
0001
1000
,
0010
0000
0100
0000
1001
0000
0001
0000
0101
0000
0000
0000
0100
0010
0100
0001
,
0100
0010
1000
0001
0100
0001
0010
0100
,
1000
0000
0001
0000
0010
0000
0100
0000
0010
0001
1000
0000
0010
0100
0010
0100
,
0010
1000
0100
0010
0100
1000
0001
0010
,
0100
0000
1000
0000
1001
0000
0000
0000
0110
0000
0001
0000
1000
0001
1000
0010
,
1000
0001
0100
0010
1000
0100
1000
0001
,
0010
0000
0001
0000
1000
0000
0100
0000
1000
0001
0010
0000
0100
1000
0100
1000
,
0100
0010
0001
1000
0010
0100
0001
0010
,
0100
0000
0010
0000
0001
0000
1000
0000
1010
0000
0000
00M0
1000
0001
1000
0100
,
1000
0010
0100
0010
1000
0100
1000
0001
,
1001
0000
0100
0010
0001
1000
1010
0010
,
0110
0000
0000
0000
0100
0000
0001
1000
0100
1000
0001
0000
0100
0000
0010
1000
,
0010
0000
0100
0000
0110
0000
0100
0000
0001
0000
0001
0000
1000
0100
1000
0001
,
0010
0000
0010
0000
0011
0000
0000
0000
0001
0000
0001
0000
0100
0010
1000
0001
,
0010
0000
0010
0000
0110
0000
0000
0000
0100
0000
0100
0000
1000
0001
0010
0100
,
1000
0000
1000
0000
1100
0000
0000
0000
1000
0001
0000
0100
0001
0000
0000
0000
,
1000
0010
0100
0001
0010
0100
1000
0001
0100
0000
0000
0110
0000
0000
0MM0
0000
,
0001
0000
1000
0000
0020
M000
0M00
M000
0130
0000
0001
0000
2000
000M
00M0
000M
,
3100
0000
0010
0000
0001
0000
1002
0000
0103
0000
0010
0000
1000
0001
0000
0001
,
1000
0000
0010
0000
0200
00M0
000M
00M0
0301
0000
1000
0000
0002
M000
0M00
M000
,
0013
0000
0100
0000
1000
0000
2001
0000
3010
0000
0100
0001
1000
0001
1000
0000
,
0100
0000
0010
0000
0002
00M0
M000
00M0
1003
0000
0010
0000
2000
00M0
000M
00M0
,
3100
0000
0010
0000
0001
0000
1002
0000
0013
0000
0100
0000
1000
0001
0000
0001
,
1000
0000
0010
0000
0200
00M0
000M
00M0
0301
0000
0010
0000
0002
00M0
0M00
00M0
,
1003
0000
0100
0000
1000
0000
2001
0000
3100
0000
0010
0001
1000
0001
1000
0000
,
0001
0000
0100
0000
0010
0000
1000
0001
0100
0000
0001
0000
0010
0000
0100
1000
,
0001
0000
1000
0000
0100
0000
0001
0000
0100
0000
1000
0000
0010
0100
0000
0100
,
0001
0000
1000
0000
0001
0000
0010
0100
1000
0000
0001
0000
0010
0000
0001
1000
,
0010
0000
0100
0000
0010
0000
0001
0000
0110
0000
0000
1000
0100
0010
0001
0000
,
0100
0000
0010
0000
1000
0000
0001
0010
0100
0000
0010
0000
0001
0000
1000
0010
,
0100
0000
0001
0000
0010
0000
1000
0000
0010
0000
0001
0000
0100
0010
0000
0010
,
1000
0000
0001
0000
0010
0000
0100
1000
0001
0000
0100
0000
0010
0000
1000
0001
,
0010
0000
0100
0000
0010
0000
1000
0000
0110
0000
0000
0001
0100
0010
1000
0000
,
1001
0000
0000
0000
1000
0000
0010
0100
0000
0000
0000
0000
0010
0000
0200
0002
,
0000
0000
1000
0313
,
1001
0000
0000
0000
0001
0000
0010
0100
0000
0000
0000
0000
0010
0000
0200
2000
,
0000
0000
0001
3310
,
1001
0000
0000
0000
0001
0000
0100
0010
0000
0000
0000
0000
0100
0000
0020
2000
,
0000
0000
0001
3130
,
1001
0000
0000
0000
1000
0000
0100
0010
0000
0000
0000
0000
0100
0000
0020
0002
,
0000
0000
1000
0133
,
1001
0000
0101
0000
0100
0010
1000
0001
0010
0000
0110
0000
0100
1000
0001
0100
,
0010
0000
0110
0000
1010
0000
1001
0000
0011
0000
0110
0000
0100
1000
0000
0010
,
0100
0000
0110
0000
0100
0001
1000
0001
0010
0000
0011
0000
0001
1000
0100
1000
,
0010
0000
1010
0000
1001
0000
0110
0000
1001
0000
0000
0001
1000
0100
0010
0000
,
0220
0000
0000
000M
0000
M000
0000
0000
0330
0000
0000
0000
0000
0000
0000
0000
;

//---------------dance-single - D. Bernardone----------------
#NOTES:
     dance-single:
     D. Bernardone:
     Beginner:
     1:
     0.138,0.000,0.092,0.033,0.000:
0000
0000
0000
0000
,
0000
0000
0000
0000
,
0000
0000
0000
0000
,
0000
0000
0010
0000
,
1001
0000
0000
0000
,
0001
0000
0010
0000
,
0010
0000
0000
0000
,
0001
0000
0100
0000
,
0010
0000
0000
0000
,
1000
0000
0010
0000
,
0010
0000
0000
0000
,
1000
0000
0001
0000
,
1001
0000
0000
0000
,
0100
0000
0000
0000
,
1001
0000
0000
0000
,
0010
0000
0000
0000
,
0110
0000
0000
0000
,
0010
0000
0100
0000
,
0100
0000
0000
0000
,
0001
0000
1000
0000
,
1000
0000
0000
0000
,
0001
0000
1000
0000
,
1000
0000
0000
0000
,
0010
0000
0100
0000
,
0001
0000
0000
0000
,
1000
0000
0100
0000
,
0100
0000
0000
0000
,
0010
0000
0001
0001
,
0001
0000
0001
0000
,
0001
0000
0000
0000
,
1000
0000
1000
0000
,
1000
0000
0000
0000
,
0010
0000
0010
0000
,
0010
0000
0000
0000
,
0100
0000
0100
0000
,
0100
0000
0000
0000
,
0001
0000
0001
0000
,
0001
0000
0000
0000
,
0010
0000
0010
0000
,
0010
0000
0000
0000
,
0100
0000
0100
0000
,
0100
0000
0000
0000
,
1000
0000
0001
0000
,
1000
0000
0000
0000
,
1001
0000
0000
0000
,
0110
0000
0000
0000
,
1001
0000
0000
0000
,
0110
0000
1000
1000
,
2000
0000
0000
0000
,
3000
0000
0000
0000
,
0020
0000
0000
0000
,
0030
0000
0000
0000
,
0200
0000
0000
0000
,
0300
0000
0000
0000
,
0002
0000
0000
0000
,
0003
0000
1001
0000
,
1001
0000
0000
0000
,
0010
0000
1000
0000
,
0001
0000
0000
0000
,
0001
0000
0100
0000
,
0010
0000
0000
0000
,
1000
0000
0001
0000
,
0001
0000
0000
0000
,
1000
0000
0000
0000
,
0010
0000
0010
0000
,
0010
0000
0000
0000
,
0100
0000
0100
0000
,
0100
0000
0000
0000
,
0001
0000
0001
0000
,
0001
0000
0000
0000
,
0010
0000
0010
0000
,
0010
0000
0000
0000
,
0001
0000
0001
0000
,
0001
0000
0000
0000
,
1000
0000
0010
0000
,
0100
0000
0000
0000
,
1001
0000
0000
0000
;

//---------------dance-single - D. Bernardone----------------
#NOTES:
     dance-single:
     D. Bernardone:
     Easy:
     5:
     0.418,0.000,0.092,0.492,0.000:
0000
0000
0000
0000
,
0000
0000
0000
0000
,
0000
0000
0000
0000
,
0000
0000
0110
1001
,
0001
0010
0100
0010
,
0001
0000
1000
0000
0010
0000
0100
0001
,
0100
0010
1000
0100
,
1000
0000
0001
0000
0100
0000
0010
1000
,
0010
0100
0001
1000
,
0100
0000
0010
0000
0001
0000
1000
0100
,
1000
0010
0100
0001
,
1000
0000
0010
0000
1000
0000
0001
0100
,
0002
0010
0023
0100
,
0230
1000
1300
1001
,
0002
0100
0203
0010
,
0320
1000
1030
1000
,
0001
0100
0001
0010
,
0001
1000
0010
0210
,
0301
1000
0100
1000
,
0010
0100
2001
0010
,
3001
0100
0001
0010
,
0001
1000
0100
0210
,
1300
0001
0010
0001
,
1000
0010
1002
0100
,
1003
1000
0100
0000
,
0001
0001
0100
0000
,
1000
1000
0001
0001
,
0002
0000
0103
0100
,
0020
2030
3200
0302
,
0203
2300
3002
0203
,
0302
0023
2030
3020
,
0032
2003
3002
0023
,
0032
0203
2300
3200
,
0320
2030
3002
2003
,
3020
0032
0023
0230
,
0302
2003
3200
0320
,
0031
0010
0001
1000
,
0100
1000
0010
0010
,
0010
0100
0001
0010
,
0001
1000
0100
0100
,
0100
0010
0001
1000
,
0010
0100
0001
0001
,
0001
0000
0100
0000
,
0001
0000
1000
0000
,
0110
0000
0001
1000
,
0001
0000
1000
0100
,
1000
0000
0010
0010
,
0200
0000
0301
0001
,
1000
0100
1000
0000
,
0010
0010
0010
0100
,
0001
1000
0001
0000
,
0010
0010
0010
0100
,
1000
0001
1000
0000
,
0010
0010
0020
0130
,
0002
1003
0002
1003
,
2000
3100
0200
0310
,
0010
0001
1000
0010
,
0100
0000
0010
0000
1000
0000
0100
0010
,
0100
0010
0001
1000
,
0010
0000
0100
0000
0010
0000
1000
0001
,
1000
0100
0010
0001
,
0010
0000
0100
0000
1000
0000
0010
0100
,
0010
0010
1000
0100
,
0010
0000
0001
0000
0100
0000
0001
1000
,
0001
0200
0310
2000
,
3001
0000
0001
1000
,
0001
2000
3010
0200
,
0301
0000
0001
1000
,
0001
2000
3100
0020
,
0031
0000
0100
0010
,
0100
0002
0013
0200
,
1300
0000
0010
0100
,
0010
1000
0100
0001
,
0100
1000
0001
1001
,
1001
0100
1000
0010
,
0001
0010
1000
0001
,
0202
0000
0303
0000
;

//---------------dance-single - D. Bernardone----------------
#NOTES:
     dance-single:
     D. Bernardone:
     Medium:
     8:
     0.569,0.000,0.125,0.250,0.079: // measure 1
0000
0000
0000
0000
,  // measure 2
0000
0000
0000
0000
,  // measure 3
0000
0000
0000
0000
,  // measure 4
0000
0000
0000
0000
0001
0001
0001
0000
,  // measure 5
0010
0100
1000
0010
0100
0010
1000
0001
,  // measure 6
0100
0000
0001
0000
1000
0000
0010
0000
0100
0000
0001
0000
1000
0001
0000
1000
,  // measure 7
0001
0010
0100
1000
0001
0100
0001
0010
,  // measure 8
0001
0000
1000
0000
0100
0000
1000
0000
1001
0000
0000
1000
0100
0000
0010
0000
,  // measure 9
0001
0010
0100
1000
0010
0100
0010
1000
,  // measure 10
0100
0000
0010
0000
0100
0000
1000
0000
0001
0000
0100
0000
0010
0100
0000
0010
,  // measure 11
0100
0001
0100
0010
1000
0010
1000
0001
,  // measure 12
0010
0000
0001
0000
1000
0000
0100
0000
0110
0000
0000
0001
0100
0000
0010
0000
,  // measure 13
1000
0000
0100
0010
0001
0000
0100
0010
,  // measure 14
1000
0000
0100
0010
0001
1000
1000
0010
,  // measure 15
0100
0000
0001
1000
0100
0000
1000
0001
,  // measure 16
0010
0100
0100
1000
0001
0001
0001
0000
,  // measure 17
0100
0010
1000
0000
0001
0010
0100
0000
,  // measure 18
1000
0000
0001
0000
0100
0000
0010
0000
0010
0000
1000
0000
0001
0010
0000
0001
,  // measure 19
0010
0100
1000
0000
0001
0100
0001
0000
,  // measure 20
0010
0100
1000
0001
0200
0000
0320
0000
,  // measure 21
1030
0100
1000
0000
0100
0010
0001
0000
,  // measure 22
0100
0000
0010
0000
1000
0000
0100
0000
1000
0000
1000
0000
0001
0100
0000
0001
,  // measure 23
0100
0010
1000
0000
0100
0010
0100
0000
,  // measure 24
1000
0001
0010
0001
0200
0000
0320
0000
,  // measure 25
1030
0001
0100
0001
,  // measure 26
1000
0000
0100
0000
0010
0010
0010
0000
,  // measure 27
0001
0100
0010
1000
0001
0100
0010
1000
,  // measure 28
0100
0010
0001
0100
0200
0000
0320
0000
,  // measure 29
1030
0100
1000
0001
,  // measure 30
0100
0000
0001
0000
1000
0000
0100
0010
,  // measure 31
0001
0100
0010
1000
,  // measure 32
0100
0000
0010
0000
0001
0000
1000
0100
,  // measure 33
0001
0100
1000
0010
,  // measure 34
0100
0000
0001
0000
1000
0000
0001
0100
,  // measure 35
0010
1000
0100
1000
,  // measure 36
0010
0000
0100
0000
0001
0000
0010
0001
,  // measure 37
0200
0010
1000
0310
,  // measure 38
2000
0000
0100
0000
0001
0000
3100
0100
,  // measure 39
0020
0001
0100
0031
,  // measure 40
2000
0000
0010
0000
0001
0000
3010
1000
,  // measure 41
0200
1000
0010
1300
,  // measure 42
2000
0000
0001
0000
0100
0000
3001
0001
,  // measure 43
0020
0100
1000
0130
,  // measure 44
0002
0000
0010
0000
1000
0000
0013
0001
,  // measure 45
0100
0010
0100
0000
0001
1000
0001
0000
,  // measure 46
0100
0001
0100
0000
0100
0010
0100
0000
,  // measure 47
0010
1000
0010
0000
0100
0100
0100
0000
,  // measure 48
0001
0100
0001
0100
0020
0000
2030
0000
,  // measure 49
3001
0000
0000
0000
0010
0000
0000
0000
0100
0000
0000
1000
0000
0000
0001
0000
,  // measure 50
0000
0100
0000
0000
0010
0000
0000
0000
1000
0000
0000
0000
0001
0000
0010
0000
,  // measure 51
0001
0000
0000
0000
1000
0000
0000
0000
0010
0000
0000
0100
0000
0000
0001
0000
,  // measure 52
0000
0010
0000
0000
0100
0000
0000
0000
1000
0000
0000
0000
0001
0000
0100
0000
,  // measure 53
0001
0000
0000
0000
1000
0000
0000
0000
0010
0000
0000
0100
0000
0000
0010
0000
,  // measure 54
0000
1000
0000
0000
0100
0000
0000
0000
0010
0000
0000
0000
0001
0000
1000
0000
,  // measure 55
0001
0000
0000
0000
0100
0000
0000
0000
0010
0000
0000
1000
0000
0000
0100
0000
,  // measure 56
0000
0010
0000
0000
0001
0000
0100
0000
0010
0000
0000
0000
1001
0000
0000
0000
,  // measure 57
1000
0001
0010
0100
1000
0000
0001
0100
,  // measure 58
0010
1000
1000
0100
0010
0001
0001
0000
,  // measure 59
0101
0001
0001
0010
0100
1000
1000
0100
,  // measure 60
0001
0100
1000
0010
0020
0000
2030
0000
,  // measure 61
3001
0010
0100
0010
0001
0000
1000
0100
,  // measure 62
0010
0001
0001
0100
0010
1000
1000
0000
,  // measure 63
1010
1000
1000
0100
0010
0100
0100
1000
,  // measure 64
0010
1000
0100
0010
0020
0000
0032
0000
,  // measure 65
0103
0120
1030
0210
,  // measure 66
0301
0000
0001
0001
1000
0100
1000
0000
,  // measure 67
0001
2001
3010
1002
,  // measure 68
0103
0000
0100
0100
0010
0000
1000
0100
,  // measure 69
1000
0102
1003
0201
,  // measure 70
0310
0000
1000
1000
0010
0100
0010
0000
,  // measure 71
1000
2010
3001
1020
,  // measure 72
0130
0000
0001
0001
1000
0000
1000
0001
,  // measure 73
1000
0100
0010
0000
1000
0100
0010
0000
,  // measure 74
1000
0100
0010
0001
0001
0100
0010
0000
,  // measure 75
1010
0000
0001
0100
0010
0000
0001
0100
,  // measure 76
0010
0000
1000
0000
1000
0000
0001
0000
0010
0000
0100
0000
1000
0001
1000
0000
,  // measure 77
2002
0000
3003
0000
;

//---------------dance-single - D. Bernardone----------------
#NOTES:
     dance-single:
     D. Bernardone:
     Challenge:
     13:
     1.000,0.000,0.675,0.067,1.000:
0000
0000
0000
0000
,
0000
0000
0000
0000
,
0110
0000
0000
1001
0000
0000
1100
0011
,
1100
0000
0000
1001
0000
0000
0101
0000
,
1001
0000
0100
0000
0010
1000
0001
0010
0100
0000
0010
0000
0100
1000
0001
0100
,
0010
0000
2000
0000
3100
0000
2000
0000
3010
0000
2000
0000
3001
0100
0000
0001
,
0010
0000
0010
0000
0100
1000
0010
0100
0001
0000
0001
0000
0010
0100
1000
0001
,
0100
0000
0100
0000
0010
1000
0100
0000
1001
0000
0000
0010
1000
0100
0010
0000
,
1001
0000
1000
0000
0100
0010
0001
1000
0010
0000
0010
0000
0100
0001
0010
0100
,
1000
0000
0002
0000
0103
0000
0002
0000
0013
0000
0002
0000
1003
0100
0000
1000
,
0010
0000
1000
0000
0001
0010
0100
0010
0001
0000
1000
0000
0010
0100
0001
0010
,
0100
0000
1000
0000
0010
1000
0100
0000
0011
0000
0000
0100
0001
0010
0100
0000
,
1000
0001
0100
0001
0010
0001
1000
0100
1000
0010
1000
0001
0010
0100
1000
0010
,
1000
0100
1000
0001
0010
0001
1000
0010
0100
0001
0100
0001
0010
0100
1000
0010
,
1000
0001
0100
0001
0010
0100
1000
0010
1000
0100
0010
0001
0010
0100
0010
0001
,
1000
0100
0010
0100
1000
0001
0010
0100
1000
0001
0100
0010
1000
0001
0100
0000
,
1001
0000
0010
0000
1100
0000
0001
0100
0010
0000
1000
0000
1100
0000
0010
0001
,
1000
0000
0110
0000
0001
0000
1100
0000
0010
0000
1001
0000
0100
0010
1000
0100
,
0010
0000
0001
0000
1001
0000
1000
0010
0100
0010
1000
0001
0010
0100
0010
0001
,
1000
0000
0001
0100
0001
0010
0100
0000
1100
0000
1000
0001
0010
0100
1000
0001
,
0100
0000
0100
0000
1001
0000
0010
1000
0100
0000
0100
0000
1001
0000
0010
0001
,
0100
0000
0100
0000
1001
0000
0100
0001
0010
0000
0010
0000
0100
1000
0010
1000
,
0001
0000
0100
0000
1000
0000
0100
0001
0010
0000
1000
0000
0010
0000
0001
0100
,
1000
0000
0100
0000
0001
0010
0100
0000
1100
0000
1000
0001
0100
0010
1000
0001
,
0100
0000
0010
0000
1000
0100
0010
0001
0010
0000
0100
0000
1000
0010
0100
0001
,
0010
0000
0001
0000
1000
0100
1000
0010
0100
0001
1000
0100
0010
0001
0010
0000
,
0010
0001
1000
0010
0100
0001
0010
0001
0100
0010
1000
0100
1000
0001
0010
0100
,
1000
0001
0100
0010
1000
0000
1100
0000
0110
0000
0000
0001
1000
0000
1100
0000
,
1001
0000
0001
0100
0010
0000
0100
0001
0010
0000
0001
1000
0100
0000
1000
0010
,
0100
0000
0010
1000
0100
0000
1000
0001
0100
0001
1000
0000
0100
0010
0001
0100
,
0010
0000
1000
0001
0100
0000
0010
1000
0100
0000
1000
0001
0010
0000
0100
1000
,
0010
0000
1000
0001
0100
0000
0001
1000
0010
1000
0001
0000
0100
0010
1000
0100
,
0010
0000
0001
1000
0100
0000
1000
0010
0100
0000
0001
0010
0100
0000
0010
0001
,
0100
0000
0001
1000
0100
0000
1000
0001
0100
0001
1000
0000
0100
0010
0001
0100
,
0010
0000
1000
0100
0010
0000
0100
1000
0001
0000
1000
0010
0100
0000
0010
1000
,
0001
0000
1000
0100
0010
0000
0001
1000
1100
0000
0011
0000
0001
0010
1M00
001M
,
0100
1000
0001
1000
0010
1000
0100
0010
0001
0100
0001
0010
0100
1000
0010
1000
,
0001
0100
0001
0010
0001
1000
0100
1000
0010
0100
0001
1000
1001
0000
1010
0000
,
1000
0100
0010
0001
0100
0001
1000
0010
0100
0001
0010
0001
1000
0001
0100
0010
,
1000
0100
1000
0001
0010
0100
1000
0010
1000
0001
0100
0000
1000
01M0
0001
M100
,
0010
1000
0001
0010
0001
0100
0001
1000
0100
1000
0010
0100
0010
1000
0001
0010
,
0001
0100
0010
0100
0001
0010
0100
1000
0010
0100
0001
1000
1001
0000
1100
0000
,
0010
0001
1000
0100
1000
0001
0010
0100
0010
0001
0010
0100
1000
0010
1000
0001
,
0100
0010
0100
0001
0100
0010
1000
0001
0010
0100
1000
0010
1000
0001
0010
0100
,
0010
0001
1000
0000
0100
1000
0010
1000
0001
0000
0001
0000
0010
0100
1000
0010
,
1000
0000
1000
0000
0001
0000
0001
0000
1001
0000
0110
0000
0010
1000
0001
0010
,
0100
0000
1000
0001
0010
0100
0010
0000
0001
0100
0000
0001
1000
0000
MMMM
0000
,
1000
0001
0010
0001
0100
0010
1000
0001
0100
0010
1000
0001
0010
0100
1000
0001
,
0011
0000
1MM0
0000
0010
1000
0001
0010
0001
1000
0100
1000
0001
0000
0110
0000
,
1000
0000
0100
0000
0010
0001
1000
0001
0010
0100
1000
0000
0001
0100
0000
0001
,
0010
0000
0010
0000
0001
1000
0100
1000
0001
0010
0001
1000
0010
0100
0001
0010
,
0001
0000
1000
0000
0010
1000
0100
0000
0011
0000
0001
0100
0010
1000
0001
0100
,
0010
0000
1000
0000
0100
0010
0001
0010
0100
1000
0010
0100
0001
1000
0010
0100
,
0001
0000
0110
0000
1000
0000
0101
0000
0010
0000
1100
0000
0001
0100
0000
0001
,
0010
0100
1000
0100
0010
0100
1000
0001
0100
0010
0100
0001
1000
0100
0010
0001
,
0010
0100
1000
0001
0100
0010
1000
0010
0100
0001
0010
0100
1000
0010
0100
0000
,
0100
0001
1000
0001
1000
0001
1000
0100
1000
0001
0010
0001
0010
0001
0100
0001
,
0100
0010
1000
0010
1000
0100
1000
0000
1001
0000
0011
0000
0100
1000
0001
0010
,
0100
1000
0001
1000
0001
0010
0100
0010
0100
1000
0010
1000
0010
1000
0100
1000
,
0100
1000
0001
0100
0001
0000
1001
0000
0110
0000
1000
0001
0010
0100
1000
0100
,
0010
0001
0010
0001
0100
0010
0100
0010
1000
0010
1000
0001
0010
0001
0010
0001
,
0100
0001
0100
0010
1000
0010
1000
0000
1100
0000
0110
0000
0001
0100
0010
1000
,
0100
0010
0001
0010
0001
1000
0100
1000
0100
1000
0010
1000
0010
0100
0001
0100
,
0001
0010
0001
0010
0001
1000
0001
0000
1001
0000
0100
0010
1000
0100
0010
0001
,
1001
0000
0101
0000
0110
0000
0010
1000
0100
0000
0110
0000
1100
0000
1000
0001
,
0100
0000
1010
0000
0001
0000
0110
0000
1000
0000
1100
0000
1000
0001
0010
0100
,
1100
0000
1001
0000
0101
0000
0010
1000
0100
0000
0110
0000
0011
0000
0001
1000
,
0100
0000
1001
0000
0010
0000
0101
0000
1010
0000
0100
0001
0010
0100
1000
0001
,
0011
0000
0110
0000
1100
0000
0100
1000
0010
0000
0110
0000
0101
0000
0001
0010
,
0100
0000
1001
0000
0100
0000
1010
0000
0001
0000
0110
0000
1000
0001
0010
0100
,
1100
0000
1001
0000
0011
0000
0010
0001
0100
0000
0110
0000
0101
0000
0100
0010
,
1000
0000
1001
0000
0100
0000
0011
0000
1001
0000
1000
0100
0010
0001
1000
0000
,
0001
1000
0010
0100
0010
1000
0100
1000
0001
0010
0001
0100
0010
1000
0100
1000
,
0001
0100
0010
0100
0001
0010
0001
0100
0010
1000
0001
0010
0100
0010
0001
1000
,
0001
0100
0001
1000
0010
0100
0001
1000
0100
0010
0100
1000
0010
0100
0001
0010
,
0001
0100
0010
1000
0100
1000
0001
0010
0100
1000
0010
0100
0001
0010
0001
0000
,
0202
0000
0000
00M0
0000
M000
0000
00M0
0000
M000
0000
00M0
0303
0M0M
0000
0000
;

//---------------dance-double - D. Bernardone----------------
#NOTES:
     dance-double:
     D. Bernardone:
     Easy:
     4:
     0.305,0.000,0.192,0.108,0.000:
00000000
00000000
00000000
00000000
,
00000000
00000000
00000000
00000000
,
00000000
00000000
00000000
00000000
,
00000000
00000000
00000000
00000000
,
00011000
00010000
00100000
00000000
,
10000000
01000000
10000000
20000000
,
30010000
00010000
01000000
00000000
,
00001000
00010000
00000100
00002000
,
00003010
00000100
00000001
00000000
,
00001000
00000100
00001000
00002000
,
00003010
00010000
00001000
00000000
,
00010000
01000000
10000000
00020000
,
00130000
00000000
00001000
00000000
,
00010000
00000100
00000100
00001001
,
00000010
00001000
00001000
00000100
,
00001000
00000000
00001000
00000100
,
00010000
00010000
00001000
00001000
,
00100000
00100000
00010000
10000000
,
00010000
00010000
01000000
01000000
,
00001000
00001000
00010000
00000010
,
00010000
00010000
00000100
00000100
,
00001000
00001000
00000001
00000100
,
00000001
00000001
00001000
00001000
,
00000010
00000010
00010000
00001000
,
00011000
00000000
00000000
00000000
,
10010000
00000000
01000000
01000000
,
02100000
00000000
00000000
00000000
,
03020000
00000000
00230000
00302000
,
00013000
00000000
00000010
00000000
,
00000100
00000000
00000001
00001000
,
00000100
00000000
00010000
00000000
,
00001000
00000000
01000000
00100000
,
10000000
00000000
00010000
00000000
,
00100000
00000000
01000000
10000000
,
00010000
00000000
00100000
00000000
,
00001000
00000000
00010000
00000100
,
00001000
00000000
00000010
00000000
,
00000100
00000000
00000001
00000100
,
00000010
00000000
00010000
00000000
,
00001000
00000000
00010000
01000000
,
10000000
00000000
00010000
00000000
,
01000000
00000000
00100000
10000000
,
01000000
00000000
00100000
00000000
,
00001000
00000000
01000000
00001000
,
00010000
00010000
00000100
00000100
,
00001000
00001000
00001001
00001001
,
00000001
00000100
00000010
00000010
,
00000020
00000000
00002030
00003200
,
00010300
00000000
00001000
00100000
,
01000000
10000000
00000000
00000000
,
10010000
00000000
01000000
00001000
,
00010000
00000100
00000000
00000000
,
00001001
00000000
00000010
00010000
,
00001000
00100000
00000000
00000000
,
10010000
01000000
00001000
00010000
,
00000010
00010000
00001000
00100000
,
00001000
00010000
00000100
00001000
,
00000010
00010000
00000100
00001000
,
00000010
00010000
00001000
01000000
,
00010000
00100000
00001000
01000000
,
00010000
00100000
01000000
10000000
,
01000000
00100000
00001000
00010000
,
00000100
00000010
00000001
00001000
,
00000100
00000010
00000001
00000010
,
00001001
00000000
00011000
00000000
,
10010000
00000000
00000000
00000000
,
10010000
00000000
00011000
00000000
,
00001001
00000000
00000000
00000000
,
00000110
00000000
00011000
00000000
,
01100000
00000000
00000000
00000000
,
01100000
00000000
00011000
00000000
,
00000110
00000000
00000000
00000000
,
00000001
00000100
00001000
00010000
,
01000000
10000000
00100000
00010000
,
00001000
00000010
00000001
00000100
,
00001000
00010000
00100000
10000000
,
20020000
00000000
30030000
00000000
;

//---------------dance-double - D. Bernardone----------------
#NOTES:
     dance-double:
     D. Bernardone:
     Medium:
     7:
     0.501,0.000,0.350,0.075,0.033:
00000000
00000000
00000000
00000000
,
00000000
00000000
00000000
00000000
,
10000000
00000000
00000000
00010000
00000000
00000000
01000000
00001000
,
01000000
00000000
00000000
00001000
00010000
00000000
00000100
00000000
,
00001000
00000010
00000100
00000001
00001000
00000000
00001000
00000000
,
00000100
00010000
00001000
00100000
00010000
00010000
00010000
00000000
,
01000000
00100000
10000000
01000000
00100000
00000000
00100000
00000000
,
00010000
01000000
00001000
00010000
00001000
00000000
00011000
00000000
,
00010000
00000010
00001000
00000100
00001000
00000000
00001000
00000000
,
00000001
00000100
00000010
00001000
00000100
00000100
00000100
00000000
,
00001000
00000010
00010000
00001000
00010000
00000000
00010000
00000000
,
00001000
00100000
00010000
01000000
00100000
00000000
01100000
00000000
,
10010000
01000000
01001000
00001000
,
00011000
00000000
00010000
00000000
00010010
00000010
00001000
00000100
,
00001000
00001100
00001000
00001001
,
00000101
00000100
00000010
00001000
00000100
00000000
00001100
00000000
,
00000100
00010000
00001000
00000000
00010000
00001000
00100000
00000000
,
00010000
10000000
01000000
00100000
01000000
10000000
00020000
00000000
,
01030000
00100000
10000000
00000000
10000000
00010000
01000000
00001000
,
00010000
00000000
00001000
00010000
00000010
00000000
00001010
00000000
,
00001000
00000000
00000000
00000001
00000100
00000000
00000000
00001000
,
00000100
00000000
00000000
00010000
00001000
00100000
00100000
00000000
,
01100000
00000000
00000000
10000000
00100000
00000000
00000000
00010000
,
00100000
01000000
01000000
00000000
10010000
00000000
01010000
00000000
,
02000000
00000000
03002000
00000000
,
00023000
00000000
00030010
00001000
,
00000200
00000000
00000320
00000000
,
00000032
00000000
00000000
00001003
00000100
00000000
00010100
00010000
,
00001000
00000000
01000000
00100000
10000000
00000000
01000000
00100000
,
00010000
00000000
01000000
00001000
00010000
00001000
00010000
00000100
,
00001000
00000000
00000010
00000100
00000001
00000000
00000010
00000100
,
00001000
00000000
00000010
00010000
00001000
00010000
00001000
00100000
,
00010000
00000000
01000000
00010000
00100000
00000000
01000000
10000000
,
00100000
00000000
01000000
00001000
00010000
00001000
00010000
00000010
,
00001000
00000000
00000100
00001000
00000010
00000000
00000100
00000001
,
00000010
00000000
00000100
00010000
00001000
00010000
00001000
00100000
,
00010000
01000000
00100000
10000000
,
01000000
00000000
00010000
00000000
00001000
00000000
00010000
00010000
,
00000100
00001000
00000010
00001000
,
00000100
00000000
00000001
00000000
00000100
00000000
00001000
00001000
,
00000010
00010000
00001000
00010000
,
01000000
00000000
10000000
00000000
00100000
00000000
01000000
01000000
,
00010000
00100000
00001000
00010000
,
00001000
00000000
00000100
00000000
00000001
00000000
00001000
00001000
,
00000010
00000010
00000010
00000000
00001000
00001000
00000100
00010000
,
00000100
00000100
00000100
00000000
00010000
00010000
00001000
00100000
,
00001000
00001000
00001000
00000000
01000000
00000000
01010000
00000000
,
00010000
00100000
01000000
10000000
01000000
00100000
00010000
00000000
,
10010000
00000000
00000000
00000000
01000000
00000000
00000000
00000000
00001000
00000000
00000000
00001000
00000000
00000000
00010000
00000000
,
00000000
00010000
00000000
00000000
00000000
00000000
00000000
00000000
00000001
00000000
00000000
00000000
00001000
00000000
00000000
00000000
,
00001001
00000000
00000000
00000000
00000010
00000000
00000000
00000000
00010000
00000000
00000000
00010000
00000000
00000000
00001000
00000000
,
00000000
00001000
00000000
00000000
00000000
00000000
00000000
00000000
01000000
00000000
00000000
00000000
00100000
00000000
00000000
00000000
,
01100000
00000000
00000000
00000000
00010000
00000000
00000000
00000000
00001000
00000000
00000000
00001000
00000000
00000000
01000000
00000000
,
00000000
01000000
00000000
00000000
00000000
00000000
00000000
00000000
00010000
00000000
00000000
00000000
00100000
00000000
00000000
00000000
,
00101000
00000000
00000000
00000000
00001000
00000000
00000000
00000000
00010000
00000000
00000000
00010000
00000000
00000000
00000010
00000000
,
00000000
00000010
00000000
00000000
00000000
00000000
00000000
00000000
00010000
00000000
00000000
00000000
00001000
00000000
00000000
00000000
,
00011000
00000000
00001000
00100000
00100000
00000000
00010000
10000000
,
10000000
00000000
00100000
01000000
01000000
00010000
10000000
00000000
,
11000000
00000000
10000000
00010000
00010000
00000000
01000000
00001000
,
00001000
00010000
00000100
00000000
00001100
00000000
00001001
00000000
,
00000101
00000000
00000100
00000010
00000010
00000000
00001000
00000100
,
00000100
00000000
00010000
00001000
00001000
00100000
00010000
00000000
,
10010000
00000000
10000000
00100000
00100000
00000000
01000000
00010000
,
00010000
00100000
01000000
00000000
01100000
00000000
10010000
00000000
,
11000000
00000000
00011000
00000000
,
00000011
00000000
00000001
00001000
,
00000101
00000000
00011000
00000000
,
10100000
00000000
01000000
00100000
,
00110000
00000000
00011000
00000000
,
00001100
00000000
00000100
00001000
,
00001010
00000000
00011000
00000000
,
01010000
00000000
01000000
00010000
,
10010000
10000000
00010000
01000000
,
00001000
00010000
00001000
00010000
00000010
00010000
00000010
00001000
,
00000010
00000100
00000001
00001000
,
00000100
00010000
00000100
00010000
00001000
00010000
00001000
00100000
,
00202000
00000000
00303000
00000000
;

//---------------dance-double - D. Bernardone----------------
#NOTES:
     dance-double:
     D. Bernardone:
     Hard:
     10:
     0.823,0.000,0.217,0.242,0.571:
00000000
00000000
00000000
00000000
,
00000000
00000000
00000000
00000000
,
10010000
00000000
00000000
00000000
,
00011000
00000000
00000000
00000000
,
00001001
00000001
00000010
00000100
00010000
00001000
00100000
00010000
,
01000000
00000000
00001000
00000000
00010000
00000000
00100000
00000000
10000000
00000000
00010000
00000000
01000000
00001000
00000000
00001000
,
00100000
00010000
01000000
00001000
00010000
00001000
00000010
00000001
,
00001000
00000000
00000100
00000000
00000010
00000000
00000001
00000000
00001100
00000000
00000000
00000010
00010000
00001000
00010000
00000000
,
00001000
00100000
00010000
10000000
01000000
00010000
00001000
00000100
,
00001000
00000000
00010000
00000000
00000010
00000000
00001000
00000000
00000100
00000000
00000010
00000000
00000001
00001000
00000000
00001000
,
00000010
00010000
00001000
01000000
00010000
00100000
00001000
00010000
,
00000100
00000000
00001000
00000000
00000010
00000000
00000100
00000000
00001001
00000000
00000000
00000100
00010000
00001000
00010000
00000000
,
00001000
00100000
00010000
00000000
10000000
00000000
00100000
00000000
01000000
00010000
00100000
00000000
00001000
00000000
00010000
00000000
,
00000100
00001000
00000010
00000000
00000100
00000000
00000001
00000000
00001000
00000100
00010000
00000000
00001000
00000000
00100000
00000000
,
00010000
01000000
00100000
00000000
10000000
00000000
01000000
00000000
10000000
00010000
00100000
00000000
00010000
00000000
01000000
00000000
,
00001000
00010000
00001000
00000000
00010000
00000010
00010000
00000000
00000010
00001000
00000010
00001000
00000001
00000100
00000001
00001000
,
00000100
00000000
00010000
00000000
00001000
00100000
00000000
00010000
10000000
00000000
00100000
00000000
01000000
00010000
01000000
00001000
,
00010000
00000000
00000100
00000000
00001000
00000000
00000001
00000000
00000010
00000000
00001000
00000000
00010000
00001000
00100000
00010000
,
01000000
00000000
00100000
00000000
10000000
00010000
00000000
00100000
01000000
00000000
00010000
00000000
00001000
00000010
00000001
00000100
,
00000001
00000000
00001000
00000000
00000100
00010000
00001000
00000000
00101000
00000000
00000000
00001000
01000000
00010000
00100000
01000000
,
10000000
00000000
00010000
00000000
00100000
00000000
00001000
00010000
00000010
00000000
00010000
00000000
00001000
00000000
01000000
00001000
,
00010000
00000000
00001000
00000000
00010000
00000000
00000100
00010000
00001000
00000000
00010000
00000000
00001000
00100000
00010000
01000000
,
00001000
00000000
00010000
00000000
00000010
00000000
00000100
00000001
00001000
00000000
00000100
00000000
00010000
00000000
00001000
00100000
,
00010000
00000000
01000000
00000000
00100000
10000000
01000000
00000000
10010000
00000000
00000000
10000000
00100000
10000000
01000000
00000000
,
00100000
00010000
10000000
00000000
00100000
01000000
00000000
10000000
00000000
01000000
00010000
00000000
00100000
00001000
00010000
00000000
,
00000010
00000100
00000010
00000000
00010000
00000100
00001000
00000000
00000010
00000100
00000000
00000001
00000010
00000100
00000010
00000000
,
00000001
00000100
00000001
00001000
00000100
00000000
00000100
00000000
00010000
00001000
00010000
00001000
01000000
00000000
01000000
00000000
,
00001000
00010000
00000010
00001000
00000001
00000000
00000101
00000000
00001010
00000000
00000000
00010000
00001000
00000000
00100000
00000000
,
02000000
00000000
03100000
00001000
00020000
00000000
00030100
00001000
,
00000020
00000000
00001030
00000100
00010000
00001000
00010000
00100000
,
20000000
00000000
30100000
01000000
00020000
00000000
00130000
00001000
,
00020000
00000000
00030010
00001000
00000100
00000001
00000100
00001000
,
00000020
00000000
00000130
00001000
00020000
00000000
00130000
10000000
,
02000000
00000000
03100000
00010000
01000000
00001000
00010000
00000010
,
00000200
00000000
00000301
00001000
00000020
00000000
00010030
00001000
,
00020000
00000000
00000000
00000000
00031000
00000000
00010000
00000000
00200000
00000000
00000000
00000000
10300000
01000000
10000000
00010000
,
10000000
00100000
00010000
00001000
00010000
00000100
00001000
00000010
,
00000100
00000001
00001000
00000010
00010000
00001000
01000000
01000000
,
01000000
00010000
00100000
00001000
00000100
00000001
00000010
00000001
,
00000100
00000000
00001000
00000000
00010000
00000000
01000000
00000000
00010000
00000000
00001000
00000000
00000100
00000001
00000100
00000010
,
00000100
00000001
00001000
00000010
00010000
00001000
00010000
00100000
,
10000000
00100000
00010000
00001000
00010000
01000000
10000000
10000000
,
20000000
00000000
00000000
00000000
30010000
01000000
00010000
01000000
00020000
00000000
00000000
00000000
00130000
00001000
00100000
00001000
,
00200000
00000000
00000000
00000000
00301000
00010000
00001000
00010000
00002000
00000000
00000000
00000000
00013000
00000100
00010000
00001000
,
00010000
00000000
00000010
00000000
00001000
00000000
00000100
00000000
00000010
00000000
00000010
00000000
00000001
00000100
00000010
00010000
,
00001000
00000000
00100000
00000000
01000000
00000000
10000000
00000000
00100000
00000000
00100000
00000000
10000000
01000000
00100000
00001000
,
00010000
00000000
00001000
01000000
00001000
00000000
00000010
00000000
00000100
00001000
00000000
00001000
00000100
00000000
00000000
00000000
,
00001000
00000001
00000010
00000100
00010000
00000010
00001000
00000000
00001200
00000000
00010000
00000300
00020100
00000000
00001000
00030000
,
00010000
00000000
00100000
00000000
10000000
00000000
00000000
00000000
10010000
00000000
00000000
00011000
00000000
00000000
00002002
00000000
,
00000000
00000010
00000000
00000000
00003003
00000000
00000000
00000000
0000M00M
00000000
00000000
00000000
00000100
00000000
00010000
00000000
,
00001000
00000000
00000010
00000000
00000001
00000000
00000000
00000000
00001001
00000000
00000000
00011000
00000000
00000000
20020000
00000000
,
00000000
00100000
00000000
00000000
30030000
00000000
00000000
00000000
M00M0000
00000000
00000000
00000000
01000000
00000000
00001000
00000000
,
00010000
00000000
01000000
00000000
10000000
00000000
00000000
00000000
01100000
00000000
00000000
00011000
00000000
00000000
00000220
00000000
,
00000000
00000001
00000000
00000000
00000330
00000000
00000000
00000000
00000MM0
00000000
00000000
00000000
00000100
00000000
00010000
00000000
,
00001000
00000000
00000100
00000000
00000001
00000000
00000000
00000000
00000110
00000000
00000000
00011000
00000000
00000000
02200000
00000000
,
00000000
10000000
00000000
00000000
03300000
00000000
00000000
00000000
0MM00000
00000000
00000000
00000000
00001000
00000000
00010000
00000000
,
00001000
00000010
00001000
00010000
01000000
00000000
10000000
00100000
,
00010000
00001000
00000100
00000001
00000010
00000010
00000100
00000100
,
00011000
00000000
01000000
00100000
10000000
00010000
01000000
00001000
,
00010000
00001000
00000010
00000001
00001000
00001000
00000100
00000100
,
00011000
00000000
00001000
00100000
00010000
01000000
10000000
01000000
,
00010000
00100000
00001000
01000000
00010000
00100000
00001000
00010000
,
00000010
00001000
00000100
00000001
00000100
00001000
00000010
00010000
,
00000100
00001000
00000010
00010000
00001000
00100000
00010000
10000000
,
01100000
00000000
00010000
00000000
01000000
00010000
01000000
00001000
01000000
00000000
00010000
00000000
00100000
00010000
00100000
00001000
,
00100000
00000000
00001000
00000000
00010000
00000000
00000010
00000000
00001000
00000000
00001000
00000000
00000001
00000010
00000100
00001000
,
00000010
00000000
00010000
00000000
00001000
00100000
00001000
00010000
00001000
00000000
00100000
00000000
00010000
01000000
00010000
00100000
,
00010000
00000000
00100000
00000000
01000000
00000000
00010000
00000000
00001000
00000000
00000000
00000100
00000001
00000000
00001000
00000000
,
00000100
00000000
00000010
00000000
00000001
00000100
00000001
00001000
00000001
00000000
00000100
00000000
00000010
00000100
00000010
00010000
,
00000010
00000000
00001000
00000000
00000100
00000000
00010000
00000000
00001000
00000000
00001000
00000000
00100000
00010000
01000000
00100000
,
10000000
00000000
01000000
00000000
00100000
01000000
00100000
00010000
00100000
00000000
00001000
00000000
01000000
00001000
01000000
00010000
,
01000000
00000000
00001000
00000000
00010000
00000000
00000010
00000000
00001000
00000000
00000000
00000001
00000010
00000000
00001000
00000000
,
00010000
00001000
00010000
00000000
01000000
10000000
00000000
00100000
00000000
00100000
01000000
00000000
00001000
00010000
00001000
00010000
,
00001000
00000000
00010000
00000000
00000010
00001000
00000000
00000100
00000000
00000100
00000010
00000000
00000001
00001000
00000100
00001000
,
00000010
00000100
00000010
00000000
00010000
00001000
00000000
00010000
00000000
00010000
00100000
00000000
10000000
01000000
10000000
00010000
,
10000000
00000000
00010000
01000000
00100000
00010000
00000000
00001000
00010000
00000100
00000000
00000100
00000010
00000001
00001000
00000200
,
00020000
00000000
00030300
00000000
;

//---------------dance-double - Oren G.----------------
#NOTES:
     dance-double:
     Oren G.:
     Challenge:
     12:
     0.947,0.000,0.342,0.258,1.000:
00000000
00000000
00000000
00000000
,
00000000
00000000
00000000
00000000
,
10010000
00000000
00000000
00001001
00000000
00000000
00000100
00000010
,
00001001
00000000
00000000
00000000
00000000
00000000
00000010
00000000
00000100
00001000
00000000
00000001
00000100
00000000
00000000
00000000
,
00000001
00000000
00000010
00000000
00000100
00010000
00001000
00100000
00010000
00000000
10000000
00000000
00100000
01000000
00000000
01001000
,
00000000
00000000
00100000
00000000
00010000
01000000
00001000
00000000
00010000
00000000
00000010
00000000
00100000
00001000
00000000
01000000
,
00010000
00000000
00100000
00000000
01000000
00100000
00010000
01000000
00001000
00000000
00010000
00000000
00100000
00010000
00000000
00001000
,
00000010
00000000
00000001
00000000
00000100
00000010
00001000
00000000
00010010
00000000
00000000
00001100
00000000
00010000
00001000
00000000
,
00100000
01000000
10000000
00000000
00010000
01000000
00001000
00010000
00000010
00000000
00001000
00000000
00000100
00000010
00000000
00010100
,
00000000
00000000
00001000
00000000
00000001
00000100
00000010
00000000
00010000
00000000
00000100
00000000
01000000
00001000
00000000
00100000
,
01000000
00000000
00010000
00000000
00001000
00000010
00000000
00001000
00010000
00000000
00100000
00000000
10000000
01000000
00000000
00100000
,
00010000
00000000
01000000
00000000
00100000
00010000
00001000
00000000
00010010
00000000
00000000
00001010
00000000
00010000
00001000
00000000
,
00100000
00000000
01000000
00000000
00010000
00000000
00000100
00000020
00000000
00000M00
00000031
00000000
00000100
00000000
00010000
02000000
,
00000000
000M0000
03100000
00000000
00010000
00000000
00001000
00000020
00000000
0000M000
00000031
00000000
00000100
00000000
00000010
00000M00
,
00010000
00000000
00000000
00000000
00100M00
00000000
1000M000
0001000M
00000000
00000000
00000000
00000000
00M00010
00000000
000M0001
M0001000
,
00000000
00000010
00000100
00001000
00100000
01000000
10000000
00010000
,
01000000
00001000
01000000
00000000
00010000
00100000
00001000
00010000
00000000
00010000
00000010
00000000
01000000
00001000
00010000
00000010
,
00000000
00001000
00000100
00000000
00000010
00000001
00000100
00000010
00001000
00000000
00000200
00000000
00000010
00000310
00000000
00001000
,
00010000
00000000
01000000
00000000
00100000
00010000
01000000
00000000
00100000
00000000
20000000
00000000
01000000
31000000
00000000
00100000
,
00001000
00000000
00010000
00000000
00000100
00001000
00000010
00000000
00010010
00000000
00000000
01001000
00000000
00100000
00010000
00000000
,
10000000
01000000
10000000
00000000
00010000
01000000
00001000
00010000
00000000
00000010
00001000
00000000
00000100
00010000
00001000
00100000
,
00000000
00000010
00010000
00000000
00001000
01000000
00100000
10000000
01000000
00000000
00200000
00000000
00001000
00301000
00000000
00010000
,
00000100
00000000
00000010
00000000
00000001
00000100
00000010
00000000
00010000
00000000
00000200
00000000
00001000
00001300
00000000
00000010
,
00000100
00000000
00000001
00000000
00000010
00000100
00001000
00000000
00001001
00000000
00000000
00010010
00000000
00001000
00000100
00000000
,
00000010
00000001
00000010
00000000
00000010
00000100
00000010
00000000
00001000
00000000
00020000
00000000
00000010
00030010
00000000
01000000
,
00001000
00000000
00100000
00000000
01000000
10000000
00010000
01000000
00100000
00000000
20000000
00000000
00010000
30010000
00000000
00100000
,
00010000
01000000
00001000
00010000
00000010
00001000
00000100
00000010
00000001
00001000
00000010
00010000
00001000
01000000
00100000
10000000
,
01000000
00010000
01000000
10000000
00100000
00010000
00100000
00000000
10010000
00000000
00000000
00100000
00001000
00000000
01000000
00000000
,
00100000
00010000
00000010
00100000
01000000
00010000
00000100
00000010
,
00001000
00000000
00010000
00000000
00000001
00000000
00000100
00000000
00000010
00010000
00000100
00001000
00000010
00000100
00000001
00000010
,
00000100
00010000
01000000
10000000
00100000
01000000
00000100
00010000
,
00000010
00000000
00000100
00000000
00010000
00000000
01000000
00000000
00100000
00000000
00100000
00000000
10000000
00010000
01000000
00001000
,
00010000
00000100
00100000
00000010
00000100
00001000
00100000
01000000
,
00010000
00000000
00000100
00000000
00000010
00000000
00001000
00000000
00010000
00001000
01000000
00010000
00100000
01000000
10000000
00100000
,
01000000
00000100
00010000
00100000
10000000
01000000
00010000
00000010
,
00000100
00000000
00000001
00000000
00010000
00000000
00001000
00000000
00001010
00000000
00011000
00000000
01000000
00010000
00100000
01000000
,
10000000
00000000
00100000
00000000
00010000
00000000
00001000
00100000
01000000
00000000
00010000
00000000
00000010
00000000
00100000
00001000
,
00010000
00000000
01000000
00000000
10000000
00000000
00010000
01000000
00100000
01000000
00010000
00100000
00001000
00010000
00000010
00001000
,
00000100
00000000
00010000
00000000
00001000
00000000
00000010
00000001
00000100
00000000
00001000
00000000
01000000
00000000
00010000
00100000
,
00001000
00000000
10000000
00000000
01000000
00000000
00100000
00010000
10000000
00100000
00000000
01000000
00010000
01000000
00001000
00010000
,
00000010
00000000
00000100
00000000
00000001
00000000
00010000
00001000
00100000
00000000
01000000
00000000
00010000
00000000
00000100
00001000
,
00000010
00000000
00000100
00000000
00000001
00000000
00000010
00000100
00001000
00000100
00010000
00001000
00100000
00010000
01000000
00100000
,
10000000
00000000
01000000
00000000
00010000
00000000
00001000
00100000
00000010
00000000
00001000
00000000
00000100
00000000
01000000
00001000
,
00100000
00000000
00010000
00000000
01000000
00000000
00100000
01000000
00010000
00000000
01001000
00000000
00010000
00000010
00001000
00000001
,
00000010
00000000
00001001
00000000
00000010
00010000
00001000
00000000
00110000
00000000
00101000
00000000
01000000
00010000
10000000
00100000
,
01000000
00000000
01010000
00000000
00001000
00010000
00000010
00000000
00001010
00000000
00010010
00000000
00001000
00000001
00000010
00000100
,
00001000
00000000
00010100
00000000
00001000
01000000
00010000
00000000
10010000
10000000
00000000
00010000
10020000
00000000
00030000
00000000
,
00100000
01000000
00010000
00001000
01000000
00010000
00100000
00000000
01100000
00000000
00000000
10000000
00010000
00000000
01000000
00000000
,
00001000
00000000
00010000
00000000
00000010
00001000
00000010
00000000
00020000
00000000
00000000
00000200
00000000
00000000
00001000
00000000
,
00000000
00000010
00000000
00000000
00030300
00000000
00000000
00000000
00001000
00000000
00000001
00000000
00000100
00000010
00000000
00000010
,
00001000
00000000
00000100
00000000
00010000
00001000
00010000
00000000
00002000
00000000
00000000
02000000
00000000
00000000
00010000
00000000
,
00000000
00100000
00000000
00000000
03003000
00000000
01001000
00000000
01010000
00000000
00000000
10000000
00000000
01000000
00100000
00000000
,
00001000
00000000
00010000
00000000
00000010
00001000
00000010
00000000
00000200
00000000
00000000
00002000
00000000
00000000
00010000
00000000
,
00000000
00000010
00000000
00000000
00003300
00000000
00000000
00000000
00000100
00000000
00000001
00000000
00001000
00000010
00000000
00001000
,
00000100
00000000
00010000
00000000
00001000
00100000
00001000
00000000
00020000
00000000
00000000
02000000
00000000
00000000
00001000
00000000
,
00000000
00100000
00000000
00000000
03030000
00000000
01010000
00000000
01100000
00000000
00000000
10000000
00000000
00010000
01000000
00000000
,
00100000
01000000
00010000
00000000
00100000
00001000
00010000
00000100
00000000
00001000
00000010
00000000
01000000
00001000
00010000
00000010
,
00000000
00000010
00001000
00000000
00000100
00000010
00000001
00001000
00000010
00000000
00000200
00000000
00000001
00000301
00000000
00001000
,
00000010
00000000
00010000
00000000
00001000
00100000
00010000
10000000
00100000
00000000
02000000
00000000
00010000
03010000
00000000
00100000
,
01000000
00000000
10000000
00000000
00100000
01000000
00010000
00000000
00011000
00000000
00000000
00001010
00000000
00000100
00000001
00000000
,
00000010
00000100
00001000
00000000
00000010
00010000
00001000
01000000
00000000
00010000
00100000
00000000
00000010
00010000
00001000
01000000
,
00000000
01000000
00100000
00000000
10000000
01000000
00100000
00010000
01000000
00000000
00002000
00000000
00010000
00013000
00000000
00000100
,
00000010
00000000
00000001
00000000
00000100
00000010
00001000
00000100
00010000
00000000
00000020
00000000
00001000
00001030
00000000
00000001
,
00000100
00000000
00001000
00000000
00010000
00000010
00001000
00000000
00010010
00000000
00000000
01001000
00000000
00100000
00010000
00000000
,
11000000
00000000
00100000
00000000
00000100
00000000
00010000
00000010
00000000
00000000
00000100
00000000
00000001
00000000
00010000
00000100
,
00000000
00000000
00000010
00000000
00000001
00000100
00000010
00000000
00010000
00000000
00000200
00000000
00001000
00001300
00000000
00000001
,
00000100
00000000
00000010
00000000
01000000
00000000
00001000
00100000
00000000
00000000
01000000
00000000
10000000
00000000
00001000
01000000
,
00000000
00000000
00100000
00000000
10000000
00010000
00100000
00000000
00101000
00000000
00000000
00010100
00000000
00001000
00000001
00000000
,
00000011
00000000
00001000
00000000
00000010
00000000
01000000
00010000
00000000
00000000
10000000
00000000
00100000
00000000
00010000
00001000
,
00000000
00000000
00100000
00000000
00000010
00010000
00001000
00000000
00000010
00000000
00000002
00000000
00001000
00001003
00000000
00000010
,
00010000
00000000
00001000
00000000
00100000
00000000
00000100
00001000
00000000
00000000
00000001
00000000
00000100
00000000
00001000
00010000
,
00000000
00000000
00000010
00000000
00001000
00000001
00000010
00000000
00000110
00000000
00000000
00011000
00000000
01000000
00010000
00000000
,
00100000
01000000
10000000
00000000
00100000
01000000
00010000
00100000
00001000
00000000
00020000
00000000
00000100
00030100
00000000
00001000
,
00000001
00000000
00000100
00000000
00000010
00010000
00001000
00000000
00100000
00000000
02000000
00000000
10000000
13000000
00000000
00010000
,
00100000
00001000
00010000
00000000
00000010
00001000
00000100
00000010
00000001
00000000
00002000
00000000
00000100
00003100
00000000
00010000
,
00020000
00000000
00030020
00000000
00001000
00002030
00000000
00003001
00000000
00000010
00000100
00010000
00001000
00100000
01000000
10000000
,
00200000
00000000
00000000
00000000
00000000
00300000
00000000
00000000
00000000
00000000
00000000
00000000
00000000
00000000
00000000
00000000
;
