#TITLE:Ice Cold;
#SUBTITLE:;
#ARTIST:Renard;
#TITLETRANSLIT:;
#SUBTITLETRANSLIT:;
#ARTISTTRANSLIT:;
#GENRE:Dance;
#CREDIT:Sync by HellRazoR;
#BANNER:Ice Cold-bn.png;
#BACKGROUND:Ice Cold-bg.png;
#LYRICSPATH:;
#CDTITLE:;
#MUSIC:Ice Cold.ogg;
#OFFSET:-0.016;
#SAMPLESTART:77.960;
#SAMPLELENGTH:12.000;
#SELECTABLE:YES;
#DISPLAYBPM:166.000;
#BPMS:0.000=166.000,212.000=169.450,214.000=166.000;
#STOPS:;
#BGCHANGES:0.000=Ice Cold-bg.png=1.000=0=0=1=====,
16.000=In The Groove Rebirth/304_JB_HD.mpg=1.000=0=0=1=====,
32.000=In The Groove Rebirth/411_JB_HD.mpg=1.000=0=0=1=====,
48.000=In The Groove Rebirth/1345_JumpBack.mpg=1.000=0=0=1=====,
64.000=In The Groove Rebirth/1139_JumpBack.mpg=1.000=0=0=1===FadeDown==,
76.000=Ice Cold-bg.png=1.000=1=0=1===CrossFade==,
80.000=In The Groove Rebirth/175_JB_HD.mpg=1.000=0=0=1=====,
96.000=In The Groove Rebirth/406_JB_HD.mpg=1.000=0=0=1=====,
112.000=In The Groove Rebirth/1133_JumpBack.mpg=1.000=0=0=1===FadeDown==,
128.000=In The Groove Rebirth/304_JB_HD.mpg=1.000=0=0=1=====,
144.000=In The Groove Rebirth/1139_JumpBack.mpg=0.800=1=0=1===CrossFade==,
176.000=In The Groove Rebirth/1345_JumpBack.mpg=1.000=0=0=1=====,
192.000=In The Groove Rebirth/406_JB_HD.mpg=1.000=0=0=1===FadeDown==,
208.000=In The Groove Rebirth/406_JB_HD.mpg=1.000=1=0=1=SongBgWithMovieViz==CrossFade==,
212.000=Ice Cold-bg.png=1.000=0=0=1=====,
216.000=In The Groove Rebirth/175_JB_HD.mpg=1.000=0=0=1=====,
232.000=In The Groove Rebirth/411_JB_HD.mpg=1.000=0=0=1=====,
248.000=In The Groove Rebirth/1133_JumpBack.mpg=1.000=0=0=1=====,
264.000=In The Groove Rebirth/1166_JumpBack.mpg=1.000=0=0=1=====,
280.000=In The Groove Rebirth/1345_JumpBack.mpg=1.000=0=0=1=====,
296.000=In The Groove Rebirth/1139_JumpBack.mpg=1.000=0=0=1===FadeUp==,
304.000=Ice Cold-bg.png=1.000=1=0=1===CrossFade==,
99999=-nosongbg-=1.000=0=0=0 // don't automatically add -songbackground-
;
#BGCHANGES2:16.000=flash=1.000=0=0=1====0^0^1^1=,
32.000=white flash=1.000=0=0=1=====,
48.000=white flash=1.000=0=0=1=====,
80.000=flash=1.000=0=0=1====0^0^1^1=,
96.000=white flash=1.000=0=0=1=====,
128.000=white flash=1.000=0=0=1=====,
176.000=flash=1.000=0=0=1====0^0^1^1=,
212.000=white flash=1.000=0=0=1=====,
215.000=white flash=2.000=0=0=1=====,
232.000=flash=1.800=0=0=1====0^0^1^1=,
248.000=flash=1.000=0=0=1====0^0^1^1=,
264.000=white flash=1.000=0=0=1=====,
280.000=white flash=1.000=0=0=1=====,
;
#KEYSOUNDS:;

//---------------dance-single - M. Hattersley----------------
#NOTES:
     dance-single:
     M. Hattersley:
     Hard:
     8:
     0.620,0.699,0.281,0.597,0.092:
0000
0000
0000
0000
,
0000
0000
0000
0000
,
0000
0000
0000
0000
,
0000
0000
0000
0000
,
1000
0010
0000
0100
0001
0000
0000
0000
,
0011
0000
0020
0000
0200
0030
0301
1000
,
0001
0100
0000
1000
0100
0000
0000
0000
,
0020
0000
M000
0031
0100
0001
0000
0000
,
1000
0001
0000
0001
0100
1000
0000
0000
,
0101
0000
0002
0000
0020
0003
1030
0001
,
1000
0010
0000
0001
0010
0100
0000
0000
,
2000
0000
00M0
3010
0001
0010
0000
0000
,
0101
0001
0000
1000
0100
0010
0000
0000
,
0011
0000
2000
0000
0200
3000
0301
0100
,
0010
1000
0000
0010
0001
0100
0000
0000
,
0200
0000
00M0
1300
0100
0010
0000
0000
,
1000
0000
0001
M000
0000
0000
1000
0000
0001
0000
0000
000M
1000
0000
0001
0000
,
0000
0000
1000
0000
0001
M000
0000
0000
1000
0000
0001
0000
0000
000M
1000
0000
,
0001
0000
0000
0000
1000
0000
0001
M000
0000
0000
010M
0000
0040
0000
0000
0000
,
4030
0M00
0000
0000
0000
0000
3400
0000
0000
0000
0000
0000
0000
000M
0300
0000
,
0011
0000
1000
0010
0100
0001
0010
0000
,
0110
0000
0000
100M
0000
1001
0000
0000
,
0101
0000
0010
1000
0001
0010
0100
0000
,
2000
0000
0200
3000
0002
0300
0200
0003
0020
0300
0002
0030
2000
0003
0MM0
3000
,
0101
0000
0010
1000
0100
0010
0001
0000
,
1010
0000
0000
00M1
0000
0011
0000
0000
,
1001
0000
0100
1000
0100
0001
0010
0000
,
0200
0000
2000
0300
0020
3000
0002
0030
0020
0003
1000
0030
1010
0000
0000
M00M
,
0110
0000
0010
0001
0010
1000
0100
0000
,
0011
0000
0000
0000
1000
0000
0010
M000
0000
0000
1010
0000
0000
0000
1000
0000
,
0101
0000
0010
0001
0010
1000
0010
0000
,
1100
0000
0000
0000
0000
000M
0010
0000
0011
0000
0001
0000
0010
0000
0000
0000
,
1001
0000
0100
0110
0000
1010
0000
0001
,
0010
0000
1000
M100
0000
1100
0000
0100
,
0110
0000
0010
0001
1000
0010
0001
0000
,
0020
0000
2000
0030
0200
3000
0002
0300
0200
0003
0010
0300
0011
0000
0000
0000
,
00M0
0000
0000
0000
M000
0000
0000
000M
0000
0000
0M00
0000
0000
0000
000M
0000
,
0000
0000
00M0
0000
0000
M000
0000
0000
0M00
0000
0000
0000
00M0
0000
M000
0000
,
0200
0000
000M
0300
0100
0000
0100
0000
0200
0000
0000
0300
0200
0000
0000
0300
,
0010
0000
0010
0000
0020
0000
0000
0030
0100
0000
M200
0000
0010
0000
0310
0000
,
1000
0000
0002
0000
0M00
0003
0002
0000
0000
0003
000M
0000
0001
0000
0M00
0000
,
1000
0000
1000
0000
000M
0000
2000
0000
0000
0000
3000
M000
0000
0000
0000
0000
,
0010
0000
0000
0000
0100
0000
M200
0000
0001
0000
0000
030M
0200
0000
0000
0300
,
0001
0M00
0001
0000
2000
0000
0000
0000
310M
0000
0200
0000
1000
0000
1000
0300
,
0100
0010
0001
0000
1000
0001
1000
0000
,
0010
1000
0100
0000
0100
1000
0010
0000
,
0110
0000
0000
0000
0100
0000
0200
0000
0001
0000
000M
0000
0302
0000
0000
0M03
,
0001
0001
1000
000M
0100
0200
1000
1300
,
0100
1000
0010
0000
0100
0001
0100
0000
,
0001
0010
0100
0000
0100
1000
0010
0000
,
0101
0000
0000
0M00
0010
0000
0010
0000
2000
0000
0000
30M0
2000
0000
0000
0000
,
3100
0000
0200
M000
2000
0300
0000
3000
1000
0000
2M00
0000
0001
3000
0001
M000
,
1000
0000
0100
0010
0001
1000
0010
0000
,
1001
0000
M00M
M00M
0000
0000
0000
0000
0000
0000
0000
0000
1001
0000
0000
0000
,
1000
0100
0001
0100
0010
0001
1000
0100
,
1000
0010
0001
1000
0100
0001
0020
0000
,
0130
02M0
0010
0310
0001
0000
1000
0010
,
1000
0100
0000
0110
0010
0001
1000
0000
,
0001
0100
1000
0100
0001
0010
1000
0010
,
0001
0100
1000
0001
0010
1000
0200
0000
,
0310
0M20
0001
0031
1000
0000
0010
0100
,
0001
0010
0000
1010
0010
0001
1000
0010
,
0100
1000
0001
0010
0100
0001
0010
1000
,
0001
0100
0010
0001
1000
0010
0002
0000
,
0013
002M
0100
0130
0001
0000
0010
0100
,
0001
0100
0000
1100
0100
0010
0001
0000
,
0010
0001
1000
0100
0001
0100
0010
1000
,
0001
0100
0010
0001
1000
0010
0002
0000
,
0013
002M
0100
0130
1000
0000
0100
0001
,
0010
0100
1000
0100
0001
0100
0010
1000
,
0010
0020
0000
1000
2030
0000
3010
0020
,
0001
0032
0000
0100
0103
0M0M
0000
0000
,
0200
0000
0000
0300
0100
0000
0100
0000
0200
0000
0000
0000
0320
0000
0000
0000
,
0031
0000
0001
0000
0020
0000
0000
0000
1000
0030
2000
0000
0100
0000
3200
0000
,
0010
0000
0320
0000
0000
0000
1030
0000
2000
0000
0000
0000
0010
0000
0000
3000
,
0010
0000
0020
0000
0000
0000
0032
0000
0000
0000
0000
0003
000M
0000
0000
0000
;

//---------------dance-single - D. Runberg----------------
#NOTES:
     dance-single:
     D. Runberg:
     Challenge:
     9:
     0.733,0.768,0.404,0.404,0.224:
0000
0000
0000
0000
,
0000
0000
0000
0000
,
0000
0000
0000
0000
,
0000
0000
0000
0000
,
0101
0101
0000
1010
1010
0000
1000
0001
,
1000
0010
0000
0100
0010
0000
1000
0001
,
0011
0011
0000
1100
1100
0000
0100
0010
,
0002
0000
0000
2003
0000
3010
0110
0000
,
1000
0010
0100
0001
0020
0000
0130
1000
,
0100
0000
1000
1001
0000
0001
0100
0100
,
0010
1000
0001
0010
0200
0000
1300
0010
,
0200
0000
0000
0302
0000
1003
0100
0010
,
0011
0110
0000
0110
1100
0000
1000
0001
,
1000
0000
0001
0010
0000
0001
1000
0010
,
0110
0101
0000
0101
1001
0000
1000
0100
,
0020
0000
0000
0032
0000
0000
0013
0200
,
1000
2300
0000
0100
3200
0000
0001
0302
,
0000
0100
0203
0000
0010
0320
0000
0001
,
0032
0000
1000
2003
0000
0010
3010
0000
,
M000
0000
00M0
0000
0M00
0000
000M
M000
00M0
0000
0M00
000M
M000
0000
000M
0000
,
1001
01M0
0000
0M10
1001
1000
0001
0100
,
0110
0010
1000
0001
0011
0000
1100
0000
,
1001
0M10
0000
01M0
1001
0001
0010
0100
,
0010
0001
1000
0010
0001
0010
1000
0100
,
1100
1M00
0000
M100
1100
0000
0100
1000
,
1010
0010
0100
0001
1001
0000
1100
0000
,
0011
00M1
0000
001M
0011
0000
0001
0010
,
0100
0000
1000
0000
0001
0000
0100
0000
0001
0100
0010
0000
1001
0000
M00M
0000
,
2000
0010
0000
3002
0010
0000
1003
0010
,
0100
0010
0100
0001
2000
0000
3100
0000
,
0020
0001
0000
0230
1000
0000
1300
0100
,
0010
0100
0010
0001
0200
0000
0310
0000
,
0101
0001
1000
1100
0100
0000
1000
0010
,
0100
0000
0010
0100
0000
0010
1000
0001
,
1001
1000
0100
0110
0010
0000
0100
1000
,
1000
0000
0001
0000
0100
0000
0010
0000
1000
0100
0010
0000
1100
0000
0000
0000
,
0022
0000
0000
0000
0000
0000
0000
0033
,
2020
0000
0000
3030
,
2000
0000
3100
0010
0100
0000
2000
0000
,
3010
0000
0100
0000
0010
0000
0000
0000
1000
0000
1000
0000
0001
0010
0100
0000
,
1000
0000
0001
0000
0100
0000
0010
0000
0000
MM0M
0000
0000
0010
0000
0001
0000
,
1000
0010
1000
0001
000M
00M0
0M00
M000
,
0002
0000
0103
0010
0100
0000
0002
0000
,
0013
0000
0100
0000
0010
0000
0000
0000
0100
0000
0100
0000
1000
0001
0100
0000
,
0010
1000
0010
1000
0010
0100
0010
0100
,
0001
0100
0001
0100
0001
1000
0001
1000
,
0200
0000
1300
0100
M010
0000
02M0
0000
,
1300
0000
0100
0000
M010
0000
0000
0000
01M0
0000
0100
0000
0010
0001
1000
0000
,
0001
0100
0010
0100
0001
1000
0010
MM0M
,
0010
0001
0010
0100
1000
0001
0100
0000
,
0020
0000
1030
0100
M001
0000
020M
0000
,
0301
0000
0100
0000
1000
0000
0000
0000
M001
0000
0001
0000
1000
0100
0010
0000
,
0002
0000
1003
0010
0001
0010
2000
0000
,
0002
0000
3003
1001
,
0101
0000
0100
0000
0001
0000
0010
0000
0100
0000
0010
0000
0001
0100
0001
0100
,
0010
0000
1000
0000
0010
0000
1000
0000
0100
1000
0100
1000
0001
1000
0001
0000
,
0100
0000
0100
0000
0010
1000
0010
1000
0001
0000
1000
0000
0100
0000
0010
0000
,
0001
0000
0010
0001
0100
0000
0001
0000
1000
0000
0001
0100
0010
1000
0001
0000
,
1001
0000
1000
0000
0100
0000
0010
0001
1000
0010
0100
0000
0010
0000
1000
0000
,
0001
0100
0010
0000
0100
0000
0001
0000
0100
0001
0100
0001
1000
0001
1000
0000
,
0010
0000
0010
0000
1000
0100
0010
0000
0100
0000
0010
0000
0001
0000
1000
0000
,
0001
0000
1000
0010
0100
0000
0010
0000
0100
0000
0010
1000
0001
0010
0100
0000
,
1100
0000
1000
0000
0010
0000
0100
0001
1000
0001
0010
0000
0001
0000
0010
0000
,
0100
1000
0010
0000
1000
0000
0010
0000
0100
0010
0100
0010
1000
0001
1000
0000
,
0100
0000
0100
0000
1000
0010
0100
0000
0001
0000
0010
0000
0001
0000
0100
0000
,
0010
1000
0100
0000
1000
0000
0100
0010
0001
0010
0100
0000
1001
0000
1000
0000
,
0001
0000
1000
0000
0100
0000
0010
0001
0100
0001
1000
0000
0001
0000
0100
0000
,
0010
1000
0001
0000
1000
0000
0010
0000
0100
0010
1000
0001
0010
0100
1000
0001
,
0100
0000
0100
0000
0010
1000
0010
1000
0100
0000
0010
0000
0001
0000
0100
0000
,
0010
0000
0000
1000
0100
0000
1000
0000
0000
0001
0100
0000
0010
0000
1000
0000
,
1002
0000
0203
0010
0000
0301
1000
0100
,
1000
0020
0000
0230
0000
0000
0300
0000
,
0002
0000
1003
0100
0001
0000
0200
0000
,
0301
0000
0100
0000
1000
0000
0000
0000
0100
0000
0010
0000
0001
1000
0001
0000
,
1000
0100
0010
0002
0000
0103
0010
1000
,
0001
0200
0000
0020
0300
0000
0000
0000
,
0030
0000
0000
0000
;

//---------------dance-double - J. Gowen----------------
#NOTES:
     dance-double:
     J. Gowen:
     Challenge:
     10:
     0.629,0.631,0.404,0.290,0.127:
00000000
00000000
00000000
00000000
,
00000000
00000000
00000000
00000000
,
00000000
00000000
00000000
00000000
,
00000000
00000000
00000000
00000000
,
00000001
00010000
00000000
00001000
10000000
00000000
00000000
00000000
,
00000000
00110000
00010010
01001000
,
10000000
01000000
00000000
00100000
00001000
00000000
00000000
00000000
,
01001000
00000000
00000000
0M000001
00000000
00000000
00000000
00000000
,
00000010
00000100
00000000
00010000
00001000
00100000
00010000
00000000
,
00000000
01010000
00011000
00110000
,
10000000
00001000
00000000
00010000
00000001
00000000
00000000
00000000
,
00001100
00000000
00000000
10000M00
00000000
00000000
00000000
00000000
,
00010000
00100000
00000000
00000100
00010000
00000010
00001000
00000000
,
00000000
00010100
00101000
00010010
,
00001000
00000100
00000000
01000000
00001000
00000000
00000000
00000000
,
00101000
00000000
00000000
00M00001
00000000
00000000
00000000
00000000
,
00000010
00000020
00000000
00001030
00002000
00000000
00013000
00020000
,
00000000
00030100
00000200
00000000
01000300
02000000
00000000
03010000
,
00020000
00000000
00000000
00000000
10030000
00000000
20000000
00000000
30000000
00000000
01000000
00000000
00400000
00010000
00000000
00000000
,
00000000
00001000
00000000
00300000
00000000
00000000
00000000
00000000
M0M0M0M0
00000000
0M0M0M0M
00000000
M0M0M0M0
00000000
00000000
00000000
,
00012000
00103000
00000000
00020100
00031000
00000000
01000000
00010000
,
00100000
00000010
00010000
00000100
00000010
00000001
00001000
00000000
,
00020100
00031000
00000000
00001200
00010300
00001000
00100000
00000020
,
00000000
01000030
00000100
00100000
00000010
01000000
00010000
00000000
,
02100000
13000000
00000000
00210000
01300000
00000000
00010000
00001000
,
00100000
00000100
00010000
00000010
00100000
00010000
01000000
00000000
,
00012000
01003000
00000000
00210000
00301000
00010000
00000010
00200000
,
00000000
00000000
00300100
00000000
01000000
00000000
00000010
00000000
00010000
00001000
00010000
00000000
00000010
00000000
00000000
00000000
,
00001200
00010300
00000000
00002010
00003001
00000000
00000100
00000010
,
00010000
00001000
01000000
00000100
00010000
00001000
00100000
00000000
,
00021000
00030100
00000000
00001020
00010030
00001000
00100000
00000200
,
00000000
01000300
00000010
00100000
00000100
00001000
00000001
00000000
,
00020010
00031000
00000000
00001200
00010300
00000000
00001000
00100000
,
00000010
00010000
00001000
01000000
00000100
00100000
00001000
00000000
,
02010000
03100000
00000000
10020000
00130000
00001000
01000000
00000020
,
00000000
00000000
00100030
00000000
00000100
00000000
01000000
00000000
00001000
00010000
00001000
00000000
01000000
00000000
00000000
00000000
,
00100000
01000000
00000000
00001000
00001000
00000000
00100000
00010000
,
01000000
00000100
00000000
00001000
00001000
00000000
00000000
00000000
,
00000010
00000000
00010000
00001000
10000000
00000000
00001000
00000000
,
00010000
00000000
00001000
00000000
10000000
00000000
00000000
00000000
00010000
00000000
00100000
00000000
00001000
00000000
00010000
00000010
,
00010000
00001000
00000000
01000000
01000000
00000000
00000100
00010000
,
00001000
00100000
00000000
01000000
01000000
00000000
00000000
00000000
,
10000000
00000000
00001000
00010000
00000010
00000000
00100000
00000000
,
00001000
00000000
00010000
00000000
00000010
00000000
00000000
00000000
00001000
00000000
00000100
00000000
00010000
00000000
00001000
00100000
,
00001000
00010000
00000000
00000010
00000010
00000100
00000001
00010000
,
00001000
00100000
00000000
00000010
00000010
00000000
00M000M0
00000000
,
01000000
00000000
00000100
00001000
00000001
00000000
00010000
00000000
,
00000010
00000000
00001000
00000000
00000001
00000000
00000000
00000000
00000010
00000000
00000100
00000000
00010000
00000000
00000010
00001000
,
00000010
00010000
00000000
00001000
00001000
00100000
00010000
01000000
,
00100000
10000000
00000000
00001000
00001000
00000000
M000M000
00000000
,
01000000
00000000
00000100
00001000
00000010
00000000
00100000
00000000
,
00001000
00000000
00010000
00000000
00000001
00000000
00000000
00000000
00000010
00000000
00001000
00000000
00010000
00000000
01000000
00100000
,
01000000
00000000
10000000
00100000
00010000
00001000
00000100
00000000
,
00000011
00000000
00000000
00011000
,
00100000
00000000
00000100
00000000
00010000
00000000
00000010
00000000
00000100
00000000
00000001
00000000
00000010
00000100
00000000
00001000
,
00000010
00000000
00100000
00000000
00001000
00000000
01000000
00000000
00010000
00000000
10000000
00000000
04000000
00400000
00000000
03300000
,
00000000
00000000
00010000
00000000
00001000
00010000
00001000
00010000
00000010
00000000
00000000
00000000
00010000
00000000
00001100
00000000
,
00000000
00010010
00000000
01001000
00010000
00100000
00000010
00000000
,
00010100
00000000
00001000
00000000
00100000
00000000
00000010
00000000
00001000
00000000
00000100
00000000
00000010
00000001
00000000
00000100
,
00000010
00000000
00010000
00000000
00000100
00000000
00100000
00000000
00010000
00000000
01000000
00000000
00400000
40000000
00000000
00000000
,
30300000
00000000
00010000
00000000
00001000
00010000
00001000
00010000
00000100
00000000
00000000
00000000
00000100
00000000
00001010
00000000
,
00000000
01001000
00000000
00110000
00001000
01000000
00100000
00000000
,
10010000
00000000
00100000
00000000
00001000
00000000
01000000
00000000
00100000
00000000
10000000
00000000
01000000
00100000
00000000
00010000
,
01000000
00000000
00001000
00000000
00100000
00000000
00000010
00000000
00010000
00000000
00000100
00000000
00004000
00000040
00000000
00000000
,
00003030
00000000
00000001
00000000
00000010
00000100
00000010
00000100
00001000
00000000
00000000
00000000
00001000
00000000
00010010
00000000
,
00000000
00101000
00000000
00010100
00001000
00100000
00000010
00000000
,
01001000
00000000
00010000
00000000
00100000
00000000
00000010
00000000
00010000
00000000
00001000
00000000
01000000
00010000
00000000
00100000
,
01000000
00000000
10000000
00000000
00001000
00000000
00010000
00000000
00000010
00000000
00000100
00000000
00000004
00000040
00000000
00000000
,
00000033
00000000
00001000
00000000
00000010
00000100
00000010
00000100
00000001
00000000
00000000
00000000
00000001
00000000
00001100
00000000
,
00000000
00010010
00000000
00101000
00010000
00000100
01000000
00000000
,
00010000
00020000
00000000
00130000
00200000
00000000
00301000
00010000
,
00000100
00000200
00000000
01000300
02000000
00000000
03000000
00000000
,
00010000
00000000
00100000
00000010
00010000
00000000
00000001
00000000
,
00010000
00000000
00001000
00000000
10000000
00000000
00000000
00000000
00010000
00000000
00100000
00000000
00000010
00000000
00010000
00001000
,
00010000
00000100
00000000
00000010
00000010
00000000
00000001
00001000
,
00000100
00010000
00000000
00001000
00020020
00030030
00000000
00000000
;

//---------------dance-double - J. Gowen----------------
#NOTES:
     dance-double:
     J. Gowen:
     Hard:
     8:
     0.517,0.497,0.176,0.316,0.004:
00000000
00000000
00000000
00000000
,
00000000
00000000
00000000
00000000
,
00000000
00000000
00000000
00000000
,
00000000
00000000
00000000
00000000
,
00000100
00001000
00000000
00000010
00010000
00000000
00000000
00000000
,
00000000
00012000
01000000
00103000
,
00010000
01000000
00000000
00100000
10000000
00000000
00000000
00000000
,
20020000
00000000
00000000
00100000
30030000
00000000
00000000
00000000
,
01000000
00001000
00000000
00010000
00000010
00000000
00000100
00000000
,
00000001
00001200
00000010
00010300
,
00001000
00100000
00000000
00010000
10000000
00000000
00000000
00000000
,
02002000
00000000
00000000
00010000
03003000
00000000
00000000
00000000
,
00010000
00000010
00000000
00001000
00000100
00000010
00000001
00000000
,
00001000
00020010
00000100
00031000
,
00100000
00010000
00000000
01000000
00001000
00000000
00000000
00000000
,
00020020
00000000
00000000
00001000
00030030
00000000
00000000
00000000
,
00001000
00000001
00000000
00010000
00000100
00000000
00100000
00001000
,
00000000
10000000
00010000
00000000
01000000
00001000
00000000
00010000
,
00000010
00000000
00001000
00000001
00000000
00000010
00000200
00000000
,
00001300
00000000
00001000
00000000
00000000
0000M000
00000000
00000000
00000M00
00000000
00000000
00000000
00000000
00000000
00000000
00000000
,
00010000
00001000
00000000
00100000
01000000
10000000
00010000
00000000
,
01000000
00012000
00100000
00013000
,
00000010
00001000
00000000
00000001
00000010
00000100
00001000
00000010
,
00000000
00010000
00001000
00100000
00001000
00010000
00000100
00000000
,
00001000
00000010
00000000
00000100
00000001
00000010
00000100
00000000
,
00001000
00021000
00000010
00031000
,
00100000
00010000
00000000
10000000
00100000
01000000
00010000
00100000
,
00000000
00001000
01000000
00010000
00100000
00000000
11000000
00000000
,
00100000
00010000
00000000
01000000
00001000
00010000
00000010
00000000
,
00000100
00002001
00000010
00003100
,
00010000
00001000
00000000
00100000
00010000
01000000
00100000
10000000
,
00000000
00010000
00100000
00010000
01000000
00001000
00010000
00000000
,
00000100
00001000
00000000
00000001
00000100
00000010
00001000
00000000
,
00000100
00012000
00100000
01003000
,
00010000
00100000
00000000
00001000
00010000
00000100
00001000
00000010
,
00000000
00000000
00000100
00000000
00001000
00000000
00010000
00000000
00000010
00000000
00000000
00000000
00001002
00000003
00000000
00000000
,
00000020
00000030
00000000
00000200
00000300
00000000
00020000
00030000
,
00002000
00003000
00000000
00000200
00000300
00000000
00000000
00000000
,
00000010
00000000
00001000
00000100
00000010
00000000
00001000
00000000
,
00010000
00000010
00001000
00000000
00001000
00000100
00010000
00001000
,
00200000
00300000
00000000
02000000
03000000
00000000
20000000
30000000
,
00200000
00300000
00000000
02000000
03000000
00000000
00000000
00000000
,
00001000
00000000
00100000
00010000
01000000
00000000
00100000
00000000
,
00010000
00001000
00100000
00000000
00100000
00001000
00010000
00000010
,
00001000
00000000
00000000
00011000
00000000
00000000
00000010
00001000
,
00000001
00000000
00000000
00000110
00000000
00000000
00000000
00000000
,
00001000
00000000
00000001
00000100
00000010
00000000
00001000
00000000
,
00000001
00000100
00001000
00000000
00000100
00000010
00001000
00000100
,
00010000
00000000
00000000
00011000
00000000
00000000
00100000
00010000
,
01000000
00000000
00000000
10100000
00000000
00000000
00000000
00000000
,
00010000
00000000
01000000
00100000
10000000
00000000
00010000
00000000
,
00100000
01000000
00010000
00000000
01000000
10000000
00010000
01000000
,
00001000
00000000
00100000
00010000
01000000
00001000
00010000
00000000
,
00101000
00000000
MMMM0000
MMMM1001
,
00000100
00000010
00001000
00000100
00010000
00001000
01000000
00010000
,
00100000
01000000
10000000
00100000
01000000
00010000
00100000
00000000
,
00001000
00010000
00000010
00001000
00000001
00000000
00000200
00001000
,
00000000
00000010
00000000
00000301
00000000
00001000
00001000
00000000
,
00000001
00000010
00000100
00001000
00000010
00010000
00001000
01000000
,
00010000
00100000
00001000
00010000
00000100
00001000
00000010
00000000
,
00000100
00000001
00001000
00000010
00010000
00000000
00002000
00000010
,
00000000
00010000
00000000
01003000
00000000
00010000
00010000
00000000
,
01000000
00100000
10000000
01000000
00100000
00010000
01000000
00001000
,
00010000
00000010
00001000
00000100
00000010
00000001
00000100
00000000
,
00000010
00001000
00000100
00010000
00001000
00000000
00200000
00010000
,
00000000
00001000
00000000
01300000
00000000
10000000
10000000
00000000
,
00100000
01000000
00010000
00100000
01000000
10000000
00010000
01000000
,
00001000
00010000
00000100
00001000
00000010
00000100
00000001
00000000
,
00000010
00000100
00010000
00001000
00100000
00000000
02000000
00010000
,
00000000
00100000
00000000
13000000
00000000
00010000
00010000
00000000
,
02000000
03000000
00000000
00200000
00300000
00000000
00020000
00030000
,
00002000
00003000
00000000
00000020
00000030
00000000
00000000
00000000
,
00000001
00000000
00000100
00000010
00001000
00000000
00000100
00000000
,
00000001
00000100
00001000
00000000
00000010
00010000
00001000
01000000
,
00010000
00000000
00000000
11000000
00000000
00000000
00200000
00300000
,
00002000
00003000
00000000
00010100
00000000
00000000
00000000
00000000
;

//---------------dance-double - J. Gowen----------------
#NOTES:
     dance-double:
     J. Gowen:
     Medium:
     5:
     0.312,0.298,0.167,0.053,0.000:
00000000
00000000
00000000
00000000
,
00000000
00000000
00000000
00000000
,
00000000
00000000
00000000
00000000
,
00000000
00000000
00000000
00000000
,
00001010
00000000
00010000
00000000
,
00000000
00001000
01000000
00010000
,
11000000
00000000
00100000
00000000
,
00010000
01000000
00001000
00000000
,
00011000
00000010
00001000
00000001
,
00000100
00001000
00010000
00000000
,
00110000
10000000
01000000
00010000
,
00001000
00000000
00010010
00000000
,
00001001
00000001
00000100
00001000
,
00010000
01000000
10000000
00000000
,
01010000
10000000
00100000
00010000
,
00001000
00000000
01001000
00000000
,
00210000
00000000
02000000
03000000
,
00020000
00030000
00302000
00000000
,
00020000
00030000
02000000
03000000
,
00003000
0M00M000
00000000
00000000
00010000
00000000
10000000
00000000
,
11000000
00010000
00100000
00001000
,
00010000
00000010
00001000
00001000
,
00000001
00001000
00000010
00010000
,
00000100
00000010
00000010
00000000
,
00000110
00001000
00000100
00010000
,
00001000
00100000
00010000
00010000
,
10000000
00100000
00010000
00001000
,
01000000
00000000
00010000
00000000
00100000
01000000
10000000
00000000
,
10010000
00100000
01000000
10000000
,
00010000
01000000
00001000
00001000
,
00010000
00000100
00001000
00000001
,
00000100
00000010
00000010
00000000
,
00010010
00001000
00000001
00000010
,
00000100
00001000
00000001
00000001
,
00000100
00001000
00010000
00000100
,
00001000
00000000
00000010
00000010
,
00011000
00000000
00000000
00000000
,
01010000
00000000
00000000
00000000
,
10000000
00000000
00010000
00000000
,
01000000
00000000
00001000
00000000
,
00100000
00001000
00010000
00000000
,
00000100
00000010
00000001
00000000
,
00001000
00001000
00000010
00000010
,
00010000
00010000
00001000
00001000
,
01000000
00000000
00000000
00100000
00000000
00000000
10000000
00000000
,
01000000
00000000
00000000
00010000
00000000
00000000
00000000
00000000
,
00001000
00000000
00000100
00000000
,
00001000
00000000
00010000
00000000
,
00000010
00000000
00000000
00001000
00000000
00000000
00000001
00000000
,
00000010
00000000
00000000
00000100
00000000
00000000
00000000
00000000
,
00010000
00000000
00001000
00000000
,
00000010
00000000
00001000
00000000
,
00010000
00010000
00100000
00100000
,
01000000
00000000
00000000
00011000
,
00010000
00000010
00001000
00000001
,
00000010
00001000
00010000
00000000
,
00001000
00000000
00100000
00010000
10000000
00000000
01000000
00000000
,
00100000
00010000
10000000
00000000
,
01010000
00001000
00010000
00000010
,
00000100
00001000
00010000
00000000
,
00000010
00000000
00001000
00000100
00000010
00000000
00000001
00000000
,
00000100
00001000
00010000
00000000
,
00101000
00010000
00100000
00001000
,
01000000
00010000
10000000
00000000
,
01000000
00000000
00100000
00010000
10000000
00000000
01000000
00000000
,
00010000
00001000
00000100
00000000
,
00000101
00001000
00000100
00000010
,
00001000
00010000
00000100
00000000
,
00001000
00000000
00000001
00000100
00000010
00000000
00001000
00000000
,
00000100
00010000
00001000
00000000
,
00100000
00000000
00000000
00010000
00000000
00000000
00100000
00000000
,
01000000
00000000
00000000
10000000
00000000
00000000
00000000
00000000
,
00100000
00000000
00010000
00000000
,
00001000
00000000
00000100
00000000
,
00000010
00000000
00000000
00001000
00000000
00000000
00000100
00000000
,
00000010
00000000
00000000
00000001
00000000
00000000
00000000
00000000
;

//---------------dance-double - D. D'Amato----------------
#NOTES:
     dance-double:
     D. D'Amato:
     Easy:
     3:
     0.232,0.265,0.018,0.167,0.000:
00000000
00000000
00000000
00000000
,
00000000
00000000
00000000
00000000
,
00000000
00000000
00000000
00000000
,
00000000
00000000
00000000
00000000
,
00000010
00000000
00001000
00000000
,
00000000
00000100
00000010
00000000
,
00000100
00000000
00010000
00000000
,
00002000
00000000
01003000
00000000
,
00010000
00000000
10000000
00000000
,
00000000
01000000
00100000
00000000
,
01000000
00000000
10000000
00000000
,
00020000
00000000
00130000
00000000
,
01000000
00000000
00100000
00000000
,
00000000
00001000
00010000
00000000
,
00000100
00000000
00001000
00000000
,
00000020
00000000
00010030
00000000
,
00022000
00000000
00000000
00000000
,
00000000
00000000
00000000
00000000
,
00000000
00000000
00000000
00033000
,
00000000
00000000
00000000
00000000
,
00000100
00000100
00001000
00001000
,
00000000
00000001
00001000
00000000
,
00000010
00000010
00010000
00010000
,
00000000
00001000
00100000
00000000
,
00010000
00010000
01000000
01000000
,
00000000
00010000
10000000
00000000
,
00100000
00100000
10000000
10000000
,
00000000
01000000
10000000
00010000
,
01000000
01000000
00010000
00010000
,
00000000
10000000
00010000
00000000
,
00100000
00100000
00001000
00001000
,
00000000
00010000
00000010
00000000
,
00001000
00001000
00000100
00000100
,
00000000
00001000
00000001
00000000
,
00000010
00000010
00000001
00000001
,
00000000
00000100
00000001
00001000
,
00000010
00000000
00000000
00000000
,
00000000
00000000
00000000
00000000
,
00000000
00000000
00000000
00000000
,
00000000
00000000
00000000
00000000
,
00000100
00000000
00000010
00000000
,
00010000
00000000
00001000
00000000
,
01000000
00000000
00100000
00000000
,
10000000
00000000
01000000
01000000
,
00100000
00000000
01000000
10000000
,
01000000
00000000
00100000
00000000
,
00010000
00000000
01000000
00000000
,
00001000
00000000
00010000
00010000
,
00000010
00000000
00000100
00000001
,
00000100
00000000
00000010
00000000
,
00001000
00000000
00000100
00000000
,
00010000
00000000
00001000
00001000
,
00100000
01000000
00200000
00000000
,
02000000
00000000
03300000
10010000
,
02000000
00000000
03100000
00010000
,
02000000
00000000
03100000
00000000
,
01000000
00010000
01000000
00000000
,
00001000
00010000
00000010
00000000
,
00000200
00000000
00000310
00001000
,
00000200
00000000
00000310
00000000
,
00000100
00001000
00000100
00000000
,
00010000
00001000
01000000
00000000
,
00200000
00000000
01300000
00010000
,
00200000
00000000
01300000
00000000
,
00100000
00010000
00100000
00000000
,
00001000
00010000
00000100
00000000
,
00000020
00000000
00000130
00001000
,
00000020
00000000
00000130
00000000
,
00000010
00001000
00000010
00000000
,
00010000
00001000
00100000
00000000
,
02000000
00000000
00000000
03000000
00000000
00000000
10000000
00000000
,
02000000
00000000
00000000
03000000
00000000
00000000
00000000
00000000
,
00010000
00000000
00001000
00000000
,
00000010
00000000
00000001
00000000
,
00000200
00000000
00000000
00000300
00000000
00000000
00000001
00000000
,
00000200
00000000
00000000
00000300
00000000
00000000
00000000
00000000
;

//---------------dance-single - D. Kincel----------------
#NOTES:
     dance-single:
     D. Kincel:
     Medium:
     6:
     0.466,0.432,0.114,0.448,0.000:
0000
0000
0000
0000
,
0000
0000
0000
0000
,
0000
0000
0000
0000
,
0000
0000
0000
0000
,
1000
0001
0000
0001
1000
0000
0010
0000
,
0200
0001
0301
0001
,
1000
0001
0000
0001
1000
0000
0010
0000
,
0200
0000
0000
0310
0000
0000
0110
0000
,
1000
0000
0002
0000
0000
0003
0001
0000
2000
0000
0000
0000
3000
0000
0000
0000
,
0020
0100
0130
0100
,
0010
0000
2000
0000
0000
3000
1000
0000
0020
0000
0000
0000
0030
0000
0000
0000
,
2000
0000
0000
3001
1000
1000
0000
0000
,
0001
0100
0000
0100
0020
0000
1000
0000
,
2030
0000
0100
0000
3100
0010
0000
0000
,
0100
0010
0000
0010
0002
0000
1000
0000
,
2003
0000
0000
3010
1000
1000
0000
0000
,
0001
0100
0000
0100
0001
0000
1000
0100
,
0000
0100
1000
0000
0001
0010
0000
0010
,
0001
0000
1000
0010
0000
0010
0100
0000
,
0010
M000
000M
0M10
M000
000M
0M10
000M
,
1000
0001
1000
0010
0000
0100
0010
0000
,
1000
0000
0001
0010
0002
0000
1003
0000
,
0001
0000
2000
0000
0000
3000
1000
0000
0010
0000
0000
0000
0100
0000
0000
0000
,
0001
0000
1000
0000
0100
0100
0010
0000
,
0002
0000
1003
0100
1000
0000
0010
0000
,
0200
0001
0301
0001
,
0010
0000
0200
0000
0000
0300
0100
0000
1000
0000
0000
0000
0010
0000
0000
0000
,
0100
0000
0001
0000
1000
0001
1001
0000
,
2000
0000
0000
3001
M100
0000
0010
0000
,
2000
0100
3100
0100
,
0020
0000
0000
0031
10M0
0000
0010
0000
,
0210
0000
0001
0000
0310
0010
1000
0000
,
0002
0000
0000
1003
010M
1000
0000
0000
,
0001
0100
0001
1000
0000
0010
0010
0000
,
2000
0000
0000
3100
M010
0100
0000
0000
,
1000
0000
0001
0000
0100
0010
0110
0000
,
2000
0000
0000
0000
0000
0000
0000
3000
,
0000
0000
0000
0000
,
1000
1000
0100
0100
,
0010
0100
0010
0000
0001
1000
0001
0001
,
0100
0000
0000
0010
0000
0000
1001
0000
,
1000
0000
0000
0001
0000
0000
0110
0000
,
1000
0000
0001
1000
0000
0000
0010
0000
,
0100
0010
0000
0000
1000
1000
0001
0001
,
0010
0001
1000
1010
,
0001
0000
1000
0100
0000
0000
0010
0000
,
0002
0000
0103
0001
0000
0000
2000
0000
,
3100
1000
0000
0000
0001
1000
0001
0100
,
0110
0000
0000
0010
0000
0000
1001
0000
,
1000
0000
0000
0110
0000
0000
0001
0000
,
1000
0000
0010
1000
0000
0000
0001
0000
,
0010
0001
0000
0000
1000
0100
1000
0100
,
0020
0000
0001
0001
0000
0001
0000
0032
,
0000
0000
0000
0003
0000
0000
1001
0000
,
1100
0000
0001
0200
0000
0310
0100
0000
,
0001
1000
0000
0020
0000
1000
1030
0000
,
0001
1000
0100
0010
,
0001
0010
0000
0002
0000
1000
1003
0000
,
0001
0000
0100
0020
0000
0130
0001
0000
,
1000
0000
0100
0020
0000
0100
0130
0000
,
1000
0000
1000
0000
1000
0001
1000
0000
,
0010
0100
0000
0020
0000
0000
1030
0000
,
0001
0000
0001
1000
0000
1000
0100
0000
,
0010
0000
0010
0002
0000
1000
1003
0000
,
0010
1000
0000
0000
1000
0000
1000
0000
,
0100
0010
0000
0002
1000
1003
0000
0000
,
0010
0000
1000
0001
0000
1000
0010
0000
,
0100
0000
0001
0020
0000
0000
0130
0000
,
1000
0001
0000
0000
0001
0000
0100
0000
,
0010
1000
0000
2002
0000
0000
3003
0000
,
0020
0000
0000
2030
0000
0000
3002
0000
,
0023
0000
0000
0230
0000
0300
0000
0000
,
1000
0000
0001
2000
0000
3000
0010
0000
,
0100
0020
0000
0030
1000
0001
1000
0001
,
0200
0000
0000
0320
0000
0000
2030
0000
,
3002
0000
0000
0023
0000
0030
0000
0000
;

//---------------dance-single - D. Kincel----------------
#NOTES:
     dance-single:
     D. Kincel:
     Easy:
     4:
     0.319,0.332,0.079,0.343,0.000:
0000
0000
0000
0000
,
0000
0000
0000
0000
,
0000
0000
0000
0000
,
0000
0000
0000
0000
,
1000
0000
1000
0000
,
0001
0000
0001
0100
,
0100
0000
0100
0000
,
0020
0000
0130
0000
,
0001
0000
0000
0001
0000
0000
0000
0000
,
0000
1000
1000
1000
,
0100
0000
0000
0100
0000
0000
0000
0000
,
0020
0000
0130
0000
,
1000
0000
0000
1000
0000
0000
0000
0000
,
0000
0001
0001
0001
,
0100
0000
0000
0100
0000
0000
0000
0000
,
0020
0000
0130
0000
,
0001
0000
0000
1000
0000
0000
0001
0000
,
0000
1000
0000
0000
0001
0000
0000
1000
,
0000
0000
0001
0000
0000
1000
0000
0000
,
0001
0000
0000
0000
,
0200
0000
0310
0000
,
1000
0001
0001
0001
,
0020
0000
0130
0000
,
0000
1000
1000
1000
,
0002
0000
0103
0000
,
0020
1000
1000
1030
,
0002
0000
0013
0000
,
0200
1000
1300
1001
,
0001
1000
0000
0001
1000
0000
0000
0000
,
0000
0010
0010
0010
,
1000
0001
0000
1000
0001
0000
0000
0000
,
0000
0100
0100
0100
,
0010
1000
0000
0010
1000
0000
0000
0000
,
0001
1001
1000
1001
,
0010
0100
0000
0010
0100
0000
0000
0000
,
0001
0010
0011
0110
,
2100
0000
0000
0000
0000
0000
0000
3000
,
0000
0000
0000
0000
,
0001
0001
0100
0100
,
0010
0000
0010
0000
1000
0000
1000
0001
,
2000
0000
0000
3020
0000
0000
0130
0000
,
0002
0000
0000
2003
0000
0000
3000
0000
,
0100
0100
0000
0010
,
0010
0000
0001
0001
,
1000
0001
0200
0310
,
2000
0000
0000
3001
0000
0000
0000
0000
,
0010
0010
0000
0100
,
0100
0000
1000
1000
,
0001
0100
0002
0013
,
0200
0000
0000
0310
0000
0000
0000
0000
,
0001
0001
0000
0100
,
0100
0000
0010
0010
,
1000
0000
1000
0000
0000
0001
0000
0002
,
0000
0003
0000
0110
,
1001
1000
0020
0130
,
0001
0000
0000
2000
0000
0000
0000
3000
,
0010
0010
0100
0100
,
0001
0000
0001
0000
0200
0000
0000
0300
,
0010
1000
0001
1001
,
1000
0000
0000
0200
0000
0000
0000
0300
,
0010
0010
0100
0100
,
1000
0000
1000
0000
2000
0000
0000
3000
,
0001
0000
0000
0100
0000
0000
0001
0000
,
0100
0000
0000
0002
0000
0000
0000
0003
,
1000
1000
0100
0100
,
0010
0000
0010
0000
0020
0000
0000
0030
,
0001
0001
0001
2000
,
3010
0000
0000
0020
0000
0000
0000
0030
,
0100
0100
0001
0001
,
1000
0000
1000
0000
2000
0000
0000
3000
,
0200
0000
0000
0320
0000
0000
0031
0000
,
2000
0000
0000
3020
0000
0000
0000
0030
,
0100
0000
0200
0000
0000
0300
0010
0000
,
0020
0000
0000
0030
1000
0000
1000
0000
,
2000
0000
0000
3002
0000
0000
0103
0000
,
0020
0000
0000
2030
0000
3000
0000
0000
;

//---------------dance-single - R. Woods----------------
#NOTES:
     dance-single:
     R. Woods:
     Beginner:
     1:
     0.105,0.133,0.070,0.000,0.000:
0000
0000
0000
0000
,
0000
0000
0000
0000
,
0000
0000
0000
0000
,
0000
0000
0000
0000
,
0100
0000
0000
0000
,
0000
0000
0000
0000
,
0100
0000
0000
0000
,
0000
0000
0000
0000
,
1001
0000
0000
0000
,
0100
0000
0000
0000
,
0100
0000
0000
0000
,
0100
0000
0000
0000
,
1001
0000
0000
0000
,
0010
0000
0000
0000
,
0010
0000
0000
0000
,
0010
0000
0000
0000
,
1000
0000
0000
0000
,
0000
0000
0000
0000
,
0000
0000
0000
0000
,
0000
0000
0000
0000
,
0001
0000
0001
0000
,
0000
0000
0000
0000
,
1000
0000
1000
0000
,
0000
0000
0000
0000
,
0100
0000
0100
0000
,
0000
0000
0000
0000
,
0010
0000
0010
0000
,
0010
0000
0000
0000
,
1001
0000
0000
0000
,
0100
0000
0000
0000
,
0001
0000
0000
0000
,
1000
0000
0000
0000
,
0100
0000
0000
0000
,
0010
0000
0000
0000
,
0001
0000
0000
0000
,
1000
0000
0000
0000
,
1001
0000
0000
0000
,
0000
0000
0000
0000
,
0100
0000
0000
0000
,
0000
0000
0000
0000
,
1000
0000
0000
0000
,
1000
0000
0000
0000
,
1000
0000
1000
0000
,
0001
0000
0001
0000
,
0100
0000
0000
0000
,
0100
0000
0000
0000
,
0010
0000
0010
0000
,
0010
0000
0010
0000
,
0010
0000
0000
0000
,
0100
0000
0000
0000
,
0001
0000
0001
0000
,
0001
0000
0001
0000
,
0000
0000
0000
0000
,
0000
0000
0000
0100
,
0100
0000
0000
0000
,
0010
0000
0000
0000
,
1000
0000
0000
0000
,
1000
0000
0000
0000
,
1001
0000
0001
0000
,
0001
0000
0000
0000
,
0100
0100
0000
0000
,
0000
0000
0000
0000
,
1001
0000
0001
0000
,
0001
0000
0000
0000
,
1000
1000
0000
0000
,
0000
0000
0000
0000
,
1001
0000
1000
0000
,
1000
0000
0000
0000
,
0100
0100
0000
0000
,
0000
0000
0000
0000
,
0110
0000
0010
0000
,
0010
0000
0000
0000
,
0001
0001
0000
0000
,
0000
0000
0000
0000
,
0100
0000
0000
0000
,
0010
0000
1000
0000
;
