#TITLE:Get Down;
#SUBTITLE:;
#ARTIST:ASK;
#TITLETRANSLIT:;
#SUBTITLETRANSLIT:;
#ARTISTTRANSLIT:;
#GENRE:Electro;
#CREDIT:Sync by HellRazoR;
#BANNER:Get Down-bn.png;
#BACKGROUND:Get Down-bg.png;
#LYRICSPATH:;
#CDTITLE:;
#MUSIC:Get Down.ogg;
#OFFSET:-0.7782;
#SAMPLESTART:39.159;
#SAMPLELENGTH:11.980;
#SELECTABLE:YES;
#DISPLAYBPM:164.000;
#BPMS:0=164,288=328,288.5=164,289=328,289.5=164,290=328,290.5=164,291=328,291.5=164,304=246,308=164;
#STOPS:288=0.045732732,288.25=0.045732732,289=0.045732,289.25=0.045732,290=0.045732732,290.25=0.045732,291=0.045732,291.25=0.045732,304=0.06097561,304.5=0.06097561,305=0.06097561,305.5=0.06097561,306=0.06097561,306.5=0.06097561,307=0.06097561,307.5=0.06097561;
#BGCHANGES:0.000=Get Down-bg.png=1.000=0=0=1=====,
12.000=In The Groove Rebirth/170_JB_HD.mpg=1.000=0=0=1=====,
28.000=In The Groove Rebirth/210_JB_HD.mpg=1.000=0=0=1===FadeUp==,
44.000=In The Groove Rebirth/179_JB_HD.mpg=1.000=0=0=1===FadeDown==,
56.000=Get Down-bg.png=1.000=0=0=1=====,
57.500=Get Down-bg.png=1.000=0=0=1====1^0^0^1=,
58.000=Get Down-bg.png=1.000=0=0=1====0^1^0^1=,
58.500=Get Down-bg.png=1.000=0=0=1====0^0^1^1=,
59.000=Get Down-bg.png=1.000=0=0=1=====,
60.000=In The Groove Rebirth/217_JB_HD.mpg=1.000=0=0=1=====,
76.000=In The Groove Rebirth/209_JB_HD.mpg=1.000=0=0=1=====,
92.000=In The Groove Rebirth/269_JB_HD.mpg=1.000=0=0=1=====,
108.000=In The Groove Rebirth/219_JB_HD.mpg=1.000=0=0=1===FadeRight==,
124.000=In The Groove Rebirth/205_JB_HD.mpg=1.000=0=0=1=====,
140.000=In The Groove Rebirth/169_JB_HD.mpg=1.000=0=0=1===FadeLeft==,
152.000=In The Groove Rebirth/169_JB_HD.mpg=1.000=1=0=1=SongBgWithMovieViz==CrossFade==,
156.000=In The Groove Rebirth/263_JB_HD.mpg=1.000=0=0=1=====,
172.000=In The Groove Rebirth/209_JB_HD.mpg=1.000=0=0=1=====,
188.000=In The Groove Rebirth/217_JB_HD.mpg=1.000=0=0=1===SlideDown==,
204.000=In The Groove Rebirth/170_JB_HD.mpg=1.000=0=0=1===SlideUp==,
220.000=In The Groove Rebirth/269_JB_HD.mpg=1.000=0=0=1=====,
236.000=In The Groove Rebirth/219_JB_HD.mpg=1.000=0=0=1=====,
252.000=In The Groove Rebirth/263_JB_HD.mpg=1.000=0=0=1===SlideRight==,
268.000=In The Groove Rebirth/205_JB_HD.mpg=1.000=0=0=1=====,
284.000=In The Groove Rebirth/210_JB_HD.mpg=1.000=0=0=1=====,
288.000=Get Down-bg.png=1.000=0=0=1=1^0^0^1====,
288.250=Get Down-bg.png=1.000=0=0=1====1^0^0^1=,
288.500=Get Down-bg.png=1.000=0=0=1====0^1^0^1=,
289.000=Get Down-bg.png=1.000=0=0=1====0^0^1^1=,
289.250=Get Down-bg.png=1.000=0=0=1=1^0^0^1====,
289.500=Get Down-bg.png=1.000=0=0=1====1^0^0^1=,
290.000=Get Down-bg.png=1.000=0=0=1====0^1^0^1=,
290.250=Get Down-bg.png=1.000=0=0=1====0^0^1^1=,
290.500=Get Down-bg.png=1.000=0=0=1=1^0^0^1====,
291.000=Get Down-bg.png=1.000=0=0=1====1^0^0^1=,
291.250=Get Down-bg.png=1.000=0=0=1====0^1^0^1=,
291.500=Get Down-bg.png=1.000=0=0=1=====,
292.000=In The Groove Rebirth/210_JB_HD.mpg=1.000=0=0=1=====,
300.000=In The Groove Rebirth/169_JB_HD.mpg=1.000=0=0=1=====,
304.000=Get Down-bg.png=1.000=0=0=1=====,
304.500=Get Down-bg.png=1.000=0=0=1====0^0^1^1=,
305.000=Get Down-bg.png=1.000=0=0=1====0^1^0^1=,
305.500=Get Down-bg.png=1.000=0=0=1====1^0^0^1=,
306.000=Get Down-bg.png=1.000=0=0=1====0^0^1^1=,
306.500=Get Down-bg.png=1.000=0=0=1====0^1^0^1=,
307.000=Get Down-bg.png=1.000=0=0=1====1^0^0^1=,
307.500=Get Down-bg.png=1.000=0=0=1=====,
308.000=In The Groove Rebirth/217_JB_HD.mpg=1.000=0=0=1=SongBgWithMovieViz====,
316.000=In The Groove Rebirth/170_JB_HD.mpg=1.000=0=0=1=====,
332.000=In The Groove Rebirth/179_JB_HD.mpg=1.000=0=0=1===SlideLeft==,
348.000=Get Down-bg.png=1.000=0=0=1=====,
99999=-nosongbg-=1.000=0=0=0 // don't automatically add -songbackground-
;
#BGCHANGES2:56.750=white flash=1.000=0=0=1=====,
124.000=white flash=1.000=0=0=1=====,
172.000=white flash=1.000=0=0=1=====,
191.000=white flash=1.000=0=0=1=====,
195.000=flash=1.000=0=0=1====0^0^1^1=,
199.000=white flash=1.000=0=0=1=====,
207.000=white flash=1.000=0=0=1=====,
211.000=flash=1.000=0=0=1====1^0^1^1=,
215.000=white flash=1.000=0=0=1=====,
236.000=flash=1.000=0=0=1=====0^1^0^1,
284.000=white flash=1.000=0=0=1=====,
296.000=flash=1.000=0=0=1====0^1^1^1=,
348.000=white flash=1.000=0=0=1=====,
;
#KEYSOUNDS:;

//---------------dance-single - G. Marchan & S. Venkat----------------
#NOTES:
     dance-single:
     G. Marchan & S. Venkat:
     Challenge:
     12:
     1.000,1.000,0.624,1.000,1.000:
0000
0000
0000
0000
,
2002
0000
0000
0000
0000
0000
0000
3003
,
2200
3300
0022
0033
0220
0330
2002
3003
,
0001
0000
0010
0100
0000
0000
1100
0000
0000
0011
0000
0001
0100
0000
0010
0000
,
1000
0000
0001
0100
0000
0000
0010
0000
1010
0000
1000
0100
0000
0010
0001
0000
,
1000
0000
0001
0100
0000
0000
1010
0000
0000
1001
0000
0001
1000
0000
0100
0000
,
0022
0033
2020
3030
0202
0303
0220
0330
,
1001
0000
1000
0100
1000
0100
0010
0000
0100
0010
0001
0010
0001
0000
1000
0000
,
1001
0000
0001
0100
0010
0100
0010
0000
0100
0010
1000
0010
1000
0000
0001
0000
,
1001
0000
0001
0010
0100
0010
0100
0000
0010
0100
1000
0010
0100
0000
0010
0000
,
0110
0000
0100
0001
0010
0001
1000
0000
0010
0100
0010
0000
1000
0010
1000
0001
,
1000
0000
0000
0100
0000
0000
1000
0000
0000
0100
0000
0000
1000
0000
0000
0100
0000
0000
1000
0000
0000
0100
0000
0000
1000
0000
0000
0100
0000
0000
1000
0000
0000
0100
0000
0000
1000
0000
0100
0000
1000
0000
0100
0000
0000
1000
0000
0000
,
0100
0000
0000
1000
0000
0000
0001
0000
0000
1000
0000
0000
0001
0000
0000
1000
0000
0000
0001
0000
0000
1000
0000
0000
0001
0000
0000
1000
0000
0000
0001
0000
0000
1000
0000
0000
0001
0000
1000
0000
0001
0000
1000
0000
0000
0001
0000
0000
,
1000
0000
0000
0010
0000
0000
1000
0000
0000
0010
0000
0000
1000
0000
0010
0000
1000
0000
0010
0000
0000
0100
0000
0000
0010
0000
0000
0100
0000
0000
0010
0000
0000
0100
0000
0000
0010
0000
0100
0000
0010
0000
0100
0000
0000
0010
0000
0000
,
0110
0000
0000
0101
0000
0000
0110
0000
1001
0000
0011
0000
1100
0000
1001
0000
,
2000
0000
0000
0200
3000
0000
0002
0300
2000
0003
0000
0020
3000
0000
0002
0030
,
2000
0000
0003
0000
0200
0000
3000
0000
0002
0300
0000
0000
0200
0000
0003
0000
2000
0000
0300
0000
0000
0000
0200
0000
3000
0000
0000
0000
0020
0000
0300
0000
,
0002
0030
0000
0200
0003
0000
2000
0300
0002
3000
0000
2000
0003
0000
0200
3000
,
0020
0300
2000
0030
0200
3000
0002
0300
2000
0003
0000
0020
3000
0000
0002
0030
,
2000
0003
0000
0020
3000
0000
0200
0030
2000
0300
0000
0200
3000
0000
0020
0300
,
2000
0000
0030
0000
0200
0000
3000
0000
0002
0000
0300
0000
2000
0003
0000
0000
0002
0000
3000
0000
0000
0000
0200
0000
0003
0000
0000
0000
2000
0000
0300
0000
,
0002
0000
3000
0000
0000
0000
0200
0000
0003
0000
0000
0000
2000
0300
0000
0000
0200
0000
3000
0000
0000
0000
2000
0000
0300
0000
0000
0000
0002
0000
3000
0000
,
0020
0003
2000
0030
0200
3000
0002
0300
0200
0003
0300
0000
0010
0000
0001
0000
,
1000
0010
0000
0010
1000
0000
0001
0000
0001
1000
0000
1000
0001
0000
1000
0010
,
0100
0010
1000
0001
0010
0001
1000
0000
0002
0000
0000
0100
0003
0000
0100
0000
,
0010
0100
0000
0100
0010
0000
1000
0000
0001
0010
0000
0010
0001
0000
1000
0100
,
0010
0100
1000
0010
0100
0001
1000
0000
0200
0000
0000
1000
0300
0000
0010
0000
,
1000
0100
0000
0100
1000
0000
0001
0000
0100
0010
0000
0010
0100
0000
0001
1000
,
0100
1000
0001
0100
0010
1000
0100
0000
0020
0000
0000
0001
0030
0000
1000
0000
,
0010
0100
0000
0100
0010
0000
1000
0000
0001
1000
0000
1000
0001
0000
0100
0010
,
0100
0001
0010
0001
1000
0100
0010
0001
0100
0010
1000
0010
0100
0001
0010
0001
,
1000
0000
0100
1000
0000
0000
0101
0000
0000
0110
0000
1000
0001
0000
0010
0000
,
1000
0000
0010
0001
0000
0000
0011
0000
0000
1001
0000
0000
1000
0100
0010
0100
,
1000
0000
0001
0100
0000
0010
1000
0000
0000
1100
0000
1000
0001
0000
1000
0000
,
1010
1010
0022
0033
2002
0000
0110
3003
,
1010
0000
0010
0100
0000
0000
0101
0000
0000
1001
0000
0001
0100
0000
1000
0000
,
0100
0000
0001
0100
0000
0000
0101
0000
0000
0011
0000
0000
0001
0010
0100
0010
,
0001
0000
0100
0010
0000
0010
1000
0000
0000
1010
0000
1000
0100
0000
0010
0000
,
0001
1000
0000
1000
0001
0000
0010
0100
1000
0001
0010
0100
2000
0000
3001
0000
,
1000
0001
1000
0010
1000
0100
0010
0001
0100
0010
1000
0100
0010
0001
2000
0000
,
3010
0100
0001
0010
0100
1000
0010
0100
0010
1000
0001
0100
0001
0000
2000
0000
,
3010
0000
0100
0000
0001
0000
0100
0010
0000
0010
1000
0000
0100
1000
0000
0100
,
0010
0000
0000
0000
0011
0000
0000
0000
1001
0000
0000
0001
0010
0000
0100
0000
,
1000
0000
0000
0100
0000
0000
1000
0000
0000
0100
0000
0000
1000
0000
0000
0100
0000
0000
1000
0000
0000
0100
0000
0000
1000
0000
0000
0100
0000
0000
1000
0000
0000
0100
0000
0000
1000
0000
0100
0000
1000
0000
0100
0000
0000
1000
0000
0000
,
0100
0000
0000
1000
0000
0000
0001
0000
0000
1000
0000
0000
0001
0000
0000
1000
0000
0000
0001
0000
0000
1000
0000
0000
0001
0000
0000
1000
0000
0000
0001
0000
0000
1000
0000
0000
0001
0000
1000
0000
0001
0000
1000
0000
0000
0001
0000
0000
,
1000
0000
0000
0010
0000
0000
1000
0000
0000
0010
0000
0000
1000
0000
0010
0000
1000
0000
0010
0000
0000
0100
0000
0000
0010
0000
0000
0100
0000
0000
0010
0000
0000
0100
0000
0000
0010
0000
0100
0000
0010
0000
0100
0000
0000
0010
0000
0000
,
0110
0100
0101
0001
0011
0010
0110
0100
,
1000
0001
0100
0010
1000
0100
1000
0010
0100
0000
0010
1000
0000
1000
0001
0000
,
0100
0001
0010
0001
0100
0010
1000
0010
1000
0000
0100
0010
0000
0010
0001
0000
,
0010
0001
0010
0100
1000
0010
0100
0001
0100
0000
0001
0010
0000
0100
1000
0000
,
1100
0000
1000
0001
1001
0000
0001
0100
0101
0000
0000
1000
1001
0000
0001
0000
,
1000
0100
0010
0100
1000
0100
0010
0001
1000
0000
0001
1000
0000
1000
0001
0000
,
0100
0010
0100
0010
1000
0100
1000
0001
0100
0000
0110
0000
1001
0000
0110
0000
,
0010
1000
0001
0100
0001
0010
0100
1000
0001
0000
0100
0010
0000
0010
0100
0000
,
0101
0000
0000
0000
0000
0000
0000
0000
0000
0110
0000
0000
0000
0000
0000
0000
0000
0000
1010
0000
0000
0000
0000
0000
1000
0000
0000
0000
0000
0000
0000
0000
0000
0000
0000
0000
0100
0000
1000
0000
0100
0000
1000
0000
0100
0000
1000
0000
,
0100
1000
0001
1000
0010
1000
0001
0100
0010
0000
0100
0001
0000
0001
0010
0001
,
0010
0001
1000
0100
1000
0010
0100
0001
1000
0000
1100
0000
0011
0000
0001
0100
,
0010
1000
0001
1000
0010
0100
0001
0100
0010
0000
0100
0010
0000
0010
1000
0000
,
0010
1000
0200
0000
0310
0001
0200
0000
0310
1000
0200
0000
0310
0001
0200
0000
,
0301
0000
0000
0010
0000
0000
0001
0000
0000
0010
0000
0000
0001
0000
0000
0010
0000
0000
0001
0000
0000
0010
0000
0000
0001
0000
0000
0010
0000
0000
0001
0000
0000
0010
0000
0000
0001
0000
0010
0000
0001
0000
0010
0000
0000
0001
0000
0000
,
0010
0000
0000
0001
0000
0000
1000
0000
0000
0001
0000
0000
1000
0000
0000
0001
0000
0000
1000
0000
0000
0001
0000
0000
1000
0000
0000
0001
0000
0000
1000
0000
0000
0001
0000
0000
1000
0000
0001
0000
1000
0000
0001
0000
0000
1000
0000
0000
,
0001
0000
0000
0100
0000
0000
0001
0000
0000
0100
0000
0000
0001
0000
0100
0000
0001
0000
0100
0000
0000
0010
0000
0000
0100
0000
0000
0010
0000
0000
0100
0000
0000
0010
0000
0000
0100
0000
0010
0000
0100
0000
0010
0000
0000
0100
0000
0000
,
0110
0000
0101
0000
1001
0000
0011
0000
0001
0010
0100
1000
0001
0010
0100
1000
,
0002
0000
0000
0200
0003
0000
2000
0300
0002
3000
0000
0020
0003
0000
2000
0030
,
0002
3000
0020
0003
2000
0030
0020
3000
0002
0030
0000
0200
0003
0000
2000
0300
,
0002
3000
0000
2000
0003
0000
0002
3000
0020
0003
0000
2000
0030
0000
0002
3000
,
0020
0003
2000
0030
0002
3000
2000
0003
0020
3000
0000
0002
0030
0000
2000
0003
,
0020
3000
0000
0002
0030
0000
0020
0003
2000
0030
0000
0200
3000
0000
0002
0300
,
2000
0003
0020
3000
0002
0030
0200
0003
2000
0300
0000
0200
0000
3000
0020
0300
,
0002
0030
0000
0020
0003
0000
2000
0030
0200
3000
0002
0300
2000
0003
0002
3000
,
0200
0003
0000
0300
1010
0000
0000
0000
0010
0000
0100
0000
0001
1000
0010
0000
,
0100
0001
0000
0001
0010
0000
0010
0100
0000
0100
1000
0000
0010
0000
0100
0000
,
0001
0100
1000
0000
1000
0100
0001
0000
0001
0010
1000
0000
1000
0010
0001
0000
,
2000
0000
0000
0200
3000
0000
0002
0300
2000
0003
0000
0020
3000
0000
0130
0000
,
1000
0001
0100
0010
1000
0010
0100
0000
0101
0000
0000
2000
0000
0000
0020
3000
,
0002
0030
0000
2000
0003
0000
0002
3000
0020
0003
0000
0200
0030
0000
0301
0000
,
1001
0001
1001
1000
1100
0110
0011
0110
,
1001
0000
1000
0100
0000
0001
0100
0000
1001
0000
1000
0010
0000
0001
0010
0000
,
0110
0000
0100
0000
0101
0000
0001
0000
1001
0000
1000
0000
0100
1000
0100
0010
,
0002
0000
0000
0200
0003
0000
2000
0300
0002
3000
0000
0020
0003
0000
2000
0030
,
0200
0000
3000
0000
0002
0300
0000
0000
0200
0000
0003
0000
0020
0000
0300
0000
0002
0000
0030
0000
0000
0000
0200
0000
0003
0000
0000
0000
2000
0000
0300
0000
,
0002
3000
0000
0020
0003
0000
2000
0030
0200
3000
0000
0020
0300
0000
2000
0030
,
0020
3000
0002
0030
0200
0003
0020
0300
2000
0030
0000
0200
3000
0000
0010
0300
,
0001
0000
0000
0010
0000
0000
0001
0000
0000
0010
0000
0000
0001
0000
0000
0010
0000
0000
0001
0000
0000
0010
0000
0000
0001
0000
0000
0010
0000
0000
0001
0000
0000
0010
0000
0000
0001
0000
0010
0000
0001
0000
0010
0000
0000
0001
0000
0000
,
0010
0000
0000
0001
0000
0000
1000
0000
0000
0001
0000
0000
1000
0000
0000
0001
0000
0000
1000
0000
0000
0001
0000
0000
1000
0000
0000
0001
0000
0000
1000
0000
0000
0001
0000
0000
1000
0000
0001
0000
1000
0000
0001
0000
0000
1000
0000
0000
,
0001
0000
0000
0100
0000
0000
0001
0000
0000
0100
0000
0000
0001
0000
0100
0000
0001
0000
0100
0000
0000
0010
0000
0000
0100
0000
0000
0010
0000
0000
0100
0000
0000
0010
0000
0000
0100
0000
0010
0000
0100
0000
0010
0000
0000
0100
0000
0000
,
0110
0000
0100
0000
0101
0000
0001
0000
1001
0000
1001
0000
0001
0010
0100
1000
,
2002
0000
3003
0000
;

//---------------dance-single - D. Bernardone----------------
#NOTES:
     dance-single:
     D. Bernardone:
     Hard:
     10:
     0.742,0.776,0.308,0.062,0.544:
0000
0000
0000
0000
,
0000
0000
0000
0000
,
0000
0000
0000
0000
,
0000
0000
0000
0000
,
0000
0000
0000
0000
,
0000
0000
0000
0000
,
0000
0000
0000
0000
0000
0000
0000
0000
0010
0000
0000
0010
0000
0000
1000
0000
,
0001
0100
1000
0100
,
0001
0000
1000
0000
0100
0000
0010
0001
,
1000
0100
0001
0100
,
1000
0000
0000
0000
0010
0000
0000
0000
0100
0000
0001
0000
1000
0100
1000
0100
,
1000
0000
0010
0000
0100
0000
0001
0000
1000
0000
0010
0000
0100
0001
0100
0010
,
0100
0000
0001
0000
0010
0000
0100
0000
1000
0000
0001
0000
0010
0001
0010
0100
,
0010
0000
0100
0000
1000
0001
1000
0100
1000
0000
0001
0000
0100
0010
0100
0000
,
0101
0000
0000
1010
0000
0000
0001
0000
0100
0000
1000
0000
0100
0000
0010
0000
,
1000
0000
0000
1000
0000
0000
0100
0000
0001
0000
0000
0001
0000
0000
0100
0000
,
0010
0000
0001
0000
0100
0000
0010
0000
0001
0000
0000
0010
0000
0000
1000
0000
,
0001
0000
0000
0001
0000
0000
0100
0000
1000
0000
0000
1000
0000
0000
0100
0000
,
0001
0000
0010
0000
1000
0000
0010
0000
1001
0000
0000
1010
0000
0000
1010
0000
,
0001
0000
0000
0100
0000
0000
1000
0000
0100
0000
0000
0010
0000
0000
0100
0000
,
0010
0000
0001
0000
0010
0000
0100
0000
1000
0000
0000
0100
0000
0000
0010
0000
,
1000
0000
0100
0001
0101
0000
0100
1000
,
1100
0000
0000
0000
1010
0000
0000
0000
0001
1000
0001
0000
0100
0010
0100
0000
,
0001
0001
1000
1000
,
0100
0010
0001
0100
1000
0000
0100
0000
,
0001
0001
0010
0010
,
1001
0000
0000
0000
1001
0000
0010
0000
0100
0000
0000
0010
0100
0000
0010
0000
,
1000
0000
0100
0001
0100
0000
0100
0010
,
0100
1000
0010
0100
0001
0000
1000
1000
,
0001
0000
0010
1000
0010
0000
0010
0001
,
1000
0000
0000
1000
0000
0000
1010
0000
0000
1100
0000
0000
0001
0000
0100
0000
,
0010
0000
0000
0010
0000
0000
0010
0000
0000
0010
0000
0000
0010
0000
1000
0000
,
0100
0000
0000
0100
0000
0000
0100
0000
0000
0100
0000
0000
0100
0010
0001
1000
,
0001
0000
0000
0001
0000
0000
0001
0000
0000
0001
0000
0000
0001
0000
0100
0000
,
1000
0000
1000
0000
1000
0000
0000
0000
1000
0100
0000
0000
0100
0001
0000
0000
,
0010
0000
0000
0100
0000
0000
0010
0000
0000
0100
0000
0000
0010
0000
0100
0000
,
1000
0000
0000
0001
0000
0000
1000
0000
0000
0001
0000
0000
1000
0010
0100
0001
,
1000
0000
0000
1001
0000
0000
0001
0000
0000
0110
0000
0000
0010
0000
1000
0000
,
0100
0000
0010
0001
0000
0001
0100
0000
0010
1000
0001
1000
0100
0010
0001
0000
,
0100
0010
1000
0100
0020
0000
1030
0000
,
0010
0000
0001
0000
0100
0000
0010
0000
0100
0000
0000
0000
0001
0010
0100
1000
,
0001
0100
0010
1000
0200
0000
0301
0000
,
0110
0000
0000
0000
1001
0000
0000
0000
1100
0000
0000
0001
0100
0000
0010
0000
,
1000
0000
1000
0000
1000
0000
1000
0000
1000
0000
1000
0000
0001
0100
0001
0100
,
0010
0000
0010
0000
0010
0000
0010
0000
0010
0000
0010
0000
1000
0001
1000
0001
,
0100
0000
0100
0000
0001
1000
0001
1000
0010
0000
0010
0000
0100
0001
0100
0001
,
1000
0000
0100
0000
0010
0000
0001
0000
0100
0010
0100
0010
1000
0001
1000
0001
,
0010
0100
1000
0020
0100
0000
1030
0000
,
0001
1000
0100
0001
0100
1000
0010
0000
,
0100
0001
0010
0200
1000
0000
0310
0000
,
1001
0000
0000
0000
0110
0000
0000
0000
0101
0000
0000
1000
0100
0000
0010
0000
,
0001
0000
0100
0000
0010
0000
0100
0000
0001
0000
1000
0001
1000
0000
0001
0000
,
0100
0000
0010
0000
0010
0000
1000
0000
0100
0000
0010
0100
0010
0001
0010
0000
,
0001
0000
0100
0000
0010
0000
0100
0000
0001
0000
1000
0100
1000
0000
0010
0000
,
0110
0000
0000
0110
0000
0000
0110
0000
1001
0000
0000
0000
0001
0100
0001
0100
,
0010
1000
0100
0020
0100
0000
0031
0000
,
0100
1000
0100
0002
0010
0000
1003
0000
,
0010
0000
0100
0000
0001
0000
0020
0000
0001
0030
0010
0000
0100
0000
1000
0000
,
1001
0000
0000
0000
1010
0000
0000
0000
0110
0000
0000
0001
0010
0000
0100
0000
,
1000
0000
0001
0000
1000
0000
0001
0000
1000
0000
0001
0000
0100
0010
1000
0100
,
0010
0000
0001
0000
0010
0000
0001
0000
0010
0000
0001
0000
1000
0010
0100
0001
,
0010
0000
0100
0000
0010
0100
1000
0010
0100
0000
0010
0000
1000
0100
0010
0001
,
0100
0000
0100
0000
0010
0000
0010
0000
1000
0100
0010
0001
0100
0010
1000
0100
,
0010
0000
0000
0010
0000
0000
0001
0000
0100
0000
0000
0100
0000
0000
1000
0000
,
0100
0000
0010
0000
0100
0000
0001
0000
1000
0000
0000
0001
0000
0000
0100
0000
,
1000
0000
0000
0100
0000
0000
0001
0000
0010
0000
0000
0100
0000
0000
1000
0000
,
0010
0000
0100
0000
0001
0000
0010
0000
0110
0000
0000
0001
1000
0000
1000
0000
,
0001
0000
0000
0010
0000
0000
0100
0000
0010
0000
0000
0001
0000
0000
1000
0000
,
0100
0010
0100
1000
0001
0000
0010
1000
,
1010
0000
0010
0001
0011
0000
1000
0001
,
1001
0000
0000
0000
1001
0000
0000
0000
0010
0000
0010
0000
1000
0001
1000
0001
,
0010
0000
0100
1000
0000
1000
0010
0000
1000
0000
0001
0100
0000
0100
0010
0000
,
1000
0100
0010
0000
0001
0010
0100
0000
1000
0100
0010
0000
0001
0010
0100
0000
,
1000
0000
0001
0100
0000
0100
0001
0000
1000
0000
0001
0010
0000
0010
0001
0000
,
0100
0010
1000
0010
0100
0001
1000
0000
1100
0000
0000
0011
0000
0000
1001
0000
,
1000
0000
0010
1000
0000
1000
0010
0000
1000
0000
0100
1000
0000
1000
0001
0000
,
1000
0010
0100
0010
1000
1000
0100
0100
,
1000
0000
0001
0100
0000
0010
0100
0000
0001
0000
1000
0100
0000
0010
0100
0000
,
1000
0000
0000
0101
0000
0000
1000
0000
0001
0000
0000
0000
0100
0001
0100
0001
,
0010
0000
0000
0100
0000
0000
1000
0000
0010
0000
0000
0100
0000
0000
0001
0000
,
0010
0000
1000
0000
0010
0000
0001
0000
0100
0000
0000
0110
0000
0000
1000
0000
,
0100
0000
0000
0001
0000
0000
0100
0000
1000
0000
0000
0010
0000
0000
0100
0000
,
0101
0000
0000
0000
0011
0000
0000
0000
1100
0000
0000
0001
1000
0000
0010
0000
,
0100
0000
0001
0000
0010
0000
0100
0000
0010
0000
0001
0000
1000
0010
0100
0010
,
1000
0000
0100
0000
0010
0000
0001
0000
0100
0000
0010
0000
1000
0100
0010
0001
,
1000
0000
0010
0000
0100
0001
1000
0100
0010
0000
0001
0000
0100
0001
1000
0010
,
0100
0001
0100
0001
0100
0001
0100
0001
0010
0000
0010
0000
0001
1000
0100
1000
,
0020
0000
0030
0000
;

//---------------dance-single - G. Marchan & D. Bernardone----------------
#NOTES:
     dance-single:
     G. Marchan & D. Bernardone:
     Medium:
     9:
     0.648,0.641,0.285,0.085,0.328:
0000
0000
0000
0000
,
0000
0000
0000
0000
,
0000
0000
0000
0000
,
0010
0000
0000
0100
0000
0000
0001
0000
0000
0100
0000
0000
0010
0000
0100
0000
,
0001
0000
0000
1000
0000
0000
0100
0000
0010
0000
0000
0001
0000
0000
0100
0000
,
0010
0000
0000
1000
0000
0000
0100
0000
0000
0010
0000
0000
0001
0000
0100
0000
,
0002
0203
0320
1030
,
1000
0000
0000
0001
1000
0000
0000
0000
1000
0000
0100
0000
1000
0000
0000
0000
,
0001
0000
0000
0010
0001
0000
0100
0000
0001
0000
0000
0000
0001
0000
0001
0000
,
0100
0000
0000
0001
0100
0000
0010
0000
0100
0000
0010
0000
0100
0000
0000
0000
,
0010
0000
0000
1000
0010
0000
0000
0000
0100
0000
0010
0000
0100
0000
0000
0000
,
0001
0000
0010
0000
0100
0000
0010
0000
0001
0000
0100
0000
0010
1000
0010
0000
,
0100
0000
0001
0000
1000
0000
0100
0000
0010
0000
0001
0000
0100
0010
0100
0000
,
0001
0000
0010
0000
0100
1000
0100
0000
1000
0000
0010
0000
0100
0001
0100
0000
,
0110
0000
0000
0110
0000
0000
1000
0000
0010
0000
0100
0000
0001
0000
1000
0000
,
0001
0000
0000
0101
0000
0000
1000
0000
0100
0000
0000
1001
0000
0000
1000
0000
,
0100
0000
0010
0000
0100
0000
1000
0000
0001
0000
0000
0100
0000
0000
0010
0000
,
1000
0000
0000
0010
0000
0000
1000
0000
0001
0000
0000
0100
0000
0000
0010
0000
,
1000
0000
0100
0000
0010
0000
0001
0000
0100
0000
0000
0110
0000
0000
1010
0000
,
0100
0000
0000
1000
0000
0000
0001
0000
0010
0000
0000
0100
0000
0000
1000
0000
,
0010
0000
0100
0000
0001
0000
1000
0000
0100
0000
0000
0110
0000
0000
0011
0000
,
0100
0000
0000
0001
0000
0000
1000
0000
0010
0000
0000
0100
0000
0000
0001
0000
,
0010
0100
1000
0010
0100
0000
0101
0000
,
1000
1000
0001
0001
,
0100
0000
0010
0000
1000
0000
0001
0000
0100
0000
0000
1000
0000
0000
0000
0000
,
0100
0100
0001
0001
,
0100
0000
0001
0000
1000
0000
0001
0000
1000
0000
0000
1100
0000
0000
0000
0000
,
0010
0010
0100
0100
,
1000
0000
0100
0000
0010
0000
0001
0000
0010
0000
0000
1000
0000
0000
0000
0000
,
0010
0010
0100
0100
,
1001
0000
0000
1001
0000
0000
0100
0000
0000
0010
0000
0000
1000
0000
0010
0000
,
0100
0000
0000
0001
0000
0000
1000
0000
0000
0010
0000
0000
0100
0000
0001
0000
,
1000
0000
0000
0100
0000
0000
0010
0000
0000
0001
0000
0000
1000
0000
0100
0000
,
0010
0000
0000
0100
0000
0000
1000
0000
0000
0010
0000
0000
0100
0000
0001
0000
,
0010
0001
0100
0000
1002
0000
1003
0000
,
0100
0000
0000
1000
0000
0000
0010
0000
0000
0100
0000
0000
0001
0000
0010
0000
,
0100
0000
0000
1000
0000
0000
0001
0000
0000
0100
0000
0000
0001
0000
0010
0000
,
0001
0000
0000
0100
0000
0000
0010
0000
0000
1000
0000
0000
0100
0000
0010
0000
,
0100
0000
0000
0001
0100
0000
1000
0000
0010
0000
0100
0000
0020
0000
0000
0000
,
1030
0001
0100
0010
1000
0001
1001
0000
,
0000
1000
0100
1000
0001
0100
0001
1000
,
0000
0010
0100
0001
1000
0100
0010
0100
,
1100
0000
0000
0000
0011
0000
0000
0000
1100
0000
0000
0001
0010
0000
0001
0000
,
1000
0000
0010
0000
0100
0000
0010
0000
1000
0000
0100
0000
0010
0100
0010
0000
,
0001
0000
0100
0000
0001
0000
1000
0000
0100
0000
1000
0000
0010
0100
0010
0000
,
0100
0000
0001
0000
0100
0010
0100
0000
0001
0000
1000
0000
0100
0010
0100
0000
,
1000
1000
0001
0001
0100
1000
0100
0010
,
1000
0100
0001
0000
0100
0000
0110
0000
,
0010
0100
1000
0000
1000
0000
0100
0000
,
1000
0010
0001
0000
0010
0000
0110
0000
,
0001
1000
0100
0001
0100
0000
1001
0000
,
0001
0100
1000
0000
0100
0000
1001
0000
,
1000
0100
0010
0000
0100
0000
1000
0000
,
0001
0010
1000
0000
0010
0000
1100
0000
,
1000
0000
0000
0001
0000
0000
0100
0000
0001
0000
0000
0000
2000
0000
0000
0000
,
3100
0001
0100
1000
0200
0000
0310
0000
,
0010
0001
0100
0000
0200
0000
0310
0000
,
0010
0001
0010
1000
0020
0000
1030
0000
,
1010
0000
0000
0000
0101
0000
0000
0000
1010
0000
0000
0001
0100
0000
0001
0000
,
1000
0000
0100
0000
0010
0000
0001
0000
0100
0000
0010
0000
1000
0100
1000
0000
,
0010
0000
0100
0000
0001
0000
1000
0000
0100
0000
1000
0000
0001
0010
0001
0000
,
1000
0000
0100
0000
1000
0010
1000
0000
0100
0000
0010
0000
0001
0100
0001
0000
,
1000
1000
0100
0100
1000
0010
0100
0001
,
0010
0000
0000
0010
0000
0000
0001
0000
1000
0000
0000
0010
0000
0000
1000
0000
,
0100
0000
0010
0000
0001
0000
0100
0000
0010
0000
0000
0100
0000
0000
0001
0000
,
0010
0000
0000
0001
0000
0000
1000
0000
0010
0000
0000
0100
0000
0000
0001
0000
,
0010
0000
0100
0000
1000
0000
0100
0000
0010
0000
0000
0110
0000
0000
1100
0000
,
0001
0000
0000
0100
0000
0000
0010
0000
0100
0000
0000
0001
0000
0000
0100
0000
,
0010
0000
1000
0000
0010
0000
0100
0000
0001
0000
0000
1000
0000
0000
0100
0000
,
1000
0000
0000
0010
0000
0000
1000
0000
0100
0000
0010
0000
0001
0000
0100
0000
,
0001
0000
0000
0101
0000
0000
0101
0000
0000
1000
0000
0000
0001
0000
0100
0000
,
0010
0000
0000
0100
0000
0000
0001
0000
1000
0000
0000
0100
0000
0000
0010
0000
,
0001
1000
0001
1000
,
0010
0000
0000
0010
0000
0000
0010
0000
0100
0000
0000
0100
0000
0000
0100
0000
,
0010
0000
0100
0000
0001
0000
0100
0000
0010
0000
0000
1001
0000
0000
0100
0000
,
1000
0000
0000
0010
0000
0000
0100
0000
0001
0000
0000
1000
0000
0000
0001
0000
,
0010
0100
0010
0100
,
2001
0010
0100
3010
,
1100
0110
0011
1001
,
0010
0000
0000
1000
0000
0000
0001
0000
0100
0000
0000
0010
0000
0000
1000
0000
,
0100
0000
0010
0000
0001
0000
0010
0000
0100
0000
0000
1000
0000
0000
0001
0000
,
0100
0000
0000
0010
0000
0000
0100
0000
0001
0000
0000
1000
0000
0000
0100
0000
,
1000
0000
0100
0000
0010
0000
0001
0000
0010
0000
0000
0100
0000
0000
1000
0000
,
0001
0000
0100
0000
0010
0000
0100
0000
0001
0000
0100
0000
0010
1000
0001
0000
,
1000
0000
0100
0000
0010
0000
0100
0000
1000
0000
0100
0000
0010
0001
1000
0000
,
0001
0000
0010
0000
0100
1000
0001
0000
1000
0000
0010
0000
0100
0001
1000
0000
,
1100
0000
0000
1100
0000
0000
0001
0000
0100
0000
0001
0000
0010
0000
0010
0000
,
0200
0000
0300
0000
;

//---------------dance-single - G. Marchan & D. Bernardone----------------
#NOTES:
     dance-single:
     G. Marchan & D. Bernardone:
     Easy:
     6:
     0.461,0.438,0.316,0.216,0.000:
0000
0000
0000
0000
,
0000
0000
0000
0000
,
0000
0000
0000
0000
,
1000
0100
0001
0001
,
0200
0000
2300
0000
,
3010
0001
0010
0010
,
2000
3200
0320
0032
,
0103
0100
0100
0100
,
0010
0010
0010
0010
,
1000
1000
1000
1000
,
0001
0001
0001
0001
,
1000
0000
0100
0000
0010
0000
0001
0001
,
1000
0000
0100
0000
0001
0000
0100
0100
,
1000
0000
0001
0001
0010
0000
0001
0001
,
1001
0000
0110
0000
,
0001
0001
1000
1000
,
0100
1000
0100
0000
0010
0000
0001
0000
,
1000
1000
0010
0010
,
0100
0001
1000
0000
0100
0000
0110
0000
,
1001
1000
0010
1000
,
0110
0001
0100
0001
,
1010
0001
1001
0100
,
1001
0011
0101
1001
,
1000
0100
0010
0001
,
0100
0010
0100
0000
0200
0000
0310
0000
,
1000
1000
0001
0001
,
0100
0001
0010
0000
0020
0000
0130
0000
,
1000
1000
0010
0010
,
1000
0100
0010
0000
0020
0000
0031
0000
,
0100
0100
0010
0010
,
0100
0001
0100
0000
0001
0010
0100
0000
,
1000
0010
0001
0000
,
0001
0100
1000
0000
,
1000
0001
1000
0000
,
0110
0110
2000
3000
,
0001
0010
1000
0000
,
1000
0100
0001
0000
,
0001
1000
0001
0000
,
0220
0000
0000
0330
,
1000
0100
1000
1001
,
0000
0100
0001
1000
,
0000
0001
0010
0100
,
0110
0110
1001
1001
,
1000
0000
0010
0000
0100
0000
0001
0001
,
0010
0000
0100
0000
1000
0000
0001
0001
,
1000
0000
0010
0010
1000
0000
0100
0100
,
0010
0000
0001
0000
1000
1000
0001
0001
,
1000
0001
0100
0000
0200
0000
0300
0000
,
0100
0001
0010
0100
,
0010
0001
0100
0000
0200
0000
0300
0000
,
1100
0110
0101
1001
,
0010
0100
0001
0000
2000
0000
3000
0000
,
0010
0100
0001
0010
,
0001
1000
0001
0000
0200
0000
0300
0000
,
1001
0101
0110
1010
,
0100
0010
1000
0000
0200
0000
0300
0000
,
0010
0001
0100
0000
0020
0000
1030
0000
,
1000
0100
1000
0000
0020
0000
0030
0000
,
1000
0010
0100
0001
,
0010
0000
0001
0000
0100
0000
0010
0010
,
0100
0000
0001
0000
0100
0000
0010
0010
,
1000
0000
0001
0001
0100
0000
0010
0010
,
0100
0100
0001
0001
,
0010
0001
0100
0010
,
0100
0001
0100
0000
0020
0000
0130
0000
,
1000
0100
0001
0100
,
0010
1000
0010
0000
0110
0000
1001
0000
,
1000
0100
1000
0010
,
0100
0001
0100
0000
0002
0000
0013
0000
,
0100
0100
1000
1000
,
0001
0000
0100
0000
0010
0000
1000
0001
,
0010
0001
0100
0010
,
1001
1001
1001
1001
,
0020
0030
0200
0300
,
0220
0330
1001
1001
,
1000
0001
0100
0001
,
0010
1000
0100
0001
,
2000
3000
0002
0003
,
1010
0110
0101
1001
,
0010
0001
0100
0001
,
0100
0010
0100
0000
0001
0000
0001
0000
,
0010
0100
1000
0010
,
0100
0001
1000
0000
0100
0000
0110
0000
,
1000
0000
0100
0000
1000
0000
0010
0010
,
0100
0000
0001
0000
0010
0000
0100
0100
,
0010
0000
0001
0001
1000
0000
0001
0001
,
0100
0000
0100
0000
0010
0010
0100
0010
,
2000
0000
3000
0000
;

//---------------dance-double - M. Simmons----------------
#NOTES:
     dance-double:
     M. Simmons:
     Challenge:
     13:
     1.000,1.000,0.756,0.571,1.000:
00000000
00000000
00000000
00000000
,
00000000
00000000
00000000
00000000
,
00200020
00300030
02000200
03000300
02000020
03000030
00200200
00300300
,
00001000
00000000
00010000
00000100
00001000
00000001
00000200
00000000
00000310
00000100
00000010
00001000
00000001
00000000
00001001
00000000
,
00000001
00000000
00010000
00000000
00000100
00000010
00000200
00000000
00010300
00001000
01000000
00100000
01000000
00000000
01001000
00000000
,
00001000
00000000
00010000
00000000
00001000
01000000
00200000
00000000
10300000
00010000
01000000
00010000
10000000
00000000
10010000
00000000
,
00010000
00000000
00100000
00000000
01000000
00100000
00002000
00000000
00013000
00000100
00010000
00001000
01000000
00000000
01001000
00000000
,
00010000
00000000
00000100
00000000
00010000
00000010
00002000
00000000
00003001
00001000
00000010
00000100
00000001
00000000
00001001
00000000
,
00000010
00000000
00001000
00000000
00000001
00000010
00000200
00000000
00010300
00001000
00100000
00001000
00010000
00000000
00010100
00000000
,
00001000
00000000
01000000
00000000
00100000
10000000
00200000
00000000
01300000
00010000
10000000
01000000
00100000
00000000
01100000
00000000
,
01000000
00000000
00100000
00000000
00001000
00010000
00001000
00000000
01000000
00001000
00100000
00010000
01000000
00000000
10010000
00000000
,
00010000
00100000
01000000
10000000
00010000
00100000
01000000
10000000
00010000
00100000
01000000
10000000
00010000
00400000
01000000
00000000
,
00301000
00010000
00000100
00001000
00000100
00010000
00001000
00010000
00000100
00001000
00000100
00010000
00001000
00040000
00000100
00000000
,
00030010
00001000
00000001
00000100
00000010
00001000
00000001
00000100
00000010
00001000
00000001
00000100
00000010
00004000
00000001
00000000
,
00003010
00000000
00000000
00010010
00000000
00000000
00000200
00000000
00020300
00000000
00230000
00000000
02300000
00000000
03002000
00000000
,
00003100
00000000
00000000
00100010
00000000
00000000
00001000
00000000
10001000
00000000
00000000
01000100
00000000
00000000
00000002
00000000
,
00000203
00000000
00002300
00000000
00023000
00000000
00030200
00000000
00002300
00000000
00003000
00020000
00000000
00000000
10030000
00000000
,
10010000
00000000
00000000
10001000
00000000
00000000
00010000
00000000
00010100
00000000
00000000
00100010
00000000
00000000
00020000
00000000
,
00230000
00000000
02300000
00000000
03000200
00000000
00020300
00000000
01030000
00000000
00000000
01000100
00000000
00000000
00010010
00000000
,
00101000
00000000
00000000
01000010
00000000
00000000
00001000
00000000
00011000
00000000
00000000
00100100
00000000
00000000
00000002
00000000
,
00002003
00000000
00023000
00000000
00032000
00000000
00203000
00000000
10300000
00000000
00000000
11000000
00000000
00000000
01000000
00000000
,
00110000
00000000
00000000
01001000
00000000
00000000
00000100
00000000
00001100
00000000
00000000
00011000
00000000
00000000
00000001
00000000
,
00000100
00000000
00000010
00000000
00010000
00000100
00000000
01000000
00100000
00000000
10000000
04000000
00100000
00000000
00100000
00000000
,
03100000
00001000
00100000
00010000
10000000
00001000
00100000
00000000
00001000
00010000
00000010
00000100
00000001
00000100
00000010
00000000
,
00010000
00000100
00010000
00001000
00010000
00000010
00000100
00000010
00001000
00000000
00000000
00010001
00000000
00000000
00000002
00000000
,
00010003
00000100
00010000
00000010
00001000
00000100
00010000
00000000
00001000
01000000
00010000
00100000
01000000
00100000
00001000
00000000
,
01000000
00100000
10000000
00001000
00100000
00010000
01000000
00001000
00010000
00000000
00000000
00010100
00000000
00000400
00010000
00000000
,
00010300
00001000
01000000
00100000
10000000
01000000
00100000
00000000
00001000
00010000
00000100
00010000
00001000
00100000
00000010
00000000
,
00000100
00000001
00001000
00000100
00001000
00000010
00000100
00000001
00001000
00000000
00000000
00010010
00000000
00000010
00000100
00000010
,
00010000
00001000
00010000
00000001
00000100
00000001
00001000
00000000
00000100
00000010
00000100
00010000
00000100
00010000
00001000
00000000
,
01000000
00100000
10000000
00010000
01000000
00010000
00100000
00000000
00000000
02200000
00000000
00300000
00100000
03000000
01000000
00000000
,
10000000
00000000
00000000
10001000
00000000
00000000
00011000
00000000
00000000
00010001
00000000
00000000
00000020
00000000
00010030
00000000
,
000M0100
00000000
00000000
01000100
00000000
00000000
00010100
00000000
00000000
00010010
00000000
00000000
00001000
10000000
01000000
00100000
,
00001000
00000000
00000000
00010001
00000000
00000000
00100010
00000000
00000000
01000100
00000000
00000000
00010000
00000000
00000100
00000000
,
00000M10
00002000
00003200
00000000
00020300
00000000
00230000
00300000
,
00101000
00000000
00000000
00010100
00000000
00000000
00100100
00000000
00000000
00010010
00000000
00000000
00000200
00000000
00010300
00000000
,
000M1000
00000000
00000000
00011000
00000000
00000000
00100100
00000000
00000000
00010010
00000000
00000000
00000001
00000010
00000100
00010000
,
00000010
00000000
00000000
00010100
00000000
00000000
01001000
00000000
00000000
10001000
00000000
00000000
20000000
00000000
31000000
00000000
,
00010000
00000000
00001000
00010000
00000000
00001000
00100000
00000000
00010000
01000000
00000000
00001000
00010000
00000000
00010100
00000000
,
00001000
00000000
00000100
00000000
00000010
00000001
00001000
00000000
00000010
00010000
00000100
00010000
00000010
00001000
00000001
00000000
,
00001000
00000000
00000100
00000000
00000010
00000100
00010000
00000000
00001000
00100000
00001000
01000000
00010000
00100000
00001000
00010000
,
00001000
00000000
00100000
00000000
00010000
10000000
00010000
00000000
01000000
00100000
10000000
00010000
00100000
01000000
00100000
00010000
,
10000000
01000000
01100000
11000000
00010000
10000000
01001000
01100000
,
00010000
01000000
00001000
00010000
00001000
00100000
01000000
00100000
00010000
01000000
00001000
00010000
00000100
00000010
00000100
00010000
,
00000010
00000100
00000010
00010000
00000001
00000010
00000100
00010000
00000001
00000100
00000010
00010000
00000100
00001000
00000100
00010000
,
00001000
01000000
00100000
10000000
00010000
01000000
00010000
00100000
00001000
01000000
00100000
10000000
00001000
01000000
00100000
10000000
,
00001000
00000000
00010000
00000000
00010100
00000000
01001000
00000000
00001000
00100000
00001000
00040000
00000010
00000000
00000100
00000000
,
00030001
00000000
00000010
00000100
00010000
00000000
00001000
01000000
00100000
10000000
01000000
00000000
00220000
00000000
00000000
00330000
,
00011000
00000000
00000100
00001000
00000001
00000000
00000100
00000010
00010000
00000001
00000010
00000000
00002020
00000000
00000000
00003030
,
00001100
00000000
00000100
00010000
00001000
00000000
01000000
00001000
00100000
00001000
00010000
00000000
00020200
00000000
00000000
00030300
,
00011000
00000000
00001000
00100000
01000000
00000000
00010000
00000100
00000010
00000000
00001000
00010000
00200000
00000000
00000000
00000000
,
01300000
00000000
00001000
00010000
00000100
00000000
00000010
00000100
00010000
00000001
00000100
00000000
00020020
00000000
00000000
00030030
,
00001100
00000000
00000100
00010000
00001000
00000000
01000000
00001000
00010000
00000100
00001000
00000000
00022000
00000000
00000000
00033000
,
00101000
00000000
00010000
01000000
00100000
00000000
10000000
00010000
01000000
00010000
00100000
00000000
02200000
00000000
00000000
03300000
,
00010000
00000000
00000000
01100000
00000000
00000000
11000000
00000000
00100000
00001000
00010000
00004000
01000000
00000000
00100000
00003000
,
00010000
00001000
00010000
00000100
00000010
00000001
00001000
00000001
00000100
00000000
00000010
00000000
00001010
00000000
00000001
00000000
,
00000010
00000100
00001000
00000001
00000100
00000010
00010000
00000010
00000100
00000000
00000001
00000000
00001010
00000000
00000100
00000000
,
00000010
00010000
00000100
00010000
00001000
00100000
00001000
00010000
00000100
00000000
00010000
00000000
00011000
00000000
00001000
00000000
,
01000000
00001000
01000000
00000000
00001000
01000000
00001000
00000000
00100000
01000000
00100000
01000000
00200000
00000000
01000000
00000000
,
10300000
01000000
00100000
00010000
10000000
01000000
00100000
00010000
10000000
01000000
00100000
00040000
10000000
00000000
01000000
00000000
,
00130000
00001000
00010000
00000100
00010000
00001000
00100000
00001000
00010000
00000100
00010000
00004000
00010000
00000000
00100000
00000000
,
00013000
00000100
00000010
00000001
00001000
00000100
00000010
00000001
00001000
00000100
00000010
00000004
00000010
00000000
00000100
00000000
,
00000013
00000100
00001000
00000001
00000010
00000100
00001000
00000001
00000010
00000100
00001000
00000001
00000010
00000000
00000110
00000000
,
00000100
00010000
00001000
00010000
00000010
00000000
00010000
00000100
00010000
00001000
00100000
00010000
01000000
00000000
00100000
01000000
,
00001000
00000000
00020000
00000000
00230000
00000000
02300000
00000000
03000100
00000000
00000000
01000100
00000000
00000000
00011000
00000000
,
00010000
00000010
00000100
00000010
00001000
00000000
00000010
00000100
00000001
00001000
00000100
00000010
00000001
00000000
00001000
00000100
,
00020000
00000000
02030000
00000000
03200000
00000000
00302000
00000000
00003100
00000000
00000000
00001100
00000000
00000000
00000010
00000000
,
00010000
00000100
00010000
00001000
01000000
00000000
00100000
10000000
00010000
01000000
00010000
10000000
01000000
00000000
00100000
00010000
,
02000000
00000000
03200000
00000000
00320000
00000000
20030000
00000000
31000000
00000000
00000000
01001000
00000000
00000000
00001000
00000000
,
00010000
00000100
00010000
00001000
00100000
00000000
00010000
00100000
00001000
00010000
00000010
00000100
00000010
00000000
00000100
00000001
,
00001000
00000100
00000010
00000000
00000100
00001000
00000001
00000000
00000100
00000010
00010000
00000010
00000100
00000001
00001000
00000100
,
00000010
00000000
00000100
00010000
00001000
00000000
00100000
01000000
10000000
00000000
00010000
01000000
00001000
00000000
00100000
00010000
,
01000000
00100000
01000000
00000000
00001000
00010000
00001000
00000000
00000100
00000010
00000100
00000000
00001000
00010000
00001000
00000000
,
00100000
01000000
10000000
01000000
00100000
00000000
00010000
00000000
01000000
00001000
00010000
00001000
00010000
00000000
00000100
00000000
,
00010000
00000100
00010000
00000100
00010000
00000100
00010000
00001000
00010000
00000000
00000000
00010100
00000000
00000000
01000010
00000000
,
00001000
00010000
00000100
00000000
00000010
00000001
00001000
00000000
00000010
00000100
00000010
00001000
00000010
00010000
00000100
00000000
,
00011000
00101000
00010100
01000100
00100100
00011000
00110000
01001000
,
00001000
00100000
00010000
01000000
00100000
10000000
00010000
00000000
01000000
00100000
10000000
00010000
00100000
01000000
00100000
00000000
,
00001000
00010000
00000000
00000010
00000100
00000000
00000010
00001000
00000000
00000001
00000010
00000000
00000110
00000000
00001010
00000000
,
00000010
00010000
00001000
00010000
00000100
00000000
00010000
00001000
01000000
00010000
01000000
00001000
00010000
00000000
00000100
00001000
,
00000001
00000100
00000010
00000100
00000001
00001000
00000100
00000010
00000001
00000000
00000000
00010010
00000000
00000000
00000100
00000000
,
00010000
00001000
00100000
00010000
00100000
00000000
00001000
01000000
00010000
01000000
00100000
10000000
00010000
00000000
01000000
00010000
,
10000000
01000000
00100000
01000000
10000000
00010000
01000000
00100000
01000000
00000000
00000000
10010000
00000000
00000000
00110000
00000000
,
00100000
01000000
10000000
00010000
00100000
01000000
10000000
00010000
00100000
01000000
10000000
00040000
00100000
00000000
10000000
00000000
,
00130000
00001000
00010000
00001000
00100000
00001000
00010000
00001000
00100000
00001000
00010000
00004000
00010000
00000000
00100000
00000000
,
00013000
00000100
00000010
00000001
00001000
00000100
00000010
00000001
00001000
00000100
00000010
00000004
00001000
00000000
00000010
00000000
,
00001003
00000001
00000010
00000100
00010000
00001000
00100000
00010000
00100000
00001000
00010000
00000100
00001000
00000010
00010000
00001000
,
00022000
00033000
00000000
00000000
;

//---------------dance-double - M. Simmons----------------
#NOTES:
     dance-double:
     M. Simmons:
     Hard:
     10:
     0.774,0.740,0.447,0.278,0.563:
00000000
00000000
00000000
00000000
,
00000000
00000000
00000000
00000000
,
00000000
00000000
00000000
00000000
,
00000100
00000000
00000000
00010000
00000000
00000000
00001000
00000000
00000000
00010000
00000000
00000000
00001000
00000000
01000000
00000000
,
00100000
00000000
00000000
10000000
00000000
00000000
01000000
00000000
00100000
00000000
00000000
00010000
00000000
00000000
01000000
00000000
,
00100000
00000000
00000000
10000000
00000000
00000000
00010000
00000000
00000000
00100000
00000000
00000000
01000000
00000000
00100000
00000000
,
00001000
00000000
00000000
00010000
00000000
00000000
00000100
00000000
00000010
00000000
00000000
00000001
00000000
00000000
00001000
00000000
,
00000001
00000000
00000000
00000100
00000000
00000000
00000010
00000000
00000000
00001000
00000000
00000000
00000010
00000000
00000100
00000000
,
00000010
00000000
00000000
00010000
00000000
00000000
00000100
00000000
00000010
00000000
00000000
00000100
00000000
00000000
00010000
00000000
,
00001000
00000000
00000000
01000000
00000000
00000000
00100000
00000000
00000000
10000000
00000000
00000000
00010000
00000000
10000000
00000000
,
00010000
00000000
00000000
00100000
00000000
00000000
01000000
00000000
10000000
00000000
00000000
00010000
00000000
00000000
01000000
00000000
,
00004000
00010000
00010000
00010000
,
00043000
00000010
00000010
00000010
,
00030040
00000000
00001000
00000000
00001000
00000000
00001000
00000030
,
00001001
00000000
00000000
00001001
00000000
00000000
00000002
00000000
00000023
00000000
00000230
00000000
00020300
00000000
00030020
00000000
,
00000130
00000000
00000000
00010010
00000000
00000000
00001000
00000000
01000000
00000000
00000000
01010000
00000000
00000000
00010000
00000000
,
00200000
00000000
02300000
00000000
03200000
00000000
00302000
00000000
10003000
00000000
00000000
10010000
00000000
00000000
00010000
00000000
,
01000000
00000000
00000000
01001000
00000000
00000000
00001000
00000000
00010000
00000000
00000000
00010100
00000000
00000000
00000100
00000000
,
00000020
00000000
00000032
00000000
00002003
00000000
00003020
00000000
00000130
00000000
00000000
00001010
00000000
00000000
00000010
00000000
,
00001000
00000000
00000000
00001100
00000000
00000000
00000100
00000000
00000010
00000000
00000000
00001001
00000000
00000000
00000001
00000000
,
00000200
00000000
00002300
00000000
00023000
00000000
00032000
00000000
00013000
00000000
00000000
00101000
00000000
00000000
00001000
00000000
,
00010000
00000000
00000000
00101000
00000000
00000000
00010000
00000000
01000000
00000000
00000000
00110000
00000000
00000000
00010000
00000000
,
10000000
01000000
00100000
00001000
01000000
00100000
10000000
00010000
,
00100000
00000000
00001000
00100000
00000000
00000000
00001000
00000000
00010000
00000000
00000100
00010000
00000000
00000000
00000100
00000000
,
00000010
00000000
00000001
00001000
00000001
00000000
00000020
00000000
00000130
00000000
00000000
00001010
00000000
00000000
00000010
00000000
,
00001000
00000000
00000001
00001000
00000000
00000000
00000010
00000000
00010000
00000000
00000100
00010000
00000000
00000000
00000100
00000000
,
00020000
00000000
00031000
01000000
00001000
00000000
00100000
00000000
00010000
00000000
00000000
00101000
00000000
00000000
00001000
00000000
,
00100000
00000000
01000000
00100000
00000000
00000000
01000000
10000000
00010000
00000000
10000000
00010000
00000000
00000000
00010000
10000000
,
00100000
00000000
01000000
00100000
00000000
10000000
01000000
00000000
01000000
00100000
00000000
01010000
00000000
00000000
00010000
00000000
,
10000000
00000000
01000000
00100000
00000000
00000000
01000000
00100000
00010000
00000000
00100000
00001000
00000000
00000000
00001000
00010000
,
00000100
00000000
00000000
00010100
00000000
00000000
00010010
00000000
00000000
00001100
00000000
00000000
00000010
00000000
00000100
00000000
,
00000010
00000000
00000000
00010000
00000000
00000000
00000100
00000000
00000000
00010000
00000000
00000000
00001000
00000000
01000000
00000000
,
00001000
00000000
00000000
00100000
00000000
00000000
01000000
00000000
00000000
00100000
00000000
00000000
00010000
10000000
00010000
10000000
,
00010000
00000000
00000000
01000000
00000000
00000000
00001000
00000000
00000000
00100000
00000000
00000000
00010000
00000000
00100000
00000000
,
00001000
00001000
00002000
00000000
00013000
00000000
00011000
00000000
,
00010000
00000000
00000000
00000100
00000000
00000000
00001000
00000000
00000000
00000001
00000000
00000000
00000100
00000000
00000001
00000000
,
00000100
00000000
00000000
00000010
00000000
00000000
00001000
00000000
00000000
00000100
00000000
00000000
00010000
00000010
00010000
00000010
,
00010000
00000000
00000000
00000010
00000000
00000000
00000100
00000000
00000000
00000001
00000000
00000000
00001000
00000000
00000200
00000000
,
00002000
00000000
00000000
00000000
00000000
00000000
00000000
00003300
,
00000100
00000000
00010000
00000000
00001000
01000000
00000000
00100000
01000000
00000000
00001000
00000000
00100000
00000000
01000000
00000000
,
00100000
00000000
00001000
00000000
01000000
00010000
00000000
00010000
00100000
00000000
01000000
00000000
10000000
00010000
10000000
00010000
,
10000000
00000000
00100000
00000000
10000000
01000000
00000000
01000000
00100000
00000000
00001000
00000000
00010000
00000000
00000010
00000000
,
00000100
00000000
00000010
00000000
00001000
00000010
00000000
00001000
00000010
00000000
00001000
00000010
00000000
00001000
00000010
00000000
,
00000100
00000000
00000010
00000000
00001000
00000100
00000000
00000100
00010000
00000000
00001000
00000000
01000000
00000000
00100000
00000000
,
10000000
00000000
01000000
00000000
00100000
00001000
00000000
00001000
00100000
00000000
00010000
00000000
10000000
00010000
10000000
00010000
,
10000000
00000000
00001000
00000000
00010000
00000100
00000000
00000100
00000010
00000000
00000001
00000000
00001000
00000000
00000001
00000000
,
00000100
00000000
00000001
00000000
00000100
00000000
00000001
00000000
00004000
00000400
00000000
00000000
00000000
00000000
00000000
00000000
,
00003300
00000000
00001000
00000001
00001000
00000000
00000100
00000000
00010000
00000000
00000100
00000000
00010010
00000000
00000000
00000000
,
00000100
00000000
00010000
00001000
00010000
00000000
00001000
00000000
01000000
00000000
00100000
00000000
01100000
00000000
00000000
00000000
,
01000000
00000000
00010000
10000000
00010000
00000000
00100000
00000000
01000000
00000000
10000000
00000000
10010000
00000000
00000000
00000000
,
00010000
00110000
00010000
00110000
00100000
01100000
01100000
00000000
,
00010000
00000000
01000000
00001000
01000000
00000000
00010000
00000000
00100000
00000000
00001000
00000000
00101000
00000000
00000000
00000000
,
00001000
00000000
00010000
00000100
00010000
00000000
00000100
00000000
00000010
00000000
00000001
00000000
00001001
00000000
00000000
00000000
,
00000001
00000000
00000100
00000010
00000100
00000000
00000010
00000000
00010000
00000000
00000010
00000000
00010010
00000000
00000010
00000000
,
00010000
00000000
00000000
00010100
00000000
00010000
00001000
00000000
00011000
00000000
00000100
00000000
00010000
00000000
00001000
00000000
,
01000000
00000000
00100000
10000000
00100000
00000000
01000000
00000000
00010000
00000000
00100000
00000000
00110000
00000000
00000000
00000000
,
00100000
00000000
01000000
00100000
01000000
00000000
00100000
00000000
00001000
00000000
00010000
00000000
00011000
00000000
00000000
00000000
,
00001000
00000000
00010000
00000010
00010000
00000000
00000010
00000000
00000100
00000000
00000001
00000000
00001001
00000000
00000000
00000000
,
00000001
00000011
00000001
00000011
00000010
00000110
00000110
00000000
,
00000400
00010000
00000000
00010000
00000000
00010000
00000000
00010000
,
00004300
01000000
00000000
01000000
00000000
01000000
00000000
01003000
,
00400000
01000000
00000000
01000000
00000000
01000000
00000000
01300000
,
01010000
00000000
00010000
01000000
00000000
01000000
00001000
00000000
00001000
00010000
00000000
00010000
01000000
00000000
00100000
01000000
,
20000000
00000000
00000000
30100000
00000000
00000000
10000000
00000000
02000000
00000000
00000000
03100000
00000000
00000000
00010000
00000000
,
01000000
00000000
00001000
00000000
00010000
00000000
00001000
00000000
00100000
00000000
00000000
00101000
00000000
00000000
00010000
00000000
,
00002000
00000000
00000000
00013000
00000000
00000000
00000100
00000000
00000020
00000000
00000000
00000130
00000000
00000000
00000010
00000000
,
00000001
00000000
00001000
00000000
00000010
00000000
00000100
00000000
00000010
00000000
00000000
00000110
00000000
00000000
00000010
00000000
,
00002000
00000000
00000000
00003100
00000000
00000000
00010000
00000000
00002000
00000000
00000000
00013000
00000000
00000000
00001000
00000000
,
01000000
00000000
00100000
00000000
01000000
00000000
00001000
00000000
00010000
00000000
00000000
00011000
00000000
00000000
00001000
00000000
,
02000000
00000000
00000000
03100000
00000000
00000000
10000000
00000000
02000000
00000000
00000000
03100000
00000000
00000000
01000000
00000000
,
10000000
00000000
01000000
10000000
00000000
01000000
10000000
00000000
01000000
10000000
00000000
01000000
10000000
00000000
01000000
00000000
,
10000000
00010000
01000000
00100000
01000000
00010000
00100000
01000000
,
00100000
00001000
00100000
00000000
00001000
00100000
00001000
00000000
00100000
00001000
00100000
00000000
00001000
00100000
00001000
00000000
,
00010000
00000100
00010000
00000010
00000100
00000010
00001000
00000100
,
00040400
00000000
00000000
00000000
00000000
00000000
00030300
00000000
00010100
00000000
00000000
00011000
00000000
00000000
00001000
00000000
,
00001000
00100000
00010000
01000000
00010000
00100000
00001000
00010000
,
00000100
00000100
00010000
00010000
00100000
00100000
01000000
01000000
,
00001000
00000000
00001000
00010000
00000000
00000000
00010000
00000000
00000100
00000000
00000100
00000010
00000000
00000000
00000010
00000000
,
00000011
00000000
00000000
00000110
00000000
00000000
00001100
00000000
00000100
00000000
00000010
00000000
00000001
00000000
00000010
00000000
,
00000002
00000000
00000000
00000103
00000000
00000000
00000010
00000000
00002000
00000000
00000000
00003100
00000000
00000000
00000010
00000000
,
00000100
00000000
00010000
00000000
00001000
00000000
00010000
00000000
00000100
00000000
00000000
00010100
00000000
00000000
00000100
00000000
,
00020000
00000000
00000000
00031000
00000000
00000000
01000000
00000000
00200000
00000000
00000000
00310000
00000000
00000000
00100000
00000000
,
10000000
00000000
01000000
00000000
00100000
00000000
01000000
00000000
10000000
00000000
00000000
10010000
00000000
00000000
00010000
00000000
,
00100000
00000000
00100000
01000000
00000000
01000000
10000000
00000000
10010000
00000000
00010000
00100000
00000000
00100000
00010000
00000000
,
00010000
00100000
00001000
00000000
00100000
00000000
00010000
00000000
01000000
00000000
00010000
00100000
00000000
00100000
00001000
00010000
,
00000100
00000000
00000100
00001000
00000000
00001000
00000100
00000000
00000110
00000000
00000010
00000001
00000000
00000001
00001000
00000000
,
00001001
00000000
00000000
00001010
00000000
00000000
00001100
00000000
00000000
00001010
00000000
00000000
00000001
00000000
00001000
00000000
,
00002002
00003003
00000000
00000000
;

//---------------dance-double - M. Simmons----------------
#NOTES:
     dance-double:
     M. Simmons:
     Medium:
     7:
     0.586,0.505,0.324,0.162,0.382:
00000000
00000000
00000000
00000000
,
00000000
00000000
00000000
00000000
,
00000000
00000000
00000000
00000000
,
00001000
00000000
00000000
00010000
00000000
00000000
00001000
00000000
00000000
00010000
00000000
00000000
00000100
00000000
00010000
00000000
,
00000100
00000000
00000000
00000010
00000000
00000000
00000100
00000000
00000010
00000000
00000000
00000100
00000000
00000000
00000010
00000000
,
00000001
00000000
00000000
00001000
00000000
00000000
00000001
00000000
00000000
00001000
00000000
00000000
00000001
00000000
00001000
00000000
,
00000001
00000000
00000000
00000100
00000000
00000000
00000010
00000000
00000100
00000000
00000000
00000010
00000000
00000000
00001000
00000000
,
00000010
00000000
00000000
00010000
00000000
00000000
00000010
00000000
00000000
00010000
00000000
00000000
00000010
00000000
00010000
00000000
,
00000010
00000000
00000000
00010000
00000000
00000000
00001000
00000000
00010000
00000000
00000000
00001000
00000000
00000000
00010000
00000000
,
00001000
00000000
00000000
00100000
00000000
00000000
00001000
00000000
00000000
00100000
00000000
00000000
00001000
00000000
00100000
00000000
,
00001000
00000000
00000000
00010000
00000000
00000000
00001000
00000000
00010000
00000000
00000000
00001000
00000000
00000000
00010000
00000000
,
00001000
00100000
01000000
10000000
,
00010000
01000000
00100000
01000000
,
00001000
00010000
00000100
00010000
,
00011000
00000000
00000000
00011000
00000000
00000000
00001000
00000000
00010000
00000000
00001000
00000000
00010000
00000000
00001000
00000000
,
00020000
00000000
00000000
00000100
00000000
00000000
00000000
00000000
00030200
00000000
00000000
00000010
00000000
00000000
00000000
00000000
,
00000310
00000000
00000001
00000000
00000010
00000000
00000001
00000000
00000010
00000000
00000000
00000001
00000000
00000000
00001000
00000000
,
00000200
00000000
00000000
00010000
00000000
00000000
00000000
00000000
00020300
00000000
00000000
00001000
00000000
00000000
00000000
00000000
,
00031000
00000000
00100000
00000000
00001000
00000000
00100000
00000000
00001000
00000000
00000000
00101000
00000000
00000000
00001000
00000000
,
02000000
00000000
00000000
00100000
00000000
00000000
00000000
00000000
03200000
00000000
00000000
10000000
00000000
00000000
00000000
00000000
,
01300000
00000000
00010000
00000000
01000000
00000000
00010000
00000000
01000000
00000000
00000000
01010000
00000000
00000000
00010000
00000000
,
00200000
00000000
00000000
01000000
00000000
00000000
00000000
00000000
00302000
00000000
00000000
00010000
00000000
00000000
00000000
00000000
,
00013000
00010100
00011000
00010100
,
00000100
00000000
00000000
00000010
00000000
00000000
00000100
00000000
00000010
00000000
00000000
00000001
00000000
00000000
00001000
00000000
,
00000001
00000000
00001000
00000000
00000010
00000000
00001000
00000000
00000001
00000000
00000000
00001001
00000000
00000000
00000001
00000000
,
00001000
00000000
00000000
00000100
00000000
00000000
00001000
00000000
00000100
00000000
00000000
00010000
00000000
00000000
00001000
00000000
,
00100000
00000000
00001000
00000000
00010000
00000000
00001000
00000000
00100000
00000000
00000000
00101000
00000000
00000000
00001000
00000000
,
00001000
00000000
00000000
01000000
00000000
00000000
00001000
00000000
00010000
00000000
00000000
00001000
00000000
00000000
00100000
00000000
,
00010000
00000000
00100000
00000000
01000000
00000000
00100000
00000000
00010000
00000000
00000000
01010000
00000000
00000000
00010000
00000000
,
10000000
00000000
00000000
01000000
00000000
00000000
10000000
00000000
01000000
00000000
00000000
10000000
00000000
00000000
01000000
00000000
,
10000000
00000000
00000000
01000000
00000000
00000000
01000000
00000000
00000000
01000000
00000000
00000000
01000000
00000000
01000000
00000000
,
01000000
00000000
00000000
00100000
00000000
00000000
00010000
00000000
00000000
00100000
00000000
00000000
00001000
00000000
00100000
00000000
,
00001000
00000000
00000000
00010000
00000000
00000000
00001000
00000000
00000000
00010000
00000000
00000000
00000200
00000000
00000000
00000000
,
00001300
00000000
00000000
00000010
00000000
00000000
00001000
00000000
00000000
00000010
00000000
00000000
00001000
00000000
00000001
00000000
,
00001000
00001001
00000110
00010010
,
00000010
00000000
00000000
00001000
00000000
00000000
00000010
00000000
00000000
00001000
00000000
00000000
00000100
00000000
00010000
00000000
,
00000100
00000000
00000000
00010000
00000000
00000000
00000100
00000000
00000000
00010000
00000000
00000000
00002000
00000000
00000000
00000000
,
00103000
00000000
00000000
00010000
00000000
00000000
00100000
00000000
00000000
00010000
00000000
00000000
00100000
00000000
00001000
00000000
,
00200000
00000000
00000000
00000000
,
01300000
10000000
01000000
00000000
00100000
00000000
00010000
00000000
,
01000000
00001000
01000000
00000000
00001000
00000000
00010000
00000000
,
00000100
00010000
00001000
00000000
00010000
00000000
00010010
00000000
,
00000020
00000030
00000020
00000030
00000200
00000300
00000200
00000300
,
00000001
00000010
00000100
00010000
,
00000100
00001000
00000010
00010000
,
00000100
00001000
00000100
00010000
,
00011000
00000000
00011000
00000000
00001000
00010000
00001000
00010000
,
00001000
00000000
00000000
01000000
00000000
00000000
00001000
00000000
00010000
00000000
00001000
00000000
00010000
00000000
00000000
00000000
,
00001000
00000000
00000000
01000000
00000000
00000000
00100000
00000000
10000000
00000000
00100000
00000000
10000000
00000000
00000000
00000000
,
00100000
00000000
00000000
01000000
00000000
00000000
00010000
00000000
10000000
00000000
00010000
00000000
10000000
00000000
00000000
00000000
,
10010000
10010000
01100000
01100000
,
00100000
00000000
00000000
00001000
00000000
00000000
00100000
00000000
00001000
00000000
00100000
00000000
00001000
00000000
00000000
00000000
,
00010000
00000000
00000000
00000010
00000000
00000000
00010000
00000000
00000010
00000000
00010000
00000000
00000010
00000000
00000000
00000000
,
00000100
00000000
00000000
00000001
00000000
00000000
00000100
00000000
00000001
00000000
00000100
00000000
00000001
00000000
00000100
00000000
,
00000001
00001001
00000110
00001001
,
00000001
00000000
00000000
00000010
00000000
00000000
00000100
00000000
00001000
00000000
00000100
00000000
00010000
00000000
00000000
00000000
,
00001000
00000000
00000000
00100000
00000000
00000000
00010000
00000000
01000000
00000000
00001000
00000000
00010000
00000000
00000000
00000000
,
00001000
00000000
00000000
00100000
00000000
00000000
01000000
00000000
10000000
00000000
00010000
00000000
01000000
00000000
00000000
00000000
,
01010000
10100000
01010000
10100000
,
00010000
00100000
01000000
00100000
,
00001000
00010000
00000010
00000100
,
00000010
00001000
00000001
00000010
,
00001100
00000000
00001100
00000000
00000100
00010000
00000100
00010000
,
00000100
00000000
00000000
00010000
00000000
00000000
00001000
00000000
01000000
00000000
00000000
00100000
00000000
00000000
10000000
00000000
,
00010000
00000000
00100000
00000000
01000000
00000000
00100000
00000000
00001000
00000000
00000000
00011000
00000000
00000000
00010000
00000000
,
00000100
00000000
00000000
00010000
00000000
00000000
00001000
00000000
00100000
00000000
00000000
00001000
00000000
00000000
00010000
00000000
,
00000010
00000000
00010000
00000000
00000100
00000000
00000010
00000000
00000100
00000000
00000000
00000110
00000000
00000000
00000100
00000000
,
00001000
00000000
00000000
00000001
00000000
00000000
00000100
00000000
00000001
00000000
00000000
00001000
00000000
00000000
00000100
00000000
,
00010000
00000000
00000010
00000000
00010000
00000000
00001000
00000000
00010000
00000000
00000000
00010010
00000000
00000000
00000010
00000000
,
00000100
00000000
00000000
00000001
00000000
00000000
00001000
00000000
00000100
00000000
00000000
00010000
00000000
00000000
00001000
00000000
,
01000000
00000000
00000000
00100000
00000000
00000000
10000000
00000000
00000000
00100000
00000000
00000000
01000000
00000000
00100000
00000000
,
01000000
00000000
00000000
00010000
00000000
00000000
01000000
00000000
00010000
00000000
00000000
10000000
00000000
00000000
01000000
00000000
,
20000000
30200000
02300000
03020000
,
00130000
00000000
00000000
00001000
00000000
00000000
00010000
00000000
00001000
00000000
00000000
00010000
00000000
00000000
00000100
00000000
,
00000040
00000000
00000000
00000000
00000000
00000000
00000000
00000000
00000130
00000000
00000000
00010000
00000000
00000000
00000100
00000000
,
00010000
00000000
00000000
00001000
00000000
00000000
00010000
00000000
00000010
00000000
00000000
00000100
00000000
00000000
00000010
00000000
,
00001000
00000001
00001000
00000001
00001000
00000001
00001000
00000001
,
00001000
00000000
00000000
00000010
00000000
00000000
00000100
00000000
00000010
00000000
00000000
00010000
00000000
00000000
00001000
00000000
,
00011000
00000000
00000000
00011000
00000000
00000000
00001000
00000000
00000000
00100000
00000000
00000000
00010000
00000000
10000000
00000000
,
00010000
00000000
00000000
01000000
00000000
00000000
00100000
00000000
01000000
00000000
00000000
00010000
00000000
00000000
10000000
00000000
,
01000000
00000000
00100000
00000000
00010000
00000000
00100000
00000000
00001000
00000000
00000000
00101000
00000000
00000000
00001000
00000000
,
00010000
00000000
00000000
00001000
00000000
00000000
00010000
00000000
00000010
00000000
00000000
00000100
00000000
00000000
00000010
00000000
,
00001000
00000000
00000010
00000000
00000100
00000000
00000010
00000000
00001000
00000000
00000000
00001001
00000000
00000000
00000001
00000000
,
00000010
00000000
00000000
00000100
00000000
00000000
00000010
00000000
00000001
00000000
00000000
00001000
00000000
00000000
00000100
00000000
,
00010000
00000000
00001000
00000000
00010000
00000000
00000100
00000000
00010000
00000000
00000000
00010100
00000000
00000000
00000100
00000000
,
00010000
00000000
00000000
00001000
00000000
00000000
01000000
00000000
00100000
00000000
00000000
10000000
00000000
00000000
00010000
00000000
,
00110000
00000000
00000000
01100000
00000000
00000000
11000000
00000000
00000000
01100000
00000000
00000000
00010000
00000000
10000000
00000000
,
20020000
30030000
00000000
00000000
;

//---------------dance-double - M. Simmons----------------
#NOTES:
     dance-double:
     M. Simmons:
     Easy:
     4:
     0.355,0.336,0.154,0.254,0.004:
00000000
00000000
00000000
00000000
,
00000000
00000000
00000000
00000000
,
00000000
00000000
00000000
00000000
,
00000000
00000000
00000000
00000000
,
00000000
00000000
00000000
00000000
,
00000000
00000000
00000000
00000000
,
00000000
00000000
00000000
00000000
,
00001000
01000000
00001000
00010000
,
00001000
00010000
00000100
00000010
,
00000100
00001000
00000001
00000100
,
00000001
00001000
00000100
00000010
,
00000200
00000000
00010000
00000000
,
00020300
00000000
00001000
00000000
,
00032000
00000000
01000000
00000000
,
01003000
00000000
00000000
00001000
00000000
00000000
00100000
00000000
00020000
00000000
00000000
00000000
00000000
00000000
00000000
00000000
,
00130000
00000000
01000000
00000000
,
00100000
00001000
00100000
00000000
,
00101000
00000000
00001000
00000000
,
00010000
00000100
00010000
00000000
,
00011000
00000000
00010000
00000000
,
00000010
00000100
00000010
00000000
,
00000110
00000000
00000010
00000000
,
00001000
00000001
00001000
00000001
,
00001000
00000100
00010000
00001000
,
01000000
00010000
10000000
00010000
,
01000000
00010000
00100000
01000000
,
00100000
00010000
10000000
00010000
,
00100000
00001000
00010000
00000010
,
00000100
00000010
00001000
00000001
,
00000100
00000001
00001000
00000100
,
00000010
00000100
00000010
00000100
,
00000020
00000000
00000230
00000000
,
00020300
00000000
00032000
00000000
,
02003000
00000000
03200000
00000000
,
10300000
10000000
00010000
00010000
,
00200000
00000000
00302000
00000000
,
00023000
00000000
00030200
00000000
,
00000320
00000000
00000032
00000000
,
00002003
00000000
00000000
00000000
,
00003100
00010000
00001000
01000000
,
00100000
01000000
00010000
10000000
,
01000000
00100000
00001000
00010000
,
00000010
00000100
00000010
00001000
,
00000001
00000010
00000100
00001000
,
00000001
00000100
00000001
00001000
,
00000010
00010000
00000100
00010000
,
00001000
00100000
00001000
00010000
,
00001000
01000000
00100000
01100000
,
01000000
00010000
10000000
10010000
,
00010000
00100000
00001000
00101000
,
00001000
00001000
00010000
00010000
,
00000100
00000010
00000001
00001001
,
00000001
00000100
00000010
00000110
,
00000010
00010000
00000100
00010100
,
00022000
00000000
00000000
00033000
,
00001000
01000000
00001000
00011000
,
00010000
00000100
00010000
00011000
,
00001000
00100000
00010000
00110000
,
00010000
00010000
01000000
01000000
,
00100000
10000000
00010000
10010000
,
00010000
00100000
01000000
01100000
,
01000000
10000000
00010000
00110000
,
00100000
00001000
00100000
00001000
,
00200000
00000000
00302000
00000000
,
00013000
00001000
00010000
00001000
,
00020000
00000000
00030020
00000000
,
00000130
00000010
00000100
00000110
,
00000020
00000000
00002030
00000000
,
00003100
00010000
00000100
00010000
,
00000200
00000000
00000320
00000000
,
00000031
00001000
00000001
00001001
,
00000001
00000100
00000010
00010000
,
00002000
00000000
00000000
00000000
,
00013000
00001000
01000000
00100000
,
20000000
00000000
00000000
00000000
,
31000000
00100000
00010000
01000000
,
02020000
00000000
00000000
03030000
,
00010000
01000000
00010000
01000000
,
00001000
00001000
00001000
00001000
,
00010000
00010000
00001000
00001000
,
00010000
00000100
00010000
00000100
,
00000010
00000010
00000100
00000100
,
00000010
00000001
00001000
00000001
,
00000100
00000100
00000010
00000010
,
00010000
00000010
00010000
00000010
,
00000100
00000100
00000010
00000010
,
00010000
00001000
00010000
00001000
,
00022000
00033000
00000000
00000000
;

//---------------dance-single - M. Simmons----------------
#NOTES:
     dance-single:
     M. Simmons:
     Beginner:
     1:
     0.111,0.168,0.154,0.000,0.000:
0000
0000
0000
0000
,
0000
0000
0000
0000
,
0000
0000
0000
0000
,
1000
0000
0000
0000
,
0001
0000
0000
0000
,
0100
0000
0000
0000
,
0001
0000
0000
0000
,
1000
0000
0000
0000
,
0100
0000
0000
0000
,
0010
0000
0000
0000
,
0001
0000
0000
0000
,
1001
0000
0000
0000
,
0000
0000
0000
0000
,
0110
0000
0000
0000
,
0000
0000
0000
0000
,
1000
0000
0000
0000
,
0100
0000
0000
0000
,
0010
0000
0000
0000
,
0001
0000
0000
0000
,
0001
0000
0000
0000
,
0100
0000
0000
0000
,
0010
0000
0000
0000
,
1000
0000
0000
0000
,
0010
0000
0000
0000
,
0100
0000
0000
0000
,
0010
0000
0000
0000
,
1000
0000
0000
0000
,
0001
0000
0000
0000
,
0010
0000
0000
0000
,
0100
0000
0000
0000
,
0010
0000
0000
0000
,
0110
0000
0000
0000
,
0000
0000
0000
0000
,
1001
0000
0000
0000
,
0001
0000
0001
0000
,
0110
0000
0000
0000
,
0000
0000
0000
0000
,
1001
0000
0000
0000
,
0000
0000
0000
0000
,
1000
0000
0000
0000
,
0100
0000
0000
0000
,
0010
0000
0000
0000
,
0100
0000
0000
0000
,
1000
0000
0000
0000
,
0001
0000
0000
0000
,
0100
0000
0000
0000
,
0010
0000
0000
0000
,
0110
0000
0000
1001
,
0000
0000
0000
1001
,
0000
0000
0000
1001
,
0000
0000
0000
0010
,
0010
0000
0000
0110
,
0000
0000
0000
0110
,
0000
0000
0000
0110
,
0000
0000
0000
0000
,
1000
0000
0000
0000
,
0100
0000
0000
0000
,
1000
0000
0000
0000
,
0010
0000
0000
0000
,
0100
0000
0000
0000
,
0001
0000
0000
0000
,
1000
0000
0000
0000
,
0100
0000
0000
0000
,
0110
0000
0000
0000
,
0010
0000
0000
0000
,
1001
0000
0000
0000
,
0001
0000
0000
0000
,
0110
0000
0000
0000
,
0100
0000
0000
0000
,
1001
0000
0000
0000
,
1000
0000
0000
0000
,
1000
0000
0000
0000
,
0000
0000
0000
0000
,
0001
0000
0000
0000
,
1001
0000
0000
0000
,
1000
0000
0000
0000
,
0000
0000
0000
0000
,
0110
0000
0000
0000
,
0010
0000
0010
0000
,
0010
0000
0000
0000
,
0100
0000
0000
0000
,
0001
0000
0000
0000
,
1000
0000
0000
0000
,
0100
0000
0000
0000
,
0010
0000
0000
0000
,
0100
0000
0000
0000
,
1000
0000
0000
0000
,
1001
0000
0000
0000
;
